#VERSION:0.83;
#TITLE:TRIGGER★HAPPY;
#SUBTITLE:;
#ARTIST:P*Light;
#TITLETRANSLIT:TRIGGER HAPPY;
#SUBTITLETRANSLIT:;
#ARTISTTRANSLIT:;
#GENRE:;
#CREDIT:;
#MUSIC:TRIGGER HAPPY.ogg;
#BANNER:TRIGGER HAPPY.png;
#BACKGROUND:TRIGGER HAPPY-bg.png;
#CDTITLE:./CDTitles/SDVX BOOTH.png;
#SAMPLESTART:10.878;
#SAMPLELENGTH:15.000;
#SELECTABLE:YES;
#OFFSET:0.784;
#BPMS:0.000=185.000
,180.000=92.500
,183.000=185.000
;
#STOPS:249.000=0.324
,250.000=0.324
,251.000=0.324
,252.000=0.324
;
#TIMESIGNATURES:0.000=4=4,
180.000=5=4,
185.000=4=4,
249.000=2=4,
253.000=4=4
;
#DISPLAYBPM:185.000;
#BGCHANGES:0.000=../BGAs/19po.mp4=1.000=0=0=0=StretchNoLoop====,
99999.000=-nosongbg-=1.000=0=0=0=StretchNoLoop====
;
#FGCHANGES:;

//--------------- dance-single - forcednature ----------------
#NOTEDATA:;
#STEPSTYPE:dance-single;
#DESCRIPTION:forcednature;
#DIFFICULTY:Beginner;
#METER:2;
#RADARVALUES:0,0,0,0,0;
#CREDIT:forcednature;
#NOTES:
0000
0000
0000
0000
,
0000
0000
0000
0000
,
0000
0000
0000
0000
,
0000
0000
0000
0000
,
0000
0000
0000
0000
,
1000
0000
0000
0000
,
0001
0000
0000
0000
,
0100
0000
0000
0000
,
0010
0000
0000
0000
,
1000
0000
0000
0000
,
0001
0000
0000
0000
,
0010
0000
0000
0000
,
0001
0000
0000
0000
,
0100
0000
0000
0000
,
0010
0000
0000
0000
,
1000
0000
0000
0000
,
0100
0000
0000
0000
,
0010
0000
0000
0000
,
0001
0000
0000
0000
,
1000
0000
0000
0000
,
0010
0000
0000
0000
,
0100
0000
0000
0000
,
0001
0000
0000
0000
,
0010
0000
0000
0000
,
0001
0000
0000
0000
,
2000
0000
0000
0000
,
0000
0000
3000
0000
,
0010
0000
0000
0000
,
0100
0000
0000
0000
,
0001
0000
0000
0000
,
0010
0000
0000
0000
,
0001
0000
0000
0000
,
0100
0000
0000
0000
,
0010
0000
0000
0000
,
1000
0000
0000
0000
,
0100
0000
0000
0000
,
1000
0000
0000
0000
,
1000
0000
0000
0000
,
0001
0000
0000
0000
,
0001
0000
0000
0000
,
1000
0000
0000
0000
,
0010
0000
0000
0000
,
0100
0000
0000
0000
,
0000
0000
0001
0000
,
0000
0000
1000
0000
,
0000
0000
0000
0000
,
0000
2002
0000
0000
,
0000
0000
0000
0000
,
0000
0000
0000
0000
,
0000
0000
0000
3003
,
0000
0000
0001
0000
,
0000
0000
1000
0000
,
0000
0000
0010
0000
,
0000
0100
0000
0000
,
0000
0001
0000
0000
,
0000
1000
0000
0000
,
0000
0100
0000
0000
,
0000
1000
0000
0000
,
0000
0010
0000
0000
,
0000
0100
0000
0000
,
0000
0001
0000
0000
,
0000
1000
0000
0000
,
0000
0100
0000
0010
,
0000
0001
0000
0000
,
0000
0000
0000
0000
,
0000
1001
0000
0000
,
0000
1000
0000
0000
,
0000
0010
0000
0000
,
0000
0100
0000
0000
,
0000
0001
0000
0000
,
0000
0010
0000
0000
,
0000
0100
0000
0000
,
0000
1000
0000
0000
,
0000
0001
0000
0000
,
0000
0100
0000
0000
,
0000
0001
0000
0000
,
0000
0010
0000
0000
,
0000
0100
0000
0000
,
0000
1000
0000
0000
,
0000
0010
0000
0000
,
0000
0000
0010
0000
,
0000
2002
0000
0000
,
0000
0000
0000
0000
,
0000
3003
0000
0000
;

//--------------- dance-single - forcednature ----------------
#NOTEDATA:;
#STEPSTYPE:dance-single;
#DESCRIPTION:forcednature;
#DIFFICULTY:Easy;
#METER:6;
#RADARVALUES:0,0,0,0,0;
#CREDIT:forcednature;
#NOTES:
0000
0000
0000
0000
,
0000
0000
0000
0000
,
0000
0000
0000
0000
,
0000
0000
0000
0000
,
0000
0000
0000
0000
,
1000
0000
1000
0000
,
0001
0000
0001
0000
,
0100
0000
0010
0000
,
0220
0000
0000
0330
,
1000
0100
1000
0000
,
0001
0010
0001
0000
,
1000
0010
0100
0000
,
0001
0010
0100
1000
,
0001
0100
0001
0000
,
1000
0100
1000
0000
,
0010
0100
0010
1000
,
0001
0010
0001
0000
,
0100
0010
1000
0000
,
0010
0100
0001
0001
,
1000
0100
0010
0000
,
0001
0100
0010
1000
,
0001
0010
0001
0000
,
2001
0000
3010
0000
,
0100
0100
0001
1000
,
0200
0000
0000
0300
,
0010
0000
0000
0001
0000
1000
0000
2002
,
0000
0000
0000
3003
,
0001
0100
0000
0010
,
1000
1000
1000
0001
,
0010
0100
1000
0000
,
0100
0010
0001
1000
,
0001
0100
0010
0000
,
1000
0010
0100
0000
,
0001
0000
0000
0001
0000
0000
0000
0000
,
1000
1000
0000
0000
,
0010
0000
0000
0010
0000
0000
0000
0000
,
0100
0100
0100
0001
,
0010
0000
0100
1000
,
0001
0100
0010
0000
,
0110
0000
0100
0001
,
1000
0100
0010
0000
,
0100
1000
0000
0001
,
0100
0001
0000
1000
,
0000
0100
0000
0000
0100
0000
0000
0100
,
0000
0010
0000
0000
0010
0000
0000
0000
,
2002
0000
0000
3003
,
0000
0001
0000
0000
,
0000
0100
0000
0000
,
0000
0010
0000
0000
,
0000
1000
0000
0000
,
0000
0100
0000
0000
,
0000
0010
0000
0000
,
0000
0001
0000
0000
,
0000
1000
0000
0000
,
0000
0010
0000
0100
,
0000
0001
0000
0000
,
0000
1000
0000
0100
,
0000
0010
0000
0100
,
0000
1000
0000
1000
,
0000
0001
0000
0001
,
0000
0100
0100
0010
,
0010
2002
0000
0000
,
3003
1000
0001
0001
,
1000
0001
0100
0010
,
1000
0000
0000
0100
0000
0000
0010
0000
,
0110
0000
1000
0001
,
0100
0010
1000
0001
,
0000
0010
0100
1000
,
0001
0100
0010
1000
,
0001
0010
0000
0100
,
1000
0001
0000
0100
,
0010
1000
0100
0010
,
0001
0100
0010
1000
,
0000
0001
0010
0001
,
0000
1000
0010
0100
,
0001
1000
0010
1000
,
0000
0001
0010
0100
,
1000
0010
0100
0010
,
0000
1001
0000
0110
,
0000
1000
0100
1000
,
0001
0000
2002
0000
,
3003
0200
0000
0000
,
0000
0000
0000
0000
,
0000
0300
0000
0000
;

//--------------- dance-single - forcednature ----------------
#NOTEDATA:;
#STEPSTYPE:dance-single;
#DESCRIPTION:forcednature;
#DIFFICULTY:Medium;
#METER:12;
#RADARVALUES:0,0,0,0,0;
#CREDIT:forcednature;
#NOTES:
0000
0000
0000
0000
,
0000
0000
0000
0000
,
0000
0000
0000
0000
,
0000
0000
0000
0000
,
0000
0000
0000
0000
,
1001
0001
0100
0010
,
1001
1000
0100
0010
,
0001
0100
0001
0000
1000
0100
1000
0000
,
0020
0100
0130
1001
,
0001
0000
0100
0000
0010
0000
0000
1000
0000
0000
0001
0000
0010
0000
0000
0000
,
0100
0000
1000
0000
0100
0000
0000
0010
0000
0000
0001
0000
1000
0000
0000
0000
,
0001
0000
0100
0000
0010
0000
0000
1000
0000
0000
0001
0000
0010
0000
0000
0000
,
0100
1000
0100
0010
0001
0010
0100
0000
,
1000
0000
0001
0000
0100
0000
0000
0001
0000
0000
1000
0000
0010
0000
0000
0000
,
1000
0000
0100
0000
0010
0000
0000
0100
0000
0000
1000
0000
0001
0000
0000
0000
,
0100
0010
0100
0000
0001
0010
0100
1000
,
0001
0100
0010
1000
0001
0000
0020
0000
,
0130
0000
1000
0000
0100
0000
0000
0010
0000
0000
0001
0000
1000
0000
0000
0000
,
0010
0100
0001
0000
0010
0100
0010
0100
,
1000
0000
0001
0000
0100
0000
0000
0010
0000
0000
1000
0000
0100
0000
0000
0000
,
0010
0001
1000
0010
0100
0001
1000
0000
,
0100
0000
1000
0000
0001
0000
0000
0100
0000
0000
0010
0000
1000
0000
0000
0000
,
0021
0000
0000
0000
0130
1000
0002
0000
,
0103
0010
0100
0001
1000
0100
0010
0001
,
0200
0000
0000
0300
,
0010
0000
1000
0001
0000
0110
0000
2002
,
0000
0000
0000
3003
,
1000
0001
0100
0000
0010
1000
0001
0000
,
0020
0230
2300
3010
,
1000
0100
1000
0010
1000
0100
0010
0000
,
0001
0100
0001
0010
0100
1000
0001
0000
,
0100
0010
1000
0001
0010
0100
0010
0000
,
0001
1000
0001
0100
0001
0000
0010
0000
,
0100
0000
0000
1000
0000
0000
0100
0000
0000
0010
0000
0000
0001
0000
0100
0000
,
0001
0000
0001
0000
0000
1000
0000
0000
0010
0000
0100
0000
0001
0000
0000
0000
,
0010
0000
0000
0100
0000
0000
1000
0000
0000
0001
0000
0000
0100
0000
0010
0000
,
1000
0001
1000
0001
0010
0000
0110
0000
,
0100
0000
0000
1000
0000
0000
0001
0000
0100
0000
0100
0000
0100
0000
0000
0000
,
0010
1000
0001
1000
0200
0000
0000
0000
,
0310
0000
0000
0001
0000
0000
1000
0000
0010
0000
0010
0000
0010
0000
0000
0000
,
0100
0001
1000
0001
0020
0000
0100
0000
,
0031
0000
1000
0001
0000
0100
1000
0000
,
0100
0001
0010
0001
0000
0100
0010
1000
,
0000
0000
0001
0000
0000
0011
0000
0000
0001
0000
0000
0101
0000
0000
0001
0000
,
0000
0000
1000
0000
0000
1010
0000
0000
1000
0000
0000
1100
0000
0000
1000
0000
,
0020
0000
0000
0030
,
0000
1001
1000
0001
,
0000
0000
0100
0010
0100
0000
0001
0000
,
1000
0100
0010
0001
,
0000
0000
1000
0000
0010
0000
0100
0001
,
0100
0000
0010
0000
1000
0000
0001
0010
,
0001
0000
0100
0000
0010
0000
1000
0001
,
1000
0000
0100
0000
0010
0000
0001
0100
,
0001
2000
3200
0320
,
0031
0000
1001
0000
0001
0100
0000
0010
,
1000
0000
0100
0000
0010
0001
0010
0000
,
0010
0000
0100
0000
1000
0001
0000
0100
,
0010
0000
1000
0100
1000
0000
0001
0100
,
0001
0110
1000
0110
,
0001
1010
0001
0011
,
1000
0000
0001
0100
0001
0010
0100
1000
,
0010
1000
0200
0000
0000
0000
0000
0000
,
0310
0000
0000
0000
0022
0033
0000
0000
2200
3300
0000
0000
2020
3030
0000
0000
,
0202
0303
0000
0000
1000
0000
0001
0000
0100
0000
0010
0000
1000
0000
0001
0000
,
0010
0001
0000
0100
0000
0010
0010
0000
,
1001
0000
0000
0000
1000
0000
0010
0000
0100
0000
0000
0001
0000
0000
0010
0000
,
0100
0000
0010
0000
0001
0000
1000
0000
0010
0000
0000
0100
0000
0000
0001
0000
,
1000
0000
0100
0000
1000
0000
0001
0000
0100
0000
0000
0010
0000
0000
1000
0000
,
0001
0010
0100
1000
0100
0010
0001
1000
,
0010
0000
0000
0000
0100
0000
0001
0000
1000
0000
0000
0100
0000
0000
1000
0000
,
0001
0000
0100
0000
0010
0000
1000
0000
0001
0000
0000
0010
0000
0000
0100
0000
,
0010
0001
1000
0010
0100
0000
0001
0001
,
0010
0010
0001
0100
0010
1000
0001
0000
,
0020
0000
0000
0000
0130
0000
1000
0000
0100
0000
0000
0010
0000
0000
0001
0000
,
1000
0010
0100
0001
1000
0000
0100
0010
,
0100
0000
0010
0000
0001
0000
1000
0000
0010
0000
0000
0100
0000
0000
0001
0000
,
1000
0100
1000
0010
0100
0001
0010
0100
,
1000
0000
0000
0000
0001
0000
0100
0000
0001
0000
0000
0010
0000
0000
0001
0000
,
1000
0010
0200
0000
0301
0000
0010
0100
,
2000
0000
3001
0100
0001
0010
0100
0100
,
1000
0001
0000
0000
0220
0000
0000
0000
,
0330
2002
0000
0000
,
0000
0000
0000
0000
,
0000
3003
0000
0000
;

//--------------- dance-single - forcednature ----------------
#NOTEDATA:;
#STEPSTYPE:dance-single;
#DESCRIPTION:forcednature;
#DIFFICULTY:Hard;
#METER:16;
#RADARVALUES:0,0,0,0,0;
#CREDIT:forcednature;
#NOTES:
0000
0000
0000
0000
,
0000
0000
0000
0000
,
0000
0000
0000
0000
,
0000
0000
0000
0000
,
0000
0000
0000
0000
,
1100
0000
0000
0000
1000
0000
0000
0000
0100
0000
0000
0010
0000
0000
0001
0000
,
0101
0000
0000
0000
0001
0000
0000
0000
0100
0000
0000
0010
0000
0000
1000
0000
,
0100
0000
0010
0000
0001
0000
1000
0000
0001
0100
0001
0000
1000
0100
1000
0000
,
0020
0100
0130
1001
,
0001
0000
0100
0000
0010
1000
0000
0001
0000
0000
1000
0000
0100
0000
0000
0000
,
0010
0000
0001
0000
1000
0010
0000
0100
0000
0000
0001
0100
0001
0000
0000
0000
,
0010
0000
0100
0000
1000
0001
0000
1000
0000
0000
0010
0000
0100
0000
0001
0000
,
0010
0001
0010
0000
0100
0010
0100
0000
1000
0100
1000
0000
0001
0000
0000
0000
,
0100
0000
0010
0000
1000
0010
0000
1000
0000
0000
0001
0000
0010
0000
0000
0000
,
0100
0000
1000
0000
0001
0100
0000
0010
0000
0000
1000
0010
1000
0000
0001
0000
,
0010
0000
0100
0000
1000
0100
0000
1000
0001
0000
0100
0000
1000
0000
0100
0000
,
0001
0010
0100
1000
1010
0000
0002
0000
,
1003
0000
0010
0000
0100
0001
0000
0100
0000
0000
0010
0000
1000
0000
0001
0000
,
0010
0000
0100
0000
1000
0001
0000
0100
0001
0100
0001
0000
0100
0001
0100
0000
,
0010
0000
1000
0000
0001
1000
0000
0100
0000
0000
0010
0000
0100
0000
1000
0000
,
0100
0010
0100
0000
0010
0001
0010
0000
0001
1000
0001
0000
1000
0000
0000
0000
,
0010
0000
0100
0000
0001
0010
0000
0001
0000
0000
1000
0000
0010
0000
1000
0000
,
1200
0000
0301
0000
0100
0010
0002
0000
,
0103
0000
0100
0000
0001
0000
0001
0000
1000
0100
1000
0000
0010
0000
0000
0000
,
2002
0000
0000
3003
,
1100
0000
0001
0101
0000
0110
0000
2002
,
0000
0000
0000
3003
,
0001
0000
0100
0000
0010
1000
0010
0000
1000
0000
0100
0010
0001
0000
0000
0000
,
0200
1000
0301
0110
,
1000
0000
0010
0000
1000
0000
0100
0000
0010
0001
0010
0000
0100
0000
1000
0000
,
0001
0000
0100
0000
0010
1000
0010
0000
0100
0000
0001
0000
0010
0000
0010
0000
,
0100
0000
1000
0000
0010
0000
1000
0000
0001
0010
0001
0000
0100
0000
0010
0000
,
1000
0100
0001
0100
0020
0000
0032
0000
,
0103
1000
0000
0100
0000
0000
0100
1000
0000
0100
0000
0000
0001
0000
1000
0000
,
0100
0000
0100
0001
0000
0100
0000
0000
0010
0001
0000
0000
0001
0000
0100
0000
,
0010
0001
0000
0010
0000
0000
0010
0001
0000
0010
0000
0000
1000
0000
0100
0000
,
0010
0010
0010
0010
0012
0000
0103
0000
,
1010
0000
0000
1000
0000
0000
0001
0000
0010
0100
0010
0100
0010
0000
0000
0000
,
0001
0100
1000
0100
0020
0000
0030
0000
,
1010
0000
0000
0001
0000
0000
1000
0000
0010
0100
0010
0100
0010
0000
0000
0000
,
1000
0000
0100
0000
0001
0000
0100
0000
0010
0001
0010
0000
0200
0000
0000
0000
,
1300
0010
0100
1000
0000
0100
0001
0010
,
0100
0000
0100
0000
0001
0000
0100
0000
0000
0000
0010
0000
0001
1000
0001
1000
,
0000
0000
1010
0000
0000
1100
0000
0000
0011
0000
0000
0101
0000
0000
1000
0001
,
0000
0000
0101
0000
0000
1010
0000
0000
1100
0000
0000
0011
0000
0000
0110
0000
,
2002
0000
0000
3003
,
0110
0000
0000
0000
1001
0000
0000
0000
0001
0000
0000
0000
0100
0000
0000
0100
,
0000
0000
0010
0000
1000
0000
0100
0000
1000
0000
0010
0000
0100
0000
0000
0001
,
0000
0000
0010
0000
0001
0000
0000
0000
0001
0000
0000
0000
0010
0000
0000
0010
,
0000
0100
1000
0010
1000
0000
0001
0010
,
0000
0010
0100
0000
1000
0000
0001
0100
,
0001
0000
1000
0010
1000
0000
0001
0010
,
0100
0000
0010
0000
0001
0000
1000
0010
,
0100
0000
0001
1000
0100
0010
0001
0000
,
0110
0000
1001
0000
1000
0010
0000
0001
,
0010
0100
0001
0000
1000
0100
0010
1000
,
0010
0001
0100
0000
0010
1000
0000
0001
,
0010
0001
0100
1000
0100
0001
0010
0010
,
0100
0000
0100
1000
0001
0000
0000
0000
1000
0000
0010
0000
1010
0000
0000
0000
,
0001
0010
0011
0000
0100
0010
0110
0000
,
0001
0000
1000
0001
1000
0000
0100
0000
1000
0000
0010
0000
0100
0001
0100
0001
,
1000
0100
1000
0100
0020
0000
0000
0000
0001
0000
0000
0000
0130
0000
0000
0000
,
1001
0000
0000
0000
0202
0303
0000
0000
2020
3030
0000
0000
2200
3300
0000
0000
,
0022
0033
0000
0000
0100
0001
0100
0001
1000
0100
1000
0100
0010
0000
0010
0001
,
0100
0000
0100
0010
0000
0000
1001
0000
0000
0000
0010
0000
0110
0000
0000
0000
,
1001
0000
0000
0000
1000
0000
0100
0000
0010
0001
0000
0100
0000
0000
0010
0000
,
1000
0000
0001
0000
0010
0000
0100
0000
1000
0001
0000
0100
0000
0000
0010
1000
,
0010
1000
0001
0000
0010
0000
0100
0000
1000
0010
0000
0100
0000
0000
0001
0000
,
1000
0000
0010
0000
1000
0100
1000
0100
0010
0100
0010
0100
0010
0001
0010
0001
,
1000
0000
0000
0000
0010
0000
0100
0000
0001
0010
0000
0100
0000
0000
1000
0000
,
0001
0000
0100
0000
0010
0000
0100
0000
0010
1000
0000
0001
0000
0000
0010
0001
,
1000
0001
0100
0000
0010
0000
1000
0000
0001
0010
0000
0001
0100
0000
1000
0000
,
0100
0001
0010
0100
1000
0010
0110
0000
,
2000
0000
0000
0000
3001
0000
0100
0000
0010
1000
0000
0001
0000
0000
0010
0000
,
0100
0000
1000
0100
1000
0000
0001
0000
0100
0010
0000
1000
0010
1000
0010
0000
,
0100
0001
0100
0000
0001
0000
0010
0000
0100
1000
0000
0001
0000
0000
0010
0000
,
0100
0000
0010
0000
0001
0100
0001
0100
0010
0100
0010
0100
0010
1000
0010
1000
,
0001
0000
0000
0000
0010
0000
0100
0000
1000
0001
0000
0100
0000
0000
0010
0000
,
1000
0000
0001
0010
0001
0000
0100
0001
0100
0000
0100
0010
0100
0000
0001
0000
,
2000
0000
0000
0000
3100
0000
0010
0000
0100
0000
1000
0000
0001
0100
0001
0100
,
0010
1000
0001
0010
0000
0000
0000
0000
0220
0000
0000
0000
0000
0000
0000
0000
,
0330
2002
0000
0000
,
0000
0000
0000
0000
,
0000
3003
0000
0000
;

//--------------- dance-double - forcednature ----------------
#NOTEDATA:;
#STEPSTYPE:dance-double;
#DESCRIPTION:forcednature;
#DIFFICULTY:Easy;
#METER:6;
#RADARVALUES:0,0,0,0,0;
#CREDIT:forcednature;
#NOTES:
00000000
00000000
00000000
00000000
,
00000000
00000000
00000000
00000000
,
00000000
00000000
00000000
00000000
,
00000000
00000000
00000000
00000000
,
00000000
00000000
00000000
00000000
,
00011000
00000000
00000000
00000000
,
01000000
00000000
00010000
00000000
,
10000000
01000000
00100000
00010000
,
02000000
00000000
00000000
03000000
,
00001000
00010000
00000100
00000000
,
00001000
00000001
00000100
00000010
,
00001000
00000001
00000010
00000000
,
00000100
00000100
00001000
00001000
,
00000010
00010000
00001000
00000000
,
00100000
00010000
10000000
00010000
,
01000000
00000000
00100000
00100000
,
10000000
00010000
20000000
30000000
,
01000000
00100000
01000000
00000000
,
00100000
00001000
00010000
00010000
,
00000010
00001000
00000010
00000000
,
00000100
00000001
00001000
00000001
,
00000010
00000100
00000010
00000000
,
00000220
00000330
00000100
00010000
,
00001000
01000000
00010000
01000000
,
00200000
00000000
00000000
00300000
,
10000000
00000000
00000000
00010000
00000000
00010000
00000000
02000000
,
00000000
00000000
00000000
03000000
,
00002000
00000000
00000000
00003000
,
00010000
00000100
00001000
00000001
,
00000100
00000010
00000100
00000001
,
00000010
00000100
00000010
00000100
,
00010000
00001000
01000000
00001000
,
00010000
00010000
00100000
00000000
,
10000000
00000000
00000000
10000000
00000000
00000000
00000000
00000000
,
00010000
00010000
01000000
00000000
,
00001000
00000000
00000000
00001000
00000000
00000000
00010000
00000000
,
00000100
00000100
00000010
00000000
,
00000110
00000000
00000100
00001000
,
00000001
00001000
00000020
00000000
,
00010030
00000000
00001000
01000000
,
00010000
01000000
00100000
00000000
,
10000000
01000000
00000000
01000000
,
10000000
00010000
01000000
00001000
,
00000000
00010000
00000000
00000000
00010000
00000000
00000000
00010000
,
00000000
00000100
00000000
00000000
00000100
00000000
00000000
00000000
,
00002002
00000000
00000000
00000000
,
00003003
00000001
00000000
00000000
,
00000000
00000100
00000000
00000000
,
00000000
00000010
00000000
00000000
,
00000000
00010000
00000000
00001000
,
00000000
00100000
00000000
00000000
,
00000000
00010000
00000000
00000000
,
00000000
10000000
00000000
00000000
,
00000000
00010000
00000000
01000000
,
00000000
00001000
00000000
00010000
,
00000000
00000100
00000000
00001000
,
00000000
00000010
00000000
00010000
,
00000000
00001000
00000000
00100000
,
00000000
10010000
00000000
01000000
,
00000000
00011000
00000000
00000100
,
00000000
00001000
00001000
00000001
,
00000001
00000200
00000000
00000000
,
00000300
00000010
00000010
00000100
,
00000100
00000001
00000001
00001000
,
00001000
00000000
00000000
00000100
00000000
00000000
00010000
00000000
,
00000000
00001000
01000000
00001000
,
00000000
00100000
00010000
00100000
,
01000000
10000000
00010000
10000000
,
00000000
00100000
01000000
00010000
,
01000000
00001000
00010000
00001000
,
00000000
00010000
00000100
00001000
,
00000100
00000010
00000000
00000001
,
00000100
00000001
00000100
00000020
,
00000000
00001030
00000010
00001000
,
00000000
00000100
00010000
00001000
,
01000000
00010000
00100000
00010000
,
00000000
10000000
00100000
10000000
,
00010000
10000000
01000000
10000000
,
00000000
10010000
00000000
00010000
,
00000000
01000000
00001000
00010000
,
00000100
00000000
00000220
00000000
,
00000330
00002002
00000000
00000000
,
00000000
00000000
00000000
00000000
,
00000000
00003003
00000000
00000000
;

//--------------- dance-double - forcednature ----------------
#NOTEDATA:;
#STEPSTYPE:dance-double;
#DESCRIPTION:forcednature;
#DIFFICULTY:Medium;
#METER:12;
#RADARVALUES:0,0,0,0,0;
#CREDIT:forcednature;
#NOTES:
00000000
00000000
00000000
00000000
,
00000000
00000000
00000000
00000000
,
00000000
00000000
00000000
00000000
,
00000000
00000000
00000000
00000000
,
00000000
00000000
00000000
00000000
,
00001000
00010000
00100000
01000000
,
00100000
00010000
00001000
00000010
,
00000100
00001000
00000100
00000000
00010000
00001000
00010000
00000000
,
00200000
01000000
01300000
10010000
,
10000000
00000000
01000000
00000000
00100000
00000000
00000000
00010000
00000000
00000000
00000000
00000000
01000000
00000000
00000000
00000000
,
00001000
00000000
00010000
00000000
00001000
00000000
00000000
00000010
00000000
00000000
00000100
00000000
00001000
00000000
00000000
00000000
,
00000001
00000000
00000100
00000000
00000010
00000000
00000000
00010000
00000000
00000000
00000000
00000000
00001000
00000000
00000000
00000000
,
00100000
00010000
00100000
01000000
00100000
00001000
00010000
00000000
,
00100000
00000000
10000000
00000000
00010000
00000000
00000000
00100000
00000000
00000000
00000000
00000000
01000000
00000000
00000000
00000000
,
00100000
00000000
00001000
00000000
00010000
00000000
00000000
00000010
00000000
00000000
00001000
00000000
00000001
00000000
00000000
00000000
,
00000010
00000100
00000010
00000000
00000100
00010000
00001000
00010000
,
00100000
01000000
00100000
10000000
00010000
00000000
00200000
00000000
,
01300000
00000000
10000000
00000000
01000000
00000000
00000000
00100000
00000000
00000000
00000000
00000000
00001000
00000000
00000000
00000000
,
00010000
00000010
00001000
00000000
00000100
00000010
00000100
00000010
,
00000001
00000000
00001000
00000000
00000010
00000000
00000000
00010000
00000000
00000000
00000000
00000000
00001000
00000000
00000000
00000000
,
01000000
00100000
01000000
10000000
01000000
00010000
10000000
00000000
,
01000000
00000000
00100000
00000000
00001000
00000000
00000000
00010000
00000000
00000000
00000000
00000000
00000100
00000000
00000000
00000000
,
00000220
00000000
00000330
00000002
,
00000103
00000010
00001000
00000010
00010000
00001000
00100000
00010000
,
02000000
00000000
00000000
03000000
,
00100000
00000000
10000000
01000000
00000000
00010000
00000000
00022000
,
00000000
00000000
00000000
00033000
,
00001100
00000000
00000100
00000000
00000010
00000001
00001000
00000000
,
00000020
00020030
00032000
01003000
,
00010000
00100000
00010000
01000000
00100000
00100000
10000000
00000000
,
01000000
00100000
00010000
00010000
01000000
00001000
00010000
00000000
,
00000100
00001000
00000010
00000100
00000001
00000001
00000010
00000000
,
00000100
00010000
00001000
00100000
00020000
00000000
01030000
00000000
,
00100000
00000000
00000000
10000000
00000000
00000000
00100000
00000000
00000000
10000000
00000000
00000000
01000000
00000000
00100000
00000000
,
00010000
00000000
00010000
00000000
00000000
01000000
00000000
00000000
00001000
00000000
00000000
00000000
00010000
00000000
00000000
00000000
,
00000100
00000000
00000000
00001000
00000000
00000000
00000100
00000000
00000000
00001000
00000000
00000000
00000010
00000000
00000100
00000000
,
00000001
00000010
00000001
00000010
00000100
00000000
00010000
00000000
,
00001000
00000000
00000000
01000000
00000000
00000000
00010000
00000000
00100000
00000000
00100000
00000000
00100000
00000000
00000000
00000000
,
01000000
10000000
00010000
10000000
00200000
00000000
00000000
00000000
,
01300000
00000000
00000000
00001000
00000000
00000000
00010000
00000000
00000010
00000000
00000010
00000000
00000010
00000000
00000000
00000000
,
00001000
00000100
00000010
00000001
00000200
00000000
00000010
00000000
,
00000301
00000000
00000100
00001000
00000000
00010000
01000000
00000000
,
00100000
00001000
00010000
00001000
00000000
01000000
00010000
10000000
,
00000000
00000000
01000000
00000000
00000000
00010000
00000000
00000000
00001000
00000000
00000000
00000010
00000000
00000000
00000001
00000000
,
00000000
00000000
00000100
00000000
00000000
00001000
00000000
00000000
00010000
00000000
00000000
00100000
00000000
00000000
10000000
00000000
,
00020000
00000000
00000000
00000000
,
00030000
10010000
10000000
01000000
,
00000000
00000000
00100000
00010000
00100000
00000000
00001000
00000000
,
00010000
00000010
00001000
00000100
,
00000000
00000000
00000010
00000000
00000001
00000000
00000100
00000010
,
00000100
00000000
00001000
00000000
00010000
00000000
00001000
01000000
,
00001000
00000000
01000000
00000000
00010000
00000000
10000000
01000000
,
10000000
00000000
01000000
00000000
00100000
00000000
00001000
00010000
,
00001000
00000020
00000230
00002300
,
00003001
00000000
00000101
00000000
00000100
00000010
00000000
00001000
,
00000010
00000000
00010000
00000000
00001000
00100000
00001000
00000000
,
00001000
00000000
01000000
00000000
00010000
10000000
00000000
01000000
,
10000000
00000000
00100000
01000000
00100000
00000000
01000000
00000000
,
00001000
00011000
00100000
00011000
,
00000010
00011000
01000000
00011000
,
00000100
00000000
00001000
00000010
00010000
00001000
00100000
00010000
,
01000000
00010000
20000000
00000000
00000000
00000000
00000000
00000000
,
30010000
00000000
00000000
00000000
22000000
33000000
00000000
00000000
00220000
00330000
00000000
00000000
00002200
00003300
00000000
00000000
,
00000022
00000033
00000000
00000000
00000001
00000000
00000100
00000000
00000010
00000000
00010000
00000000
00001000
00000000
01000000
00000000
,
00010000
01000000
00000000
00100000
00000000
00100000
00100000
00000000
,
10010000
00000000
00000000
00000000
00010000
00000000
01000000
00000000
00001000
00000000
00000000
00010000
00000000
00000000
00000000
00000000
,
00000100
00000000
00000000
00000000
00001000
00000000
00000010
00000000
00001000
00000000
00000000
00000001
00000000
00000000
00000010
00000000
,
00000100
00000000
00000000
00000000
00001000
00000000
00000001
00000000
00000100
00000000
00000000
00000010
00000000
00000000
00000000
00000000
,
00010000
00000000
00001000
00100000
01000000
00100000
00010000
10000000
,
00100000
00000000
00000000
00000000
01000000
00000000
00001000
00000000
00010000
00000000
00000000
00000010
00000000
00000000
00000000
00000000
,
00001000
00000000
00000000
00000000
00000100
00000000
00010000
00000000
00001000
00000000
00000000
00100000
00000000
00000000
00010000
00000000
,
10000000
00000000
01000000
00100000
01000000
00000000
00100000
00001000
,
01000000
00001000
00010000
00000010
00001000
00000100
00000010
00000000
,
00000002
00000000
00000000
00000000
00000103
00000000
00000010
00000000
00000100
00000000
00000000
00000001
00000000
00000000
00000000
00000000
,
00001000
00000000
00000100
00010000
00001000
00000000
01000000
00010000
,
01000000
00000000
00010000
00000000
00100000
00000000
00001000
00000000
00010000
00000000
00000000
00000010
00000000
00000000
00000000
00000000
,
00001000
00000000
00000100
00000010
00001000
00000010
00000001
00001000
,
00000100
00000000
00000000
00000000
00010000
00000000
00001000
00000000
01000000
00000000
00000000
00010000
00000000
00000000
00000000
00000000
,
00100000
02200000
00000000
03300000
,
20000000
00000000
31000000
00100000
00001000
00010000
00000100
00000010
,
00000001
00001000
00000000
00000000
00000220
00000000
00000000
00000000
,
00000330
00022000
00000000
00000000
,
00000000
00000000
00000000
00000000
,
00000000
00033000
00000000
00000000
;

//--------------- dance-double - forcednature ----------------
#NOTEDATA:;
#STEPSTYPE:dance-double;
#DESCRIPTION:forcednature;
#DIFFICULTY:Hard;
#METER:16;
#RADARVALUES:0,0,0,0,0;
#CREDIT:forcednature;
#NOTES:
00000000
00000000
00000000
00000000
,
00000000
00000000
00000000
00000000
,
00000000
00000000
00000000
00000000
,
00000000
00000000
00000000
00000000
,
00000000
00000000
00000000
00000000
,
00011000
00000000
00000000
00000000
00001000
00000000
00000000
00000000
00000010
00000000
00000000
00000001
00000000
00000000
00000100
00000000
,
00000110
00000000
00000000
00000000
00000010
00000000
00000000
00000000
00010000
00000000
00000000
00001000
00000000
00000000
00100000
00000000
,
01000000
00000000
10000000
00000000
01000000
00000000
00100000
00000000
00001000
00010000
00001000
00000000
00010000
00000000
00000010
00000000
,
00000200
00001000
00000301
00000110
,
00000010
00000000
00001000
00000000
00000010
00010000
00000000
00001000
00000000
00000000
00100000
00000000
00010000
00000000
00000000
00000000
,
10000000
00000000
00100000
00000000
01000000
00010000
00000000
01000000
00000000
00000000
00001000
00010000
00001000
00000000
00000000
00000000
,
00100000
00000000
00010000
00000000
00100000
00001000
00000000
00010000
00000000
00000000
00000010
00000000
00001000
00000000
00000010
00000000
,
00000200
00002300
00023000
00230000
20300000
32000000
03020000
00030000
,
00001000
00000000
00000010
00000000
00000100
00000010
00000000
00000001
00000000
00000000
00001000
00000000
00000001
00000000
00000000
00000000
,
00000100
00000000
00000001
00000000
00001000
00000010
00000000
00001000
00000000
00000000
00000100
00010000
00000100
00000000
00001000
00000000
,
00000010
00000000
00010000
00000000
00001000
00100000
00000000
00010000
00100000
00000000
00100000
00000000
01000000
00000000
01000000
00000000
,
20000000
30200000
00320000
00032000
00003200
00000000
00000302
00000000
,
00000013
00000000
00000100
00000000
00001000
00000100
00000000
00010000
00000000
00000000
00001000
00000000
01000000
00000000
00010000
00000000
,
10000000
00000000
01000000
00000000
00100000
00010000
00000000
00100000
00001000
00000000
00010000
00000000
00100000
00000000
00010000
00000000
,
00001000
00000000
00000010
00000000
00000100
00001000
00000000
00000100
00000000
00000000
00000010
00000000
00000001
00000000
00000100
00000000
,
00000002
00000023
00000230
00002300
00023000
00230000
02300000
03000000
,
00100000
00000000
00001000
00000000
00010000
00000010
00000000
00001000
00000000
00000000
00000100
00000000
00000010
00000000
00000001
00000000
,
00000201
00000000
00001300
00000000
00000100
00000010
00020000
00000000
,
00031000
00000000
00001000
00000000
00100000
00000000
00100000
00000000
00010000
10000000
00010000
00000000
02000000
00000000
00000000
00000000
,
03200000
00000000
00000000
00300000
,
10010000
00000000
10000000
01000000
00000000
00101000
00000000
00020020
,
00000000
00000000
00000000
00030030
,
00000010
00000000
00001000
00000000
00000100
00000010
00000100
00000010
00000001
00000000
00001000
00000010
00010000
00000000
00000000
00000000
,
00002000
00023000
10030000
01100000
,
10000000
00000000
00100000
00000000
10000000
00000000
01000000
00000000
00100000
00010000
00100000
00000000
00001000
00000000
00010000
00000000
,
00000010
00000000
00001000
00000000
00000100
00000010
00000100
00000000
00001000
00000000
00000001
00000000
00000100
00000000
00000100
00000000
,
00000010
00000000
00010000
00000000
00001000
00000000
01000000
00000000
00010000
00100000
00010000
00000000
10000000
00000000
00100000
00000000
,
10000000
01000000
00010000
01000000
00200000
00000000
00301000
00000000
,
00000110
00000000
00000000
00001000
00000000
00000000
00000110
00000000
00000000
00000001
00000000
00000000
00000010
00000000
00001000
00000000
,
00011000
00000000
00011000
00000000
00000000
00100000
00000000
00000000
00001000
00010000
00000000
00000000
00100000
00000000
10000000
00000000
,
11000000
00000000
00000000
00010000
00000000
00000000
11000000
00000000
00000000
00100000
00000000
00000000
10000000
00000000
00010000
00000000
,
00100000
00100000
00100000
00100000
00102000
00000000
00013000
00000000
,
00000010
00000000
00000000
00001000
00000000
00000000
00000001
00000000
00000010
00000100
00000010
00000100
00000010
00000000
00000000
00000000
,
00000200
00020300
00032000
00023000
00230000
00000000
00300000
00000000
,
01100000
00000000
00000000
00010000
00000000
00000000
10000000
00000000
00100000
01000000
00100000
01000000
00100000
00000000
00000000
00000000
,
02000000
03002000
00023000
00032000
00003020
00000230
00002300
00000000
,
00003001
00000100
00001000
00000100
00000000
00000010
00010000
00001000
,
00100000
00000000
00100000
00000000
01000000
00000000
00010000
00000000
00000000
00000000
00001000
00000000
01000000
00010000
01000000
00010000
,
00000000
00000000
10000000
00000000
00000000
00010000
00000000
00000000
00001000
00000000
00000000
00000001
00000000
00000000
00000001
00000100
,
00000000
00000000
00000001
00000000
00000000
00001000
00000000
00000000
00010000
00000000
00000000
10000000
00000000
00000000
01000000
00000000
,
02200000
00000000
00000000
03300000
,
00010000
00000000
00000000
00000000
00011000
00000000
00000000
00000000
00000100
00000000
00000000
00000000
00001000
00000000
00000000
00001000
,
00000000
00000000
00000000
00000000
00000010
00000000
00000100
00000000
00001000
00000000
00000100
00000000
00000001
00000000
00000000
00000010
,
00000000
00000000
00000100
00000000
00010000
00000000
00000000
00000000
00010000
00000000
00000000
00000000
00001000
00000000
00000000
00001000
,
00000000
00000000
01000000
00010000
01000000
10000000
01000000
00100000
,
00000000
00100000
10000000
00000000
01000000
00000000
00010000
00001000
,
00000010
00000000
00000001
00000001
00000100
00000000
00001000
00010000
,
00100000
00000000
10000000
00000000
01000000
00000000
00010000
00001000
,
00000100
00000000
00000002
00000023
00000230
00020300
00032000
00000000
,
00103000
00000000
10010000
00000000
10000000
00100000
00000000
00010000
,
00100000
01000000
00001000
00000000
00010000
00000100
00001000
00000010
,
00000001
00000010
00000100
00000000
00001000
01000000
00000000
00010000
,
00100000
00010000
10000000
00100000
00010000
00100000
01000000
01000000
,
00001000
00000000
00010000
00000100
00001000
00000000
00000000
00000000
00000010
00000000
00010000
00000000
00011000
00000000
00000000
00000000
,
00100000
00001000
00011000
00000000
00000100
00010000
00011000
00000000
,
01000000
00000000
00010000
01000000
00010000
00000000
00100000
00000000
00001000
00000000
00010000
00000000
00000010
00001000
00000010
00001000
,
00000001
00000010
00000100
00001000
00000020
00000000
00000000
00000000
00000001
00000000
00000000
00000000
00001000
00000000
00000000
00000000
,
00010030
00000000
00000000
00000000
02200000
03300000
00000000
00000000
00022000
00033000
00000000
00000000
00000220
00000330
00000000
00000000
,
00022000
00033000
00000000
00000000
10000000
00000000
01000000
00000000
00010000
00000000
00001000
00000000
00000100
00000000
00000100
00000001
,
00000010
00000000
00000010
00000100
00000000
00000000
00000110
00000000
00000000
00000000
00001000
00000000
00010000
00000000
00000000
00000000
,
01100000
00000000
00000000
00000000
10000000
00000000
00010000
00000000
00100000
00010000
00000000
01000000
00000000
00000000
00100000
00000000
,
01000000
00000000
00001000
00000000
00010000
00000000
00000100
00000000
00001000
00000010
00000000
00000100
00000000
00000000
00000001
00000010
,
00000001
00000010
00000100
00000000
00010000
00000000
00001000
00000000
01000000
00010000
00000000
00100000
00000000
00000000
01000000
00000000
,
00100000
00010000
20000000
32000000
03020000
00030200
00002300
00003002
,
00000023
00000000
00000030
00000000
00000001
00000000
00000100
00000000
00000010
00001000
00000000
00000010
00000000
00000000
00010000
00000000
,
00001000
00000000
00100000
00000000
01000000
00000000
00100000
00000000
00010000
10000000
00000000
00100000
00000000
00000000
01000000
00010000
,
01000000
00010000
10000000
00000000
01000000
00000000
00100000
00000000
00010000
00100000
00000000
00001000
00010000
00000000
00010000
00000000
,
00000010
00000010
00000100
00001000
00000100
00000001
00000020
00000000
,
00000230
00000000
00000000
00000000
00010300
00000000
00001000
00000000
01000000
00010000
00000000
00100000
00000000
00000000
01000000
00000000
,
10000000
00000000
01000000
10000000
01000000
00000000
00100000
00000000
00001000
01000000
00000000
00001000
00010000
00000000
00100000
00000000
,
00010000
00000000
00001000
00000000
00000010
00000000
00000100
00000000
00001000
00000100
00000000
00000010
00000000
00000000
00000001
00000000
,
00000100
00000010
00000200
00020300
02030000
03002000
00203000
00320000
,
00030020
00000000
00000030
00000000
00000100
00000000
00001000
00000000
00000010
00001000
00000000
00000001
00000000
00000000
00000010
00000000
,
00000100
00000000
00001000
00000100
00010000
00000000
00001000
01000000
00020000
00000000
00000000
00000000
00130000
00000000
01000000
00000000
,
20000000
00000000
00000000
00000000
30100000
00000000
00010000
00000000
00100000
00000000
10000000
00000000
01000000
10000000
01000000
10000000
,
00010000
01000000
00001000
00010000
00000000
00000000
00000000
00000000
00000220
00000000
00000000
00000000
00000000
00000000
00000000
00000000
,
00000330
00002002
00000000
00000000
,
00000000
00000000
00000000
00000000
,
00000000
00003003
00000000
00000000
;
