#VERSION:0.83;
#TITLE:TOXIC VIBRATION;
#SUBTITLE:;
#ARTIST:SOUND HOLIC Vs. T.Kakuta feat. YURiCa;
#TITLETRANSLIT:;
#SUBTITLETRANSLIT:;
#ARTISTTRANSLIT:;
#GENRE:MELODIC SPEED METAL;
#CREDIT:;
#MUSIC:TOXIC VIBRATION.ogg;
#BANNER:TOXIC VIBRATION.png;
#BACKGROUND:TOXIC VIBRATION-bg.png;
#CDTITLE:./CDTitles/GITADORA OverDrive.png;
#SAMPLESTART:89.080;
#SAMPLELENGTH:15.000;
#SELECTABLE:YES;
#OFFSET:0.628;
#BPMS:0.000=197.000;
#STOPS:;
#TIMESIGNATURES:0.000=4=4;
#BGCHANGES:0.000=TOXIC VIBRATION.mp4=1.000=0=0=0=StretchNoLoop====,
99999.000=-nosongbg-=1.000=0=0=0=StretchNoLoop====
;
#FGCHANGES:;

//--------------- dance-single - forcednature ----------------
#NOTEDATA:;
#STEPSTYPE:dance-single;
#DESCRIPTION:forcednature;
#CREDIT:forcednature;
#DIFFICULTY:Beginner;
#METER:4;
#RADARVALUES:0,0,0,0,0;
#NOTES:
0000
0000
0000
0000
,
0000
0000
0000
0000
,
0000
0000
0000
0000
,
0000
0000
0000
0000
,
0000
0000
0000
0000
,
0000
0000
0000
0000
,
1000
0000
0000
0000
,
0001
0000
0000
0000
,
0100
0000
0000
0000
,
0010
0000
1000
0000
,
0001
0000
0000
0000
,
0010
0000
0001
0000
,
0010
0000
0000
0000
,
0100
0000
1000
0000
,
0100
0000
0000
0000
,
1000
0000
0010
0000
,
1000
0000
0000
0000
,
0001
0000
0001
0000
,
0010
0000
0000
0000
,
0100
0000
0000
0000
,
1000
0000
0000
0000
,
0001
0000
0000
0000
,
0100
0000
0000
0000
,
0010
0000
0000
0000
,
1000
0000
0000
0000
,
0100
0000
0000
0000
,
1001
0000
0000
0000
,
0001
0000
0000
0000
,
0100
0000
0000
0000
,
0010
0000
0000
0000
,
1000
0000
0000
0000
,
0100
0000
0000
0000
,
1000
0000
0000
0000
,
0001
0000
0100
0000
,
0001
0000
0000
0000
,
0010
0000
0000
0000
,
0100
0000
0000
0000
,
1000
0000
0000
0000
,
0010
0000
0000
0000
,
0100
0000
0000
0000
,
0001
0000
1000
0000
,
0001
0000
0000
0000
,
1001
0000
0000
0000
,
1000
0000
0000
0000
,
0100
0000
0000
0000
,
0010
0000
0000
0000
,
0001
0000
0000
0000
,
0100
0000
0000
0000
,
0010
0000
0000
0000
,
1000
0000
0001
0000
,
0010
0000
0000
0000
,
0100
0000
1000
0000
,
0100
0000
0000
0000
,
0110
0000
0000
0000
,
1001
0000
0000
0000
,
0001
0000
0100
0000
,
0001
0000
0000
0000
,
1000
0000
0100
0000
,
1000
0000
0000
0000
,
0010
0000
0000
0000
,
0100
0000
0001
0000
,
0100
0000
0000
0000
,
0001
0000
0010
0000
,
0001
0000
0000
0000
,
1000
0000
0010
0000
,
1000
0000
0000
0000
,
1001
0000
0000
0000
,
0001
0000
0000
0000
,
0010
0000
0000
0000
,
0100
0000
1000
0000
,
0100
0000
0000
0000
,
1000
0000
0000
0000
,
0010
0000
0010
0000
,
0010
0000
0000
0000
,
1001
0000
0000
0000
,
0001
0000
0000
0000
,
0100
0000
0000
0000
,
0001
0000
0010
0000
,
0001
0000
0000
0000
,
1000
0000
0000
0000
,
0010
0000
1000
0000
,
0010
0000
0000
0000
,
0100
0000
0100
0000
,
0100
0000
0001
0000
,
1000
0000
0000
0000
,
0100
0000
0010
0000
,
0100
0000
0000
0000
,
1000
0000
0000
0000
,
0001
0000
0100
0000
,
0001
0000
0000
0000
,
1000
0000
0100
0000
,
1000
0000
0000
0000
,
1001
0000
0000
0000
,
0001
0000
0000
0000
,
0010
0000
0000
0000
,
0001
0000
0100
0000
,
0001
0000
0000
0000
,
0010
0000
0100
0000
,
0010
0000
0000
0000
,
0001
0000
1000
0000
,
0001
0000
0100
0000
,
0010
0000
1000
0000
,
2002
0000
0000
0000
,
3003
0000
0000
0000
;

//--------------- dance-single - forcednature ----------------
#NOTEDATA:;
#STEPSTYPE:dance-single;
#DESCRIPTION:forcednature;
#CREDIT:forcednature;
#DIFFICULTY:Easy;
#METER:9;
#RADARVALUES:0,0,0,0,0;
#NOTES:
0000
0000
0000
0000
,
0000
0000
0000
0000
,
0000
0000
0000
0000
,
0000
0000
0000
0000
,
0000
0000
0000
0000
,
0000
0000
0000
0000
,
1000
0000
1100
0000
,
0001
0000
0101
0000
,
1000
0100
1000
0000
0001
0100
0001
0000
,
0010
0100
0110
0000
,
1000
0100
1000
0000
0001
0000
0010
0000
,
0100
1000
0100
0000
0010
0000
0001
0000
,
1000
0010
1000
0000
0001
0000
0100
0000
,
0001
0010
0001
0000
1000
0000
0010
0000
,
1000
0100
1100
0000
,
0001
0100
0101
0000
,
1000
0100
1000
0000
0001
0100
0001
0000
,
0010
0100
1000
0000
,
1001
0000
0000
0000
0100
0001
0100
0000
,
0010
1000
1000
0100
,
0010
0000
0001
0000
1000
0010
1000
0000
,
0001
0010
1000
0010
,
0100
0000
1000
0000
0100
0010
0100
0000
,
1000
0001
0001
0100
,
0001
0000
0010
0100
0010
0000
0001
0000
,
1000
0000
0010
0000
0100
0001
0100
0000
,
0010
0000
0010
1000
0010
0000
0010
0000
,
0100
0100
0001
1000
,
0001
0000
0001
0010
0001
0000
0001
0000
,
0100
0010
1000
0001
,
0010
0000
0010
0100
0010
0000
0010
0000
,
0001
0001
1000
0100
,
1000
0000
1000
0010
1000
0000
1000
0000
,
0100
0010
0001
0100
,
0110
0000
0010
0010
,
1000
1000
0001
0001
,
0010
0000
0200
0000
,
2300
0000
3002
0000
,
0203
0000
0310
0010
,
1000
0001
1000
0100
,
0110
0000
0010
0001
,
0100
0010
1000
0001
,
0020
0000
0000
0030
,
0100
0100
0010
0001
,
1000
0010
1000
0000
0001
0000
0100
0000
,
0001
0010
0100
1000
,
0020
0000
0000
0030
,
0100
0100
0010
1000
,
0100
0000
0000
0110
0000
0000
0010
0000
,
0001
1000
0001
0000
1000
0000
0000
0000
,
0001
0100
0001
0000
0100
0001
0100
0000
,
0010
1000
0100
0010
,
0001
0010
0001
0000
1000
0100
1000
0000
,
0010
0000
0000
2002
0000
0000
3003
0000
,
1000
0100
1000
0000
0100
0000
0010
0000
,
0001
0010
0001
0000
0100
0000
0010
0000
,
1000
1000
0001
0001
,
0100
0100
0010
0010
,
1000
0010
1000
0000
0001
0100
0001
0000
,
1000
0100
0010
0001
,
0100
0010
0100
0000
0001
1000
0001
0000
,
0010
0000
0000
2002
0000
0000
3003
0000
,
1000
0100
1000
0000
0100
0010
0100
0000
,
0010
0001
1000
0010
,
0100
0100
0001
0001
,
1000
1000
0100
0010
,
0220
0000
0000
0000
,
0000
0000
0330
0000
,
1000
1000
0001
0001
,
0100
0000
0001
0000
1000
0010
1000
0010
,
0200
0000
0301
0010
,
0100
1000
0001
0100
,
0100
0010
0001
0010
,
1000
0000
1000
0000
0001
0010
0001
0000
,
0200
0000
0000
0300
,
0010
0010
0100
0001
,
1000
0100
1000
0000
0001
0000
0010
0000
,
0001
0100
0001
1000
,
0020
0000
0000
0030
,
0100
0001
1000
0001
,
0010
0000
0000
0110
0000
0000
0100
0000
,
1000
0000
0000
1001
0000
0000
0001
0000
,
0100
0000
0000
0110
0000
0000
0010
0000
,
0000
0110
0000
0000
1001
0000
0000
0000
,
1000
0100
1000
0000
0001
0010
0001
0000
,
1000
0010
0100
0001
,
0010
0100
0010
0000
0001
1000
0001
0000
,
0100
0000
0000
2002
0000
0000
3003
0000
,
0010
1000
0010
0000
0100
0000
0001
0000
,
1000
0100
1000
0000
0001
0000
0010
0000
,
0100
0100
1000
0001
,
0100
0100
0010
1000
,
1010
0010
0100
0001
,
0011
0010
0100
1000
,
1001
0001
0100
0010
,
1001
1000
0100
0010
,
0001
0100
0001
0000
1000
0000
0010
0000
,
1000
0100
1000
0000
0001
0000
0010
0000
,
0100
1000
0001
0100
,
0010
1000
0010
0000
0100
0000
0001
0000
,
0010
0000
0000
0100
0000
0000
1000
0000
,
0000
0001
0000
0000
0100
0000
0000
0000
,
2002
0000
0000
0000
,
3003
0000
0000
0000
;

//--------------- dance-single - forcednature ----------------
#NOTEDATA:;
#STEPSTYPE:dance-single;
#DESCRIPTION:forcednature;
#CREDIT:forcednature;
#DIFFICULTY:Medium;
#METER:13;
#RADARVALUES:0,0,0,0,0;
#NOTES:
0000
0000
0000
0000
,
0000
0000
0000
0000
,
0000
0000
0000
0000
,
0000
0000
0000
0000
,
0000
0000
0000
0000
,
0000
0000
0000
0000
,
0002
0000
0103
0010
2000
0000
3001
0010
,
0000
0100
0010
0001
2000
0000
3010
0100
,
0001
1000
0100
1000
0010
0100
0001
0100
,
0010
1000
0100
0010
0002
0000
0003
0000
,
0100
0001
0100
0010
0100
0001
1000
0010
,
1000
0100
0010
0100
1000
0100
0010
0001
,
0100
0010
1000
0001
0010
0100
1000
0001
,
1000
0010
1000
0100
0010
0001
0100
0000
,
0010
1000
0100
1000
0001
0010
0100
0000
,
0010
0001
0100
0001
1000
0010
0100
0000
,
0001
0010
0010
0100
1000
0001
1000
0010
,
0100
1000
0100
0001
0020
0000
0030
0000
,
0110
0000
0100
1000
0001
0100
0010
0000
,
1000
0100
0010
0000
0100
1000
0001
0000
,
0100
0000
0010
1000
0001
0010
0100
0000
,
0010
0101
0010
1100
,
1001
0000
1000
0010
0100
0001
0100
0000
,
0010
1000
0001
0010
0000
0100
1000
0001
,
0100
0000
0010
1000
0200
0000
1000
0000
,
0301
0100
1000
0000
1000
0100
0001
0000
,
0110
0000
1000
0010
1000
0100
0010
0001
,
0100
0001
1000
0010
1000
0001
0010
0001
,
0100
0010
0010
1000
0010
0010
0100
0000
,
0001
0010
0001
1000
0010
1000
0100
0010
,
0100
0000
1000
0001
0100
0001
0010
0000
,
0001
0100
0010
1000
0001
0010
0100
1000
,
0020
0000
0130
1000
0200
0000
0001
0000
,
0310
1000
0001
1000
0100
0010
0001
0100
,
0010
0010
1000
1000
,
0001
0000
0001
0000
0010
0100
0000
1000
,
0100
0010
0002
0000
,
0203
0000
0320
0000
,
2030
0000
0001
0000
3001
0000
1000
0100
,
1000
0000
0010
0100
0000
0001
0010
0000
,
1001
0000
0001
0100
0000
0010
1000
0010
,
0000
0100
0001
1000
0001
0010
0100
1000
,
0010
0100
1000
0100
0010
1000
0001
0000
,
0010
0100
1000
0001
0100
0010
1000
0001
,
0010
0100
0010
0001
0000
0001
0100
0010
,
1000
0001
0010
0001
0100
0010
1000
0100
,
0010
0000
0100
1000
0001
1000
0010
0000
,
0100
0000
0001
0000
1000
0000
0001
0000
0010
0000
0000
0100
0000
0000
1000
0000
,
0001
0100
0001
1000
0100
1000
0010
0100
,
0010
1000
0001
1000
0200
0000
0300
0000
,
0010
0001
0100
0001
1000
0010
1000
0100
,
0000
1000
0010
0100
0001
0100
0010
1000
,
0000
0001
0010
1000
0010
0001
1000
0010
,
0220
0000
0000
0330
0000
0000
2002
0000
0000
0000
0000
0000
3003
0000
0000
0000
,
1000
0100
1000
0010
0100
0001
0010
0001
,
0000
0100
0010
1000
0001
0000
0010
0100
,
1000
0000
0000
0000
0010
0000
0000
0000
0101
0000
0000
0001
0000
0000
1000
0000
,
0100
0100
0010
0010
0001
1000
0010
0000
,
0100
0001
0100
0010
1000
0100
1000
0010
,
0000
0100
1000
0100
0001
1000
0010
1000
,
0000
0001
0100
1000
0100
0001
1000
0010
,
0220
0000
0000
0330
0000
0000
2002
0000
0000
0000
0000
0000
3003
0000
0000
0000
,
0001
0100
0001
0010
0100
1000
0010
1000
,
0000
0001
0010
0001
0100
0000
0010
1000
,
0001
0000
0001
0000
0010
0000
0000
0000
1100
0000
0000
1000
0000
0000
0010
0000
,
0101
0000
0000
0001
0000
0000
0010
0000
0100
0000
1000
0000
0010
0000
1000
0000
,
0002
0000
0100
0100
0100
0000
1000
1000
,
1000
0000
0010
0010
0010
0000
1000
1000
,
1003
0001
0100
0001
0010
0001
0100
0001
,
1000
0010
1000
0100
1000
1000
0001
0000
,
0100
0010
0100
0001
1000
0010
1000
0000
,
0001
0010
0100
1000
0100
0010
0001
0000
,
1100
1010
1001
1010
,
0010
0100
0001
0100
0010
1000
0001
0000
,
0022
0000
0000
0033
,
0010
0100
0010
0000
0100
1000
0100
0000
,
1000
0010
0000
1000
0000
0100
0000
0010
,
0000
0001
1000
0000
0010
0100
0001
0000
,
2002
0000
0000
3003
,
1000
0000
0100
0000
1000
0000
0001
0000
0100
0000
0000
0010
0000
0000
1000
0000
,
0100
0010
0001
0100
0010
0100
0001
1000
,
0100
0010
0100
1000
0010
0100
0010
0000
,
0100
0100
0001
1000
1000
0001
0010
0010
,
0001
1000
1000
0001
0200
0000
0300
0000
,
0010
1000
0100
1000
0001
0010
0001
0100
,
0000
0010
1000
0001
0010
0100
0010
0001
,
0000
0100
0100
0010
1000
1000
0001
0010
,
0220
0000
0000
0330
0000
0000
2002
0000
0000
0000
0000
0000
3003
0000
0000
0000
,
1000
0100
1000
0010
0100
0001
0010
0001
,
0000
0100
0010
1000
0001
0000
0010
0100
,
1100
0000
0000
0000
0101
0000
0000
0000
1000
0000
0000
1010
0000
0000
0100
0000
,
0001
0000
0000
0011
0000
0000
0100
0000
1000
0000
0010
0000
0100
0000
0001
0000
,
0010
0100
0010
0001
0100
0010
0100
0001
,
1000
0100
0010
0100
1000
0010
0100
0010
,
1000
0001
0010
0001
1000
0010
1000
0001
,
0100
0000
0020
0000
2030
0000
3001
0010
,
0100
1000
0100
0010
0001
0100
0001
0010
,
0100
1000
0001
0100
0010
1000
0001
0010
,
0110
1100
1010
0101
,
0001
0001
0010
0010
0100
1000
0001
0000
,
0100
0100
1000
0100
0100
0001
0010
0010
,
1000
0010
0010
0001
0100
0010
1000
0001
,
0010
0220
0000
0000
0000
0000
0000
0000
,
0330
0000
0000
0000
;

//--------------- dance-single - forcednature ----------------
#NOTEDATA:;
#STEPSTYPE:dance-single;
#DESCRIPTION:forcednature;
#CREDIT:forcednature;
#DIFFICULTY:Hard;
#METER:17;
#RADARVALUES:0,0,0,0,0;
#NOTES:
0000
0000
0000
0000
,
0000
0000
0000
0000
,
0000
0000
0000
0000
,
0000
0000
0000
0000
,
0000
0000
0000
0000
,
0000
0000
0000
0000
,
2000
0000
0000
0000
3100
0000
1000
0001
0200
0000
0000
0000
0310
0000
0100
0000
,
0000
0000
0001
0000
0100
0000
0010
1000
0020
0000
0000
0000
0130
0000
0100
0000
,
0001
0000
1000
0100
1000
0100
1000
0000
0001
0100
0001
0100
0001
0000
0010
0000
,
0100
0000
0000
0100
0000
0000
0010
0000
2002
0000
0000
0000
3003
0000
0000
0000
,
0100
0001
1000
0000
0010
0000
0100
0000
0001
0010
0001
0000
1000
0100
1000
0000
,
0010
0100
0001
0000
1000
0000
0100
0000
1000
0010
1000
0000
0001
0100
0001
0000
,
0010
0100
1000
0000
0001
0000
0100
0000
0001
0010
0001
0000
1000
0010
1000
0000
,
0100
0010
0001
0000
0100
0000
0100
0000
0001
1000
0001
1000
0200
0000
0000
0000
,
0310
0001
0010
0001
0010
0000
0100
0000
1100
0000
0000
0000
0010
0000
1000
0000
,
0001
0100
0001
0100
0001
0000
0010
0000
0110
0000
0000
0000
1000
0000
0001
0000
,
1000
0000
0001
0010
0001
0010
0100
0000
1000
0010
1000
0010
0100
0000
0001
0000
,
1000
0100
0010
0001
1000
0010
0100
0001
0020
0000
0000
0000
0030
0000
0000
0000
,
1001
0000
1000
0010
0000
1000
0100
0000
,
0010
0001
1000
0001
0100
0010
1000
0001
,
0010
0000
0100
1000
0000
0010
0100
0000
,
0010
1000
0001
0010
1000
0010
0100
1000
,
1010
0000
0010
0100
0000
1000
0100
0001
,
0100
0000
0010
1000
0001
0010
0100
1000
,
1100
0000
0100
0010
0002
0000
1000
0000
,
0103
0000
0100
0000
0001
0000
0010
0100
0010
0000
0001
0000
1000
0000
0010
0000
,
0100
0000
0001
0000
1000
0010
1000
0000
0100
1000
0100
0000
0010
0000
0001
0000
,
0100
0000
0010
1000
0001
0000
0010
0000
0001
0000
1000
0010
1000
0000
0100
0000
,
0010
0000
0001
0100
0001
0100
0010
0000
1000
0010
1000
0010
0100
0000
0001
0000
,
1000
0100
0001
0100
1000
0010
0001
0010
,
0100
0000
0001
1000
0001
1000
0100
0000
1000
0001
1000
0001
0010
0000
0100
0000
,
1000
0010
0100
0010
0001
0010
0100
0001
,
0011
0000
0010
0100
1100
0000
1000
0001
,
0100
0000
0010
1000
0001
1000
0100
0000
0010
0001
0010
0000
0001
0100
0001
0000
,
1000
0000
1000
0100
0010
0000
0010
0001
,
0100
0000
0010
1000
0000
0001
0010
0100
,
1000
0000
1000
0001
0200
0000
0010
0000
,
0302
0010
2003
3010
,
1002
0000
0100
0000
0103
0001
0010
0001
,
1000
0000
0010
0100
0001
0100
0010
1000
,
1100
0000
0001
0101
0000
0010
0100
0110
,
0000
0000
1000
0000
0001
0000
0100
0000
0010
0000
1000
0000
0001
0010
0001
0010
,
0100
0000
1000
0001
0100
0000
0010
0000
0100
0001
1000
0000
1100
0000
0000
0000
,
0100
0000
0010
0001
0010
0000
0100
0000
1000
0000
0010
1000
0010
0000
0100
0000
,
0001
0000
0010
0100
1000
0000
0001
0000
1000
0010
0100
0000
0001
0000
0101
0000
,
0000
0100
0010
0100
0001
1000
0010
1000
,
0100
0000
0010
0001
0100
0000
0010
0000
1000
0001
0010
0000
0100
0000
0000
0000
,
0010
0000
0100
0000
1000
0000
0010
0000
1000
0000
0000
0001
0000
0000
0010
0000
,
0100
0000
1000
0010
1000
0010
0100
0000
0001
0010
0001
0010
0100
0000
1000
0000
,
0001
0100
0010
1000
0001
0010
0100
1000
0020
0000
0000
0000
0030
0000
0000
0000
,
0100
0001
0100
0000
0001
0010
0001
0000
1000
0010
1000
0000
0100
0000
0010
0000
,
0000
0100
1000
0001
0100
0010
1000
0001
,
0000
0000
0010
0001
0010
0001
0100
0000
0010
1000
0010
1000
0100
0000
1000
0000
,
0001
0000
0000
0100
0000
0000
0021
0000
0000
0000
0130
1000
0100
1000
0100
0000
,
0010
0001
0010
0000
0001
0100
0001
0000
1000
0010
1000
0000
0100
1000
0100
0000
,
0000
0010
0001
0100
0002
0000
0013
0100
,
1000
0000
0001
0100
0001
0100
0010
0000
1000
0000
0000
0011
0000
0000
1000
0000
,
0001
0100
0001
0100
0010
1000
0010
1000
0001
0000
0000
0000
0000
0000
0000
0000
,
1000
0010
1000
0000
0100
0010
0100
0000
0010
0001
0010
0000
0100
0000
1000
0000
,
0000
0010
0100
0001
1000
0100
1000
0010
,
0000
0000
1000
0100
1000
0100
0010
0000
0001
0100
0001
0100
0010
0000
1000
0000
,
0100
0000
0000
1000
0000
0000
0201
0000
0000
0000
0301
1000
0001
1000
0001
0000
,
0010
0001
0010
0000
0100
0010
0100
0000
1000
0100
1000
0000
0010
1000
0010
0000
,
0000
0100
0001
0010
0002
0000
0103
0010
,
0110
0000
0000
0000
1001
0000
0000
0000
1100
0000
0000
0101
0000
0000
0010
0000
,
0101
0000
0000
1100
0000
0000
0010
0000
2000
0000
0000
0000
3100
1000
0010
0100
,
0001
0000
0000
0001
0100
0000
0010
0000
1000
0000
0000
1000
0100
0000
0010
0000
,
0100
0000
0000
0100
1000
0000
0001
0000
0100
0000
0000
0100
0001
0000
1000
0000
,
0010
1000
0010
0000
0100
0010
0100
0000
0001
0100
0001
0000
1000
0001
1000
0000
,
0001
0010
0001
0000
0010
0100
0010
0000
0001
0000
0001
0000
1000
0000
0000
0000
,
0010
0100
0010
0100
0001
0100
0001
0100
0010
0000
1000
0000
0001
0000
0010
0000
,
0001
0100
0001
0000
0100
0010
0100
0000
0010
1000
0010
1000
0001
0000
1000
0000
,
0100
0001
0100
1000
0010
0001
0010
1000
,
0100
0000
0010
0000
0110
0000
0000
0000
0100
1000
0100
1000
0001
0100
0001
0100
,
0020
0000
0000
0030
,
1000
0100
1000
0001
0100
0010
1000
0001
,
0010
0100
1000
0002
0000
0100
0000
0100
,
0000
1000
1000
0000
0013
0001
0100
0000
,
0220
0000
0000
0330
,
0000
0000
0010
0000
1000
0000
0001
0000
1000
0000
0000
0100
0000
0000
0010
0000
,
0001
0100
0001
0000
0100
0000
0010
1000
0010
0000
1000
0000
0100
0010
0100
0000
,
1000
0100
1000
0000
0100
0000
0010
0001
0010
0000
0001
0000
0100
0010
0100
0000
,
0001
0010
0001
0010
0100
0000
1000
0010
1000
0010
0100
0000
0001
0100
0001
0100
,
0010
0000
1000
0100
0010
0001
1000
0001
0200
0000
0000
0000
0300
0000
0000
0000
,
0001
0010
0001
0000
0010
0100
0010
0000
0100
1000
0100
0000
1000
0000
0001
0000
,
0000
0100
0010
1000
0001
0010
0100
0010
,
0000
0000
0001
0100
0001
0100
0010
0000
1000
0100
1000
0100
0010
0000
0001
0000
,
1000
0000
0000
0010
0000
0000
0102
0000
0000
0000
0013
0001
0010
0001
0010
0000
,
0100
1000
0001
0000
1000
0100
0010
0000
0001
1000
0010
0000
0100
0001
0010
0000
,
0000
0100
1000
0001
0200
0000
0310
1000
,
0001
0000
1000
0100
1000
0100
0010
0000
0011
0000
0000
0101
0000
0000
0010
0000
,
1010
0000
0000
1100
0000
0000
0010
0000
0001
1000
0001
1000
0100
0010
0001
0000
,
1000
0010
0000
0100
0010
0000
1000
0000
0001
0010
0000
0100
0010
0000
0001
0000
,
1000
0100
0000
1000
0001
0000
0100
0000
0010
1000
0000
0001
0010
0000
0100
0000
,
0010
0001
0000
0100
0010
0000
1000
0000
0001
0010
0000
0100
1000
0000
0001
0000
,
0100
0010
0000
1000
0001
0000
0010
0000
0200
0000
0000
0000
1300
0000
0001
0000
,
0100
0001
0100
0001
1000
0000
0010
0000
0100
0000
1000
0000
0100
0000
0001
0000
,
0010
0100
0010
0100
1000
0000
0001
0000
0100
0000
0010
0000
1000
0000
0001
0000
,
0010
0100
1000
0000
0100
0010
0001
0000
1000
0001
0100
0000
0001
1000
0010
0000
,
1000
0100
1000
0100
0010
0001
0010
0001
1000
0010
0100
0001
1000
0000
0001
0000
,
1000
0100
0010
0001
1000
0000
0001
0100
0010
1000
0001
0000
0010
0100
1000
0001
,
0100
0000
0010
0100
0001
1000
0100
0000
0010
0001
1000
0010
0100
0001
1000
0100
,
0010
0220
0000
0000
0000
0000
0000
0000
,
0330
0000
0000
0000
;

//--------------- dance-double - forcednature ----------------
#NOTEDATA:;
#STEPSTYPE:dance-double;
#DESCRIPTION:forcednature;
#CREDIT:forcednature;
#DIFFICULTY:Easy;
#METER:9;
#RADARVALUES:0,0,0,0,0;
#NOTES:
00000000
00000000
00000000
00000000
,
00000000
00000000
00000000
00000000
,
00000000
00000000
00000000
00000000
,
00000000
00000000
00000000
00000000
,
00000000
00000000
00000000
00000000
,
00000000
00000000
00000000
00000000
,
00001000
00000000
01001000
00000000
,
00010000
00000000
00010100
00000000
,
00000100
00001000
00000001
00000100
,
00001000
00010000
00011000
00000000
,
01000000
00010000
01000000
00000000
00100000
00000000
10000000
00000000
,
01000000
10000000
01000000
00000000
00100000
00000000
00001000
00000000
,
00010000
00000010
00010000
00000000
00001000
00000000
00000010
00000000
,
00000100
00001000
00000100
00000000
00000010
00000000
00000001
00000000
,
00000100
00000001
00000101
00000000
,
00000010
00001000
00001010
00000000
,
00010000
00001000
00010000
00000000
00100000
00000000
01000000
00000000
,
00010000
10000000
01000000
00000000
,
01100000
00000000
00100000
00001000
,
00010000
00000010
00001000
00000100
,
00000010
00000000
00000001
00000000
00001000
00000010
00001000
00000000
,
00000100
00010000
00001000
01000000
,
00010000
00000000
10000000
00000000
01000000
00100000
01000000
00000000
,
10000000
00010000
01000000
00001000
,
00010000
00000000
00000100
00001000
00000100
00000000
00000010
00000000
,
00000001
00000000
00000100
00000000
00000010
00001000
00000010
00000000
,
00010000
00000000
00010000
00001000
00010000
00000000
00010000
00000000
,
00001000
01000000
00010000
00100000
,
00001000
00000000
00001000
00010000
00001000
00000000
00001000
00000000
,
00010000
00000100
00001000
00000010
,
00000100
00000000
00000100
00000001
00000100
00000000
00000100
00000000
,
00000010
00010000
00001000
00100000
,
01000000
00000000
01000000
10000000
01000000
00000000
01000000
00000000
,
00100000
00001000
00010000
00000010
,
00000110
00000000
00000100
00000100
,
00000001
00000001
00001000
00001000
,
00000100
00000000
00020000
00000000
,
00032000
00000000
02003000
00000000
,
03020000
00000000
00130000
00100000
,
01000000
10000000
00010000
10000000
,
00100000
00000000
01000000
00010000
,
01000000
00001000
00010000
00000100
,
00002000
00000000
00000000
00003000
,
00000001
00000100
00000001
00000010
,
00000100
00001000
00000100
00000000
00010000
00000000
00001000
00000000
,
01000000
00010000
01000000
00100000
,
20000000
00000000
00000000
30000000
,
01000000
00100000
00001000
00010000
,
00000100
00000000
00000000
00000110
00000000
00000000
00000010
00000000
,
00000001
00001000
00000001
00000000
00001000
00000000
00000000
00000000
,
00000010
00001000
00000010
00000000
00001000
00000010
00001000
00000000
,
00000100
00010000
00001000
01000000
,
00010000
00100000
00010000
00000000
00100000
00010000
00100000
00000000
,
01000000
00000000
00000000
20020000
00000000
00000000
30030000
00000000
,
10000000
01000000
10000000
00000000
01000000
00000000
00100000
00000000
,
00001000
00010000
00001000
00000000
00010000
00000000
00000010
00000000
,
00001000
00001000
00000001
00000001
,
00000010
00000100
00010000
00001000
,
01000000
00010000
01000000
00000000
00010000
01000000
00010000
00000000
,
10000000
01000000
00100000
00001000
,
00010000
00000010
00010000
00000000
00000010
00010000
00000010
00000000
,
00001000
00000000
00000000
00002002
00000000
00000000
00003003
00000000
,
00000001
00000010
00000001
00000000
00000010
00000100
00000010
00000000
,
00000100
00010000
00001000
01000000
,
00010000
00010000
10000000
10000000
,
01000000
00100000
00001000
00010000
,
00022000
00000000
00000000
00000000
,
00000000
00000000
00033000
00000000
,
00000100
00000100
00001000
00001000
,
00000001
00000000
00000100
00000000
00000010
00001000
00000010
00001000
,
00000200
00000000
00010300
00001000
,
01000000
00010000
00100000
01000000
,
01000000
00100000
00001000
00010000
,
00000010
00000000
00001000
00000000
00000001
00000010
00000001
00000000
,
00000200
00000000
00000000
00000300
,
00000010
00010000
00001000
01000000
,
00010000
10000000
00010000
00000000
00100000
00000000
00001000
00000000
,
00010000
00000100
00001000
00000001
,
00002000
00000000
00000000
00003000
,
00000010
00010000
00001000
00100000
,
01000000
00000000
00000000
01100000
00000000
00000000
00100000
00000000
,
00001000
00000000
00000000
00011000
00000000
00000000
00010000
00000000
,
00000010
00000000
00000000
00000110
00000000
00000000
00000100
00000000
,
00000000
00000110
00000000
00000000
00001001
00000000
00000000
00000000
,
00001000
00000100
00001000
00000000
00000100
00001000
00000100
00000000
,
00010000
00001000
01000000
00010000
,
00100000
01000000
00100000
00000000
01000000
00100000
01000000
00000000
,
10000000
00000000
00000000
20020000
00000000
00000000
30030000
00000000
,
00010000
01000000
00010000
00000000
01000000
00000000
00001000
00000000
,
00010000
00000100
00010000
00000000
00001000
00000000
00010000
00000000
,
00000010
00001000
00000001
00001000
,
00000100
00000100
00010000
00001000
,
01001000
01000000
00010000
00100000
,
01100000
01000000
10000000
00010000
,
01010000
01000000
00001000
00010000
,
00010100
00000100
00001000
00000010
,
00000100
00000001
00000100
00000000
00000010
00000000
00010000
00000000
,
00001000
00100000
00001000
00000000
00010000
00000000
00100000
00000000
,
10000000
00010000
10000000
01000000
,
00100000
00010000
00100000
00000000
01000000
00000000
00010000
00000000
,
00001000
00000000
00000000
00000010
00000000
00000000
00000001
00000000
,
00000000
00000100
00000000
00000000
00001000
00000000
00000000
00000000
,
00022000
00000000
00000000
00000000
,
00033000
00000000
00000000
00000000
;

//--------------- dance-double - forcednature ----------------
#NOTEDATA:;
#STEPSTYPE:dance-double;
#DESCRIPTION:forcednature;
#CREDIT:forcednature;
#DIFFICULTY:Medium;
#METER:14;
#RADARVALUES:0,0,0,0,0;
#NOTES:
00000000
00000000
00000000
00000000
,
00000000
00000000
00000000
00000000
,
00000000
00000000
00000000
00000000
,
00000000
00000000
00000000
00000000
,
00000000
00000000
00000000
00000000
,
00000000
00000000
00000000
00000000
,
00020000
00000000
00030100
00001000
00000002
00000000
00000103
00001000
,
00000000
00000100
00000001
00000010
00000002
00000000
00000103
00000010
,
00001000
00000010
00010000
00001000
00100000
00001000
00010000
00100000
,
01000000
00100000
10000000
00010000
00200000
00000000
00300000
00000000
,
01000000
10000000
01000000
00010000
01000000
10000000
01000000
00010000
,
00001000
00000010
00000100
00000010
00001000
00000010
00000100
00000010
,
00000001
00000100
00001000
00000100
00000001
00000100
00001000
00000100
,
00000010
00010000
00000100
00010000
00001000
00100000
00010000
00000000
,
01000000
10000000
01000000
00010000
00100000
01000000
00100000
00000000
,
00001000
00010000
00000010
00010000
00001000
00000010
00001000
00000000
,
00010000
00000100
00000100
00001000
00000010
00000001
00000010
00001000
,
00000100
00010000
00001000
00010000
02000000
00000000
03000000
00000000
,
01100000
00000000
00100000
00010000
10000000
00010000
01000000
00000000
,
00100000
00010000
00001000
00000000
00000010
00001000
00010000
00000000
,
00000100
00000000
00001000
00000010
00000001
00000010
00000100
00000000
,
00000001
00000110
00001000
00000110
,
00001001
00000000
00001000
00000100
00010000
00001000
00000100
00000000
,
00000010
00001000
00010000
01000000
00000000
00010000
10000000
00010000
,
00100000
00000000
01000000
10000000
02000000
00000000
00010000
00000000
,
03100000
01000000
00010000
00000000
00001000
00000100
00000010
00000000
,
00000110
00000000
00000100
00000001
00000010
00000001
00000100
00001000
,
00010000
01000000
10000000
00100000
10000000
01000000
00010000
00001000
,
00000010
00000100
00000100
00000001
00000100
00000100
00001000
00000000
,
00000010
00010000
00001000
00100000
01000000
00100000
00001000
00010000
,
00100000
00000000
10000000
01000000
00010000
01000000
00100000
00000000
,
00001000
00010000
00000010
00000100
00001000
00000100
00000001
00000010
,
00000200
00000000
00010300
00001000
00020000
00000000
00100000
00000000
,
00031000
00010000
00001000
01000000
00100000
00010000
00100000
10000000
,
01000000
01000000
00010000
00010000
,
00001000
00000000
00001000
00000000
00000100
00000001
00000000
00000010
,
00000001
00000100
00002000
00000000
,
00023000
00000000
02030000
00000000
,
23000000
00000000
00100000
00000000
30100000
00000000
10000000
01000000
,
10000000
00000000
00010000
01000000
00000000
00010000
00100000
00000000
,
01100000
00000000
01000000
10000000
00000000
01000000
00010000
01000000
,
00000000
00100000
00001000
00010000
00000010
00010000
00001000
00000010
,
00000100
00000001
00000100
00001000
00000010
00001000
00000001
00000000
,
00000010
00000100
00010000
00001000
01000000
00100000
00010000
00100000
,
10000000
00010000
10000000
01000000
00000000
00010000
00001000
00000010
,
00000100
00010000
00001000
00000100
00000001
00001000
00000001
00000010
,
00000100
00000000
00010000
00001000
00100000
01000000
00100000
00000000
,
00001000
00000000
00010000
00000000
00100000
00000000
10000000
00000000
00100000
00000000
00000000
01000000
00000000
00000000
00001000
00000000
,
00010000
00000100
00010000
00001000
00000100
00000001
00000010
00000001
,
00000100
00001000
00010000
01000000
00200000
00000000
00300000
00000000
,
00001000
00010000
00001000
01000000
00100000
00010000
00100000
10000000
,
00000000
01000000
00010000
01000000
00100000
00001000
00010000
00001000
,
00000000
00000100
00000001
00000100
00001000
00010000
00001000
00000010
,
00000220
00000000
00000000
00000330
00000000
00000000
00002002
00000000
00000000
00000000
00000000
00000000
00003003
00000000
00000000
00000000
,
00001000
00000010
00001000
00010000
01000000
00010000
00100000
01000000
,
00000000
00100000
00001000
00010000
00100000
00000000
10000000
00010000
,
00100000
00000000
00000000
00000000
01000000
00000000
00000000
00000000
01100000
00000000
00000000
00100000
00000000
00000000
00001000
00000000
,
00010000
00010000
00000010
00000010
00001000
00000100
00000010
00000000
,
00001000
00000010
00000001
00001000
00000001
00000100
00001000
00010000
,
00000000
00100000
10000000
00100000
00010000
00001000
00010000
01000000
,
00000000
00100000
00001000
00010000
00000100
00000010
00001000
00000010
,
00000220
00000000
00000000
00000330
00000000
00000000
00002002
00000000
00000000
00000000
00000000
00000000
00003003
00000000
00000000
00000000
,
00001000
00000010
00001000
00000100
00000010
00001000
00010000
00100000
,
00000000
01000000
10000000
01000000
00010000
00000000
00100000
01000000
,
00010000
00000000
00010000
00000000
00001000
00000000
00000000
00000000
00011000
00000000
00000000
00010000
00000000
00000000
00000010
00000000
,
00001010
00000000
00000000
00001000
00000000
00000000
00000100
00000000
00000010
00000000
00001000
00000000
00000010
00000000
00000001
00000000
,
00000200
00000000
00001000
00001000
00001000
00000000
00000010
00000010
,
00000010
00000000
00000001
00000001
00000001
00000000
00000010
00000010
,
00000310
00000100
00001000
00010000
01000000
00100000
00001000
00010000
,
00100000
10000000
01000000
00010000
00001000
00001000
00000010
00000000
,
00000100
00010000
00000100
00000010
00000001
00001000
00000010
00000000
,
00000100
00001000
00010000
00100000
01000000
00010000
10000000
00000000
,
11000000
10100000
00110000
00011000
,
00001000
00010000
00001000
00000010
00000100
00000010
00000001
00000000
,
00000202
00000000
00000000
00000303
,
00000100
00001000
00000100
00000000
00001000
00010000
00001000
00000000
,
01000000
00010000
00000000
00100000
00000000
10000000
00000000
00100000
,
00000000
00010000
01000000
00000000
00001000
00010000
00000100
00000000
,
00000220
00000000
00000000
00000330
,
00000010
00000000
00000001
00000000
00000100
00000000
00000001
00000000
00000010
00000000
00000000
00000100
00000000
00000000
00010000
00000000
,
00001000
00100000
01000000
00100000
00001000
00010000
00100000
10000000
,
00010000
00100000
01000000
00100000
00001000
00010000
00000010
00000000
,
00000100
00000100
00001000
00000100
00000100
00000001
00000010
00000010
,
00000100
00010000
00010000
00001000
02000000
00000000
03000000
00000000
,
00100000
00010000
00100000
10000000
00010000
10000000
01000000
00010000
,
00000000
00001000
00000100
00000001
00000010
00001000
00000010
00000001
,
00000000
00000100
00000100
00001000
00010000
00010000
00001000
01000000
,
02200000
00000000
00000000
03300000
00000000
00000000
20020000
00000000
00000000
00000000
00000000
00000000
30030000
00000000
00000000
00000000
,
10000000
01000000
00100000
00010000
00001000
00000100
00000010
00000001
,
00000000
00000100
00001000
00000100
00000001
00000000
00000010
00000100
,
00010100
00000000
00000000
00000000
00101000
00000000
00000000
00000000
00100000
00000000
00000000
00110000
00000000
00000000
00010000
00000000
,
01000000
00000000
00000000
01100000
00000000
00000000
00100000
00000000
10000000
00000000
01000000
00000000
00010000
00000000
00001000
00000000
,
00000100
00000001
00000010
00000100
00000010
00000001
00000100
00001000
,
00010000
01000000
00100000
00001000
00010000
00100000
10000000
01000000
,
00010000
00001000
00000010
00000100
00010000
00001000
00000100
00000001
,
00000010
00000000
00000200
00000000
00020300
00000000
00031000
00100000
,
01000000
00100000
00001000
01000000
00100000
10000000
01000000
00100000
,
00001000
00010000
00000100
00000010
00001000
00000010
00000001
00000100
,
00000110
00010010
00101000
01100000
,
01000000
01000000
10000000
10000000
00100000
10000000
01000000
00000000
,
00010000
00010000
00001000
00010000
00010000
00100000
00010000
00010000
,
00000010
00010000
00010000
00000100
00001000
00000010
00000001
00000010
,
00000100
00000220
00000000
00000000
00000000
00000000
00000000
00000000
,
00000330
00000000
00000000
00000000
;

//--------------- dance-double - forcednature ----------------
#NOTEDATA:;
#STEPSTYPE:dance-double;
#DESCRIPTION:forcednature;
#CREDIT:forcednature;
#DIFFICULTY:Hard;
#METER:17;
#RADARVALUES:0,0,0,0,0;
#NOTES:
00000000
00000000
00000000
00000000
,
00000000
00000000
00000000
00000000
,
00000000
00000000
00000000
00000000
,
00000000
00000000
00000000
00000000
,
00000000
00000000
00000000
00000000
,
00000000
00000000
00000000
00000000
,
00002000
00000000
01003000
00010000
00200000
00000000
01300000
10000000
,
00000000
00000000
01000000
00000000
00010000
00000000
00001000
00010000
00002000
00000000
00000000
00000000
00013000
00000000
00010000
00000000
,
00000010
00000000
00001000
00000100
00001000
00000100
00001000
00000000
00000001
00000100
00000001
00000100
00000001
00000000
00000010
00000000
,
00000100
00000000
00000000
00010000
00000000
00000000
00001000
00000000
00200000
00000000
00000000
00000000
00300000
00000000
00000000
00000000
,
01000000
10000000
01000000
00000000
00100000
00000000
00010000
00000000
01000000
00000000
00010000
00000000
01000000
00000000
00001000
00000000
,
00010000
00000010
00010000
00000000
00001000
00000000
00010000
00000000
00000100
00000000
00001000
00000000
00000100
00000000
00000010
00000000
,
00000001
00001000
00000001
00000000
00000100
00000000
00000010
00000000
00001000
00000000
00000010
00000000
00010000
00000000
00001000
00000000
,
00100000
00010000
00100000
00000000
01000000
00000000
10000000
00000000
00010000
01000000
00010000
01000000
00200000
00000000
00000000
00000000
,
10300000
00010000
10000000
00000000
01000000
00000000
00100000
00000000
00110000
00000000
00000000
00000000
00010000
00000000
01000000
00000000
,
00001000
00010000
00001000
00000000
00010000
00000000
00000100
00000000
00001100
00000000
00000000
00000000
00001000
00000000
00000001
00000000
,
00000100
00000000
00000001
00000100
00000001
00000000
00001000
00000000
00000010
00001000
00000010
00000000
00010000
00000000
00001000
00000000
,
00100000
00010000
00100000
00010000
10000000
00000000
00010000
00000000
02000000
00000000
00000000
00100000
03000000
00000000
01000000
00000000
,
01100000
00000000
00100000
10000000
00000000
00010000
00100000
00000000
,
01000000
00100000
00001000
00010000
00000100
00000010
00000001
00001000
,
00000010
00000000
00010000
00001000
00000000
01000000
00010000
00000000
,
00100000
01000000
10000000
01000000
00010000
00001000
00010000
00000010
,
00001010
00000000
00001000
00000100
00000000
00000001
00000100
00000010
,
00000001
00000000
00001000
00000010
00010000
00001000
00100000
00010000
,
01010000
00000000
01000000
00100000
20000000
00000000
00010000
00000000
,
31000000
00000000
01000000
00000000
00100000
00000000
00010000
00100000
00010000
00000000
01000000
00000000
00001000
00000000
00010000
00000000
,
00000100
00000000
00001000
00000000
00000100
00000010
00000100
00000000
00000010
00000001
00000010
00000000
00000001
00000000
00001000
00000000
,
00000001
00000000
00000100
00000001
00001000
00000000
00000010
00000000
00010000
00000000
00001000
00100000
00001000
00000000
00100000
00000000
,
00010000
00000000
10000000
00100000
10000000
00100000
01000000
00000000
00010000
00100000
00010000
00100000
01000000
00000000
00100000
00000000
,
00001000
00010000
00000100
00000010
00000001
00001000
00000001
00000100
,
00000010
00000000
00001000
00000100
00001000
00000100
00010000
00000000
00001000
00010000
00001000
00010000
00000100
00000000
00001000
00000000
,
00000010
00010000
00001000
00100000
00010000
01000000
00100000
10000000
,
10100000
00000000
10000000
01000000
01010000
00000000
00010000
00001000
,
00010000
00000000
00000100
00001000
00000100
00000000
00000010
00000000
00000001
00000000
00000100
00000000
00001000
00000000
00010000
00000000
,
00100000
00000000
10000000
00010000
00100000
00000000
00100000
01000000
,
00010000
00000000
00010000
00001000
00000000
00001000
00000010
00000100
,
00001000
00000000
00001000
00000001
00000200
00000000
00000010
00000000
,
00000302
00000010
00002003
00003100
,
00021000
00000000
00000010
00000000
00030010
00010000
00001000
00100000
,
00001000
00000000
00010000
00100000
01000000
00100000
10000000
00010000
,
00110000
00000000
00001000
00011000
00000000
00010000
00000010
00001010
,
00000000
00000000
00001000
00000000
00000100
00000000
00000010
00000000
00000100
00000000
00001000
00000000
00000001
00000100
00000001
00000100
,
00000010
00000000
00001000
00000010
00010000
00000000
00001000
00000000
00100000
00010000
00100000
00000000
01100000
00000000
00000000
00000000
,
01000000
00000000
10000000
00010000
10000000
00000000
00100000
00000000
01000000
00000000
00010000
01000000
00010000
00000000
01000000
00000000
,
00001000
00000000
00010000
00000100
00001000
00000000
00000100
00000000
00001000
00000100
00010000
00000000
00001000
00000000
01001000
00000000
,
00000000
01000000
00010000
00100000
00010000
10000000
00100000
10000000
,
01000000
00000000
00100000
00010000
00100000
00000000
00001000
00000000
00010000
00000010
00010000
00000000
00001000
00000000
00000000
00000000
,
00000010
00000000
00000100
00000000
00001000
00000000
00000100
00000000
00000010
00000000
00000000
00000001
00000000
00000000
00001000
00000000
,
00000010
00000000
00010000
00001000
00010000
00001000
00100000
00000000
00010000
00100000
00010000
00100000
00001000
00000000
01000000
00000000
,
00100000
10000000
00100000
10000000
00010000
00000000
00100000
01000000
20000000
00000000
00000000
00000000
30000000
00000000
00000000
00000000
,
10000000
01000000
10000000
00000000
01000000
00100000
01000000
00000000
00100000
00010000
00100000
00000000
00001000
00000000
00010000
00000000
,
00000000
00000010
00001000
00000100
00000001
00000100
00001000
00000010
,
00000000
00000000
00010000
00001000
00010000
00001000
01000000
00000000
00010000
01000000
00010000
01000000
00100000
00000000
10000000
00000000
,
01000000
00000000
00000000
00010000
00000000
00000000
00021000
00000000
00000000
00000000
00030100
00001000
00000100
00001000
00000100
00000000
,
00000010
00000001
00000010
00000000
00000001
00000100
00000001
00000000
00000100
00000010
00000100
00000000
00000010
00001000
00000010
00000000
,
00000000
00010000
00001000
00100000
00020000
00000000
01030000
10000000
,
01000000
00000000
00010000
01000000
00010000
01000000
00100000
00000000
10000000
00000000
00000000
01000000
00000000
00000000
00010000
00000000
,
00001000
00010000
00001000
00010000
00000100
00000000
00001000
00000001
00000100
00000000
00000000
00000000
00000000
00000000
00000000
00000000
,
00000010
00001000
00000010
00000000
00001000
00000100
00001000
00000000
00000100
00010000
00000100
00000000
00010000
00000000
00001000
00000000
,
00000000
01000000
00010000
00100000
10000000
00100000
00010000
01000000
,
00000000
00000000
00001000
00010000
00001000
00010000
00000100
00000000
00001000
00000100
00001000
00000100
00000010
00000000
00000001
00000000
,
00001000
00000000
00000000
00000010
00000000
00000000
00020010
00000000
00000000
00000000
00031000
01000000
00001000
01000000
00001000
00000000
,
01000000
00010000
01000000
00000000
00100000
01000000
00100000
00000000
10000000
00100000
10000000
00000000
00010000
10000000
00010000
00000000
,
00000000
00100000
01000000
00100000
00002000
00000000
00013000
00000010
,
00001010
00000000
00000000
00000000
00001100
00000000
00000000
00000000
00000100
00000000
00000000
00000110
00000000
00000000
00000010
00000000
,
00000001
00000000
00000000
00000101
00000000
00000000
00000100
00000000
00000020
00000000
00000000
00000000
00001030
00000010
00001000
00000010
,
00010000
00000000
00000000
00001000
00000000
00000000
00100000
00000000
00010000
00000000
00000000
10000000
00000000
00000000
00100000
00000000
,
01000000
00000000
00000000
00001000
00000000
00000000
00010000
00000000
00000100
00000000
00000000
00001000
00000000
00000000
00000001
00000000
,
00000100
00000001
00000100
00000000
00000010
00000100
00000010
00000000
00001000
00000010
00001000
00000000
00000010
00010000
00000010
00000000
,
00010000
00001000
00010000
00000000
00001000
00100000
00001000
00000000
00100000
00000000
00100000
00000000
01000000
00000000
00000000
00000000
,
10000000
00100000
10000000
00100000
01000000
00100000
01000000
00100000
10000000
00000000
00010000
00000000
00100000
00000000
00001000
00000000
,
00010000
00000010
00010000
00000000
00000010
00001000
00000010
00000000
00001000
00000001
00001000
00000001
00000010
00000000
00000100
00000000
,
00010000
00001000
00100000
01000000
00100000
00001000
00010000
00100000
,
01000000
00000000
00100000
00000000
10100000
00000000
00000000
00000000
10000000
01000000
10000000
01000000
00100000
00010000
00100000
00010000
,
02000000
00000000
00000000
03000000
,
00001000
00010000
00000100
00000010
00001000
00000010
00000001
00001000
,
00000001
00000100
00001000
00020000
00000000
00000010
00000000
00000010
,
00000000
00001000
00001000
00000000
00030100
00010000
00001000
00000000
,
02002000
00000000
00000000
03003000
,
00000000
00000000
01000000
00000000
00010000
00000000
10000000
00000000
00010000
00000000
00000000
00100000
00000000
00000000
01000000
00000000
,
00100000
00010000
00100000
00000000
00001000
00000000
00010000
00000010
00010000
00000000
00000100
00000000
00001000
00000010
00001000
00000000
,
00000010
00000100
00000010
00000000
00000100
00000000
00000001
00000100
00000001
00000000
00001000
00000000
00000100
00001000
00000100
00000000
,
00010000
00001000
00010000
00001000
01000000
00000000
00010000
10000000
00010000
10000000
01000000
00000000
00100000
00010000
00100000
00010000
,
01000000
00000000
00001000
00000000
00010000
00000100
00010000
00000100
00002000
00000000
00000000
00000000
00003000
00000000
00000000
00000000
,
00000001
00000100
00000001
00000000
00000100
00000010
00000100
00000000
00000010
00001000
00000010
00000000
00010000
00000000
00001000
00000000
,
00000000
00100000
01000000
00100000
00001000
00010000
00100000
01000000
,
00000000
00000000
00100000
10000000
00100000
10000000
00010000
00000000
00100000
01000000
00100000
01000000
10000000
00000000
00010000
00000000
,
01000000
00000000
00000000
00001000
00000000
00000000
00021000
00000000
00000000
00000000
00030100
00001000
00000100
00001000
00000100
00000000
,
00000010
00000001
00001000
00000000
00000100
00010000
00001000
00000000
00100000
00001000
00010000
00000000
00001000
01000000
00010000
00000000
,
00000000
00100000
01000000
10000000
00200000
00000000
01300000
00001000
,
00010000
00000000
00000100
00001000
00000100
00001000
00000001
00000000
00000100
00000000
00000000
00000110
00000000
00000000
00000010
00000000
,
00010000
00000000
00000000
00011000
00000000
00000000
00001000
00000000
00100000
00010000
00100000
00010000
10000000
00000000
00100000
00000000
,
01000000
00010000
00000000
01000000
00001000
00000000
00010000
00000000
00000100
00001000
00000000
00000100
00010000
00000000
00001000
00000000
,
00100000
00010000
00000000
00100000
00001000
00000000
00010000
00000000
00000010
00001000
00000000
00000010
00010000
00000000
00001000
00000000
,
00100000
00010000
00000000
01000000
00001000
00000000
00010000
00000000
00000010
00001000
00000000
00000100
00010000
00000000
00001000
00000000
,
01000000
00010000
00000000
10000000
00010000
00000000
00100000
00000000
02000000
00000000
00000000
00000000
13000000
00000000
00010000
00000000
,
01000000
00010000
01000000
00010000
00100000
00000000
00001000
00000000
00010000
00000000
00000010
00000000
00000100
00000000
00000010
00000000
,
00001000
00000001
00001000
00000001
00000010
00000000
00000100
00000000
00010000
00000000
00001000
00000000
00100000
00000000
01000000
00000000
,
10000000
00010000
01000000
00000000
00100000
10000000
00010000
00000000
00100000
00001000
00010000
00000000
00000100
00010000
00001000
00000000
,
00010000
00000010
00010000
00000010
00001000
00000010
00001000
00000000
00000001
00000010
00000001
00000010
00000100
00000000
00000000
00000000
,
00010000
00001000
01000000
00010000
01000000
00000000
00001000
00010000
00000100
00001000
00000100
00000000
00010000
00001000
00100000
00010000
,
00100000
00000000
00001000
00010000
00000010
00001000
00000010
00000000
00010000
00001000
01000000
00010000
01000000
00100000
10000000
00010000
,
00100000
02200000
00000000
00000000
00000000
00000000
00000000
00000000
,
03300000
00000000
00000000
00000000
;
