#VERSION:0.83;
#TITLE:TOMAHAWK;
#SUBTITLE:;
#ARTIST:かめりあ;
#TITLETRANSLIT:;
#SUBTITLETRANSLIT:;
#ARTISTTRANSLIT:Camellia;
#GENRE:SUPER HARDCORE NOVA;
#CREDIT:;
#MUSIC:TOMAHAWK.ogg;
#BANNER:TOMAHAWK.png;
#BACKGROUND:TOMAHAWK-bg.png;
#CDTITLE:./CDTitles/bm IIDX 29 CastHour.png;
#SAMPLESTART:54.850;
#SAMPLELENGTH:15.000;
#SELECTABLE:YES;
#OFFSET:3.098;
#BPMS:0.000=107.500
,46.500=215.000
,75.000=107.500
,77.000=215.000
,105.000=107.500
,107.000=322.500
,108.000=215.000
,167.000=107.500
,169.000=215.000
,201.000=107.500
,217.000=215.000
,340.000=107.500
,342.000=215.000
;
#STOPS:38.500=0.279
,46.500=0.419
,107.000=0.093
,246.000=0.279
;
#TIMESIGNATURES:36.000=3=4,
39.000=4=4,
75.000=2=4,
77.000=4=4,
105.000=2=4,
107.000=4=4,
167.000=2=4,
169.000=4=4,
245.000=3=4,
248.000=4=4,
340.000=2=4,
342.000=4=4
;
#DISPLAYBPM:215.000;
#BGCHANGES:0.000=../BGAs/21te.mp4=1.000=0=0=0=StretchNoLoop====,
99999.000=-nosongbg-=1.000=0=0=0=StretchNoLoop====
;
#FGCHANGES:;

//--------------- dance-single - forcednature ----------------
#NOTEDATA:;
#STEPSTYPE:dance-single;
#DESCRIPTION:forcednature;
#DIFFICULTY:Beginner;
#METER:7;
#RADARVALUES:0,0,0,0,0;
#CREDIT:forcednature;
#NOTES:
0000
0000
0000
0000
,
0000
0000
0000
0000
,
0000
0000
0000
0000
,
0000
0000
0000
0000
,
0000
0000
0000
0000
,
0000
0000
0000
0000
,
1001
0000
0001
0000
,
0100
0000
0010
0000
,
1000
1000
0001
0001
,
1000
0000
0001
0000
0010
0000
0000
0110
,
0000
0100
0000
1000
0000
0001
0000
0100
,
0000
0010
0000
0100
0010
0100
0001
0000
,
0000
1000
0000
0001
,
1000
0001
0000
0010
,
0100
0010
0000
0100
,
1000
0100
0000
0010
,
0000
0001
1000
0001
,
1000
0001
0000
0100
,
0001
0100
0000
0020
,
0030
1001
0000
1000
,
0100
1000
0000
0001
,
0100
0001
0000
0010
,
0010
0010
0000
0100
,
0000
0110
0000
0001
,
1000
0000
1000
0001
,
0000
0100
0100
0010
,
0010
2000
0000
3000
,
0001
0100
0001
0000
,
0001
0010
0001
0000
,
0001
0100
0001
1000
,
0010
1000
0001
0000
,
1000
0100
1000
0000
,
1000
0010
1000
0000
,
1000
0100
1000
0001
,
0100
0001
0000
1001
,
0000
1000
0000
0010
,
0000
0010
0000
0100
,
0000
0100
0000
0001
,
0000
0001
0000
0010
,
0001
0000
0001
0100
,
0001
0000
0001
1000
,
0100
1000
0000
0020
,
0000
0030
1001
0000
0000
0000
1001
0000
,
0000
1001
0000
0000
,
0000
0110
0000
0110
,
0000
0110
0000
0000
,
0000
1001
0000
1001
,
0000
1001
0000
0000
,
0000
0110
0000
0110
,
0000
0110
0000
0000
,
0000
1001
0000
0100
,
0000
0010
0000
1000
,
0000
0001
0010
0001
,
0100
0010
1000
0100
,
0000
0110
0000
0010
,
0000
0001
0100
0001
,
0000
1000
0100
1000
,
0000
0001
0010
0001
,
0000
1000
0000
0010
,
0000
0100
0000
0001
,
0000
1000
0010
0100
,
0001
2000
3000
0000
,
0001
0010
0100
0010
,
0001
0010
0100
0000
,
1000
0010
0100
0010
,
1000
0010
0100
0000
,
0001
1000
0100
1000
,
0001
1000
0100
0000
,
1000
0001
0100
0001
,
1000
0010
1000
0000
,
0001
0010
0100
0010
,
0001
1000
0100
1000
,
0001
0100
0001
1000
,
0010
0000
0110
0000
,
0100
0001
0010
0001
,
1000
0010
1000
0000
,
0100
0100
1000
1000
,
0001
0010
0000
0000
,
0001
0100
0001
0100
,
0010
1000
0010
1000
,
0001
0010
0001
0010
,
0100
0100
0100
0000
,
1000
0001
1000
0001
,
0100
0010
0100
0010
,
1000
0100
0010
0001
,
0200
0000
0000
0300
1001
0000
0100
0000
,
1001
0010
1001
0100
,
0000
0000
0110
1000
,
0110
0001
0110
1000
,
0000
0000
1001
0010
,
1001
0100
1001
0010
,
0000
0000
0110
0001
,
0110
1000
0010
0110
,
0100
1001
0000
0000
;

//--------------- dance-single - forcednature ----------------
#NOTEDATA:;
#STEPSTYPE:dance-single;
#DESCRIPTION:forcednature;
#DIFFICULTY:Easy;
#METER:11;
#RADARVALUES:0,0,0,0,0;
#CREDIT:forcednature;
#NOTES:
0000
0000
0000
0000
,
0000
0000
0000
0000
,
0000
0000
0000
0000
,
0000
0000
0000
0000
,
0000
0000
0000
0000
,
0000
0000
0000
0000
,
1001
0000
1000
0100
1000
0000
0001
0100
,
0001
0000
0010
0100
1000
0001
0010
0001
,
1000
0000
0010
0100
0001
0000
0010
0100
,
1000
0000
0000
0000
1000
0000
0000
0000
0001
0000
0000
0000
0000
0000
0100
0000
0000
0000
0000
0000
0220
0330
0000
0000
0000
0000
0000
0000
1001
0000
0000
0000
,
0000
1000
0100
1000
0010
1000
0000
0001
,
0001
0000
0100
0000
0100
0000
0001
1000
0001
1000
0001
0000
0010
0000
0000
0000
,
0100
0000
1000
0000
0100
0010
0001
0000
,
0010
0100
1000
0000
0100
0000
0010
0000
,
0001
0000
1000
0000
0010
1000
0001
0000
,
0100
0001
1000
0000
1001
0000
0001
0000
,
0010
0000
0100
0000
1000
0001
0100
0000
,
0001
1000
0100
0000
0010
0000
0001
0000
,
1000
0010
1000
0000
0001
0100
0002
1000
,
1003
1001
1000
0100
,
1000
0000
0001
0100
0001
0000
0100
0010
,
0100
0010
1000
0001
,
0010
0100
0010
0000
0110
0000
0100
1000
,
0001
0000
0100
0000
0100
0010
0000
0010
,
1000
0000
1000
0001
1000
0000
1001
0000
,
0002
0000
0103
0010
0100
0000
0010
0100
,
0010
0000
0000
0000
2000
0000
0000
0001
0000
0000
0001
0000
3001
0000
0000
0000
,
0110
0000
1000
0000
0001
0100
0001
0000
,
1000
0100
1000
0000
0010
0000
0100
0000
,
0001
0010
0100
0000
0010
0100
1000
0000
,
0001
1000
0010
0100
,
0001
1000
0010
0000
1000
0001
0010
0000
,
0100
1000
0010
0100
,
0001
1000
0100
0000
1000
0001
0100
0000
,
0100
0010
0110
1001
,
1000
0100
0100
0010
,
0010
0001
1000
0001
,
0001
0100
0100
0010
,
0010
0000
1000
0000
0001
0000
0010
0001
,
0010
0000
0100
0010
0100
0000
1000
0100
,
1000
0000
0100
0010
0100
0000
2000
0000
,
0010
0001
3100
2002
,
0000
3003
0001
0100
1000
0000
0001
0010
,
1000
0000
0001
0100
1000
0000
0000
0000
,
0000
0000
1000
0100
0001
0000
1000
0010
,
0001
0000
1000
0100
0001
0000
0000
0000
,
0000
0000
0001
0100
1000
0000
0001
0010
,
1000
0000
0001
0100
1000
0000
0000
0000
,
0000
0000
1000
0100
0001
0000
1000
0010
,
0001
0000
1000
0100
0001
0000
0000
0000
,
0000
1002
0000
0023
,
0000
0230
0000
2300
,
0000
3002
0203
0320
,
2030
0000
0000
0000
3002
0000
0000
0000
0013
0000
0000
1001
0000
0000
1000
0000
,
0010
0100
0001
0000
0001
0000
0010
0001
,
0010
0000
0100
0000
0100
0000
1000
0100
,
1000
0000
0001
0000
0001
0000
0100
0001
,
0100
0010
1000
0001
,
0010
0000
0100
0010
0100
0000
1000
0000
,
0001
0000
0100
0010
0100
0000
0001
0000
,
1000
0000
0010
0100
0010
0100
0001
0000
,
1000
0000
2000
0000
0000
0000
3001
0000
0002
0003
0000
0000
0000
0000
0000
0000
,
1000
0100
0010
0000
0100
1000
0010
0000
,
1000
0100
0010
0000
0001
0000
1000
0000
,
0001
0100
0010
0000
0100
0001
0010
0000
,
0001
0100
0010
0000
1000
0000
0001
0000
,
0010
0100
1000
0000
0010
0100
0010
0000
,
1000
0100
0010
0000
0001
0000
1000
0000
,
0010
0100
0001
0000
0010
0100
0010
0000
,
0110
0000
0100
1000
0001
0000
0100
0000
,
0110
0000
0010
1000
0001
0000
0010
0000
,
0100
0000
0010
0001
1000
0000
0010
0000
,
0100
0000
0001
1000
0100
0000
0010
0000
,
0100
0100
0000
0010
0000
0100
0000
0010
,
0010
0000
0001
1000
0001
0000
0001
0100
,
0010
0000
1000
0001
1000
0000
1000
0100
,
0010
0000
0001
0000
1000
0001
1000
0001
,
0000
2002
0000
3003
,
1000
1100
0001
0101
,
1000
0010
0100
0001
,
0010
0011
0100
1100
,
1000
0000
0001
0000
1000
0001
1000
0000
,
1001
0000
0000
0110
0000
0000
1001
0000
,
0000
0010
0100
0000
0110
0000
0001
1000
,
0002
0100
1000
0013
,
2002
0000
0000
3003
0001
0100
1000
0000
,
0001
0010
1000
0000
0001
0100
1000
0000
,
0100
0000
0001
0000
1000
0100
0001
0000
,
1000
0010
0001
0000
1000
0100
0001
0000
,
1000
0000
0010
0000
0001
0100
1000
0000
,
0001
0010
1000
0000
0001
0100
1000
0000
,
0001
0000
0010
0000
1000
0100
0001
0000
,
1000
0010
0001
0000
0100
0010
0100
0000
,
0010
0000
2002
0000
0000
3003
0000
0000
;

//--------------- dance-single - forcednature ----------------
#NOTEDATA:;
#STEPSTYPE:dance-single;
#DESCRIPTION:forcednature;
#DIFFICULTY:Medium;
#METER:15;
#RADARVALUES:0,0,0,0,0;
#CREDIT:forcednature;
#NOTES:
0000
0000
0000
0000
,
0000
0000
0000
0000
,
0000
0000
0000
0000
,
0000
0000
0000
0000
,
0000
0000
0000
0000
,
0000
0000
0000
0000
,
1000
0000
1000
0000
0100
0000
1000
0001
0010
0000
0001
0000
0100
0000
0001
1000
,
0010
0000
1000
0000
0100
0000
1000
0010
0100
0000
0001
0000
0010
0000
0001
0100
,
0010
0000
0010
1000
0001
0000
0001
1000
0100
0000
0010
0001
1000
0000
1000
0001
,
0100
0000
0000
0000
0010
0000
1000
0000
0001
0000
0010
0000
0100
0000
2000
0000
0000
0000
3010
0000
0020
0030
0000
0000
0000
0000
0000
0000
1001
0000
0000
0000
,
1000
0000
0001
0000
0001
0000
0100
0000
0100
0000
0010
0000
0010
0000
1000
0001
,
1000
0000
0001
1000
0001
0000
0010
0100
1000
0001
0020
0030
1001
0000
0000
0000
,
1000
0100
1000
0000
0001
0010
0100
0010
,
0001
0000
0100
0010
0100
0001
0010
0000
,
0100
1000
0010
0000
0100
0001
1000
0000
,
1100
0000
0001
0010
1000
0000
0010
0001
,
0100
0000
0110
0000
0010
1000
0001
0100
,
1000
0000
0100
0001
1000
0010
1000
0000
,
1100
0000
0000
0000
0001
0000
0000
0000
0101
0000
0000
0000
0010
0000
0001
1000
,
0001
1000
0001
0000
0010
0000
0100
0000
1000
0000
0000
0000
0011
0000
0000
0000
,
1000
0001
0100
1000
0100
0000
0001
1000
,
0010
1000
0001
0000
0010
0100
0010
0000
,
0001
1000
0100
0000
0110
0000
0010
0001
,
1000
0000
1001
0000
0001
0100
0000
0100
,
0010
0000
1000
0100
1000
0000
0011
0000
,
0001
0100
0001
0000
0010
0100
1000
0000
,
0010
2002
0000
3003
,
1100
0000
0001
0010
0100
0010
0001
0000
,
1000
0010
0100
0010
1000
0000
0001
0000
,
0101
0000
1000
0000
1100
0000
0010
0100
,
0010
1000
0001
0100
0010
0000
1000
0100
,
0001
0100
1000
0000
1100
0000
0001
0010
,
0001
0000
1000
0010
1000
0000
0101
0000
,
0001
0100
1000
0000
0100
0001
2000
0000
,
0100
0001
3010
1100
,
1000
1010
1000
0001
,
0101
0001
0011
0100
,
0110
0010
1001
0110
,
0110
0000
0001
0000
1000
0000
0001
0001
,
0001
0000
0100
0100
0100
0000
0010
0010
,
0010
0000
1000
1000
1000
0000
0001
0010
,
0001
0010
0100
1000
0100
1000
0020
0000
,
0000
0000
0030
0000
1000
0001
1000
0000
0001
0000
0000
0000
1000
0001
1000
0000
,
0001
0000
0000
0000
1000
0001
1000
0000
0001
0000
0000
0000
0100
0000
0010
0000
,
0100
0000
0000
0000
0001
1000
0001
0000
1000
0000
0000
0000
0001
1000
0001
0000
,
1000
0000
0000
0000
0001
1000
0001
0000
1000
0000
0000
0000
0100
0000
0010
0000
,
0100
0000
0000
0000
0010
0100
0010
0000
0100
0000
0000
0000
0010
0100
0010
0000
,
0100
0000
0000
0000
0010
0100
0010
0000
0100
0000
0000
0000
1000
0000
0000
0000
,
0001
0000
0000
0000
0100
0010
0100
0000
0010
0000
0000
0000
0100
0010
0100
0000
,
0010
0000
0000
0000
0100
0010
0100
0000
0010
0000
0000
0000
2000
0000
0000
0000
,
3002
0023
0000
0230
,
0000
2300
0000
3002
,
0000
0000
0000
0000
0103
0000
0001
0000
0010
0001
1000
0000
0100
0000
1000
0000
,
0010
1000
0001
0000
0010
0000
0100
0000
1000
0001
0100
0010
0000
0000
1010
0000
,
0110
0101
1001
0000
1000
0100
1000
0001
,
0000
0020
0000
0030
0001
0100
0001
0001
,
1000
0020
0000
0030
1000
0100
1000
0001
,
1000
0020
0000
0130
0002
0000
1000
0000
,
1003
0000
0001
0100
0001
0100
0010
1000
,
0010
1000
0001
0010
0100
0010
0001
1000
,
0100
1000
0001
0100
0010
0100
0001
1000
,
0010
0100
0000
0010
2002
0000
3003
0000
,
1000
0100
0001
0100
1000
0001
0010
1000
,
0010
0001
1000
0100
0001
0100
1000
0000
,
0001
0100
1000
0100
0001
1000
0010
0001
,
0010
1000
0001
0100
1000
0100
0001
0000
,
0010
0100
0001
0100
1000
0001
0010
0100
,
0001
0100
1000
0001
0010
0001
1000
0000
,
0010
0001
0010
1000
0001
0100
0010
0000
,
0110
0000
1000
1000
0001
0001
1000
0000
,
0010
0100
0110
0000
0001
1000
0100
1000
,
0010
0000
1000
0001
0100
0001
0010
0001
,
0100
0000
0010
1000
0001
0010
0100
1000
,
0010
0010
0000
0110
0000
1001
0000
1000
,
0100
1000
0001
0000
0010
0001
1000
0001
,
0100
0000
0010
1000
0001
0100
0002
0000
,
0013
0000
0000
0010
0000
0000
0100
0000
1000
0000
0001
0000
0100
0000
0010
0000
,
0000
0100
2002
0000
0000
0000
3003
0000
,
1100
1100
1010
1010
,
0010
0100
0001
0000
0100
0001
0010
0000
,
0011
0000
0011
0000
0101
0000
0001
1000
,
0010
0000
0110
0000
0100
0001
1000
0000
,
1100
0000
0001
0011
0000
1000
1010
0000
,
0001
0100
0101
0000
1010
0000
1001
0000
,
1000
0100
1000
0100
0010
0001
0010
0001
,
0200
0000
0000
0000
0000
0000
0300
0000
0001
1000
0001
0000
1000
0000
0001
0000
,
1000
0001
1000
0000
0001
0000
1000
0000
0001
1000
0001
0000
1000
0000
0001
0000
,
0000
0000
0000
0000
0000
0000
0000
0000
0100
0010
0100
0000
0010
0000
0100
0000
,
0010
0100
0010
0000
0100
0000
0010
0000
0100
0010
0100
0000
0010
0000
0100
0000
,
0000
0000
0000
0000
0000
0000
0000
0000
0001
1000
0001
0000
1000
0000
0001
0000
,
1000
0001
1000
0000
0001
0000
1000
0000
0001
1000
0001
0000
1000
0000
0001
0000
,
0000
0000
0000
0000
0000
0000
0000
0000
0010
0100
0010
0000
0100
0000
0010
0000
,
0100
0010
0100
0000
0010
0000
0100
0000
0010
0000
0001
0000
1000
0000
0001
0000
,
0100
0000
2002
0000
0000
3003
0000
0000
;

//--------------- dance-single - forcednature ----------------
#NOTEDATA:;
#STEPSTYPE:dance-single;
#DESCRIPTION:forcednature;
#DIFFICULTY:Hard;
#METER:17;
#RADARVALUES:0,0,0,0,0;
#CREDIT:forcednature;
#NOTES:
0000
0000
0000
0000
,
0000
0000
0000
0000
,
0000
0000
0000
0000
,
0000
0000
0000
0000
,
0000
0000
0000
0000
,
0000
0000
0000
0000
,
1000
0000
0000
0100
1000
0001
0010
0002
0000
0003
0000
0100
0001
1000
0010
2000
,
0000
3000
0000
0100
0010
0001
0100
0020
0000
1030
0002
0000
0000
0000
0003
0000
,
0020
0000
0030
0100
1000
0001
0100
0020
0000
0030
0000
1000
0001
0010
0100
2000
,
0000
0000
3000
0000
0000
0000
0010
0000
0100
0000
0001
0000
1000
0000
0200
0000
0000
0000
0310
0000
0020
0030
0000
0000
0000
0000
0000
0000
1001
0000
0000
0000
,
0001
0000
1000
0000
0001
1000
0001
0000
1000
0000
0010
0100
0010
0000
1000
0001
,
0100
0000
0001
0000
1000
0000
0001
0000
0010
0000
0001
0000
0100
0000
0010
0000
0100
0010
0100
0010
0200
0000
0300
0000
0001
0000
0000
0000
0010
0000
0000
0000
,
0100
1000
1200
0000
0310
0001
1000
0010
,
0002
0000
1003
0100
0001
1000
0010
0000
,
1000
0001
0010
0100
1000
0100
0001
0000
,
0101
0000
0001
0100
1000
0000
0001
0010
,
0001
1000
0020
0000
1030
0100
0001
0100
,
2000
0000
3001
0010
1000
0010
0001
0000
,
1000
0000
0010
0000
0100
0000
0001
0000
0100
0000
0000
0000
0001
0010
0100
0010
,
1000
0010
0100
0010
0001
0000
0000
0000
0101
0000
0000
0000
2100
0000
0000
0000
,
3001
0010
0001
1000
0010
0001
0010
1000
,
0001
0100
1000
0000
0100
0001
2000
0000
,
3010
1000
1100
0000
0110
0000
0001
0011
,
0000
0000
0001
1000
0001
0000
0000
0000
0100
0000
0101
0000
0000
0000
0010
0000
,
1010
0000
1000
0100
0110
0000
1001
0000
,
0001
0010
0001
0010
0001
0000
0000
0000
1000
0000
0010
0000
0100
0000
0001
0000
,
0100
0010
0100
0000
0020
0000
1000
2030
0000
0001
3002
0000
0003
0000
0000
0000
,
1000
0100
0001
0100
1000
0001
0010
0001
,
1000
0010
0001
0010
1000
0001
0100
0000
,
0010
1000
0001
1000
0100
1000
0001
0000
,
0101
0000
1000
0010
0001
0000
0010
0010
,
0100
0100
0110
0000
1000
0010
1000
0001
,
0100
1000
0100
0001
1000
0000
1001
0000
,
0001
0010
0100
1000
0100
0010
0001
1000
,
0100
1000
0100
0000
0010
0100
0010
0000
0001
0000
0000
0000
0011
0000
0000
0000
,
0011
0101
0101
1100
,
1100
1010
1010
1001
,
1001
0000
0110
0000
0110
0000
0001
1000
,
0010
0100
0010
1000
0001
0000
1000
0100
,
1100
0000
0001
0100
0101
0000
1000
0010
,
1010
0000
0001
0010
0011
0000
1000
0100
,
1000
0000
0010
0000
0100
0000
0001
0000
0010
0001
0010
0001
2000
0000
3001
1000
,
0001
1000
0001
0000
2000
3100
1000
0100
1000
0000
0000
0000
0001
0100
0001
0100
,
0001
0000
0000
0000
1000
0100
1000
0100
1000
0000
0000
0000
0010
0000
0010
0000
,
0100
0000
0000
0000
0001
0010
0001
0010
0001
0000
0000
0000
1000
0010
1000
0010
,
1000
0000
0000
0000
0001
0010
0001
0010
0001
0000
0000
0000
1000
0000
0001
0000
,
1000
0000
0000
0000
0010
0100
0010
0100
0010
0000
0000
0000
0001
1000
0001
1000
,
0001
0000
0000
0000
0100
0010
0100
0010
0100
0000
0000
0000
0001
0000
0001
0000
,
1000
0000
0000
0000
0010
0100
0010
0100
0010
0000
0000
0000
1000
0001
1000
0001
,
1000
0000
0000
0000
0100
0010
0100
0010
0100
0000
0000
0000
0010
0000
0001
0000
,
1000
0000
0001
0000
0200
0000
0300
0010
1000
0001
0100
0020
0000
0030
0000
1000
,
0001
0010
0100
2000
0000
3000
0000
0001
0100
0001
1000
0200
0000
0310
0020
0000
,
0000
0000
0030
0000
0002
0000
0003
1000
0010
1000
0001
0200
0000
0300
0000
0001
,
0010
0001
1000
0200
0000
0300
0000
0010
0001
1000
0010
0110
0000
0000
0101
0000
,
0011
1100
1010
0000
0010
0100
0001
0010
,
0100
2000
0010
0000
3001
1000
0100
1000
,
0001
0200
0010
0000
0301
0010
0001
1000
,
0010
0000
2000
0000
0000
0000
3100
0000
0010
0000
0001
0000
0010
0000
0100
0010
,
0100
0000
0010
0001
0010
0000
0001
0000
0100
0000
0001
0000
1000
0000
0100
0000
,
1000
0000
0010
1000
0010
0000
1000
0000
0100
0000
1000
0000
0001
0000
0100
0000
,
0001
0000
0010
0001
0010
0000
0100
0010
0100
0000
1000
0100
1000
0000
0001
0000
,
0100
0110
0000
0010
2002
0000
3003
0000
,
1000
0000
0100
1000
0100
0000
0010
0000
0001
0000
0100
0001
0100
0000
0010
0000
,
1000
0000
0001
1000
0001
0000
0010
0000
0100
0000
1000
0000
0001
0000
0100
0000
,
0010
0000
1000
0010
1000
0000
0100
0000
0010
0000
0001
0010
0001
0000
0100
0000
,
0001
0000
1000
0001
1000
0000
0010
0000
0100
0000
1000
0000
0100
0000
0001
0000
,
1000
0000
0010
0100
0010
0000
1000
0000
0001
0000
0010
0100
0010
0000
0001
0000
,
0100
0000
0001
1000
0001
0000
0010
0000
0100
0000
1000
0000
0001
0000
1000
0000
,
1010
0000
1010
0000
0001
0100
0101
0000
,
0001
0010
1000
0010
0001
1000
0100
0000
,
0010
0000
0100
0000
1001
0000
0000
0000
0001
0000
0100
0001
0100
0000
0010
0000
,
1000
0000
0001
0000
0010
0000
0001
0000
1000
0000
0100
1000
0100
0000
0010
0000
,
0100
0000
0010
0000
0001
0000
1000
0000
0010
0000
0100
0010
0100
0000
0001
0000
,
1000
0000
1100
0000
0000
0000
0011
0000
0000
0000
0101
0000
0000
0000
1000
0001
,
1000
0010
0100
0001
0010
0110
0100
1001
,
1000
0000
0010
1000
0010
0000
0100
0000
0001
0000
0000
0000
0010
0100
0010
0100
,
1000
0000
0000
1001
0000
0000
0001
0000
0100
0000
0010
0000
1000
0000
1001
0000
,
0000
0010
0220
0000
0000
0000
0330
0000
,
0001
1000
0010
0100
1010
0000
0001
0010
,
1000
0010
0001
1000
0100
1000
0001
0000
,
1000
0000
0001
0000
0010
0000
0100
0000
0011
0000
0000
0000
0001
0000
1000
0001
,
2000
0000
0010
0000
0100
0100
3100
0000
,
1010
0000
0001
0101
0000
1000
1100
0000
,
0001
0011
0010
0000
0110
0000
1001
0000
,
1000
0000
0100
0000
0010
0000
0001
0000
0100
0000
0010
0000
0100
0010
0100
0010
,
2000
0000
3001
1000
0001
1000
0001
0000
1000
0100
0010
0001
1000
0000
0000
0000
,
0001
0100
0010
1000
0001
0000
0000
0000
1000
0100
0010
0001
1000
0000
0000
0000
,
0010
0000
0010
0000
0100
0000
0000
0000
0001
0010
0100
1000
0001
0000
0000
0000
,
1000
0010
0100
0001
1000
0000
0000
0000
0001
0010
0100
1000
0001
0000
0000
0000
,
1000
0000
1000
0000
0001
0000
0000
0000
0100
0010
1000
0001
0010
0000
0000
0000
,
0100
0010
0001
1000
0010
0000
0000
0000
0100
0010
1000
0001
0010
0000
0000
0000
,
0001
0000
0001
0000
1000
0000
0000
0000
0100
1000
0001
1000
0010
0000
0000
0000
,
0100
0001
1000
0001
0010
0000
0000
0000
0100
0010
0100
0010
0100
0000
0010
0100
,
0010
0000
2002
0000
0000
3003
0000
0000
;

//--------------- dance-single - forcednature ----------------
#NOTEDATA:;
#STEPSTYPE:dance-single;
#DESCRIPTION:forcednature;
#DIFFICULTY:Challenge;
#METER:18;
#RADARVALUES:0,0,0,0,0;
#CREDIT:forcednature;
#NOTES:
0000
0000
0000
0000
,
0000
0000
0000
0000
,
0000
0000
0000
0000
,
0000
0000
0000
0000
,
0000
0000
0000
0000
,
0000
0000
0000
0000
,
0001
0000
0100
0001
1000
0010
0100
0001
1000
0000
0100
1000
0001
0010
0100
1000
,
0001
0000
0100
0010
1000
0001
0010
0100
0000
0010
0002
0000
0100
0000
0103
0000
,
0001
1000
0010
1000
0001
0010
0001
0100
0010
1000
0001
0010
0001
1000
0010
0100
,
0001
0000
0010
0001
0010
0000
0100
0010
0100
0000
1000
0100
1000
0000
0010
0000
0000
0000
0110
0000
2002
0000
3003
0000
0000
0000
0000
0000
1000
0000
0000
0000
,
1100
0000
0001
0000
0101
0100
0010
0000
1001
0000
0100
0000
0110
0000
1000
0001
,
1000
0000
0001
0000
1000
0010
1000
0010
0100
0001
0100
0001
1000
0010
0100
0010
1000
0001
0100
0001
2000
0000
3000
0000
0001
0000
0000
0000
0010
0000
0000
0000
,
0011
0000
0001
0000
1000
0000
0100
0000
1100
0000
1000
0000
0001
0100
0010
1000
,
0002
0000
0103
0000
0010
1000
0001
0000
0010
0000
0100
0000
0011
0000
0000
0001
,
1000
0000
0100
0000
1000
0000
0010
0000
0100
0001
0100
0000
0010
0000
1000
0000
,
0100
0001
0100
2000
3000
1100
1000
0010
,
1010
0000
1000
0000
0001
0000
0100
0000
0101
0000
0001
0000
1000
0100
0010
0001
,
2000
0000
3100
0000
0010
0001
1000
0000
0010
0000
0100
0000
1010
0000
0000
1000
,
0001
0000
0000
0000
0100
0000
0001
0000
0100
0000
0000
0000
0000
0000
0010
0000
1000
0000
0000
0000
0001
0000
0000
0000
0020
0000
0030
0000
0001
0100
0001
0000
,
1000
0100
1000
0000
0001
0100
0001
0000
2000
0000
3000
0000
0100
0000
0000
0000
0110
0000
0000
0000
0010
0000
0000
0000
0001
0000
0000
0000
0100
0000
0000
0000
,
0110
0000
0010
0000
1000
0001
0100
0010
2000
0000
3001
0000
0100
0010
1000
0000
,
0001
0000
0010
0000
0110
0000
0000
1000
0001
0000
0010
0000
0001
0000
0100
0000
,
0010
1000
0010
0000
0200
0000
0001
0000
0320
0000
1000
0000
0130
0000
0101
0000
,
0000
0000
0001
0010
0200
0000
0300
0000
1000
0000
1010
0000
0000
0000
0001
0000
,
0011
0000
0100
0110
1001
0000
0110
0000
,
0001
1000
0001
1000
0001
0000
0100
0010
1000
0000
0001
0000
0010
0100
1000
0100
,
0010
0001
0010
0000
0200
0000
1000
1000
0000
0010
0310
0000
2002
3003
0000
0000
,
1000
0000
0100
1000
0100
0000
0010
0100
0010
0000
0001
0010
0001
0000
1000
0000
,
0010
0001
0010
1000
0001
0100
0010
1000
,
0001
0000
0010
0001
0010
0000
0100
0010
0100
0000
1000
0100
1000
0000
0001
0000
,
0100
1000
0100
0001
0021
0000
0130
0001
,
0100
0000
1000
0000
0110
0000
0000
0000
1001
0000
0000
0000
1000
0010
1000
0000
,
0100
0000
1000
0000
0001
0010
0001
0000
0100
0000
0001
0000
0011
0000
0000
1000
,
0010
0000
0100
0010
0100
0000
0001
0100
0001
0000
1000
0010
0100
0000
0001
0000
,
1000
0100
1000
0100
0010
0001
0010
0001
1000
0000
0000
0000
0101
0000
0000
0000
,
1100
0000
0001
0010
0011
0000
1100
0000
,
0101
0000
1000
0010
1010
0000
0101
0000
,
0011
0000
1000
0010
1010
0000
1100
0000
,
1010
0000
0001
0100
0101
0001
0010
0100
,
1100
0000
0010
0100
0101
0000
1000
0001
,
0011
0000
0000
0000
0001
0000
1000
0000
1010
0000
0000
0000
1000
0001
0100
0000
,
0001
1000
0100
0000
1000
0010
0100
0010
1000
0001
0100
0001
2000
3000
0010
0010
,
0010
0010
0010
0000
2000
3100
0010
0001
0010
0000
0100
0000
1000
0100
0010
0001
,
0010
0000
0100
0000
1000
0100
0010
0001
0010
0000
0100
0000
2000
3002
2003
3000
,
0002
0000
0003
0000
0001
0100
0010
1000
0010
0000
0100
0000
0001
0100
0010
1000
,
0010
0000
0100
0000
0001
0100
0010
1000
0010
0000
0100
0000
0002
2003
3002
2003
,
3002
0000
0003
0000
0010
0100
1000
0100
0010
0000
0001
0000
0010
0100
1000
0100
,
0010
0000
0001
0000
0010
0100
1000
0100
0010
0000
0001
0000
2000
0000
3000
0000
,
0002
0000
0003
0000
1000
0010
0100
0001
0100
0000
0010
0000
1000
0010
0100
0001
,
0100
0000
0010
0000
1000
0010
0100
0001
0100
0000
0010
0000
1000
0000
0001
0000
,
0010
0000
0100
0000
2000
0000
3000
0001
0100
0001
1000
0020
0000
0030
0000
1000
,
0100
1000
0001
0020
0000
0030
0000
0100
1000
0001
0100
2000
0000
3100
0002
0000
,
0000
0000
0003
0000
2000
0000
3010
0001
0010
1000
0001
0100
0002
0000
0013
1000
,
0010
0001
1000
0100
2000
0000
3010
0100
0001
0010
0100
0110
0000
0000
0011
0000
,
0101
0000
1100
0000
2020
3030
0000
0000
0010
0000
1000
0000
0100
0000
0001
0000
,
0100
1000
1010
0000
0001
0100
1000
0100
,
0001
0010
0011
0000
1000
0100
0001
0100
,
0010
1001
0000
0001
0100
1000
0100
0001
,
1000
0010
1000
0010
0100
0000
0001
0100
0001
0000
0010
0001
0010
0000
0100
0000
,
1000
0000
0010
0000
1000
0000
0100
1000
0100
0000
0010
0100
0010
0000
0001
0000
,
1000
0000
0010
0000
0100
0001
0100
0001
0100
0001
0100
0001
1000
0010
0100
0010
,
1000
0001
0100
0000
0000
0000
0010
0000
2002
0000
0000
0000
3003
0000
0000
0000
,
1000
0000
0100
1000
0001
0000
0010
0000
0001
0000
1000
0010
0100
0000
0001
0000
,
1000
0000
0100
1000
0100
0000
0010
0100
0010
0000
0001
0010
0001
0000
1000
0000
,
0010
0000
0100
0001
1000
0000
0100
0000
0010
0000
0001
1000
0010
0000
0100
0000
,
0001
0000
0010
0001
0010
0000
0100
1000
0100
1000
0001
0010
0001
0000
1000
0000
,
0010
0000
0100
0001
1000
0000
0100
0000
1000
0000
0001
0010
0100
0000
1000
0000
,
0001
0000
0100
0010
0100
0000
0001
0100
0001
0000
1000
0010
1000
0000
0001
0000
,
0010
0000
0000
0000
0110
0000
0000
0000
0100
0000
1000
0100
1000
0000
0001
0000
,
0011
0000
0000
0000
0010
0000
0001
1000
0001
0100
0001
1000
0020
0000
0000
0000
,
1030
0010
1000
0001
0100
0000
0010
1000
0020
0000
0230
0000
0302
0000
0023
0000
,
0130
0000
1000
0100
1000
0000
0001
0010
0002
0000
2003
0000
3010
0000
0110
0000
,
0100
0000
0001
1000
0010
0000
0100
0001
1000
0000
0001
0010
0100
0000
2000
0000
,
3010
1010
0000
0011
0000
0101
0000
1100
,
1000
0000
0001
0010
0001
0000
0010
0100
1000
0000
0100
1000
0001
1000
0100
1000
,
0001
0000
0010
0000
0001
0000
1000
0010
1000
0000
0010
1000
0001
0100
0010
0100
,
0001
0000
0000
0011
0000
0000
2000
0000
3020
0000
1030
0000
1100
0000
0110
0000
,
0000
0010
2002
0000
0000
0000
3003
0000
,
1000
0010
1000
0000
0001
0000
0100
0000
0001
0010
0001
0000
1000
0000
0100
0000
,
0020
1030
0020
0031
1000
0100
1100
0000
,
0001
0100
0001
0000
1000
0000
0010
0000
1000
0100
1000
0000
0001
0000
0010
0000
,
0110
0000
0110
0000
0200
0310
1001
0000
,
1000
0100
1000
0000
0100
0000
0010
0001
0010
0000
0001
0000
1000
0010
1000
0000
,
0010
0000
0100
0001
0100
0000
0001
0000
0010
0100
0000
0000
1001
0000
0000
0000
,
1000
0100
1000
0000
0001
0100
0001
0000
1000
0010
1000
0010
1000
0001
0100
0010
,
2000
3000
0010
0010
0010
0010
0010
0000
2000
3100
0010
0001
0010
0100
1000
0000
,
1000
0010
0100
0001
0100
0010
1000
0000
1000
0100
0010
0001
0010
0100
1000
0000
,
0002
2003
3002
2003
3002
0000
0003
0000
0001
0100
0010
1000
0010
0100
0001
0000
,
0001
0010
0100
1000
0100
0010
0001
0000
0001
0100
0010
1000
0010
0100
0001
0000
,
2000
3002
2003
3002
2003
0000
3000
0000
0010
1000
0001
0100
0001
1000
0100
0000
,
0010
0001
1000
0100
1000
0001
0100
0000
0010
1000
0001
0100
0001
1000
0100
0000
,
0020
0230
0300
0020
0230
0000
0300
0000
0010
0001
0100
0001
1000
0100
1000
0000
,
0010
1000
0100
1000
0001
0100
0001
0000
2000
3200
0320
0032
0203
0320
2030
3200
,
0320
0030
2002
0000
0000
3003
0000
0000
;

//--------------- dance-double - forcednature ----------------
#NOTEDATA:;
#STEPSTYPE:dance-double;
#DESCRIPTION:forcednature;
#DIFFICULTY:Easy;
#METER:11;
#RADARVALUES:0,0,0,0,0;
#CREDIT:forcednature;
#NOTES:
00000000
00000000
00000000
00000000
,
00000000
00000000
00000000
00000000
,
00000000
00000000
00000000
00000000
,
00000000
00000000
00000000
00000000
,
00000000
00000000
00000000
00000000
,
00000000
00000000
00000000
00000000
,
00011000
00000000
00001000
01000000
00001000
00000000
00010000
00000100
,
00010000
00000000
00001000
00100000
00001000
00000000
00010000
00000000
,
00000010
00000000
00001000
00000100
00001000
00000000
00000001
00000100
,
00000001
00000000
00000000
00000000
00000000
00000000
00000000
00000000
00000010
00000000
00000000
00000000
00000000
00000000
00000100
00000000
00000000
00000000
00000000
00000000
00000220
00000330
00000000
00000000
00000000
00000000
00000000
00000000
00001001
00000000
00000000
00000000
,
00000000
00001000
00000000
00000100
00000000
00010000
00010000
00001000
,
00001000
00000000
00010000
00000000
00001000
00000000
00010000
00001000
00010000
00001000
00010000
00000000
00001000
00000000
00000000
00000000
,
01000000
00000000
00010000
00000000
10000000
00100000
10000000
00000000
,
01000000
10000000
01000000
00000000
00100000
00000000
00001000
00000000
,
00010000
00000000
00000100
00000000
00001000
00000010
00001000
00000000
,
00000010
00000100
00000010
00000000
00000100
00000000
00000001
00000000
,
00000010
00000000
00000001
00000000
00000010
00000100
00000010
00000000
,
00000100
00001000
00000100
00000000
00010000
00000000
00001000
00000000
,
01000000
00010000
01000000
00000000
00100000
10000000
00200000
01000000
,
01300000
10010000
10000000
01000000
,
10000000
00000000
00010000
00100000
00010000
00000000
00100000
00001000
,
00010000
00000100
00001000
00000001
,
00001000
00000010
00001000
00000000
00001000
00000000
00000001
00000010
,
00000000
00000100
00001000
00000000
00000100
00010000
00000000
00001000
,
00010000
00000000
00010000
00001000
00010000
00000000
00011000
00000000
,
00002000
00000000
01003000
00010000
01000000
00000000
00100000
10000000
,
00100000
00000000
00000000
00000000
20000000
00000000
00000000
00010000
00000000
00000000
00010000
00000000
30000000
00000000
00000000
00000000
,
01100000
10000000
00010000
01000000
,
00001000
00010000
00000100
00001000
,
00000001
00000000
00000100
00000000
00000100
00000000
00000010
00000100
,
00000010
00000000
00001000
00000000
00000100
00000000
00010000
00001000
,
00010000
00001000
01000000
00010000
,
00100000
01000000
10000000
00100000
,
10000000
01000000
00010000
00001000
,
00010000
00001000
00010000
00000000
00001000
00000000
00011000
00000000
,
00010000
00000100
00000100
00001000
,
00001000
00000010
00010000
00001000
,
00001000
01000000
01000000
00010000
,
00010000
00000000
00100000
00000000
00001000
00000000
00010000
00000100
,
00010000
00000000
00001000
00010000
00001000
00000000
00010000
00000010
,
00010000
00000000
00001000
00010000
00001000
00000000
02000000
00000000
,
00001000
00010000
03100000
20020000
,
00000000
30030000
10000000
01000000
00010000
00000000
01000000
00010000
,
00001000
00000000
00010000
00001000
00000010
00000000
00000000
00000000
,
00000000
00000000
00000001
00000100
00001000
00000000
00000100
00001000
,
00010000
00000000
00001000
00010000
00100000
00000000
00000000
00000000
,
00000000
00000000
10000000
01000000
00010000
00000000
01000000
00010000
,
00001000
00000000
00010000
00001000
00000010
00000000
00000000
00000000
,
00000000
00000000
00000001
00000100
00001000
00000000
00000100
00001000
,
00010000
00000000
00001000
00010000
00100000
00000000
00000000
00000000
,
00000000
20000000
00000000
32000000
,
00000000
03200000
00000000
00302000
,
00000000
00023000
00030200
00002300
,
00003200
00000000
00000000
00000000
00020300
00000000
00000000
00000000
00031000
00000000
00000000
00011000
00000000
00000000
00011000
00000000
,
00000000
00010000
00001000
00000000
00010000
00000000
00000100
00001000
,
00000100
00000000
00010000
00000000
00001000
00000000
01000000
00010000
,
01000000
00000000
00001000
00000000
00010000
00000000
00000010
00001000
,
00000010
00010000
00001000
00100000
,
00010000
00000000
10000000
00010000
10000000
00000000
01000000
00000000
,
00010000
00000000
00001000
00010000
00001000
00000000
00010000
00000000
,
00000100
00000000
00001000
00000001
00001000
00000000
00000010
00000000
,
00000100
00000000
00000200
00000000
00000000
00000000
00000301
00000000
00000002
00000003
00000000
00000000
00000000
00000000
00000000
00000000
,
00000010
00000100
00001000
00000100
,
00010000
00001000
00010000
00000000
00001000
00000000
01000000
00000000
,
00010000
00100000
01000000
00100000
,
00010000
10000000
00010000
00000000
01000000
00000000
00001000
00000000
,
00010000
00000100
00001000
00000100
,
00000010
00000001
00000010
00000000
00000100
00000000
00010000
00000000
,
00001000
01000000
00010000
01000000
,
01100000
00000000
00000000
10010000
00000000
00000000
10000000
00000000
,
00010000
00000000
00100000
00010000
00100000
00000000
00001000
00000000
,
00010000
00000000
00001000
00010000
00001000
00000000
00010000
00000000
,
00000100
00000000
00001000
00000001
00001000
00000000
00000010
00000000
,
00000100
00000100
00000000
00000010
00000000
00000100
00000000
00000010
,
00000010
00000000
00001001
00000000
00001000
00000000
00000100
00001000
,
00000100
00000000
00010000
00000000
00001000
00000000
01000000
00010000
,
01000000
00000000
00100000
00000000
10000000
00010000
10000000
00010000
,
00000000
20020000
00000000
30030000
,
10000000
01000000
00010000
00001000
,
00000100
00000001
00000010
00000011
,
00000001
00000100
00001000
00010000
,
01000000
00000000
00100000
00000000
01000000
00100000
01000000
00000000
,
01100000
00000000
00000000
00010000
00000000
00000000
00011000
00000000
,
00000000
00001000
00000000
00000000
00000110
00000000
00000001
00000000
,
00002000
00000100
00000001
00003010
,
00000220
00000000
00000000
00000330
00000001
00000100
00001000
00000000
,
00010000
00100000
10000000
00000000
00010000
01000000
10000000
00000000
,
01000000
00000000
00010000
00000000
10000000
01000000
00010000
00000000
,
00001000
00000010
00000001
00000000
00001000
00000100
00000001
00000000
,
00000100
00000000
00001000
00000000
00000001
00000100
00001000
00000000
,
00010000
01000000
10000000
00000000
00010000
00100000
10000000
00000000
,
00100000
00000000
00010000
00000000
10000000
01000000
00010000
00000000
,
00001000
00000100
00000001
00000000
00001000
00000010
00000001
00000000
,
00000010
00000000
00002002
00000000
00000000
00003003
00000000
00000000
;

//--------------- dance-double - forcednature ----------------
#NOTEDATA:;
#STEPSTYPE:dance-double;
#DESCRIPTION:forcednature;
#DIFFICULTY:Medium;
#METER:15;
#RADARVALUES:0,0,0,0,0;
#CREDIT:forcednature;
#NOTES:
00000000
00000000
00000000
00000000
,
00000000
00000000
00000000
00000000
,
00000000
00000000
00000000
00000000
,
00000000
00000000
00000000
00000000
,
00000000
00000000
00000000
00000000
,
00000000
00000000
00000000
00000000
,
00001000
00010000
00000100
00010000
00001000
00100000
00010000
00100000
,
00001000
00010000
00000010
00001000
00000010
00010000
00001000
01000000
,
00010000
00000000
00100000
00010000
00100000
00000000
01000000
00100000
01000000
00000000
10000000
01000000
10000000
00000000
00010000
00000000
,
01000000
00000000
00000000
00000000
00001000
00000000
00010000
00000000
00000100
00000000
00001000
00000000
00000100
00000000
00000020
00000000
00000000
00000000
00000031
00000000
00000002
00000003
00000000
00000000
00000000
00000000
00000000
00000000
00000100
00000000
00000000
00000000
,
00001000
00000000
00010000
00000000
00100000
00000000
00010000
00000000
00001000
00000000
00010000
00000000
01000000
00000000
10000000
00010000
,
10000000
00000000
00010000
10000000
00010000
00000000
00100000
00001000
00010000
00000100
00002000
00003000
00001001
00000000
00000000
00000000
,
00001000
00000000
00000001
00000000
00000100
00001000
00010000
00100000
,
00010000
00000000
00001000
00000100
00001000
00010000
00100000
00000000
,
10000000
00000000
00010000
00000000
10000000
01000000
00010000
00000000
,
00011000
00000000
00001000
00000010
00000001
00000000
00000100
00000000
,
00000001
00000000
00001000
00000000
00000001
00000100
00001000
00010000
,
00100000
00000000
00010000
00001000
00010000
00100000
10000000
00000000
,
11000000
00000000
00000000
00000000
00010000
00000000
00000000
00000000
01010000
00000000
00000000
00000000
00100000
00000000
00001000
00010000
,
00001000
00010000
00001000
00000000
00000010
00000000
00000000
00000000
00000100
00000000
00000000
00000000
00001001
00000000
00000000
00000000
,
00000001
00000100
00001000
00010000
00100000
00000000
00010000
00001000
,
00000100
00001000
00010000
00000000
00100000
10000000
00010000
00000000
,
10000000
01000000
00010000
00000000
00011000
00000000
00001000
00000010
,
00000001
00000000
00001001
00000000
00000001
00000100
00000000
00001000
,
00000100
00000000
00001000
00010000
00100000
00000000
00010000
00000000
,
00001000
00010000
00100000
00000000
10000000
00010000
00100000
01000000
,
00100000
20020000
00000000
30030000
,
00011000
00000000
00001000
00000010
00000100
00000010
00001000
00000000
,
00010000
00000100
00001000
00000100
00010000
00000000
00001000
00000000
,
00000110
00000000
00000010
00000000
00001001
00000000
00000001
00000100
,
00001000
00000000
00010000
01000000
10000000
00000000
00100000
10000000
,
00010000
10000000
00100000
00000000
01100000
00000000
01000000
00001000
,
00010000
00000000
00000100
00010000
00001000
00000000
00011000
00000000
,
00010000
00100000
10000000
00000000
00100000
00010000
00002000
00000000
,
01000000
00010000
00103000
00011000
,
00010000
00000100
00001000
00000010
,
00010000
00001000
00100000
00010000
,
01000000
00001000
00011000
00011000
,
00011000
00000000
00000010
00000000
00001000
00000000
00000001
00000010
,
00000001
00000000
00000010
00001000
00000010
00000000
00001000
00010000
,
00001000
00000000
00010000
01000000
00010000
00000000
01000000
10000000
,
01000000
10000000
00100000
10000000
00100000
10000000
00020000
00000000
,
00000000
00000000
00030000
00000000
10000000
00010000
10000000
00000000
00010000
00000000
00000000
00000000
10000000
00010000
10000000
00000000
,
00010000
00000000
00000000
00000000
10000000
00010000
10000000
00000000
00010000
00000000
00000000
00000000
01000000
00000000
00000000
00000000
,
00001000
00000000
00000000
00000000
00010000
00001000
00010000
00000000
00001000
00000000
00000000
00000000
00010000
00001000
00010000
00000000
,
00001000
00000000
00000000
00000000
00010000
00001000
00010000
00000000
00001000
00000000
00000000
00000000
00010000
00000000
00000100
00000000
,
00001000
00000000
00000000
00000000
00000001
00001000
00000001
00000000
00001000
00000000
00000000
00000000
00000001
00001000
00000001
00000000
,
00001000
00000000
00000000
00000000
00000001
00001000
00000001
00000000
00001000
00000000
00000000
00000000
00000100
00000000
00000000
00000000
,
00010000
00000000
00000000
00000000
00001000
00010000
00001000
00000000
00010000
00000000
00000000
00000000
00001000
00010000
00001000
00000000
,
00010000
00000000
00000000
00000000
00001000
00010000
00001000
00000000
00010000
00000000
00000000
00000000
00000200
00000000
00000000
00000000
,
00002300
00003002
00000000
00000203
,
00000000
00002300
00000000
00023000
,
00000000
00000000
00000000
00000000
00130000
00000000
01000000
00000000
00000000
00100000
01000000
00000000
00010000
00000000
01000000
00000000
,
00001000
00010000
00001000
00000000
00010000
00000000
00000100
00000000
00001000
00000001
00000010
00000001
00000000
00000000
00000100
00000000
,
00001000
00010000
00011000
00000000
00001000
00100000
00010000
00100000
,
00000000
02000000
00000000
03000000
10000000
00100000
10000000
01000000
,
00010000
02000000
00000000
03000000
00100000
00001000
00010000
00000100
,
00010000
00002000
00000000
00003010
00000002
00000000
00001000
00000000
,
00001003
00000000
00000001
00000100
00000001
00000100
00001000
00010000
,
00001000
00010000
01000000
10000000
00100000
10000000
01000000
00010000
,
00001000
00010000
00001000
00000010
00000100
00000010
00000001
00000100
,
00000010
00000100
00000000
00001000
00020000
00000000
00030000
00000000
,
00001000
01000000
00010000
00100000
00010000
01000000
00001000
00000000
,
00010000
00001000
00000010
00000000
00000110
00000000
00001001
00000000
,
00000001
00000100
00001000
00010000
00100000
10000000
00010000
00000000
,
00100000
01000000
00010000
00000000
00011000
00000000
00010100
00000000
,
00000100
00001000
00000010
00010000
00001000
00000010
00000001
00000000
,
00000100
00001000
00010000
00000000
00011000
00000000
01001000
00000000
,
01000000
00010000
00100000
01000000
00100000
00010000
10000000
00000000
,
10010000
00000000
10000000
00100000
00010000
00001000
00100000
00000000
,
01000000
00010000
00001000
00000000
00000010
00000100
00010000
00001000
,
00000010
00000000
00000001
00000100
00001000
00000100
00000001
00001000
,
00000010
00000000
00010000
00001000
01000000
00010000
00100000
01000000
,
10000000
00010000
00000000
01010000
00000000
10100000
00000000
10000000
,
01000000
00010000
00001000
00000000
00100000
00010000
00100000
00001000
,
00010000
00000000
00000010
00001000
00000010
00000100
00000002
00000000
,
00000013
00000000
00000000
00000100
00000000
00000000
00000010
00000000
00000100
00000000
00010000
00000000
00001000
00000000
00100000
00000000
,
00000000
00010000
20000000
00000000
00000000
00000000
30000000
00000000
,
11000000
11000000
10100000
10100000
,
10000000
01000000
00010000
00000000
00001000
00000010
00000001
00000000
,
00000101
00000000
00000101
00000000
00000011
00000000
00000010
00001000
,
00010000
00000000
00011000
00000000
00001000
00010000
01000000
00000000
,
01100000
00000000
00100000
00001000
00010000
00000000
00011000
00000000
,
00001000
00010000
00000010
00000000
00000110
00000000
00001001
00000000
,
00000001
00000100
00000010
00001000
00010000
01000000
00100000
10000000
,
02000000
00000000
00000000
00000000
00000000
00000000
03000000
00000000
10000000
00010000
10000000
00000000
00010000
00000000
10000000
00000000
,
00010000
10000000
00010000
00000000
10000000
00000000
00010000
00000000
10000000
00010000
10000000
00000000
00010000
00000000
10000000
00000000
,
01000000
00000000
00000000
00000000
00010000
00000000
00000000
00000000
00001000
00010000
00001000
00000000
00010000
00000000
00001000
00000000
,
00010000
00001000
00010000
00000000
00001000
00000000
00010000
00000000
00001000
00010000
00001000
00000000
00010000
00000000
00001000
00000000
,
00000010
00000000
00000000
00000000
00000001
00000000
00000000
00000000
00001000
00000001
00001000
00000000
00000001
00000000
00001000
00000000
,
00000001
00001000
00000001
00000000
00001000
00000000
00000001
00000000
00001000
00000001
00001000
00000000
00000001
00000000
00001000
00000000
,
00000100
00000000
00000000
00000000
00010000
00000000
00000000
00000000
00001000
00010000
00001000
00000000
00010000
00000000
00001000
00000000
,
00010000
00001000
00010000
00000000
00001000
00000000
00010000
00000000
00001000
00000000
00100000
00000000
00010000
00000000
00100000
00000000
,
01000000
00000000
20020000
00000000
00000000
30030000
00000000
00000000
;

//--------------- dance-double - forcednature ----------------
#NOTEDATA:;
#STEPSTYPE:dance-double;
#DESCRIPTION:forcednature;
#DIFFICULTY:Hard;
#METER:17;
#RADARVALUES:0,0,0,0,0;
#CREDIT:forcednature;
#NOTES:
00000000
00000000
00000000
00000000
,
00000000
00000000
00000000
00000000
,
00000000
00000000
00000000
00000000
,
00000000
00000000
00000000
00000000
,
00000000
00000000
00000000
00000000
,
00000000
00000000
00000000
00000000
,
00001000
00000000
00000000
00010000
00000100
00001000
00000001
00000020
00000000
00000030
00000000
00000100
00010000
00001000
00100000
00020000
,
00000000
00030000
00000000
10000000
00100000
01000000
00010000
20000000
00000000
31000000
00020000
00000000
00000000
00000000
00030000
00000000
,
00002000
00000000
00103000
00001000
00010000
00000100
00010000
00002000
00000000
01003000
00010000
01000000
00001000
00010000
00000010
00002000
,
00000000
00000000
00003100
00000000
00000010
00000000
00000001
00000000
00000100
00000000
00000010
00000000
00001000
00000000
00000200
00000000
00000000
00000000
00010300
00000000
00020000
00030000
00000000
00000000
00000000
00000000
00000000
00000000
00011000
00000000
00000000
00000000
,
00001000
00000000
00010000
00000000
00100000
10000000
00100000
00000000
10000000
00000000
01000000
00010000
00001000
00000000
00100000
00010000
,
01000000
00000000
00001000
00000000
00010000
00000000
00000100
00000000
00001000
00000000
00000010
00000000
00010000
00000000
00001000
00000000
00010000
00001000
00010000
00001000
00020000
00000000
00030000
00000000
00001000
00000000
00000000
00000000
00000010
00000000
00000000
00000000
,
00000001
00000100
00000002
00000000
00000013
00001000
00010000
00001000
,
00020000
00000000
00130000
10000000
00010000
10000000
01000000
00000000
,
00010000
00001000
00100000
00001000
00010000
00000010
00010000
00000000
,
00011000
00000000
00001000
00000010
00000001
00000000
00000100
00001000
,
00010000
00001000
00020000
00000000
00130000
10000000
00010000
10000000
,
02000000
00000000
03010000
00001000
00100000
00001000
00010000
00000000
,
00001000
00000000
00000010
00000000
00000001
00000000
00001000
00000000
00000100
00000000
00000000
00000000
00010000
00001000
01000000
00010000
,
01000000
00001000
00010000
00001000
00100000
00000000
00000000
00000000
01100000
00000000
00000000
00000000
20010000
00000000
00000000
00000000
,
31000000
00010000
00001000
00100000
00001000
00010000
00100000
10000000
,
00100000
00010000
00001000
00000000
00000010
00000100
00020000
00000000
,
00031000
00000010
00000011
00000000
00001100
00000000
00010000
00011000
,
00000000
00000000
00001000
00010000
00001000
00000000
00000000
00000000
01000000
00000000
01010000
00000000
00000000
00000000
00001000
00000000
,
00011000
00000000
00001000
00100000
00110000
00000000
11000000
00000000
,
10000000
00010000
10000000
00010000
10000000
00000000
00000000
00000000
01000000
00000000
00010000
00000000
00001000
00000000
00000010
00000000
,
00000001
00000010
00000001
00000000
00000200
00000000
00001000
00002300
00000000
00010000
00023000
00000000
00030000
00000000
00000000
00000000
,
00001000
00100000
01000000
00010000
01000000
00100000
00001000
00010000
,
00100000
10000000
01000000
10000000
00100000
00010000
00001000
00000000
,
00000010
00000100
00010000
00000010
00001000
00000001
00000010
00000000
,
00000110
00000000
00000001
00000100
00001000
00000000
00010000
00100000
,
10000000
00100000
01100000
00000000
10000000
00010000
00100000
01000000
,
00010000
00000100
00001000
00000010
00010000
00000000
00011000
00000000
,
00001000
00000010
00000001
00000100
00000001
00000010
00001000
00010000
,
00001000
00010000
00001000
00000000
01000000
00010000
01000000
00000000
00001000
00000000
00000000
00000000
00011000
00000000
00000000
00000000
,
00011000
00101000
00101000
00010010
,
00010010
01001000
01001000
00010100
,
00010100
00000000
00011000
00000000
00011000
00000000
00001000
01000000
,
00010000
00100000
00001000
00000000
00011000
00000000
00001000
00000100
,
00000001
00000000
00000001
00000010
00001000
00000000
00010000
01000000
,
10000000
00000000
10000000
00100000
00010000
00000000
00001000
00010000
,
00000100
00000000
00001000
00000000
00000010
00000000
00010000
00000000
00001000
00010000
00001000
00010000
00002000
00000000
01003000
00010000
,
10000000
00010000
01000000
00000000
00002000
00013000
00001000
00010000
00000100
00000000
00000000
00000000
00010000
00001000
00010000
00001000
,
01000000
00000000
00000000
00000000
00001000
00010000
00001000
00010000
00000100
00000000
00000000
00000000
00000000
00000000
00000000
00000000
,
00000000
00000000
00000000
00000000
00010000
00001000
00010000
00001000
00100000
00000000
00000000
00000000
00001000
00010000
00001000
00010000
,
00000010
00000000
00000000
00000000
00010000
00001000
00010000
00001000
00100000
00000000
00000000
00000000
00000000
00000000
00000000
00000000
,
00000000
00000000
00000000
00000000
00001000
00010000
00000100
00001000
00000100
00000000
00000000
00000000
00010000
00001000
01000000
00010000
,
01000000
00000000
00000000
00000000
00001000
00010000
00000100
00001000
00000100
00000000
00000000
00000000
00000000
00000000
00000000
00000000
,
00000000
00000000
00000000
00000000
00010000
00001000
00100000
00010000
00100000
00000000
00000000
00000000
00001000
00010000
00000010
00001000
,
00000010
00000000
00000000
00000000
00010000
00001000
00100000
00010000
00100000
00000000
00000000
00000000
01000000
00000000
10000000
00000000
,
01000000
00000000
00010000
00000000
00002000
00000000
00003000
00000010
00000100
00001000
00000001
00000200
00000000
00000300
00000000
00001000
,
00010000
00100000
01000000
00020000
00000000
00030000
00000000
10000000
01000000
00010000
00001000
00200000
00000000
00310000
00020000
00000000
,
00000000
00000000
00030000
00000000
02000000
00000000
03001000
00010000
00000100
00001000
00000100
00000020
00000000
00000031
00001000
00000010
,
00001000
00000100
00010000
00002000
00000000
01003000
00010000
00100000
01000000
10000000
00100000
01100000
00000000
00000000
01001000
00000000
,
00011000
00010100
00001100
00000000
00001000
00000001
00000010
00001000
,
00010000
02000000
00100000
00000000
13000000
00010000
01000000
00001000
,
00010000
00000020
00001000
00000000
00000130
00000001
00000010
00000100
,
00010000
00000000
00002000
00000000
00000000
00000000
00103000
00000000
00010000
00000000
01000000
00000000
00100000
00000000
10000000
00100000
,
10000000
00000000
01000000
00100000
01000000
00000000
00100000
00000000
00001000
00000000
00010000
00000000
00000100
00000000
00001000
00000000
,
00000010
00000000
00000100
00000001
00000100
00000000
00001000
00000000
00010000
00000000
00100000
00000000
01000000
00000000
00010000
00000000
,
10000000
00000000
01000000
10000000
01000000
00000000
00100000
01000000
00100000
00000000
00010000
00100000
00010000
00000000
00100000
00000000
,
00001000
00011000
00000000
00000100
00002200
00000000
00003300
00000000
,
00001000
00000000
00000001
00000010
00000100
00000000
00001000
00000000
00000100
00000000
00010000
00001000
00010000
00000000
00001000
00000000
,
01000000
00000000
00010000
10000000
00100000
00000000
01000000
00000000
00100000
00000000
10000000
00000000
00010000
00000000
00100000
00000000
,
00001000
00000000
00010000
00000100
00001000
00000000
00000100
00000000
00000010
00000000
00000001
00001000
00000010
00000000
00010000
00000000
,
00001000
00000000
01000000
00010000
10000000
00000000
01000000
00000000
00010000
00000000
00001000
00000000
00100000
00000000
00001000
00000000
,
00000010
00000000
00000100
00001000
00000001
00000000
00000100
00000000
00000010
00000000
00001000
00000100
00010000
00000000
00001000
00000000
,
01000000
00000000
00010000
10000000
00100000
00000000
10000000
00000000
01000000
00000000
00010000
00000000
00001000
00000000
00100000
00000000
,
00110000
00000000
00110000
00000000
00100000
01000000
00010000
00001000
,
00000020
00000000
00000130
00000001
00000100
00001000
00001100
00000000
,
00000100
00001000
00000100
00010000
00001000
00000000
00000000
00000000
01000000
00000000
00010000
10000000
00100000
00000000
10000000
00000000
,
01000000
00000000
00010000
00000000
00001000
00000000
00100000
00000000
00001000
00000000
00010000
00000100
00001000
00000000
00000010
00000000
,
00001000
00000000
00000100
00000000
00000010
00000000
00000001
00000000
00000100
00000000
00000010
00001000
00000001
00000000
00000010
00000000
,
00000100
00000000
00001100
00000000
00000000
00000000
00011000
00000000
00000000
00000000
00110000
00000000
00000000
00000000
00100000
01000000
,
10000000
00010000
01000000
00010000
00100000
00101000
00001000
00021000
,
00000000
00000000
00030100
00001000
00000100
00000000
00000010
00000000
00000001
00000000
00000000
00000000
00000100
00000001
00001000
00000010
,
00000100
00000000
00000000
00001000
00000000
00000000
00010000
00000000
01000000
00000000
00100000
00000000
00010000
00000000
10010000
00000000
,
00000000
01000000
02200000
00000000
00000000
00000000
03300000
00000000
,
10000000
01000000
00010000
00001000
00101000
00000000
00100000
00010000
,
01000000
00001000
00010000
00000100
00001000
00000010
00010000
00000000
,
00001000
00000000
00000010
00000000
00000001
00000000
00001000
00000000
00001100
00000000
00000000
00000000
00000100
00000000
00010000
00001000
,
00200000
00000000
00010000
00000000
01000000
01000000
01300000
00000000
,
10010000
00000000
10000000
01000000
00010000
00001000
00011000
00000000
,
00010000
00000000
00001000
00000000
00000010
00000000
00000100
00001000
00000001
00000000
00000000
00000000
00000011
00000000
00000000
00000000
,
00001000
00000000
00000010
00000000
00010000
00000000
00001000
00000000
01000000
00000000
00010000
00000000
01000000
00100000
10000000
00010000
,
02000000
00000000
03010000
10000000
00010000
10000000
00010000
00000000
00100000
00001000
00010000
00000100
00001000
00000000
00000000
00000000
,
00000010
00010000
00001000
01000000
00010000
00000000
00000000
00000000
00100000
00001000
00010000
00000100
00001000
00000000
00000000
00000000
,
00000000
00000000
00000000
00000000
00000000
00000000
00000000
00000000
00000010
00000100
00001000
00010000
00001000
00000000
00000000
00000000
,
00100000
01000000
00010000
00001000
00010000
00000000
00000000
00000000
00000010
00000100
00001000
00010000
00001000
00000000
00000000
00000000
,
00000000
00000000
00000000
00000000
00000000
00000000
00000000
00000000
01000000
00010000
00100000
01000000
00010000
00000000
00000000
00000000
,
00000100
00001000
00000010
00000100
00001000
00000000
00000000
00000000
01000000
00010000
00100000
01000000
00010000
00000000
00000000
00000000
,
00000000
00000000
00000000
00000000
00000000
00000000
00000000
00000000
00001000
00000010
00000100
00010000
00001000
00000000
00000000
00000000
,
00010000
00100000
01000000
00001000
00010000
00000000
00000000
00000000
00001000
00010000
00001000
00010000
00001000
00000000
00010000
00001000
,
00010000
00000000
00022000
00000000
00000000
00033000
00000000
00000000
;

//--------------- dance-double - forcednature ----------------
#NOTEDATA:;
#STEPSTYPE:dance-double;
#DESCRIPTION:forcednature;
#DIFFICULTY:Challenge;
#METER:18;
#RADARVALUES:0,0,0,0,0;
#CREDIT:forcednature;
#NOTES:
00000000
00000000
00000000
00000000
,
00000000
00000000
00000000
00000000
,
00000000
00000000
00000000
00000000
,
00000000
00000000
00000000
00000000
,
00000000
00000000
00000000
00000000
,
00000000
00000000
00000000
00000000
,
00010000
00000000
00001000
00010000
00000100
00001000
00000100
00000010
00000001
00000000
00001000
00000010
00010000
00001000
01000000
00010000
,
01000000
00000000
00100000
10000000
00010000
10000000
01000000
00010000
00000000
00001000
00020000
00000000
00000100
00000000
00030100
00000000
,
00010000
00001000
00100000
00010000
00100000
00001000
00010000
00000010
00001000
00000010
00010000
00001000
01000000
00010000
10000000
00010000
,
00100000
00000000
00001000
00010000
00001000
00000000
00010000
00000100
00010000
00000000
00000100
00001000
00000100
00000000
00000010
00000000
00000000
00000000
00000110
00000000
00002002
00000000
00003003
00000000
00000000
00000000
00000000
00000000
00000001
00000000
00000000
00000000
,
00000100
00000000
00001000
00000000
00010000
00001000
00010000
00000000
01000000
00000000
10000000
00000000
00100000
00000000
10000000
00010000
,
01000000
00000000
00001000
00000000
00010000
00001000
00010000
00000100
00001000
00000100
00010000
00001000
00010000
00000010
00001000
00000010
00000100
00000001
00001000
00000010
00000200
00000000
00000300
00000000
00000001
00000000
00000000
00000000
00000010
00000000
00000000
00000000
,
00001000
00000000
00010000
00000000
01000000
00000000
10000000
00000000
10100000
00000000
00000000
00000000
00010000
01000000
00100000
10000000
,
00020000
00000000
00030000
00000000
10000000
00100000
01000000
00000000
00001000
00000000
00010000
00000000
00011000
00000000
00000000
00001000
,
00000010
00000000
00000001
00000000
00000010
00000000
00000100
00000000
00001000
00000100
00010000
00000000
00001000
00000000
00000010
00000000
,
00000001
00000010
00001000
00020000
00030000
00100000
10000000
01000000
,
00010000
00000000
00001000
00000000
00000010
00000000
00001000
00000000
00010000
00000000
00000100
00000000
00001000
00000001
00000010
00000100
,
00002000
00000000
00003100
00000000
00000010
00000001
00001000
00000000
00000010
00000000
00010000
00000000
00001000
00000000
00000000
00001000
,
01000000
00000000
00010000
01000000
00010000
00000000
00000000
10000000
00100000
00000000
10000000
00000000
02000000
03000000
00010000
00000100
,
00010000
01000000
00010000
00000100
00002000
00003000
00000001
00000000
00000100
00000000
00001000
00000000
00000100
00000000
00000001
00000000
,
00000010
00000000
00001000
00000000
00010000
00001000
01000000
00010000
02000000
00000000
03100000
00000000
10000000
00010000
01000000
00000000
,
00100000
00000000
10000000
00000000
11000000
00000000
00000000
01000000
00010000
00000000
00001000
00000000
00100000
00000000
00001000
00000000
,
00010000
00000100
00001000
00000000
00000002
00000000
00000203
00000000
00002300
00000000
00023000
00000000
00030010
00000000
00001010
00000000
,
00000000
00000000
00001000
00000100
00020000
00000000
00030000
00000000
00001000
00000000
00101000
00000000
00000000
00000000
00010000
00000000
,
00010010
00000000
00001000
01000000
01010000
00000000
10100000
00000000
,
10000000
00010000
10000000
00010000
10000000
00000000
01000000
00100000
00010000
00000000
00100000
00000000
00001000
00010000
00000100
00001000
,
00000100
00010000
00001000
00000000
00000020
00000000
00000100
00000100
00000000
00000001
00000031
00000000
00002002
00003003
00000000
00000000
,
00001000
00000000
00000100
00010000
00001000
00000000
00010000
00001000
00100000
00000000
00010000
00100000
01000000
00000000
10000000
00000000
,
00100000
00010000
00001000
00000100
00001000
00010000
00000010
00010000
,
00001000
00000000
00010000
00000100
00001000
00000000
00000100
00010000
00001000
00000000
00100000
00010000
00100000
00000000
01000000
00000000
,
10000000
00100000
00010000
00001000
00021000
00000000
00031000
00000010
,
00000001
00000000
00000100
00000000
00001000
00000000
00000000
00000000
00011000
00000000
00000000
00000000
00010000
00001000
00010000
00000000
,
00001000
00000000
01000000
00000000
00010000
10000000
00100000
00000000
10000000
00000000
01000000
00000000
00010000
00000000
00000000
00010000
,
00000100
00000000
00001000
00000100
00000010
00000000
00000100
00000010
00000001
00000000
00001000
00000010
00000100
00000000
00000001
00000000
,
00001000
00000100
00010000
00001000
00010000
00000010
00001000
00000010
00000100
00000000
00000000
00000000
00000110
00000000
00000000
00000000
,
00000101
00000000
00000001
00000010
00001000
00000000
00011000
00000000
,
01001000
00000000
00001000
00010000
00100000
00000000
01100000
00000000
,
01010000
00000000
10000000
00100000
00010000
00000000
00011000
00000000
,
00010100
00000000
00010000
00001000
00000010
00000000
00000001
00000100
,
00001000
00000000
00010000
01000000
10000000
00000000
10000000
00100000
,
00010000
00000000
00000000
00000000
00001000
00000000
00000010
00000000
00000001
00000000
00000000
00000000
00001000
00000100
00010000
00000000
,
00001000
00010000
00001000
00000000
00100000
00010000
00100000
01000000
10000000
00010000
00100000
00001000
00020000
00030000
00000010
00000010
,
00000010
00000010
00000010
00000000
00002000
00003100
00010000
00001000
00100000
00000000
00000000
00000000
00010000
01000000
00001000
00010000
,
00000010
00000000
00000000
00000000
00001000
00000100
00010000
00001000
00100000
00000000
00000000
00000000
00002000
00023000
00032000
00003000
,
00020000
00000000
00030000
00000000
00000010
00010000
00001000
01000000
00010000
00000000
00000000
00000000
00100000
00001000
00010000
00000100
,
00001000
00000000
00000000
00000000
00000010
00010000
00001000
01000000
00010000
00000000
00000000
00000000
20000000
30020000
20030000
30020000
,
20030000
00000000
30000000
00000000
01000000
00010000
00001000
00010000
00000010
00000000
00000000
00000000
00000100
00001000
00010000
00001000
,
00100000
00000000
00000000
00000000
01000000
00010000
00001000
00010000
00000010
00000000
00000000
00000000
00002000
00000000
00003000
00000000
,
00000002
00000000
00000003
00000000
00000100
00001000
00010000
00001000
00100000
00000000
00000000
00000000
01000000
00010000
00001000
00010000
,
00000010
00000000
00000000
00000000
00000100
00001000
00010000
00001000
00100000
00000000
00000000
00000000
01000000
00000000
00010000
00000000
,
01000000
00000000
10000000
00000000
00200000
00000000
00300000
01000000
00010000
01000000
00001000
00020000
00000000
00030000
00000000
00000100
,
00001000
00000100
00010000
00002000
00000000
00003000
00000000
00000010
00000001
00000100
00000001
00000020
00000000
00001030
00020000
00000000
,
00000000
00000000
00030000
00000000
00200000
00000000
01300000
00010000
10000000
00100000
10000000
01000000
00020000
00000000
00031000
00000010
,
00000001
00000100
00000001
00000010
00002000
00000000
00013000
01000000
10000000
00100000
01000000
01100000
00000000
00000000
01001000
00000000
,
00011000
00000000
00010100
00000000
00002200
00003300
00000000
00000000
00001000
00000000
00000001
00000000
00000100
00000000
00001000
00000000
,
00010000
00100000
10000000
00000000
00010000
10000000
01000000
00010000
,
00001000
00000010
00000001
00000000
00000100
00001000
00010000
00001000
,
00100000
00110000
00000000
00010000
10000000
01000000
00010000
00001000
,
00100000
00010000
00100000
00010000
10000000
00000000
00010000
01000000
00010000
00000000
01000000
00001000
00010000
00000000
00000010
00000000
,
00001000
00000000
00000010
00000000
00000100
00000000
00000001
00000010
00000001
00000000
00000010
00000100
00000010
00000000
00000100
00000000
,
00010000
00000000
00001000
00000000
01000000
00010000
01000000
00010000
01000000
00010000
01000000
00010000
10000000
00100000
01000000
00100000
,
10000000
00010000
00100000
00000000
00000000
00000000
00001000
00000000
00022000
00000000
00000000
00000000
00033000
00000000
00000000
00000000
,
00010000
00000000
00000100
00001000
00000010
00000000
00010000
00000000
00001000
00000000
01000000
00010000
00100000
00000000
00001000
00000000
,
00010000
00000000
00000010
00001000
00000010
00000000
00000100
00000001
00000100
00000000
00000001
00000010
00000100
00000000
00001000
00000000
,
00000100
00000000
00010000
00001000
01000000
00000000
00010000
00000000
00100000
00000000
00001000
00010000
00000100
00000000
00001000
00000000
,
00000010
00000000
00000100
00000001
00000100
00000000
00000010
00001000
00000001
00001000
00000010
00000100
00000001
00000000
00001000
00000000
,
00000100
00000000
00010000
00001000
00100000
00000000
00010000
00000000
01000000
00000000
00010000
00100000
01000000
00000000
10000000
00000000
,
00100000
00000000
01000000
00010000
01000000
00000000
00010000
01000000
00001000
00000000
00010000
00001000
00010000
00000000
00000100
00000000
,
00001000
00000000
00000000
00000000
00001001
00000000
00000000
00000000
00001000
00000000
00000001
00000100
00001000
00000000
00000000
00000000
,
00011000
00000000
00000000
00000000
00100000
00000000
00010000
10000000
00100000
01000000
00010000
10000000
02000000
00000000
00000000
00000000
,
03010000
00001000
00010000
00001000
00010000
00000000
00000100
00001000
00000002
00000000
00000023
00000000
00002030
00000000
00023000
00000000
,
00030100
00000000
00001000
00000100
00000010
00000000
00000100
00010000
00002000
00000000
02003000
00000000
03010000
00000000
10010000
00000000
,
10000000
00000000
00100000
01000000
00010000
00000000
01000000
00100000
10000000
00000000
00010000
00100000
00001000
00000000
00020000
00000000
,
00030100
00001100
00000000
00001010
00000000
00000011
00000000
00000101
,
00000100
00000000
00000010
00000100
00000010
00000000
00001000
00000010
00010000
00000000
00001000
00100000
00010000
00100000
00001000
00100000
,
00010000
00000000
10000000
00000000
00100000
00000000
01000000
00010000
01000000
00000000
00001000
00010000
00000100
00001000
00000100
00010000
,
00001000
00000000
00000000
00011000
00000000
00000000
00020000
00000000
00030020
00000000
00001030
00000000
00001100
00000000
00000110
00000000
,
00000000
00000010
00002002
00000000
00000000
00000000
00003003
00000000
,
00001000
00000100
00010000
00000000
00001000
00000000
01000000
00000000
00010000
00100000
00001000
00000000
00010000
00000000
00000010
00000000
,
00002000
00000100
00003002
00000100
00001003
00000010
00010010
00000000
,
00010000
00001000
01000000
00000000
00010000
00000000
00100000
00000000
00001000
00010000
00000100
00000000
00001000
00000000
00000010
00000000
,
00010000
00000000
00011000
00000000
00001000
00010000
00200000
00000000
,
10300000
00010000
01000000
00000000
00001000
00000000
00010000
00000100
00001000
00000000
00000001
00000000
00000100
00000010
00001000
00000000
,
00000100
00000000
00010000
00001000
01000000
00000000
00010000
00000000
00100000
01000000
00000000
00000000
10010000
00000000
00000000
00000000
,
10000000
01000000
10000000
00000000
00010000
01000000
00010000
00000000
00100000
00001000
00010000
00001000
00010000
00000100
00001000
00000100
,
00020000
00030000
00000010
00000010
00000010
00000010
00000010
00000000
00002000
00003100
00010000
00001000
01000000
00010000
00100000
00000000
,
00010000
01000000
00001000
00010000
00000100
00001000
00000010
00000000
00001000
00000100
00010000
00001000
01000000
00010000
00100000
00000000
,
00002000
00023000
00032000
00023000
00032000
00000000
00003000
00000000
00100000
00010000
01000000
00001000
00010000
00000100
00001000
00000000
,
00000010
00001000
00000100
00010000
00001000
01000000
00010000
00000000
00100000
00010000
01000000
00001000
00010000
00000100
00001000
00000000
,
00000002
00002003
00003002
00002003
00003002
00000000
00000003
00000000
00000010
00000100
00001000
00000100
00010000
00001000
01000000
00000000
,
00100000
01000000
00010000
01000000
00001000
00010000
00000100
00000000
00000010
00000100
00001000
00000100
00010000
00001000
01000000
00000000
,
00002000
00023000
00030000
00002000
00023000
00000000
00030000
00000000
00000100
00001000
00000010
00000100
00001000
00010000
00100000
00000000
,
01000000
00010000
00100000
01000000
00010000
00001000
00000010
00000000
00000002
00000203
00000320
00002030
00023000
02030000
03200000
20300000
,
30020000
00030000
02200000
00000000
00000000
03300000
00000000
00000000
;
