#VERSION:0.83;
#TITLE:TITANS RETURN;
#SUBTITLE:;
#ARTIST:L.E.D.;
#TITLETRANSLIT:;
#SUBTITLETRANSLIT:;
#ARTISTTRANSLIT:;
#GENRE:DRUMSTEP;
#CREDIT:;
#MUSIC:TITANS RETURN.ogg;
#BANNER:TITANS RETURN.png;
#BACKGROUND:TITANS RETURN-bg.png;
#CDTITLE:./CDTitles/REFLEC BEAT limelight.png;
#SAMPLESTART:21.369;
#SAMPLELENGTH:15.000;
#SELECTABLE:YES;
#OFFSET:0.886;
#BPMS:0.000=194.000
,136.000=97.000
,152.000=194.000
,232.000=97.000
,248.000=194.000
;
#STOPS:;
#TIMESIGNATURES:0.000=4=4;
#BGCHANGES:0.000=../BGAs/19cy.mp4=1.000=0=0=0=StretchNoLoop====,
99999.000=-nosongbg-=1.000=0=0=0=StretchNoLoop====
;
#FGCHANGES:;

//--------------- dance-single - forcednature ----------------
#NOTEDATA:;
#STEPSTYPE:dance-single;
#DESCRIPTION:forcednature;
#CREDIT:forcednature;
#DIFFICULTY:Beginner;
#METER:3;
#RADARVALUES:0,0,0,0,0;
#NOTES:
0000
0000
0000
0000
,
0000
0000
0000
0000
,
0000
0000
0000
0000
,
0000
0000
0000
0000
,
0000
0000
0000
0000
,
0000
0000
0000
0000
,
1000
0000
0000
0000
,
0000
0000
0000
0000
,
0001
0000
0000
0000
,
0100
0000
0000
0000
,
0010
0000
0000
0000
,
0000
0000
0000
0000
,
1000
0000
0000
0000
,
0000
0000
0000
0000
,
0001
0000
0000
0000
,
0000
0000
0000
0000
,
0010
0000
0000
0000
,
0000
0000
0000
0000
,
1001
0000
0000
0000
,
1000
0000
0000
0000
,
0001
0000
0000
0000
,
0100
0000
0000
0000
,
0010
0000
0000
0000
,
1000
0000
0000
0000
,
0001
0000
0001
0000
,
0001
0000
0000
0000
,
0010
0010
0000
0000
,
0000
0000
0000
0000
,
0100
0100
0000
0000
,
0000
0000
0000
0000
,
0000
0000
0010
0000
0000
0010
0000
0000
,
0000
0000
0000
0000
,
0110
0000
0000
0000
,
0001
0000
1000
0000
,
0000
0100
0000
0100
,
0000
0010
0000
0010
,
0000
0001
0000
0001
,
0000
1000
0000
0000
,
0010
0000
0000
0000
,
0100
0000
0000
0000
,
0001
0000
0001
0000
,
0001
0000
0000
0000
,
1001
0000
0000
0000
,
1000
0000
0000
0000
,
0100
0000
0000
0000
,
1000
0000
0000
0000
,
0010
0000
0000
0000
,
1000
0000
0000
0000
,
0100
0000
0000
0000
,
0010
0000
0000
0000
,
0110
0000
0000
0000
,
0100
0000
0000
0000
,
1000
0000
0000
0000
,
0001
0000
0000
0000
,
0100
0000
0000
0000
,
0001
0000
0000
0000
,
0010
0000
0010
0000
,
0010
0000
0000
0000
,
0000
0001
0000
0001
,
0000
0100
0000
0100
,
0000
0010
0000
0010
,
0000
1000
0000
0000
,
0001
0000
0000
0000
,
0010
0000
0000
0000
,
0100
0000
0100
0000
,
0100
0000
0000
0000
,
1001
0000
0000
0000
,
1000
0000
0010
0000
,
1000
0000
0000
0000
,
0001
0000
0010
0000
,
0001
0000
0000
0000
,
0100
0000
0010
0000
,
0100
0000
0100
0000
,
0100
0000
0000
0000
,
1001
0000
0000
0000
;

//--------------- dance-single - forcednature ----------------
#NOTEDATA:;
#STEPSTYPE:dance-single;
#DESCRIPTION:forcednature;
#CREDIT:forcednature;
#DIFFICULTY:Easy;
#METER:8;
#RADARVALUES:0,0,0,0,0;
#NOTES:
0000
0000
0000
0000
,
0000
0000
0000
0000
,
0000
0000
0000
0000
,
0000
0000
0000
0000
,
0000
0000
0000
0000
,
0000
0000
0000
0000
,
0000
1000
0000
1000
,
0000
0001
0000
0001
,
0000
0100
0100
0100
,
0010
0010
0010
0100
,
0000
1000
0100
1000
,
0000
0001
0100
0001
,
0000
1000
0010
1000
,
0000
0001
0001
0001
,
0000
0100
0010
0100
,
0000
0001
1000
0001
,
0000
0010
0100
0010
,
0001
1000
0001
1000
,
1001
0000
0001
0100
,
0001
1000
0010
1000
,
0001
0000
0010
0100
,
1000
0001
1000
0100
,
0010
0000
0100
1000
,
0010
1000
0001
0100
,
0001
0000
0001
0010
,
0200
0000
0000
0300
,
1001
1001
0000
0000
,
0000
0000
0000
0000
,
0110
0110
0000
0000
,
0000
0000
0000
0000
,
0000
0000
1001
0000
0000
1001
0000
0000
,
0000
0000
0000
0000
,
1000
0001
1000
0001
,
0200
0000
0000
0000
,
0300
0010
0010
0010
,
0000
0000
1000
0000
1000
1000
1000
0000
,
0000
0100
0100
0100
,
0000
0000
0001
0000
0001
0001
0002
0000
,
0003
0100
0001
0100
,
0000
0010
1000
0010
,
0000
1000
0100
0010
,
0001
1000
0001
0100
,
0000
0110
0000
1001
,
0000
1000
0100
1000
,
0000
0110
0000
1001
,
0000
0001
0100
0001
,
0000
0110
0000
1001
,
0000
1000
0010
1000
,
0000
0110
0000
1001
,
0000
0000
0001
0000
0000
0001
0000
0000
,
0000
0100
0010
0100
,
0010
1000
0010
1000
,
0000
0100
0010
0100
,
0010
0001
0010
0001
,
0000
1000
0001
1000
,
0010
0100
0010
0100
,
0000
0001
1000
0001
,
0020
0000
0000
0000
,
0030
0100
1000
0100
,
0000
0000
1000
0000
1000
1000
1000
0000
,
0000
0001
0100
0001
,
0000
0000
0010
0000
0010
0010
0020
0000
,
0030
0100
1000
0100
,
0000
1000
0010
1000
,
0000
0001
0010
0001
,
0100
0100
0100
0010
,
1000
0100
1000
0001
,
0100
0001
1001
0000
,
0100
1000
0010
1000
,
0100
0010
1001
0000
,
0100
0001
0010
0100
,
0010
0001
1001
0000
,
0010
0010
0100
0100
,
0001
1000
0001
1001
,
2002
0000
0000
0000
,
3003
0000
0000
0000
;

//--------------- dance-single - forcednature ----------------
#NOTEDATA:;
#STEPSTYPE:dance-single;
#DESCRIPTION:forcednature;
#CREDIT:forcednature;
#DIFFICULTY:Medium;
#METER:12;
#RADARVALUES:0,0,0,0,0;
#NOTES:
0000
0000
0000
0000
,
0000
0000
0000
0000
,
0000
0000
0000
0000
,
0000
0000
0000
0000
,
0000
0000
0000
0000
,
0000
0000
0000
0000
,
1000
0000
0100
0000
0000
1000
0010
0000
,
0001
0000
0100
0000
0000
0001
0010
0000
,
1000
0100
1000
0000
0001
0100
0001
0000
,
0020
0100
0130
0110
,
1001
0000
0001
0000
0100
0010
1000
0000
,
0001
0000
0010
0100
0010
0001
1000
0000
,
0010
0000
0100
0000
0001
1000
0100
0000
,
0010
0100
0010
0000
0010
0001
1000
0000
,
0010
0000
0100
0000
0001
1000
0100
0000
,
1000
0000
0010
0100
0001
1000
0010
0000
,
1000
0000
0100
0000
0010
0001
1000
0000
,
0010
0000
0000
0100
0000
0000
0010
0000
0000
0100
0000
0000
0110
0000
0000
0000
,
1000
0001
0010
0002
0000
0023
0000
0230
,
0000
2300
0000
3002
0000
0013
0100
0000
,
1000
0001
0100
0002
0000
2003
0000
3200
,
0000
2300
0000
3020
0000
0230
0000
0301
,
1000
0100
0010
0002
0000
2003
0000
3020
,
0000
0230
0000
0302
0000
0013
0100
0000
,
1000
0010
1000
0000
0001
0010
0001
0000
,
0110
0000
0000
0000
1000
0000
0001
0000
0000
0000
0010
0000
0000
0010
0000
0000
,
1001
2002
0000
3003
,
0000
0000
0000
0000
,
0110
0220
0000
0330
,
0000
0000
0000
0000
,
0000
0000
0110
0000
0000
2002
0000
0000
,
0000
3003
0000
0000
0000
0000
0000
0000
,
0001
0100
0001
1000
0100
1000
0010
0000
,
2000
0100
0001
0010
,
3000
1000
0100
0001
0100
1000
0100
0010
,
0000
0000
0000
0000
0000
0000
0000
0000
0000
0000
0000
0000
0001
0000
0000
0000
0000
0000
0000
0000
0000
0000
0000
0000
0100
0000
0000
0000
0000
0000
0000
0000
0000
0000
0000
0000
1000
0000
0000
0000
0000
0000
0000
0000
0000
0000
0000
0000
0100
0000
0000
0000
0000
0000
0000
0000
0100
0000
0000
0000
0000
0000
0000
0000
0100
0000
0000
0000
0000
0000
0000
0000
0001
0000
0000
0000
0000
0000
0000
0000
0000
1000
0000
0000
0000
0000
0000
0000
0000
0000
0010
0000
0000
0000
0000
0000
,
0000
1000
0001
0100
1000
0100
0001
1000
,
0000
0000
0100
0000
0001
0000
0100
0000
0020
0000
0000
0000
0031
0000
1000
0001
,
1000
0000
1010
0000
0010
0100
0001
0000
,
0010
0000
0100
1000
0001
0010
0001
0000
,
0101
0000
0100
0010
1000
0010
0100
0000
,
0001
1000
0001
1000
0001
1000
0010
0000
,
0110
0000
0100
0001
1000
0001
0100
0000
,
0010
0000
1000
0100
1000
0001
0010
0000
,
0100
0000
1000
0001
0010
0001
1000
0000
,
0010
0100
0001
0000
0010
0010
0100
0000
,
1000
0000
0001
0100
0001
1000
0010
0000
,
0100
0000
0001
1000
0100
0010
0001
0000
,
0020
0000
1030
0000
0010
0001
0100
0000
,
0120
0000
1000
1000
0000
1000
0030
0000
,
0110
0000
0100
0001
0010
0001
1000
0000
,
0010
0000
0100
0001
1000
0100
0010
0000
,
0001
0000
0100
0001
0010
0100
1000
0000
,
0010
0000
0100
0001
1000
0001
0010
0000
,
0110
0000
0100
1000
0010
0100
0001
0000
,
0010
0000
0100
1000
0001
0010
0100
0000
,
0001
0100
0001
0100
1000
0100
1000
0000
,
0002
0010
1000
0100
,
0003
0010
0001
0010
1000
0010
0001
0100
,
0000
0010
0001
0010
2000
3002
0203
2300
,
3000
0000
0000
0000
0100
0000
0000
0000
0001
0000
0000
0000
0010
0000
0000
0000
0100
0000
0000
0000
1000
0000
0000
0000
0010
0000
0000
0010
0000
0000
0010
0000
,
0000
0000
0100
0000
0001
0000
0010
0000
0100
0000
1000
0001
2000
0000
0000
0000
,
3010
0000
0101
0000
0001
0010
0100
0000
,
0010
0000
1100
0000
1000
0010
0100
0000
,
0001
1000
0001
1000
0100
0010
0100
0000
,
2000
0010
0001
3100
,
0001
0100
0010
1000
0001
0200
0000
0320
,
0000
2030
0000
3002
0000
0013
0100
0000
,
1000
0001
0010
0100
1000
0002
0000
0023
,
0000
0032
0000
0203
0000
0320
0000
1030
,
0100
1000
0001
0100
0001
0020
0000
0230
,
0000
2300
0000
3002
0000
0103
0010
0000
,
1000
0100
1000
0100
0010
0001
0010
0000
,
0200
1000
0010
0301
,
2002
0000
0000
0000
,
3003
0000
0000
0000
;

//--------------- dance-single - forcednature ----------------
#NOTEDATA:;
#STEPSTYPE:dance-single;
#DESCRIPTION:forcednature;
#CREDIT:forcednature;
#DIFFICULTY:Hard;
#METER:16;
#RADARVALUES:0,0,0,0,0;
#NOTES:
0000
0000
0000
0000
,
0000
0000
0000
0000
,
0000
0000
0000
0000
,
0000
0000
0000
0000
,
0000
0000
0000
0000
,
0000
0000
0000
0000
,
1000
0000
0100
1000
0000
1000
0010
0000
,
0100
0000
0001
0010
0000
0010
0100
0000
,
0010
0001
0010
0001
1000
0010
1000
0010
,
0100
0001
0100
0000
0001
0100
0001
0000
0100
0001
1000
0000
0010
0000
0000
0000
,
1001
0000
0000
0000
1000
0000
0000
0100
0000
0000
0001
0000
0100
0000
0000
0000
,
0010
0000
0001
0000
0100
0000
0000
0001
0000
0100
0010
0000
1000
0000
0000
0000
,
0001
0000
0000
0000
0100
0000
0000
1000
0000
0000
0100
0000
0001
0000
0000
0000
,
1000
0000
0010
0000
0100
0000
0000
0001
0000
0010
0001
0000
1000
0000
0000
0000
,
0100
0000
0000
0000
1000
0000
0000
0010
0000
0000
0001
0000
0010
0000
0000
0000
,
0100
0000
0001
0000
1000
0000
0000
0100
0000
1000
0010
0000
0100
0000
0000
0000
,
0001
0000
0000
0000
1000
0000
0000
0010
0000
0000
0001
0000
0010
0000
0000
0000
,
0100
0000
0000
1010
0000
0000
0100
0000
0000
0011
0000
0000
1001
0000
0000
0000
,
0001
0100
0010
0001
0000
0011
0000
1010
,
0000
1100
0000
0110
0000
0010
0001
0000
,
1000
0100
0010
1000
0000
1010
0000
0011
,
0000
0000
0101
0000
0000
0000
0110
0000
0000
0001
1000
0000
0001
0000
0000
0000
,
1000
0100
0001
0100
0000
0011
0000
0001
,
0100
0000
1000
0000
0100
0000
0001
0000
0000
1000
0001
0000
1000
0000
0000
0000
,
0010
0100
0100
0001
0010
0100
0100
1000
,
1001
0000
0000
0000
2000
0000
0100
0000
0000
0000
0001
0000
0000
3010
0000
0000
,
1001
2002
0000
3003
,
0000
0000
0000
0000
,
0110
0220
0000
0330
,
0000
0000
0000
0000
,
0000
0000
2002
0000
3003
0220
0000
0000
,
0000
0330
0000
0000
0000
0000
0000
0000
,
1000
0100
1000
0000
0100
0000
0010
0001
0010
0000
0001
0000
0100
0010
0100
0000
,
0010
0000
1000
0000
0002
0000
0000
0010
0000
0000
1000
0000
0000
0100
0000
0000
,
0003
1100
1100
0101
0201
0010
1000
0310
,
0000
0000
0000
0000
0000
0000
0000
0000
0000
0000
0000
0000
0101
0000
0000
0000
0000
0000
0000
0000
0000
0000
0000
0000
0101
0000
0000
0000
0000
0000
0000
0000
0000
0000
0000
0000
1100
0000
0000
0000
0000
0000
0000
0000
0000
0000
0000
0000
1200
0000
0000
0000
0000
0000
0000
0000
1000
0000
0000
0000
0000
0000
0000
0000
1000
0000
0000
0000
0000
0000
0000
0000
0010
0000
0000
0000
0000
0000
0000
0000
0000
0001
0000
0000
0000
0000
0000
0000
0000
0000
0310
0000
0000
0000
0000
0000
,
0000
0011
0011
1010
1020
0100
0001
0130
,
0000
0000
0000
1010
0000
0000
1010
0000
0000
0011
0000
0000
0001
0100
0001
0100
0001
0100
0020
0000
0000
0000
0000
0000
,
1030
0100
0001
0100
1000
0000
1010
0000
,
0001
0100
1000
0100
0001
0000
0011
0000
,
1000
1000
0100
0100
0010
0010
0001
0001
,
1000
0010
1000
0000
0010
1000
0010
0000
1000
0001
0010
0000
0100
0000
0000
0000
,
0010
0000
0001
0000
1000
0000
0100
1000
0000
0100
0010
0000
0001
0000
1000
0000
,
0010
0000
0100
0000
0001
0000
1000
0100
0000
1000
0001
0000
0010
0000
0000
0000
,
0001
0000
0100
0000
0010
0000
0100
0001
0000
1000
0010
0000
0100
0000
0001
0000
,
1000
0000
0100
0000
0010
0000
0100
1000
0000
0010
1000
0000
0001
0000
0000
0000
,
0010
0000
0100
0000
1000
0000
0001
0100
0000
0010
0100
0000
0001
0000
1000
0000
,
0100
0000
0010
0000
0001
0000
1000
0010
0000
1000
0001
0000
0010
0000
0000
0000
,
0200
0000
0301
0100
1000
0001
0010
0000
,
2100
0000
0000
0000
3010
0000
0102
0000
0000
0000
1003
0000
0000
1000
0000
1000
,
0010
0000
0100
0000
0001
0000
0010
0100
0010
0000
0100
0000
1000
0000
0000
0000
,
0010
0000
0010
0000
1000
0000
0100
0010
0100
0000
0010
0000
0001
0000
0000
0000
,
1000
0000
0010
0000
0100
0000
0001
1000
0001
0000
0100
0000
0010
0000
0000
0000
,
1000
0000
0100
0000
0001
0000
0100
1000
0000
0010
1000
0000
0001
0000
0000
0000
,
0100
0010
0100
0000
0001
0000
0010
0001
0010
0000
0100
0000
1100
0000
0000
0000
,
1000
0000
0001
0000
0100
0000
0010
1000
0010
0000
0100
0000
0101
0000
0000
0000
,
1000
1000
0100
0100
0010
0010
0001
0001
,
1000
0010
1000
0000
0010
1000
0010
0000
0100
0001
1000
0000
0200
0000
0000
0000
,
0300
0101
1100
0101
1200
0010
0001
0310
,
0000
0000
1100
0000
0101
0000
1100
0000
0102
0023
0230
2300
3200
0320
0032
0000
,
0003
0000
0000
0000
1010
0000
0000
0000
0011
0000
0000
0000
1010
0000
0000
0000
0021
0000
0000
0000
0100
0000
0000
0000
1000
0000
0000
1000
0000
0000
1030
0000
,
0000
0000
0000
0011
0000
0000
1010
0000
0000
0011
0000
0000
1000
0010
1000
0010
1000
0010
0100
0001
0100
0001
0100
0001
,
2000
0000
3100
0001
0100
1000
1010
0000
,
0002
0000
0103
1000
0100
0001
0011
0000
,
0010
0010
0100
0100
1000
1000
0001
0001
,
1000
0100
1000
0000
0001
0100
0001
0000
0010
0100
0010
0100
1000
0000
0000
0000
,
0001
0000
0100
0000
0010
0100
0001
0000
1000
0000
0100
1000
0100
0000
0010
0100
,
0010
0000
0001
0010
0001
0000
1000
0001
1000
0000
0010
0000
0110
0000
0000
0000
,
1000
0000
0010
0000
0100
0010
1000
0000
0001
0000
0100
0001
0100
0000
0010
0100
,
0010
0000
1000
0010
1000
0000
0001
1000
0000
0001
0010
0000
0100
0000
0000
0000
,
1000
0000
0010
0000
1000
0001
0100
0000
0001
0000
0010
0000
0001
1000
0100
0000
,
0010
0000
0001
0000
1000
0010
0100
0000
0001
0000
1000
0000
1001
0000
0000
0000
,
0001
0100
0001
0000
0001
0000
0001
0000
1000
0100
1000
0000
1000
0000
1000
0000
,
0001
0010
0001
0000
1000
0010
1000
0000
0100
0010
0100
0010
0001
0000
0000
0000
,
2002
0000
0000
0000
,
3003
0000
0000
0000
;

//--------------- dance-double - forcednature ----------------
#NOTEDATA:;
#STEPSTYPE:dance-double;
#DESCRIPTION:forcednature;
#CREDIT:forcednature;
#DIFFICULTY:Easy;
#METER:8;
#RADARVALUES:0,0,0,0,0;
#NOTES:
00000000
00000000
00000000
00000000
,
00000000
00000000
00000000
00000000
,
00000000
00000000
00000000
00000000
,
00000000
00000000
00000000
00000000
,
00000000
00000000
00000000
00000000
,
00000000
00000000
00000000
00000000
,
00000000
00001000
00000000
00001000
,
00000000
00010000
00000000
00010000
,
00000000
00000100
00000100
00000100
,
00000010
00000010
00000010
00000001
,
00000000
00000100
00000001
00000100
,
00000000
00000010
00001000
00000010
,
00000000
00010000
00001000
00010000
,
00000000
00001000
00001000
00001000
,
00000000
01000000
00010000
01000000
,
00000000
00010000
00100000
00010000
,
00000000
10000000
00100000
10000000
,
01000000
00100000
01000000
00100000
,
01100000
00000000
01000000
10000000
,
01000000
00100000
00010000
00100000
,
00001000
00000000
00010000
00000100
,
00010000
00000100
00001000
00000100
,
00000010
00000000
00000001
00000100
,
00000001
00001000
00000100
00001000
,
00000010
00000000
00000010
00000000
,
00022000
00000000
00000000
00033000
,
01001000
01001000
00000000
00000000
,
00000000
00000000
00000000
00000000
,
00010100
00010100
00000000
00000000
,
00000000
00000000
00000000
00000000
,
00000000
00000000
00101000
00000000
00000000
00101000
00000000
00000000
,
00000000
00000000
00000000
00000000
,
00010010
00000000
00000000
00010010
00000000
00000000
00010010
00000000
,
00022000
00000000
00000000
00000000
,
00033000
00100000
00010000
00100000
,
00000000
00000000
00001000
00000000
00010000
00001000
00010000
00000000
,
00000000
00000010
00001000
00000010
,
00000000
00010000
00002000
00020000
,
00033000
00001000
01000000
00001000
,
00000000
00010000
00000100
00010000
,
00000000
00001000
00100000
00010000
,
00100000
01000000
10000000
01000000
,
00000000
01100000
00000000
00100000
,
00001000
00010000
00000010
00010000
,
00000000
00011000
00000000
00001000
,
00010000
00000100
00001000
00000100
,
00000000
00000110
00000000
00000010
,
00000001
00001000
00000001
00000100
,
00000000
00000110
00000000
00000010
,
00010000
00000000
00001000
00000000
00000000
00001000
00000000
00000000
,
00000000
01000000
00010000
01000000
,
00010000
00100000
01000000
10000000
,
00000000
01000000
00100000
01000000
,
00100000
00001000
00010000
00001000
,
00000000
00010000
00000010
00010000
,
00001000
01000000
00001000
01000000
,
00000000
00001000
00010000
00001000
,
00200000
00000000
00000000
00000000
,
00300000
01000000
10000000
01000000
,
00000000
00000000
00010000
00000000
00001000
00001000
00001000
00000000
,
00000000
00000100
00000001
00000100
,
00000000
00001000
00020000
00032000
,
00003000
00100000
00010000
00100000
,
00000000
00001000
00010000
00001000
,
00000000
00000010
00000100
00000010
,
00000001
00000001
00000001
00001000
,
00000010
00010000
00001000
00010000
,
00000100
00010000
00011000
00000000
,
00100000
00001000
00010000
00001000
,
01000000
00001000
00011000
00000000
,
00000100
00010000
00001000
00010000
,
00000010
00010000
00011000
00000000
,
00100000
00100000
00010000
00010000
,
10000000
00100000
01000000
00001000
,
00022000
00000000
00000000
00000000
,
00033000
00000000
00000000
00000000
;

//--------------- dance-double - forcednature ----------------
#NOTEDATA:;
#STEPSTYPE:dance-double;
#DESCRIPTION:forcednature;
#CREDIT:forcednature;
#DIFFICULTY:Medium;
#METER:13;
#RADARVALUES:0,0,0,0,0;
#NOTES:
00000000
00000000
00000000
00000000
,
00000000
00000000
00000000
00000000
,
00000000
00000000
00000000
00000000
,
00000000
00000000
00000000
00000000
,
00000000
00000000
00000000
00000000
,
00000000
00000000
00000000
00000000
,
00001000
00000000
00010000
00000000
00000100
00001000
00000100
00000000
,
00010000
00000000
00001000
00000000
01000000
00010000
01000000
00000000
,
00100000
10000000
00100000
00000000
10000000
01000000
10000000
00000000
,
02000000
00010000
03010000
00011000
,
00010100
00000000
00000100
00000000
00001000
00000001
00000010
00000000
,
00000100
00000000
00010000
00001000
01000000
00010000
00100000
00000000
,
01000000
00000000
10000000
00000000
01000000
00010000
00001000
00000000
,
00000010
00000100
00000010
00000000
00000010
00000001
00001000
00000000
,
00000010
00000000
00000100
00000000
00001000
00010000
00001000
00000000
,
01000000
00000000
00010000
00100000
01000000
10000000
00100000
00000000
,
10000000
00000000
01000000
00000000
00010000
00001000
00010000
00000000
,
00000010
00000000
00000000
00001000
00000000
00000000
00000010
00000000
00000000
00000001
00000000
00000000
00000010
00000000
00000000
00000000
,
00000100
00000001
00000010
00000002
00000000
00000203
00000000
00002300
,
00000000
00023000
00000000
00230000
00000000
01300000
00010000
00000000
,
10000000
01000000
00100000
02000000
00000000
03020000
00000000
00032000
,
00000000
00003020
00000000
00000230
00000000
00002300
00000000
00003001
,
00000100
00001000
00000100
00000002
00000000
00000023
00000000
00000230
,
00000000
00020300
00000000
00032000
00000000
00103000
01000000
00000000
,
10000000
00100000
10000000
00100000
00010000
00100000
00010000
00000000
,
00011000
00000000
00000000
00000000
00001000
00000000
00000010
00000000
00000000
00000000
00000100
00000000
00000000
00000100
00000000
00000000
,
00000110
00000220
00000000
00000330
,
00000000
00000000
00000000
00000000
,
00011000
00022000
00000000
00033000
,
00000000
00000000
00000000
00000000
,
00000000
00000000
01100000
00000000
00000000
02200000
00000000
00000000
,
00000000
03300000
00000000
00000000
00000000
00000000
00000000
00000000
,
10000000
01000000
10000000
00010000
01000000
00010000
00100000
00000000
,
02000000
03020000
00032000
00003020
,
00000030
00000001
00000100
00001000
00010000
00001000
00010000
00100000
,
00000000
00000000
00000000
00000000
00000000
00000000
00000000
00000000
00000000
00000000
00000000
00000000
10000000
00000000
00000000
00000000
00000000
00000000
00000000
00000000
00000000
00000000
00000000
00000000
01000000
00000000
00000000
00000000
00000000
00000000
00000000
00000000
00000000
00000000
00000000
00000000
00010000
00000000
00000000
00000000
00000000
00000000
00000000
00000000
00000000
00000000
00000000
00000000
00001000
00000000
00000000
00000000
00000000
00000000
00000000
00000000
00001000
00000000
00000000
00000000
00000000
00000000
00000000
00000000
00001000
00000000
00000000
00000000
00000000
00000000
00000000
00000000
00000010
00000000
00000000
00000000
00000000
00000000
00000000
00000000
00000000
00000100
00000000
00000000
00000000
00000000
00000000
00000000
00000000
00000000
00000010
00000000
00000000
00000000
00000000
00000000
,
00000000
00000001
00000100
00001000
00010000
01000000
10000000
00100000
,
00000000
10000000
01000000
00010000
00002000
00000000
00003020
00000000
,
00000031
00000000
00000101
00000000
00000100
00001000
00010000
00000000
,
00100000
00000000
00010000
00001000
01000000
00010000
01000000
00000000
,
01100000
00000000
00100000
10000000
01000000
10000000
00100000
00000000
,
10000000
00010000
10000000
00010000
10000000
00010000
00100000
00000000
,
01100000
00000000
01000000
00010000
00001000
00010000
00000010
00000000
,
00001000
00000000
00000100
00000010
00000001
00000100
00000010
00000000
,
00001000
00000000
00000100
00010000
00001000
01000000
00010000
00000000
,
00100000
01000000
00010000
00000000
01000000
01000000
10000000
00000000
,
00100000
00000000
10000000
01000000
10000000
00010000
00100000
00000000
,
00001000
00000000
00010000
00000010
00001000
00000010
00000100
00000000
,
00002000
00000000
00013000
00000000
00001000
00100000
01000000
00000000
,
02100000
00000000
10000000
10000000
00000000
00010000
03000000
00000000
,
01100000
00000000
00100000
00001000
00010000
00000100
00010000
00000000
,
00001000
00000000
00000010
00000001
00000100
00000001
00000010
00000000
,
00000100
00000000
00010000
00001000
01000000
00010000
00100000
00000000
,
01000000
00000000
10000000
01000000
00100000
01000000
00010000
00000000
,
00011000
00000000
00001000
00000010
00000100
00000010
00000001
00000000
,
00001000
00000000
00000001
00000100
00000010
00000100
00001000
00000000
,
00010000
00001000
00010000
00001000
01000000
00001000
01000000
00001000
,
00020000
00000100
00001000
00000010
,
00030000
00010000
00001000
00010000
00100000
01000000
10000000
01000000
,
00000000
00010000
00100000
00010000
00002000
00003200
00000320
00000032
,
00000003
00000000
00000000
00000000
00000100
00000000
00000000
00000000
00001000
00000000
00000000
00000000
00010000
00000000
00000000
00000000
00001000
00000000
00000000
00000000
00000010
00000000
00000000
00000000
00000001
00000000
00000000
00000001
00000000
00000000
00000001
00000000
,
00000000
00000100
00001000
00010000
02000000
00000000
23000000
00000000
,
30100000
00000000
10010000
00000000
10000000
01000000
00010000
00000000
,
00001000
00000000
00011000
00000000
00010000
00000100
00000010
00000000
,
00000001
00000100
00000001
00000100
00001000
00010000
00001000
00010000
,
00200000
10000000
01000000
00310000
,
00100000
10000000
00010000
20000000
00000000
32000000
00000000
03200000
,
00000000
00302000
00000000
00023000
00000000
00030100
00000010
00000000
,
00000001
00000100
00001000
00000200
00000000
00000302
00000000
00000023
,
00000000
00000230
00000000
00020300
00000000
00032000
00000000
00103000
,
00010000
01000000
00001000
00200000
00000000
02300000
00000000
03020000
,
00000000
00032000
00000000
00003020
00000000
00000130
00001000
00000000
,
00000001
00000100
00000001
00000100
00001000
00010000
00001000
00010000
,
00100000
01000000
00100000
01000000
00010000
10000000
01000000
00000000
,
20020000
00000000
00000000
00000000
,
30030000
00000000
00000000
00000000
;

//--------------- dance-double - forcednature ----------------
#NOTEDATA:;
#STEPSTYPE:dance-double;
#DESCRIPTION:forcednature;
#CREDIT:forcednature;
#DIFFICULTY:Hard;
#METER:16;
#RADARVALUES:0,0,0,0,0;
#NOTES:
00000000
00000000
00000000
00000000
,
00000000
00000000
00000000
00000000
,
00000000
00000000
00000000
00000000
,
00000000
00000000
00000000
00000000
,
00000000
00000000
00000000
00000000
,
00000000
00000000
00000000
00000000
,
00001000
00000000
00010000
00000000
00100000
01000000
00100000
00000000
,
00010000
00000000
00001000
00000000
00000010
00000100
00000010
00000000
,
00001000
00010000
00001000
00010000
01000000
00100000
01000000
00100000
,
00010000
10000000
00010000
00000000
10000000
00010000
10000000
00000000
00100000
10000000
00010000
00000000
01000000
00000000
00000000
00000000
,
10010000
00000000
00000000
00000000
10000000
00000000
00000000
01000000
00000000
00000000
00010000
00000000
00001000
00000000
00000000
00000000
,
00100000
00000000
00001000
00000000
00010000
00000000
00000000
00000100
00000000
00010000
00001000
00000000
00100000
00000000
00000000
00000000
,
01000000
00000000
00000000
00000000
00010000
00000000
00000000
00001000
00000000
00000000
00010000
00000000
00000010
00000000
00000000
00000000
,
00001000
00000000
00000100
00000000
00000010
00000000
00000000
00000001
00000000
00000100
00000001
00000000
00000010
00000000
00000000
00000000
,
00000100
00000000
00000000
00000000
00010000
00000000
00000000
00001000
00000000
00000000
00100000
00000000
00001000
00000000
00000000
00000000
,
00010000
00000000
00100000
00000000
10000000
00000000
00000000
01000000
00000000
10000000
00100000
00000000
01000000
00000000
00000000
00000000
,
00010000
00000000
00000000
00000000
00100000
00000000
00000000
01000000
00000000
00000000
00010000
00000000
00001000
00000000
00000000
00000000
,
01000000
00000000
00000000
00011000
00000000
00000000
00000100
00000000
00000000
00011000
00000000
00000000
00011000
00000000
00000000
00000000
,
00001000
00000010
00000001
00000100
00000000
00000101
00000000
00001100
,
00000000
00011000
00000000
00110000
00000000
00100000
01000000
00000000
,
00010000
00100000
10000000
00100000
00000000
00110000
00000000
01100000
,
00000000
00000000
01010000
00000000
00000000
00000000
00011000
00000000
00000000
00001000
00010000
00000000
00001000
00000000
00000000
00000000
,
00000010
00000001
00000100
00001000
00000000
00011000
00000000
00010000
,
00100000
00000000
10000000
00000000
01000000
00000000
00010000
00000000
00000000
00001000
00010000
00000000
00001000
00000000
00000000
00000000
,
01000000
00100000
00010000
00001000
00100000
00010000
00001000
00000100
,
00000110
00000000
00000000
00000000
00000020
00000000
00000001
00000000
00000000
00000000
00000100
00000000
00000000
00001030
00000000
00000000
,
00000110
00022000
00000000
00033000
,
00000000
00000000
00000000
00000000
,
01100000
00022000
00000000
00033000
,
00000000
00000000
00000000
00000000
,
00000000
00000000
00000220
00000000
00000330
00022000
00000000
00000000
,
00000000
00033000
00000000
00000000
00000000
00000000
00000000
00000000
,
00010000
01000000
00010000
00000000
01000000
00000000
00001000
00010000
00001000
00000000
00010000
00000000
00000100
00001000
00000100
00000000
,
00001000
00000000
00000001
00000000
00000200
00000000
00000000
00001000
00000000
00000000
00000010
00000000
00000000
00000001
00000000
00000000
,
00000300
00000200
00002300
00203000
00302000
00003020
00000230
00020300
,
00030000
00000000
00000000
00000000
00000000
00000000
00000000
00000000
00000000
00000000
00000000
00000000
02000000
00000000
00000000
00000000
00000000
00000000
00000000
00000000
00000000
00000000
00000000
00000000
23000000
00000000
00000000
00000000
00000000
00000000
00000000
00000000
00000000
00000000
00000000
00000000
30200000
00000000
00000000
00000000
00000000
00000000
00000000
00000000
00000000
00000000
00000000
00000000
02300000
00000000
00000000
00000000
00000000
00000000
00000000
00000000
10000000
00000000
00000000
00000000
00000000
00000000
00000000
00000000
10000000
00000000
00000000
00000000
00000000
00000000
00000000
00000000
00100000
00000000
00000000
00000000
00000000
00000000
00000000
00000000
00000000
00010000
00000000
00000000
00000000
00000000
00000000
00000000
00000000
00000000
03001000
00000000
00000000
00000000
00000000
00000000
,
00000000
02000000
03200000
00320000
00032000
00003020
00000230
00020300
,
00030000
00000000
00000000
00002000
00000000
00000000
00203000
00000000
00000000
02300000
00000000
00000000
13000000
00010000
10000000
00010000
10000000
00010000
02000000
00000000
00000000
00000000
00000000
00000000
,
13000000
01000000
00010000
00100000
01000000
00000000
01100000
00000000
,
00100000
00001000
00010000
00001000
00000100
00000000
00000110
00000000
,
00000010
00000001
00000010
00000100
00000010
00001000
00000010
00010000
,
00001000
01000000
00001000
00000000
01000000
00001000
01000000
00000000
00010000
10000000
00100000
00000000
01000000
00000000
00000000
00000000
,
00010000
00000000
10000000
00000000
01000000
00000000
00100000
00010000
00100000
00000000
00001000
00000000
00010000
00000000
00000010
00000000
,
00010000
00000000
00001000
00000000
00000010
00000000
00000100
00001000
00000100
00000000
00000010
00000000
00000001
00000000
00000000
00000000
,
00000100
00000000
00001000
00000000
00010000
00000000
00001000
00010000
00001000
00000000
01000000
00000000
00010000
00000000
00100000
00000000
,
01000000
00000000
00100000
00000000
00001000
00000000
00010000
00000100
00000000
00010000
00001000
00000000
00000010
00000000
00000000
00000000
,
00000001
00000000
00000100
00000000
00001000
00000000
00000100
00000010
00000100
00000000
00000001
00000000
00000010
00000000
00000100
00000000
,
00010000
00000000
00001000
00000000
00100000
00000000
01000000
10000000
01000000
00000000
00010000
00000000
00001000
00000000
00000000
00000000
,
00210000
00000000
01300000
00010000
00001000
00000010
00000100
00000000
,
00002000
00000000
00000000
00000000
00013000
00000000
00002000
00000000
00000000
00000000
00003001
00000000
00000000
00000001
00000000
00000001
,
00000100
00000000
00000010
00000000
00000100
00000000
00001000
00010000
00001000
00000000
01000000
00000000
00010000
00000000
00100000
00000000
,
01000000
00000000
10000000
00000000
01000000
00000000
00010000
00001000
00010000
00000000
00000010
00000000
00001000
00000000
00000000
00000000
,
00000100
00000000
00000010
00000000
00000001
00000000
00000100
00000010
00000100
00000000
00001000
00000000
00010000
00000000
00000000
00000000
,
00100000
00000000
10000000
00000000
01000000
00000000
00100000
00010000
00000000
00100000
01000000
00000000
00010000
00000000
00000000
00000000
,
00001000
00010000
00001000
00000000
00100000
00000000
00010000
00100000
00010000
00000000
01000000
00000000
01100000
00000000
00000000
00000000
,
00100000
00000000
10000000
00000000
01000000
00000000
00100000
01000000
00100000
00000000
00001000
00000000
00011000
00000000
00000000
00000000
,
00010000
00000100
00000010
00001000
00010000
00000100
00000010
00001000
,
00010000
00000010
00010000
00000000
00000010
00010000
00000010
00000000
00001000
00000001
00000100
00000000
00000020
00000000
00000000
00000000
,
00000030
00000200
00020300
02030000
03002000
00003200
00020300
02030000
,
03000000
00000000
00002000
00000000
00203000
00000000
00320000
00000000
00032000
00003200
00000320
00020030
00030020
00000230
00002300
00000000
,
00003000
00000000
00000000
00000000
00000002
00000000
00000000
00000000
00000203
00000000
00000000
00000000
00020300
00000000
00000000
00000000
02030000
00000000
00000000
00000000
03002000
00000000
00000000
00000000
00203000
00000000
00000000
00010000
00000000
00000000
01300000
00000000
,
00000000
00000000
00000000
20000000
00000000
00000000
30020000
00000000
00000000
00230000
00000000
00000000
00301000
01000000
00001000
01000000
00001000
00010000
00000010
00010000
00000010
00010000
00001000
00010000
,
00200000
00000000
10300000
01000000
00010000
00001000
00010000
00000100
,
00000020
00000000
00000031
00000100
00001000
00010000
00001000
01000000
,
00010000
00100000
01000000
00100000
10000000
00100000
00010000
00100000
,
00001000
00010000
00001000
00000000
01000000
00010000
01000000
00000000
00001000
00010000
00001000
00010000
00000010
00000000
00000000
00000000
,
00001000
00000000
00000100
00000000
00000010
00000001
00001000
00000000
00000010
00000000
00001000
00000100
00001000
00000000
00000100
00010000
,
00000100
00000000
00010000
00001000
00010000
00000000
00001000
00100000
00001000
00000000
01000000
00000000
01010000
00000000
00000000
00000000
,
00010000
00000000
10000000
00000000
00100000
01000000
00010000
00000000
00100000
00000000
00001000
00010000
00001000
00000000
00010000
00000010
,
00010000
00000000
00000010
00001000
00000010
00000000
00000100
00000001
00000000
00001000
00000001
00000000
00000010
00000000
00000000
00000000
,
00000100
00000000
00010000
00000000
00001000
00100000
00010000
00000000
01000000
00000000
00001000
00000000
00010000
00000010
00001000
00000000
,
00000100
00000000
00010000
00000000
00001000
00100000
00010000
00000000
01000000
00000000
00001000
00000000
00011000
00000000
00000000
00000000
,
00000100
00010000
00000100
00000000
00010000
00000000
00001000
00000000
01000000
00010000
01000000
00000000
00001000
00000000
00010000
00000000
,
00000010
00001000
00000010
00000000
00010000
00001000
00010000
00000000
00000100
00001000
00000100
00001000
00000010
00000000
00000000
00000000
,
00002002
00000000
00000000
00000000
,
00003003
00000000
00000000
00000000
;
