#VERSION:0.83;
#TITLE:THE SHINING POLARIS (kors k mix);
#SUBTITLE:;
#ARTIST:Remixed by kors k;
#TITLETRANSLIT:;
#SUBTITLETRANSLIT:;
#ARTISTTRANSLIT:;
#GENRE:UK HARDCORE;
#CREDIT:;
#MUSIC:THE SHINING POLARIS (kors k mix).ogg;
#BANNER:THE SHINING POLARIS (kors k mix).png;
#BACKGROUND:THE SHINING POLARIS (kors k mix)-bg.png;
#CDTITLE:./CDTitles/bm IIDX 16 EMPRESS.png;
#SAMPLESTART:103.413;
#SAMPLELENGTH:15.000;
#SELECTABLE:YES;
#OFFSET:1.049;
#BPMS:0.000=172.000;
#STOPS:;
#TIMESIGNATURES:0.000=4=4;
#BGCHANGES:4.000=THE SHINING POLARIS (kors k mix).mp4=1.000=0=0=0=StretchNoLoop====,
99999.000=-nosongbg-=1.000=0=0=0=StretchNoLoop====
;
#FGCHANGES:;

//--------------- dance-single - forcednature ----------------
#NOTEDATA:;
#STEPSTYPE:dance-single;
#DESCRIPTION:forcednature;
#DIFFICULTY:Beginner;
#METER:2;
#RADARVALUES:0,0,0,0,0;
#CREDIT:forcednature;
#NOTES:
0000
0000
0000
0000
,
0000
0000
0000
0000
,
0000
0000
0000
0000
,
0000
0000
0000
0000
,
0000
0000
0000
0000
,
0000
0000
0000
0000
,
0000
0000
0000
0000
,
0001
0000
0000
0000
,
0000
0000
0000
0000
,
0100
0000
0000
0000
,
0010
0000
0000
0000
,
1000
0000
0000
0000
,
0000
0000
0000
0000
,
0100
0000
0000
0000
,
0010
0000
0000
0000
,
0001
0000
0000
0000
,
1000
0000
0000
0000
,
0010
0000
0010
0000
,
0010
0000
0000
0000
,
1001
0000
0000
0000
,
0000
0000
0000
0000
,
1000
0000
0000
0000
,
0100
0000
0000
0000
,
0010
0000
0000
0000
,
0000
0000
0000
0000
,
0001
0000
0000
0000
,
0100
0000
0000
0000
,
0010
0000
0000
0000
,
0000
0000
0000
0000
,
1000
0000
0000
0000
,
0001
0000
0000
0000
,
0010
0000
0000
0000
,
0000
0000
0000
0000
,
0100
0000
0000
0000
,
1000
0000
0000
0000
,
0001
0000
0000
0000
,
0000
0000
0000
0000
,
0000
0000
0000
0000
,
0000
0000
0000
0000
,
0100
0000
0000
0000
,
0000
0000
0000
0000
,
0000
0000
0000
0000
,
0000
0000
0000
0000
,
0110
0000
0000
0000
,
0000
0000
0000
0000
,
0010
0000
0000
0000
,
0000
0000
0000
0000
,
1000
0000
0000
0000
,
0000
0000
0000
0000
,
0001
0000
0000
0000
,
0000
0000
0000
0000
,
1001
0000
0000
0000
,
0000
0000
0000
0000
,
0000
0000
0000
0000
,
0000
0000
0000
0000
,
0001
0000
0000
0000
,
1000
0000
0000
0000
,
0010
0000
0000
0000
,
0100
0000
0000
0000
,
1001
0000
0000
0000
,
0000
0000
0000
0000
,
1000
0000
0000
0000
,
0100
0000
0000
0000
,
0010
0000
0000
0000
,
0001
0000
0000
0000
,
1000
0000
0000
0000
,
0001
0000
0000
0000
,
1001
0000
0000
0000
,
0000
0000
0000
0000
,
0001
0000
0000
0000
,
0100
0000
0000
0000
,
0010
0000
0000
0000
,
1000
0000
0000
0000
,
0001
0000
0000
0000
,
0000
0000
0000
0000
,
1001
0000
0000
0000
,
0001
0000
0000
0000
,
0100
0000
0000
0000
,
0010
0000
0000
0000
,
1000
0000
0000
0000
,
0001
0000
0000
0000
,
1000
0000
0000
0000
,
0100
0000
0000
0000
,
0010
0000
0000
0000
,
0001
0000
0000
0000
,
1000
0000
0000
0000
,
0001
0000
0000
0000
,
0100
0000
0000
0000
,
0010
0000
0000
0000
,
0100
0000
0100
0000
,
0100
0000
0000
0000
,
1001
0000
0000
0000
;

//--------------- dance-single - forcednature ----------------
#NOTEDATA:;
#STEPSTYPE:dance-single;
#DESCRIPTION:forcednature;
#DIFFICULTY:Easy;
#METER:7;
#RADARVALUES:0,0,0,0,0;
#CREDIT:forcednature;
#NOTES:
0000
0000
0000
0000
,
0000
0000
0000
0000
,
0000
0000
0000
0000
,
0000
0000
0000
0000
,
0000
0000
0000
0000
,
0000
0000
0000
0000
,
0000
0000
0000
0000
,
0000
0001
0000
0001
,
0000
0100
0000
0100
,
0000
0010
0000
0010
,
0000
1000
1000
0000
,
0001
0010
0000
0010
,
0000
0100
0000
0100
,
0000
1000
0000
0001
,
0000
0100
0000
0010
,
1000
0100
0000
1000
,
0001
0100
0000
0001
,
0010
0000
0110
0000
,
0001
0001
1000
1000
,
0010
0000
0100
0000
,
0001
0100
0001
0000
,
0010
0001
0010
0000
,
0100
0010
0100
0000
,
1000
0000
0001
0000
,
1000
0010
1000
0000
,
0010
0100
0010
0000
,
0100
0001
0100
0000
,
1001
0000
0001
0000
,
0010
0001
0010
0000
,
0100
0000
1000
0000
,
0010
1000
0010
0000
,
0220
0000
0000
0000
,
0000
0000
0330
0000
,
0001
0000
1000
0000
,
0100
0100
0010
0010
,
0002
0000
0000
0000
,
0000
0000
0003
0000
,
0200
0000
0000
0300
,
0020
0000
0000
0030
,
2000
0000
0000
3000
,
0002
0000
0000
0003
,
0020
0000
0000
0000
,
0000
0000
0030
0000
,
2002
0000
0000
0000
,
0000
0000
3003
0000
,
2000
0000
0000
3000
,
0020
0000
0000
0030
,
0200
0000
0000
0300
,
0002
0000
0000
0003
,
0020
0000
0000
0000
,
0000
0000
0030
0000
,
2002
0000
0000
0000
,
0000
0000
0000
0000
,
0000
0000
0000
0000
,
0000
0000
3003
0000
,
0001
0100
0001
0000
,
1000
0100
1000
0000
,
0010
0100
0010
0100
,
0001
0000
0000
0000
,
1000
0100
0010
0100
,
1000
0001
0100
0000
,
0010
1000
0001
0010
,
0100
0010
0001
0000
,
1000
0010
0100
0010
,
1000
0001
0100
0000
,
0001
0010
0100
0010
,
0001
1000
0100
0000
,
1000
0001
0100
0010
,
1000
0001
0100
0000
,
0001
1000
0100
0010
,
0001
1000
0100
0000
,
0010
0001
1000
0001
,
0100
0001
1000
0000
,
0010
1000
0001
1000
,
0200
0000
0000
0300
,
0010
0001
0010
0001
,
1000
0010
0100
0001
,
0010
0100
0010
0100
,
1000
0001
0100
0010
,
1000
0100
1000
0100
,
0010
0001
1000
0010
,
0100
0001
0100
0001
,
0010
0100
1000
0000
,
0001
0100
0001
0100
,
0010
1000
0001
0010
,
0100
1000
0100
1000
,
0010
0100
0001
1000
,
1001
0000
0000
0000
,
0110
0000
0000
0010
,
1001
0000
0110
0000
,
1000
1000
0001
0100
,
2002
0000
0000
0000
,
0000
0000
0000
0000
,
0000
3003
0000
0000
0000
0000
0000
0000
;

//--------------- dance-single - forcednature ----------------
#NOTEDATA:;
#STEPSTYPE:dance-single;
#DESCRIPTION:forcednature;
#DIFFICULTY:Medium;
#METER:12;
#RADARVALUES:0,0,0,0,0;
#CREDIT:forcednature;
#NOTES:
0000
0000
0000
0000
,
0000
0000
0000
0000
,
0000
0000
0000
0000
,
0000
0000
0000
0000
,
0000
0000
0000
0000
,
0000
0000
0000
0000
,
0000
0000
0000
0000
,
1000
0100
1000
0000
0001
0100
0001
0000
,
0010
0100
0010
0000
0001
1000
0001
0000
,
0100
0000
0010
1000
0001
0100
0010
0000
,
1000
0000
0100
0010
0001
0000
1001
0000
,
1000
0010
1000
0000
0100
1000
0100
0000
,
0010
0001
0010
0000
0001
0100
0001
0000
,
0010
0000
0100
1000
0001
0100
0010
0000
,
0100
0000
0001
1000
0100
0010
0001
0000
,
1001
0000
1000
0010
1000
0001
0100
0000
,
1001
0000
0001
0010
0001
1000
0100
0000
,
0110
0000
1001
0000
,
0110
0000
0001
1000
0010
0100
0001
0000
,
1001
0000
1000
0100
1000
0000
1000
0001
,
1000
0000
1000
0010
1000
0000
1000
0001
,
1000
0100
0010
0001
,
1000
0010
0100
0001
,
1001
0000
0001
0100
0001
0000
0001
1000
,
0001
0000
0001
0010
0001
0000
0001
1000
,
0001
0100
0010
1000
,
0001
0010
0100
1000
,
1001
0000
0001
0100
0001
0000
0001
0010
,
0001
0000
0001
1000
0001
0000
0100
0010
,
1000
0000
1000
0100
1000
0000
1000
0010
,
1000
0000
1000
0001
1000
0000
0100
0000
,
2002
0000
0000
0000
,
0000
0000
0000
3003
,
0001
1000
0001
1000
0010
0100
0010
0000
,
1000
0100
1000
0100
0010
0010
0001
0001
,
0200
0000
0000
0000
,
0320
0000
0000
0000
,
2030
0000
0000
0000
,
3002
0000
0023
0000
,
0230
0000
2300
0000
,
3002
0000
0000
0000
,
0203
0000
0000
0000
,
0000
0000
0000
0300
,
1001
0001
0100
0100
,
0010
1000
0001
1000
,
0100
0100
0010
0010
,
0001
1000
0010
0100
,
0001
0001
1000
1000
,
0100
0010
0001
0100
,
0220
0000
0000
0000
,
0000
0000
0330
0000
,
1001
0001
0000
0001
,
0000
0100
0000
0100
,
0000
0010
0000
0010
,
0000
1000
0000
1000
,
0100
1000
0100
1000
0001
0010
0001
0000
,
0100
0001
0100
0001
1000
0010
1000
0000
,
0100
0010
0100
0010
0001
1000
0001
1000
,
0020
0000
0000
0030
,
0100
0001
0010
0001
1000
0010
1000
0000
,
1100
0001
0101
1000
,
0010
0100
0001
1000
0100
0010
0001
0000
,
0011
1000
1010
0001
,
0100
0010
1000
0100
0010
0001
0100
0000
,
1010
1000
0011
0001
,
0100
0001
1000
0100
1000
0001
0100
0000
,
0110
0010
2002
3003
,
1000
0100
0010
0100
1000
0001
0010
0000
,
0001
1000
0010
0000
0100
0001
1000
0000
,
0001
0100
0010
0100
0001
1000
0010
0000
,
1000
0100
0010
0000
0001
0100
0010
0000
,
1000
0001
0010
0001
0100
0010
1000
0000
,
0100
1000
0001
0000
0100
0010
1000
0000
,
1001
0100
0110
0010
,
2002
0000
0000
3003
,
1000
0100
0010
0100
1000
0001
0010
0001
,
1000
0010
0100
0001
0100
0010
1000
0001
,
0010
0100
1000
0001
0100
0010
1000
0100
,
0010
0100
1000
0001
0100
0001
0010
0100
,
0010
0001
1000
0010
0100
0001
1000
0100
,
1000
0001
0100
0010
1000
0100
0010
0001
,
0100
0010
1000
0001
0010
0100
1000
0001
,
0100
0010
1000
0001
0010
0100
0010
0000
,
0001
0100
0010
1000
0100
1000
0001
0100
,
0010
0001
0010
1000
0001
1000
0100
0010
,
0001
1000
0100
0001
0100
1000
0001
0100
,
0010
1000
0001
0010
1000
0010
0001
1000
,
1001
0000
0001
0100
0010
0000
1000
0100
,
1001
0000
1000
0100
0010
0001
0000
0100
,
1001
0000
0100
0010
1001
0000
0000
0000
,
0001
0100
0001
0100
0010
1000
0001
1000
,
0200
0000
0000
0000
,
0000
0000
0000
0000
,
0000
0300
0000
0000
0000
0000
0000
0000
;

//--------------- dance-single - forcednature ----------------
#NOTEDATA:;
#STEPSTYPE:dance-single;
#DESCRIPTION:forcednature;
#DIFFICULTY:Hard;
#METER:16;
#RADARVALUES:0,0,0,0,0;
#CREDIT:forcednature;
#NOTES:
0000
0000
0000
0000
,
0000
0000
0000
0000
,
0000
0000
0000
0000
,
0000
0000
0000
0000
,
0000
0000
0000
0000
,
0000
0000
0000
0000
,
0000
0000
0000
0000
,
0001
0100
0010
1000
0001
0100
0010
0000
,
1000
0100
0010
0001
1000
0100
0010
0000
,
0200
0000
0000
0000
1300
0001
1000
0001
0100
0000
0000
0100
0020
0000
0030
0000
,
1000
0000
0001
1000
0001
0000
0010
0000
0100
0000
1000
0000
0002
0000
0000
0000
,
0103
0010
1000
0001
0100
0010
1000
0001
,
0010
0100
1000
0001
0010
0100
1000
0001
,
0100
0001
0010
0000
0100
1000
1000
0010
,
0100
0001
1000
0001
0010
0000
0100
1000
,
1001
0001
0100
0010
1000
0001
0100
0000
,
1001
1000
0100
0010
0001
1000
0100
0010
,
0110
0000
0000
0000
0010
0000
0000
0000
1001
0000
0000
0000
0100
0010
0100
0000
,
1001
0000
0000
0000
0001
0000
1000
0000
0010
0100
0010
0100
0001
1000
0100
0010
,
0001
0000
0001
0100
1000
0100
0001
0100
,
0001
0010
1000
0010
0001
0010
1000
0010
,
0001
0000
0100
0000
0010
1000
0000
0000
0001
0000
0010
0000
0100
1000
0000
0000
,
0001
0100
0001
0000
0001
0100
0001
0000
0001
0100
0010
1000
0000
1000
0000
0100
,
1000
0100
0001
0100
1000
0100
0001
0100
,
1000
0010
0001
0010
1000
0010
0001
0010
,
1000
0000
0100
0000
0010
0001
0000
0000
1000
0000
0010
0000
0100
0001
0000
0000
,
1000
0100
1000
0000
1000
0100
1000
0000
1000
0100
0010
0001
0000
0001
0000
0100
,
0010
0000
1000
0100
0001
0100
1000
0010
,
0001
0010
1000
1100
0100
0110
0010
0011
,
0001
0000
0001
0100
1000
0100
0001
0010
,
1000
0010
0001
0101
0100
0110
0010
1010
,
1000
0000
0000
0000
0000
0000
0001
0000
0010
0000
0000
0100
0000
0000
2000
0000
,
0000
3000
0001
0200
0000
0000
0310
1000
,
0001
0010
0001
0000
1000
0010
1000
0000
0001
0100
0001
0000
1000
0100
1000
0000
,
0010
0100
0010
0100
0001
1000
0001
1000
0100
0010
0001
1000
0100
0010
0001
1000
,
0020
0000
0000
0230
0000
0302
0000
2003
,
0000
3001
0020
0000
0000
0030
0000
0100
,
1000
0002
0000
0000
0003
0000
0000
0200
,
0000
0320
0000
2030
0000
3002
0000
0013
,
0200
0000
0000
1300
0001
0100
0010
2000
,
0000
3002
0000
0023
0000
0030
0100
1000
,
0000
2002
0000
0000
0000
0000
0000
0000
,
0000
0000
0000
3003
,
0220
0000
0000
0000
0000
0000
0000
0330
0000
0000
0000
0000
0002
0000
0000
0000
0000
0000
0000
0000
2003
0000
0000
0000
0000
0000
0000
0000
3020
0000
0000
0000
,
0000
0130
0002
0000
0000
0003
0000
0010
,
0200
0000
0000
2300
0000
3002
0000
0203
,
0000
0320
0000
2030
0000
3002
0000
0013
,
0200
0000
0300
0000
2001
0000
3001
0200
,
0000
0320
0000
2030
0000
3001
0020
0000
,
0130
2000
0002
0000
0000
0000
0000
0000
,
0000
0000
3003
0000
,
0110
0000
0001
0100
0010
1000
0001
0000
,
1000
0000
0000
0100
0000
0000
1000
0000
0000
0001
0000
0001
0000
0000
0100
0000
,
0010
0000
1000
0000
0001
0000
0000
0100
0000
0010
0000
1000
0000
0000
0001
0000
,
1000
0000
0000
0100
0000
0000
0010
0000
0001
0000
0000
0100
0000
0000
0010
0000
,
1000
0100
1000
0100
1000
0100
1000
0100
1000
0100
1000
0100
1000
0100
1000
0100
,
0010
0001
0010
0001
0010
0001
0010
0001
0010
0001
0010
0001
0010
0001
0010
0001
,
0100
0010
0100
0010
0100
0010
0100
0010
1000
0001
1000
0001
1000
0001
1000
0001
,
0020
0000
0000
0030
,
0100
1000
0100
0000
0010
0001
0000
1000
0000
0001
0000
0100
0000
0010
1000
0000
,
0001
0000
0000
0010
0000
0000
0100
0000
0000
0100
0000
1000
0000
0000
0001
0000
,
0100
0000
0010
0000
1000
0000
0001
0100
0000
0010
0000
1000
0000
0001
0010
0000
,
0100
0000
0000
1000
0000
0000
0001
0000
0100
0000
0000
0010
0000
0000
1000
0000
,
0001
0010
0001
0000
1000
0010
0000
0100
0000
0001
0000
1000
0000
0100
1000
0000
,
0001
0000
0000
0100
0000
0000
0010
0000
1000
0001
0000
0010
0000
0000
0100
0000
,
1000
0000
0001
0000
0100
0000
0010
1000
0000
0001
0000
1000
0000
0100
0010
0000
,
0001
0000
0000
0100
0000
0000
1000
0000
0001
0000
0000
0010
0000
1000
0000
0001
,
1000
0100
0010
0000
0100
1000
0000
0001
0010
0100
0000
0010
0001
1000
0010
0000
,
0100
0000
0001
1000
0000
0100
1000
0000
0010
0100
0000
0001
0000
0010
0100
0000
,
0010
0001
1000
0000
0001
0100
0010
1000
0000
0001
0010
0100
0000
0010
0001
0000
,
1000
0000
0010
0100
0000
0001
1000
0000
0100
0000
1000
0010
0000
0100
0001
0000
,
0010
0100
0010
0000
0001
1000
0010
0100
0000
0001
1000
0100
0000
0010
0001
0000
,
1000
0000
0010
0100
0000
0001
1000
0000
0100
0010
0000
0100
0000
1000
0001
0000
,
0100
0010
1000
0000
0001
0010
0100
0010
0000
0001
0100
0010
0000
0010
1000
0000
,
0002
0000
0000
0100
0000
0000
1000
0000
0010
0000
0000
1003
0000
0000
0001
0010
,
0001
0000
0010
0100
1000
0100
0000
0010
0001
1000
0000
0010
0100
0001
1000
0000
,
0100
0000
0010
0001
0000
1000
0010
0000
0100
0001
0010
0100
0000
1000
0001
0000
,
0100
0000
0010
1000
0001
0000
0010
0100
0000
1000
0000
0001
0000
0100
0010
0000
,
1000
0001
0100
0001
0000
0001
0010
0000
0100
1000
0001
0100
0000
0010
1000
0000
,
0100
0000
0010
0001
1000
0001
0000
0100
0010
1000
0000
0001
0010
0100
0010
0000
,
0001
0000
0100
0010
0000
1000
0100
0000
0010
0001
1000
0010
0000
0100
0001
0000
,
0010
0000
0100
1000
0001
0000
0100
0010
0000
1000
0000
0100
0000
1000
0010
0000
,
0100
0001
0100
0001
0100
0010
1000
0000
0100
1000
0100
1000
0100
0010
0001
0000
,
0100
0000
0010
1000
0001
1000
0000
0100
0010
0001
0000
1000
0001
0100
0010
0000
,
1000
0000
0100
0010
0000
0100
1000
0000
0001
0100
0010
0100
0000
0001
1000
0000
,
0100
0000
0010
0001
1000
0000
0010
0100
0000
0001
0000
0010
0000
0100
0010
0000
,
0001
1000
0010
1000
0000
1000
0100
0000
0010
0001
1000
0010
0000
0100
0001
0000
,
2002
0000
0000
0000
0000
0000
0000
0000
0000
0000
0000
3003
0000
0000
0010
0000
,
0220
0000
0000
0000
0000
0000
0000
0330
0000
0000
1001
0000
0000
0001
0100
0010
,
1000
0000
1000
0100
0012
0000
2003
0000
,
3100
1000
0100
1000
0010
1000
0010
1000
0001
0010
0100
1000
0100
0010
0001
1000
,
0020
0000
0000
0000
,
0000
0000
0000
0000
,
0000
0030
0000
0000
0000
0000
0000
0000
;

//--------------- dance-double - forcednature ----------------
#NOTEDATA:;
#STEPSTYPE:dance-double;
#DESCRIPTION:forcednature;
#DIFFICULTY:Easy;
#METER:5;
#RADARVALUES:0,0,0,0,0;
#CREDIT:forcednature;
#NOTES:
00000000
00000000
00000000
00000000
,
00000000
00000000
00000000
00000000
,
00000000
00000000
00000000
00000000
,
00000000
00000000
00000000
00000000
,
00000000
00000000
00000000
00000000
,
00000000
00000000
00000000
00000000
,
00000000
00000000
00000000
00000000
,
00001000
00000000
00000000
00000000
,
00010000
00000000
00000000
00000000
,
00000100
00000000
00000000
00000000
,
00000010
00000000
00000000
00000000
,
00000110
00000000
00000000
00000000
,
00000100
00000000
00000000
00000000
,
00001000
00000000
00000000
00000000
,
00000001
00000000
00000000
00000000
,
00000100
00000000
00000000
00000000
,
00001000
00000000
00000000
00000000
,
00010000
00000000
00001000
00000000
,
00022000
00000000
00033000
00000000
,
00010000
00000000
00001000
00000000
,
00010000
00000000
00000000
00000000
,
00001000
00000000
00000000
00000000
,
01000000
00000000
00000000
00000000
,
00010000
00000000
01000000
00000000
,
00010000
00000000
00000000
00000000
,
10000000
00000000
00000000
00000000
,
00100000
00000000
00000000
00000000
,
10000000
00000000
01000000
00000000
,
10000000
00000000
00000000
00000000
,
01000000
00000000
00100000
00000000
,
01000000
00000000
00000000
00000000
,
02200000
00000000
00000000
00000000
,
00000000
00000000
03300000
00000000
,
00010000
00000000
01000000
00000000
,
00001000
00010000
00001000
00000000
,
00022000
00000000
00000000
00000000
,
00000000
00000000
00000000
00000000
,
00000000
00000000
00000000
00000000
,
00000000
00000000
00000000
00000000
,
00000000
00000000
00000000
00000000
,
00000000
00000000
00000000
00000000
,
00000000
00000000
00000000
00000000
,
00000000
00000000
00033000
00000000
,
00002000
00000000
00000000
00000000
,
00023000
00000000
00000000
00000000
,
00030200
00000000
00000000
00000000
,
00002300
00000000
00000000
00000000
,
00003002
00000000
00000000
00000000
,
00000203
00000000
00000000
00000000
,
00000320
00000000
00000000
00000000
,
00000000
00000000
00000030
00000000
,
00002002
00000000
00000000
00000000
,
00000000
00000000
00000000
00000000
,
00000000
00000000
00000000
00000000
,
00003003
00000000
00000000
00000000
,
00001000
00000000
00000100
00000000
,
00010000
00000000
00001000
00000000
,
00100000
00000000
00010000
00000000
,
20020000
00000000
30030000
00000000
,
00010000
00000000
01000000
00000000
,
00001000
00000000
00010000
00000000
,
00001000
00000000
00100000
00000000
,
00010000
00000000
00000000
00000000
,
01000000
00000000
00001000
00000000
,
00010000
00000000
00000010
00000000
,
00001000
00000000
00000010
00000000
,
00000100
00000000
00000000
00000000
,
00001001
00000000
00001000
00000000
,
00000100
00000000
00010000
00000000
,
00001000
00000000
00010000
00000000
,
00000010
00000000
00000000
00000000
,
00001001
00000000
00000001
00000000
,
00000010
00000000
00000100
00000000
,
00001000
00000000
00000100
00000000
,
00020000
00000000
00030000
00000000
,
00011000
00000000
00001000
00000000
,
01000000
00000000
00010000
00000000
,
10000000
00000000
00100000
00000000
,
10000000
00000000
00010000
00000000
,
00100000
00000000
01000000
00000000
,
00100000
00000000
00001000
00000000
,
00010000
00000000
00000100
00000000
,
00001000
00000000
00000001
00000000
,
00001001
00000000
00001000
00000000
,
00000010
00000000
00000100
00000000
,
00000001
00000000
00000010
00000000
,
00000001
00000000
00001000
00000000
,
00000010
00000000
00010000
00000000
,
00011000
00000000
00001000
00000000
,
00100000
00000000
00010000
00000000
,
01000000
01000000
01000000
00000000
,
20020000
00000000
00000000
00000000
,
00000000
00000000
00000000
00000000
,
00000000
30030000
00000000
00000000
00000000
00000000
00000000
00000000
;

//--------------- dance-double - forcednature ----------------
#NOTEDATA:;
#STEPSTYPE:dance-double;
#DESCRIPTION:forcednature;
#DIFFICULTY:Medium;
#METER:12;
#RADARVALUES:0,0,0,0,0;
#CREDIT:forcednature;
#NOTES:
00000000
00000000
00000000
00000000
,
00000000
00000000
00000000
00000000
,
00000000
00000000
00000000
00000000
,
00000000
00000000
00000000
00000000
,
00000000
00000000
00000000
00000000
,
00000000
00000000
00000000
00000000
,
00000000
00000000
00000000
00000000
,
00010000
00001000
01000000
00010000
,
00100000
00010000
00100000
00000000
01000000
00000000
00010000
00000000
,
00002000
00003020
00000230
00000320
,
00000032
00000000
00000000
00000003
,
00001000
00000000
00000010
00000000
00010000
00001000
00010000
00000000
,
00001000
00000000
00100000
00000000
00010000
00100000
00010000
00000000
,
10000000
00100000
00010000
00001000
,
00010000
00100000
10000000
01000000
,
01100000
00000000
00100000
00000000
00001000
00010000
00001000
00000000
,
00010000
00000000
00000100
00000000
00001000
00000100
00001000
00000000
,
00002002
00003003
00000220
00000330
,
00000001
00000000
00000100
00000000
00001000
00010000
00001000
00000000
,
00011000
00010000
00100000
10000000
,
01000000
00010000
00001000
00010000
,
01000000
00100000
00001000
00010000
,
00000100
00000000
00001000
00000000
00000001
00000010
00000001
00000000
,
00001000
00000010
00000100
00000010
,
00001000
00000100
00010000
00001000
,
01000000
00010000
00100000
01000000
,
00100000
00000000
00001000
00000000
00010000
00001000
00010000
00000000
,
00011000
00001000
00100000
00010000
,
10000000
00000000
00100000
00000000
10000000
01000000
10000000
00000000
,
01000000
00010000
00001000
00000010
,
00000100
00000000
00001000
00000000
00000001
00000010
00000001
00000000
,
00002002
00000000
00000000
00000000
,
00000000
00000000
00000000
00003003
,
00000001
00000100
00000001
00000000
00001000
00000010
00001000
00000000
,
00000010
00010000
00001000
00010000
00000100
00010000
00001000
00000000
,
00022000
00000000
00000000
00000000
,
00000000
00000000
00030000
00000000
,
02003000
00000000
00000000
00000000
,
00000000
00000000
00000000
00000000
,
03020000
00000000
00000000
00000000
,
00000000
00000000
00000000
00000000
,
20030000
00000000
00000000
00000000
,
00000000
00000000
30000000
00000000
,
10010000
00000000
00010000
00000000
,
01000000
00000000
00001000
00000000
,
00010000
00000000
00000100
00000000
,
00001000
00000000
00000001
00000000
,
00000100
00000000
00000010
00000000
,
00001000
00000000
00000010
00000000
,
00010000
00001000
00010000
00000000
,
00022000
00000000
00033000
00000000
,
00001000
00100000
00010000
00100000
,
00001000
00010000
00000010
00000000
,
00001000
00000100
00001000
00000001
,
00000100
00000001
00000010
00000000
,
00000100
00001000
00000100
00010000
,
00001000
01000000
00010000
01000000
,
00100000
10000000
00100000
00000000
10000000
01000000
10000000
00000000
,
20020000
00000000
00000000
30030000
,
00010000
00100000
01000000
00010000
,
01000000
00100000
00010000
00000000
00100000
00001000
00010000
00000000
,
00000100
00001000
00000001
00000100
,
00001000
00000100
00000001
00000000
00001000
00000010
00010000
00000000
,
00001000
00100000
00010000
01000000
,
00001000
00100000
00010000
00000000
10000000
00100000
00010000
00000000
,
00100000
10000000
01000000
00010000
,
00001000
00100000
00010000
00000000
20020000
00000000
30030000
00000000
,
10000000
01000000
00010000
00000000
00001000
00100000
00010000
00000000
,
01000000
00001000
00010000
00000000
00000100
00000000
00001000
00000000
,
00000010
00000100
00001000
00000000
00000100
00000001
00001000
00000000
,
00000010
00010000
00001000
00000000
00000010
00000000
00000001
00000000
,
00000100
00000010
00001000
00000000
00000100
00010000
00001000
00000000
,
01000000
00001000
00010000
00000000
01000000
00000000
10000000
00000000
,
00010000
00100000
01000000
00000000
00010000
00001000
00100000
00000000
,
00022000
00000000
00000000
00033000
,
00001000
00010000
00000010
00001000
00000010
00010000
00001000
00000000
,
00100000
00010000
10000000
00000000
00100000
00010000
00100000
00000000
,
10000000
00010000
01000000
00001000
00010000
00001000
00100000
00000000
,
00010000
01000000
00001000
00000000
00010000
00000100
00001000
00000000
,
00000001
00000010
00001000
00000010
00000001
00001000
00000100
00000000
,
00010000
00001000
01000000
00000000
00010000
01000000
00001000
00000000
,
00100000
01000000
00010000
01000000
00100000
00001000
00010000
00000000
,
00000020
00001000
00000100
00000031
,
00000010
00001000
00000001
00000100
00000001
00001000
00000010
00000000
,
00010000
00001000
00100000
00000000
00010000
01000000
10000000
00000000
,
01000000
00010000
10000000
00100000
10000000
00010000
01000000
00000000
,
00010000
00100000
01000000
00000000
00010000
00001000
00100000
00000000
,
00011000
00000000
00010000
00000010
00001000
00000010
00010000
00000000
,
00011000
00000000
00001000
00100000
00010000
00100000
00001000
00000000
,
00010000
00000100
00010000
00000000
00001000
01000000
00001000
00000000
,
00010000
00000010
00001000
00000010
00000100
00000010
00001000
00000001
,
00000020
00000000
00000000
00000000
,
00000000
00000000
00000000
00000000
,
00000000
00000030
00000000
00000000
00000000
00000000
00000000
00000000
;

//--------------- dance-double - forcednature ----------------
#NOTEDATA:;
#STEPSTYPE:dance-double;
#DESCRIPTION:forcednature;
#DIFFICULTY:Hard;
#METER:16;
#RADARVALUES:0,0,0,0,0;
#CREDIT:forcednature;
#NOTES:
00000000
00000000
00000000
00000000
,
00000000
00000000
00000000
00000000
,
00000000
00000000
00000000
00000000
,
00000000
00000000
00000000
00000000
,
00000000
00000000
00000000
00000000
,
00000000
00000000
00000000
00000000
,
00000000
00000000
00000000
00000000
,
00001000
00010000
01000000
00100000
00001000
00010000
01000000
00000000
,
10000000
00100000
10000000
01000000
00010000
00001000
00100000
00000000
,
01100000
00000000
01000000
00010000
00001000
00010000
00001000
00000000
,
00011000
00000000
00010000
00001000
00000010
00000100
00000010
00000000
,
00000001
00000100
00000010
00001000
00000001
00000100
00001000
00000000
,
00010000
00100000
10000000
00000000
01000000
10000000
00100000
00000000
,
10000000
01000000
00010000
00001000
00100000
00010000
01000000
00000000
,
01010000
00000000
01001000
00000000
00001000
00010000
00000010
00000000
,
00001010
00000000
00001000
00000100
00000001
00000100
00001000
00000000
,
00000011
00000000
00000001
00000100
00001000
00000100
00001000
00000000
,
00011000
00000000
00010000
00100000
10000000
00000000
10000000
01000000
,
01100000
00000000
00000000
00000000
00100000
00000000
00001000
00000000
00010000
00000000
00000100
00000000
00001000
00000000
00000100
00001000
,
00000001
00000000
00000100
00001000
00000100
00000001
00000010
00000100
,
00010000
00001000
00010000
00000010
00001000
00000010
00010000
00001000
,
00100000
00010000
00110000
00000000
00100000
01000000
01100000
00000000
,
01000000
10000000
00010000
10000000
00100000
10000000
01000000
00000000
,
00010000
00001000
00100000
00010000
00100000
00001000
00010000
00000010
,
00001000
00000010
00010000
00001000
00000010
00000100
00001000
00000001
,
00000100
00000010
00001010
00000000
00001000
00000100
00010100
00000000
,
00011000
00000000
01001000
00000000
01000000
00010000
00100000
01000000
,
00010000
00000000
00001000
00100000
01000000
00010000
01000000
00100000
,
00001000
00000010
00000100
00010000
00001000
00000010
00000100
00001000
,
00000001
00000000
00001000
00000010
00000100
00001000
01000000
00010000
,
00100000
01000000
00010000
01000000
00100000
00001000
00010000
00000000
,
00012000
00000000
00100000
00100000
00100000
00000000
00010000
00010000
,
00010000
00000000
01000000
01000000
01000000
00000000
00010000
00010000
,
00013000
00001000
00010000
00000100
00001000
00000100
00010000
00001000
,
01000000
00010000
01000000
00010000
01000000
00100000
01000000
00100000
10000000
00010000
01000000
00010000
10000000
00010000
01000000
00010000
,
20000000
00000000
00000000
00000000
,
32000000
00000000
00000000
00000000
,
03020000
00000000
00000000
00000000
,
00032000
00000000
00003020
00000000
,
00000032
00000000
00000000
00000000
,
00000203
00000000
00000000
00000000
,
00002300
00000000
00000000
00000000
,
00020000
00000000
00000000
00033000
,
00011000
00001000
00100000
00010000
,
10000000
00000000
00100000
00000000
00010000
00000000
00001000
01000000
,
00010000
00100000
01000000
00010000
,
00001000
00000000
00000010
00000000
00000100
00000000
00001000
00000001
,
00000100
00001000
00010000
00001000
,
00000100
00000000
00000001
00000000
00000010
00000000
00000100
00010000
,
00002000
00203000
00302000
00023000
,
00230000
02000000
03300000
00000000
,
10010000
00000000
10000000
01000000
00010000
00001000
00100000
00000000
,
00001000
00010000
00000010
00000000
00010000
00001000
00100000
00000000
,
00001000
00000000
00010000
00000100
00001000
00000100
00010000
00000000
,
00001000
00000100
00000001
00000000
00000100
00001000
00010000
00000000
,
00001000
00010000
00001000
00010000
00001000
00010000
00001000
00010000
00001000
00010000
00001000
00010000
00001000
00010000
00001000
00010000
,
00000100
00001000
00000100
00001000
00000100
00001000
00000100
00001000
00000100
00001000
00000100
00001000
00000100
00001000
00000100
00001000
,
00000001
00000100
00000001
00000100
00000001
00000100
00000001
00000100
00000010
00001000
00000010
00001000
00000010
00001000
00000010
00001000
,
00000002
00000000
00000000
00000003
,
00000010
00000001
00000100
00001000
00010000
01000000
10000000
00100000
,
01000000
00000000
01100000
00000000
00100000
10000000
01000000
00000000
,
00100000
00001000
00000010
00001000
00010000
00000100
00001000
00000001
,
00000100
00000000
00000110
00000000
00000010
00010000
00001000
00000000
,
00100000
01000000
00010000
00000100
00010000
00001000
00100000
00000000
,
00010000
01000000
10000000
00000000
11000000
00000000
01010000
00000000
,
00010000
00100000
01000000
00010000
00001000
00000010
00000100
00000000
,
00001000
00000001
00000100
00000000
00000220
00000000
00000330
00000000
,
00000100
00000000
00000010
00000000
00001000
00000010
00001000
00000000
00000100
00000000
00010000
00000000
00001000
00000000
01000000
00000000
,
00010000
00100000
01000000
00010000
01000000
00100000
00001000
00010000
,
00001000
00000000
01000000
00000000
00010000
01000000
00010000
00000000
10000000
00000000
00100000
00000000
10000000
00000000
01000000
00000000
,
00010000
00001000
00100000
00010000
00100000
00001000
00010000
00000010
,
00001000
00000000
00000100
00000000
00000010
00000100
00000010
00000000
00000001
00000000
00001000
00000000
00000010
00000000
00001000
00000000
,
00000001
00000010
00000100
00010000
00000010
00001000
00000010
00000100
,
00000001
00000000
00000010
00000000
00000100
00000010
00000100
00000000
00001000
00000000
00000100
00000000
00010000
00000000
00000000
00000000
,
00022000
00000000
00000000
00000000
00000000
00000000
00000000
00000000
00000000
00000000
00000000
00000000
00033000
00000000
00001000
00010000
,
00001000
00000000
01000000
00000000
00010000
00000000
00100000
01000000
00000000
10000000
00000000
01000000
00000000
00100000
00001000
00000000
,
00010000
00000000
00000010
00001000
00000000
00000010
00000100
00000000
00000001
00001000
00000000
00000001
00000000
00000010
00000100
00000000
,
00010000
00000000
00001000
00000000
00010000
00000000
00000010
00001000
00000000
00000010
00000000
00000100
00000000
00000001
00000010
00000000
,
00000100
00000000
00001000
00000100
00000000
00010000
00001000
00000000
01000000
00000000
00001000
00010000
00000000
00001000
00100000
00010000
,
00100000
00000000
01000000
00000000
10000000
00010000
00000000
01000000
00000000
00010000
00000000
10000000
00000000
01000000
00100000
00000000
,
00001000
00000000
00010000
00000010
00000000
00001000
00000010
00000000
00000100
00000001
00000000
00000010
00000000
00000100
00001000
00000000
,
00000001
00000000
00000100
00000000
00000010
00000000
00010000
00001000
00000000
00010000
00000000
00000010
00000000
00001000
00000100
00000000
,
00000010
00000000
00001000
00000000
00010000
00000000
01000000
00000000
00100000
00000000
00010000
10000000
00020000
00000000
00000000
00000000
,
10030000
00000000
00100000
01000000
00100000
00000000
01000000
00010000
00000000
01000000
00000000
00001000
00000000
00010000
00001000
00000000
,
00010000
00000000
00000100
00001000
00000000
00000100
00010000
00000000
00001000
00100000
00010000
00100000
00000000
00001000
00010000
00000000
,
00000010
00000000
00001000
00000000
00000010
00000000
00000100
00000001
00000000
00001000
00000000
00000001
00000000
00000010
00000100
00000000
,
00001000
00000000
00000100
00010000
00000000
00001000
00010000
00000000
00001000
00100000
00000000
00010000
00000000
00100000
01000000
00000000
,
10020000
00000000
10030000
01000000
00020000
00000000
00031000
00000010
,
00000120
00000000
00000000
00000000
00000031
00000000
00000100
00000000
00001000
00000000
00010000
00000000
00000000
00001000
00100000
00010000
,
00100000
00000000
01000000
00000000
00010000
00000000
00001000
00010000
00001000
00000000
00010000
00000000
00000010
00000000
00001000
00000010
,
00002000
00000000
00000000
00000000
00000000
00000000
00000000
00000000
00003100
00001000
00000100
00001000
00000001
00000010
00000100
00001000
,
00000020
00000000
00000000
00000000
,
00000000
00000000
00000000
00000000
,
00000000
00000030
00000000
00000000
00000000
00000000
00000000
00000000
;
