#VERSION:0.83;
#TITLE:THE LAST STRIKER;
#SUBTITLE:;
#ARTIST:L.E.D.;
#TITLETRANSLIT:;
#SUBTITLETRANSLIT:;
#ARTISTTRANSLIT:;
#GENRE:DRUM & BASS;
#CREDIT:;
#MUSIC:THE LAST STRIKER.ogg;
#BANNER:THE LAST STRIKER.png;
#BACKGROUND:THE LAST STRIKER-bg.png;
#CDTITLE:./CDTitles/bm IIDX 17 SIRIUS.png;
#SAMPLESTART:93.749;
#SAMPLELENGTH:15.000;
#SELECTABLE:YES;
#OFFSET:0.947;
#BPMS:0.000=185.000;
#STOPS:;
#TIMESIGNATURES:0.000=4=4;
#BGCHANGES:0.000=THE LAST STRIKER.mp4=1.000=0=0=0=StretchNoLoop====,
99999.000=-nosongbg-=1.000=0=0=0=StretchNoLoop====
;
#FGCHANGES:;

//--------------- dance-single - forcednature ----------------
#NOTEDATA:;
#STEPSTYPE:dance-single;
#DESCRIPTION:forcednature;
#CREDIT:forcednature;
#DIFFICULTY:Beginner;
#METER:4;
#RADARVALUES:0,0,0,0,0;
#NOTES:
0000
0000
0000
0000
,
0000
0000
0000
0000
,
0000
0000
0000
0000
,
0000
0000
0000
0000
,
0000
0000
0000
0000
,
0000
0000
0000
0000
,
0000
0000
0000
0000
,
0000
0000
0000
0000
,
0000
0000
0000
0000
,
1000
0000
0000
0000
,
0000
0000
0000
0000
,
0001
0000
0000
0000
,
0000
0000
0000
0000
,
0100
0000
0000
0000
,
0000
0000
0000
0000
,
0010
0000
0000
0000
,
0000
0000
0000
0000
,
1001
0000
0000
0000
,
1000
0000
0000
0000
,
0001
0000
0000
0000
,
0010
0000
0000
0000
,
0100
0000
0000
0000
,
0010
0000
0000
0000
,
0001
0000
0000
0000
,
1000
0000
1000
0000
,
0010
0000
0000
0000
,
0100
0000
0000
0000
,
0001
0000
0000
0000
,
1000
0000
0000
0000
,
0100
0000
0000
0000
,
0010
0000
0000
0000
,
0001
0000
0001
0000
,
1000
0000
1000
0000
,
1001
0000
0000
0000
,
0001
0000
0000
0000
,
0100
0000
0000
0000
,
0010
0000
0000
0000
,
1001
0000
0000
0000
,
1000
0000
0000
0000
,
0100
0000
0000
0000
,
0010
0000
0010
0000
,
0100
0000
0000
0000
,
1000
0000
0001
0000
,
1000
0000
0000
0000
,
0001
0000
1000
0000
,
0001
0000
0000
0000
,
0100
0000
0010
0000
,
0100
0000
0000
0000
,
0010
0000
0100
0000
,
0110
0000
0000
0000
,
0001
0000
1000
0000
,
0001
0000
0000
0000
,
1000
0000
0001
0000
,
1001
0000
0000
0000
,
0100
0000
0010
0000
,
0110
0000
0000
0000
,
1000
0001
1000
0001
,
0100
0000
0000
0000
,
0000
0000
0000
0000
,
0000
0000
0000
0000
,
0000
0000
0000
0000
,
0000
0000
0000
0000
,
0000
0000
0000
0000
,
0000
0000
0000
0000
,
0000
0000
0000
0000
,
0020
0000
0000
0000
,
0000
0000
0000
0000
,
0230
0000
0000
0000
,
0000
0000
0000
0000
,
2300
0000
0000
0000
,
0000
0000
0000
0000
,
3001
0001
0001
0001
,
1000
1000
1000
0000
,
0110
0000
0001
0000
,
1000
0000
0000
0000
,
0001
0000
0010
0000
,
0100
0000
1000
0000
,
1001
0000
1000
0000
,
0010
0000
0000
0000
,
0100
0000
0001
0000
,
0010
0000
0100
0000
,
0110
0000
0010
0000
,
0001
0000
0000
0000
,
0100
0000
0010
0000
,
1000
0000
0001
0000
,
1001
0000
0001
0000
,
0100
0000
0000
0000
,
0010
0000
1000
0000
,
0001
1000
0001
1000
,
0100
0000
0000
0000
,
0000
0000
0000
0000
,
0010
0000
0000
0000
,
0000
0000
0000
0000
,
2002
0000
0000
0000
,
0000
0000
0000
0000
,
0000
0000
0000
0000
,
3003
0000
0000
0000
;

//--------------- dance-single - forcednature ----------------
#NOTEDATA:;
#STEPSTYPE:dance-single;
#DESCRIPTION:forcednature;
#CREDIT:forcednature;
#DIFFICULTY:Easy;
#METER:10;
#RADARVALUES:0,0,0,0,0;
#NOTES:
0000
0000
0000
0000
,
0000
0000
0000
0000
,
0000
0000
0000
0000
,
0000
0000
0000
0000
,
0000
0000
0000
0000
,
0000
0000
0000
0000
,
0000
0000
0000
0000
,
0000
0000
0000
0000
,
0000
0000
0000
0000
,
0001
2000
0000
0000
3200
0000
0000
0320
,
0000
0000
0032
0000
0000
2003
0000
3020
,
0000
0230
0000
0000
0302
0000
0000
2003
,
0000
0000
3200
0000
0000
0320
0000
0032
,
0000
2003
0000
0000
3020
0000
0000
0230
,
0000
0000
0302
0000
0000
2003
0000
3200
,
0000
2300
0000
0000
3020
0000
0000
0230
,
0000
0000
0302
0000
0000
0023
0000
0000
,
0130
0000
1100
0000
0000
1000
0001
0000
,
0100
0100
0010
1000
,
0001
0000
0011
0000
0000
0100
0010
0000
,
1000
1000
0001
0100
,
0010
0000
1001
0000
0000
0001
1000
0000
,
0001
0001
0010
0100
,
1000
0000
1010
0000
0000
0001
0100
0000
,
0001
1000
0001
0000
1000
0001
1000
0000
,
0110
0001
1000
0100
,
0010
0001
0200
0310
,
0000
1000
0001
0010
,
0001
1000
0010
0100
,
0001
0010
0100
1000
,
0001
0100
0020
1030
,
0000
0100
0010
0100
,
1000
0001
0100
0010
,
1001
0001
0010
0001
,
1000
0010
0200
0301
,
0000
0010
0100
1000
,
0001
0100
0010
1000
,
1001
0001
0010
0100
,
1000
0010
0200
0301
,
0000
1000
0100
1000
,
0010
0100
0001
1000
,
1001
0000
0001
0000
0010
0100
0010
0000
,
0001
0000
1000
0000
0010
0100
0010
0000
,
1000
0000
0001
0000
1000
0100
1000
0000
,
0001
0000
1000
0000
0001
0100
0001
0000
,
0110
0000
1000
0000
0001
0010
0001
0000
,
0100
0000
0001
0000
1000
0010
1000
0000
,
0100
0000
0010
0000
0001
1000
0001
0000
,
0100
0000
0010
0000
1000
0001
1000
0000
,
0110
0000
0001
0000
1000
0010
1000
0000
,
0100
0000
0010
0000
0001
0100
0001
0000
,
1000
0000
0100
0000
0010
0001
0010
0000
,
0001
0000
0100
0000
0010
1000
0010
0000
,
0110
0000
0100
0000
0001
1000
0001
0000
,
0010
0000
0100
0000
1000
0001
1000
0000
,
1001
0000
1000
0000
0100
0010
0100
0000
,
1001
0000
0001
0000
0100
0010
0100
0010
,
1000
0000
0000
0000
,
0000
0000
0000
0000
,
0000
0000
0000
0000
,
0000
0000
0000
0000
,
0000
0000
0000
0000
,
0000
0000
0000
0000
,
0000
0000
0000
0000
,
0000
0000
0000
0000
,
1000
0002
0000
0000
2003
0000
0000
3200
,
0000
0000
0320
0000
0000
0032
0000
2003
,
0000
3020
0000
0000
0230
0000
0000
0302
,
0000
0000
2003
0000
0000
3200
0000
2300
,
0000
3020
0000
0000
0230
0000
0000
0302
,
0000
0000
0023
0000
0000
0230
0000
1300
,
0100
1000
0100
0000
0010
0001
0010
0000
,
0100
0100
0100
0000
1000
0000
0001
0000
,
0110
0001
1000
0010
,
0100
0000
0001
0000
1000
0100
1000
0100
,
0000
0010
0001
1000
,
0010
0000
0100
0000
0001
1000
0001
1000
,
0001
0010
0100
1000
,
0010
0000
0100
0000
0001
0100
0001
0100
,
0000
0010
1000
0001
,
1000
0000
0100
0000
0010
0001
0010
0001
,
0010
0100
1000
0001
,
0100
0000
0010
0000
1000
0001
1000
0001
,
0000
0100
0010
1000
,
0001
0000
0010
0000
0100
1000
0100
1000
,
0100
0010
0001
1000
,
0010
0000
0100
0000
0001
1000
0001
1000
,
0001
0100
0010
1000
,
0100
0010
0100
0000
0010
0100
0010
0000
,
0001
2000
0000
0000
3020
0000
0000
0230
,
0000
0000
0302
0000
0000
2003
0000
3200
,
0000
0320
0000
0000
0032
0000
0000
0203
,
0000
0000
0320
0000
0000
2030
0000
3001
,
0020
0000
0000
0000
,
0000
0000
0000
0000
,
0000
0000
0000
0000
,
0030
0000
0000
0000
;

//--------------- dance-single - forcednature ----------------
#NOTEDATA:;
#STEPSTYPE:dance-single;
#DESCRIPTION:forcednature;
#CREDIT:forcednature;
#DIFFICULTY:Medium;
#METER:14;
#RADARVALUES:0,0,0,0,0;
#NOTES:
0000
0000
0000
0000
,
0000
0000
0000
0000
,
0000
0000
0000
0000
,
0000
0000
0000
0000
,
0000
0000
0000
0000
,
0000
0000
0000
0000
,
0000
0000
0000
0000
,
0000
0000
0000
0000
,
0000
0000
0000
0000
,
2002
0000
0000
0000
,
0000
0000
3000
0000
,
0200
0000
0000
0000
,
0000
0000
0003
0000
,
0020
0000
0000
0000
,
0000
0000
0300
0000
,
2000
0000
0000
0000
,
0000
0000
3030
0000
,
1001
0000
0011
0000
1000
0010
0100
0000
,
0001
0000
0010
0000
0100
0000
0000
0100
0000
0000
1000
0000
0010
0000
0000
0000
,
1000
0000
0101
0000
0001
1000
0100
0000
,
0010
0000
0100
0000
1000
0000
0000
1000
0000
0000
0010
0000
0100
0000
0001
0000
,
0010
0000
0110
0000
0100
1000
0001
0000
,
1000
0000
0010
0000
0100
0000
0000
0100
0000
0000
0001
0000
0010
0000
0000
0000
,
0011
0000
0001
1000
0010
0100
0001
0000
,
1000
0100
1000
0100
1000
0000
0010
0000
0100
0000
0001
0000
1001
0000
0000
0000
,
0001
0100
0001
1000
0010
0000
1000
0100
,
0010
0001
0100
0010
1000
1001
0000
0110
,
0000
0001
0010
0100
1000
0000
0010
0100
,
0001
0010
0100
1000
0010
0110
0000
1001
,
0000
1000
0010
1000
0100
0000
0010
0001
,
0100
0010
1000
0001
0100
1000
0100
0001
,
0000
0010
0100
1000
0010
0000
0100
0001
,
1000
0000
0100
0000
0010
0000
0000
0010
0000
0000
0100
0000
1000
0000
0001
0000
,
1001
1000
0010
0100
0001
0000
0010
0100
,
1000
0010
0100
0000
0001
0010
0001
0100
,
0010
0001
0010
1000
0001
0000
1000
0100
,
0010
0000
0001
0000
0100
0000
0000
0101
0000
0000
0001
0000
0000
0000
1000
0000
,
1010
1000
0001
0000
0010
0100
1000
0010
,
0100
0000
0001
0010
0100
0001
0100
1000
,
0000
0010
0100
0001
0010
0000
0100
0010
,
0001
0000
1000
0000
0010
0000
0000
0010
0000
0000
0100
0000
0001
0000
0000
0000
,
1001
0000
1000
0100
0100
0100
0010
0000
,
0001
0001
0100
0010
1000
1000
0001
0000
,
0010
0100
1000
0010
0100
0001
0010
0000
,
0100
0100
0100
0100
0010
0001
1000
0000
,
0110
0000
0001
0001
1000
0010
1000
0000
,
0100
0100
0010
0100
1000
0010
0100
0000
,
0001
0001
0010
0010
0100
0010
0001
0000
,
1000
1000
0010
0010
0100
0001
1000
0000
,
1001
0000
0001
0100
0010
1000
1000
0000
,
0100
0100
0100
0100
0010
0001
1000
0000
,
0010
0010
0010
0001
0010
0010
0010
0000
,
0100
0001
1000
0100
1000
0001
0100
0000
,
0110
0000
0001
1000
0010
1000
0001
0000
,
0010
0010
0010
0100
1000
0010
0100
0000
,
0110
0000
0001
1000
0010
1000
0001
0000
,
1001
0000
0000
0000
0001
0000
0010
0000
0100
1000
0100
1000
0001
0010
0001
0000
,
1001
0000
0000
0000
,
0000
0000
0000
0000
,
0000
0000
0000
0000
,
0000
0000
0000
0000
,
0000
0000
0000
0000
,
0000
0000
0000
0000
,
0000
0000
0000
0000
,
0000
0000
0000
0000
,
2002
0000
0000
0000
,
0000
0000
0003
0000
,
0200
0000
0000
0000
,
0000
0000
3000
0000
,
0020
0000
0000
0000
,
0000
0000
0330
0000
,
0001
0100
0001
0000
1000
0000
0010
0000
1000
0000
0001
0000
0010
0000
0100
0000
,
1000
0000
1000
0000
0010
0100
0010
0000
1000
0000
0001
0000
0010
0100
1000
0000
,
1001
0001
0100
1000
0100
0010
1000
0001
,
1000
0100
0001
0100
0010
0001
1000
0010
,
0000
0100
1000
0100
0001
0010
0100
0001
,
0100
1000
0001
0010
1000
0010
0100
1000
,
1001
0001
0100
1000
0100
0010
1000
0001
,
0010
0001
0100
0010
0001
0010
1000
0001
,
0000
0010
1000
0010
0100
0010
0001
1000
,
0010
0100
1000
0100
0001
0010
0100
1000
,
1001
0001
0100
0001
0010
1000
0010
0001
,
0100
1000
0100
0001
0010
1000
0010
0100
,
0000
1000
0010
0001
0010
0100
0001
1000
,
0100
0001
0100
0010
0001
1000
0010
0100
,
1001
0001
0010
1000
0001
0100
1000
0001
,
0010
1000
0001
0100
1000
0010
0100
0001
,
0000
1000
0010
0001
1000
0100
0001
1000
,
0010
0100
0010
0000
1000
0000
0001
0010
0100
0000
1000
0000
0010
0100
0010
0000
,
0220
0000
0000
0000
,
0000
0000
0000
0000
,
0000
0000
0000
0000
,
0000
0000
0000
0330
,
2002
0000
0000
0000
,
0000
0000
0000
0000
,
0000
0000
0000
0000
,
3003
0000
0000
0000
;

//--------------- dance-single - forcednature ----------------
#NOTEDATA:;
#STEPSTYPE:dance-single;
#DESCRIPTION:forcednature;
#CREDIT:forcednature;
#DIFFICULTY:Hard;
#METER:17;
#RADARVALUES:0,0,0,0,0;
#NOTES:
0000
0000
0000
0000
,
0000
0000
0000
0000
,
0000
0000
0000
0000
,
0000
0000
0000
0000
,
0000
0000
0000
0000
,
0000
0000
0000
0000
,
0000
0000
0000
0000
,
0000
0000
0000
0000
,
0000
0000
0000
0000
,
1001
0002
0000
0000
0023
0000
0000
0230
,
0000
0000
2300
0000
0000
3020
0000
0230
,
0000
0302
0000
0000
0023
0000
0000
0032
,
0000
0000
0203
0000
0000
0320
0000
2030
,
0000
3200
0000
0000
0302
0000
0000
0203
,
0000
0000
2300
0000
0000
3002
0000
0203
,
0000
2300
0000
0000
3200
0000
0000
0320
,
0000
0000
2030
0000
0000
3002
0000
0013
,
0100
1000
1001
0000
0000
0001
0101
0000
,
1000
0000
0010
0000
0100
0000
0000
0100
0000
0000
0001
0000
0011
0000
0000
0000
,
0001
1000
1100
0000
0000
1000
1010
0000
,
0010
0000
0100
0000
0110
0000
0000
0110
0000
0000
0001
0000
1000
0000
0100
0000
,
0010
0001
0101
0000
0000
0010
1010
0000
,
1000
0000
0001
0000
0010
0000
0000
0010
0000
0000
0100
0000
1100
0000
0000
0000
,
1000
0010
0110
0000
0000
0100
0001
1000
,
0001
0010
0001
0010
0100
1000
0100
1000
0001
0000
0100
0001
1000
0000
0100
0000
,
0010
0100
1000
0010
0100
1000
0100
0010
,
1000
0100
0010
0100
1000
0010
0100
0001
,
0000
0001
0010
0001
0100
0010
0001
0010
,
0100
0000
0001
0000
0010
0000
0100
0010
0001
0000
1000
0000
0010
0000
1000
0000
,
0000
0100
0001
0100
1000
0001
0100
1000
,
0100
0001
1000
0100
0001
0200
0320
0032
,
0003
0001
0100
0010
1000
0001
0010
1000
,
0010
0000
0001
0000
1000
0000
0010
0100
0001
0000
0010
0000
0000
0000
0100
0000
,
0110
0001
1000
0010
0001
0010
0100
0001
,
1000
0100
0010
0001
0010
1000
0001
0100
,
0000
1000
0001
0100
1000
0100
0001
0010
,
0100
0000
1000
0000
0001
0000
0010
0100
1000
0000
0010
0000
0100
0000
0001
0000
,
1001
0001
0100
0010
1000
0100
0001
1000
,
0010
0001
0100
0001
1000
0020
0032
0023
,
0030
0100
1000
0100
0001
0010
0100
1000
,
0010
0000
0100
0000
0001
0000
0010
0100
0010
0000
0001
0000
0000
0000
1000
0000
,
1001
0000
0001
0100
0000
0010
1000
0000
0001
1000
0001
0010
0000
0100
1000
0000
,
0010
0000
0100
0001
0000
1000
0100
0000
0010
0001
1000
0001
0000
0100
0010
0000
,
1000
0000
0100
0010
0000
0100
1000
0000
0001
0100
0001
1000
0000
0010
1000
0000
,
0001
0000
0010
0100
0000
0010
0001
0000
1000
0010
1000
0010
0000
0100
0001
0000
,
1001
0000
0001
0010
0000
0100
1000
0000
0010
0100
0010
1000
0000
0001
0010
0000
,
0001
0000
0100
0010
0000
1000
0001
0000
1000
0100
0010
0001
0000
0100
0001
0000
,
0010
0000
0100
1000
0000
0001
0100
0000
0010
1000
0001
1000
0000
0100
0010
0000
,
0001
0000
1000
0010
0000
0100
0001
0000
0010
0100
0010
0001
0000
0100
0010
0000
,
1001
0000
1000
0010
0000
0100
0001
0000
0010
0100
1000
0001
0000
1000
0010
0100
,
0001
0000
0010
0001
0000
0100
0010
0000
1000
0100
0010
0001
0000
0100
0010
1000
,
0001
0000
1000
0010
0000
1000
0100
0000
0010
0001
0100
0001
0000
0010
0100
1000
,
0001
0000
1000
0010
0000
0100
0001
0000
1000
0100
1000
0010
0000
0100
0001
0000
,
1001
0000
0001
0010
0000
0100
0010
0000
0001
1000
0010
0100
0000
0001
0010
0100
,
1000
0000
0010
1000
0000
0001
0100
0000
0001
0010
0001
0100
0000
0010
1000
0000
,
1001
0000
1000
0100
0000
0010
0001
0000
0100
0010
1000
0001
0000
0010
0100
0000
,
0110
0000
1000
0001
1000
0000
0010
1000
0001
0100
0010
0100
0001
1000
0100
0010
,
0001
0000
0000
0000
,
0000
0000
0000
0000
,
0000
0000
0000
0000
,
0000
0000
0000
0000
,
0000
0000
0000
0000
,
0000
0000
0000
0000
,
0000
0000
0000
0000
,
0000
0000
0000
0000
,
1001
1000
0000
1000
0010
0000
0010
0001
,
0000
0001
0010
0000
0010
0100
0001
1000
,
0000
0100
0001
0100
1000
0100
1000
0010
,
1000
0010
0001
0010
0001
0010
1000
0001
,
0000
0100
0001
0100
0001
0010
0001
1000
,
0010
1000
0100
1000
0100
0010
0000
0001
,
1000
0010
1000
0010
0100
0001
0100
0001
1000
0100
1000
0100
0010
0001
0010
0001
,
0100
0000
0100
0000
0010
1000
0001
1000
0100
0010
0001
0100
0010
1000
0001
0000
,
1001
0000
1000
0010
0100
0000
0001
0000
0010
0100
1000
0000
0100
0000
0010
0001
,
1000
0000
0100
0000
1000
0010
1000
0000
0001
0000
0010
0100
1000
0010
0100
0000
,
0001
0000
1000
0100
0010
0000
0100
0000
1000
0010
0100
0000
0001
0000
0010
0100
,
1000
0000
0010
0000
1000
0001
0010
0000
0110
0000
1000
0001
0100
0010
1000
0000
,
1001
0000
0001
0010
0100
0000
0010
0000
0001
0100
0010
0000
0100
0000
0001
0010
,
0100
0000
1000
0000
0001
0100
1000
0000
0100
0000
0010
1000
0001
0010
0100
0000
,
1000
0000
0010
0100
0001
0000
0010
0000
0001
0100
0010
0000
1000
0000
0001
0010
,
0100
0000
1000
0000
0100
0010
0001
0010
0100
0000
1000
0001
0100
0000
0010
1000
,
0001
0000
1000
0100
0010
0000
0001
0000
0100
1000
0100
0000
0010
0000
1000
0001
,
0010
0000
0100
0000
0001
0100
1000
0000
0010
0000
1000
0001
0010
0100
0010
0000
,
0001
0000
0100
0010
1000
0000
0001
0000
0010
0100
1000
0000
0010
0000
1000
0100
,
0001
0000
0100
0010
0001
0000
1000
0001
0100
0010
1000
0010
0100
0001
1000
0000
,
1001
0000
1000
0001
0100
0000
0010
0000
0001
0010
0100
0000
0001
0000
1000
0100
,
0010
0000
0100
0000
1000
0010
0100
0000
1000
0000
0100
0001
0010
0100
1000
0000
,
1001
0000
1000
0010
0100
0001
0010
0000
0100
0010
0001
1000
0010
0000
0100
0001
,
1000
0010
1000
0010
0100
0001
1000
0100
0010
0001
0100
0010
1000
0001
0010
0000
,
1001
2000
0000
0000
3020
0000
0000
0230
,
0000
0000
0302
0000
0000
0023
0000
0230
,
0000
2300
0000
0000
3020
0000
0000
0230
,
0000
0000
0302
0000
0000
0023
0000
0130
,
2002
0000
0000
0000
,
0000
0000
0000
0000
,
0000
0000
0000
0000
,
3003
0000
0000
0000
;

//--------------- dance-double - forcednature ----------------
#NOTEDATA:;
#STEPSTYPE:dance-double;
#DESCRIPTION:forcednature;
#CREDIT:forcednature;
#DIFFICULTY:Easy;
#METER:10;
#RADARVALUES:0,0,0,0,0;
#NOTES:
00000000
00000000
00000000
00000000
,
00000000
00000000
00000000
00000000
,
00000000
00000000
00000000
00000000
,
00000000
00000000
00000000
00000000
,
00000000
00000000
00000000
00000000
,
00000000
00000000
00000000
00000000
,
00000000
00000000
00000000
00000000
,
00000000
00000000
00000000
00000000
,
00000000
00000000
00000000
00000000
,
00000000
00002000
00000000
00000000
00023000
00000000
00000000
00030200
,
00000000
00000000
00002300
00000000
00000000
00003020
00000000
00000230
,
00000000
00000302
00000000
00000000
00002003
00000000
00000000
00003200
,
00000000
00000000
00020300
00000000
00000000
00032000
00000000
02003000
,
00000000
03020000
00000000
00000000
20030000
00000000
00000000
32000000
,
00000000
00000000
03200000
00000000
00000000
00320000
00000000
00230000
,
00000000
00302000
00000000
00000000
00023000
00000000
00000000
00030020
,
00000000
00000000
00002030
00000000
00000000
00003002
00000000
00000013
,
00000100
00000000
00000110
00000000
00000000
00000010
00000001
00000000
,
00001000
00000010
00000010
00000100
,
00001000
00000000
00011000
00000000
00000000
00010000
00100000
00000000
,
01000000
00010000
00010000
10000000
,
01000000
00000000
01100000
00000000
00000000
00100000
00010000
00000000
,
01000000
00001000
00001000
00010000
,
00000100
00000000
00001100
00000000
00000000
00001000
00000001
00000000
,
00000100
00000010
00000100
00000000
00000001
00001000
00000001
00000000
,
00001001
00001000
00000100
00010000
,
00001000
01000000
00010000
00100000
,
00000000
01000000
10000000
00100000
,
01000000
00010000
10000000
01000000
,
00000000
00010000
00001000
00010000
,
00000100
00001000
00000010
00000100
,
00000000
00000001
00000100
00001000
,
00010000
00001000
01000000
00010000
,
00000000
00100000
01000000
10000000
,
00100000
01000000
00010000
10000000
,
00000000
01000000
00100000
00010000
,
01000000
00001000
00010000
00000100
,
00000000
00001000
00000010
00000100
,
00000001
00000010
00000100
00001000
,
00000000
00000010
00010000
00001000
,
00100000
00001000
00010000
00100000
,
01000000
00000000
00010000
00000000
10000000
01000000
10000000
00000000
,
00100000
00100000
01000000
00001000
,
00010000
00000000
00000100
00000000
00001000
00000001
00001000
00000000
,
00000010
00000010
00000100
00001000
,
00010000
00000000
01000000
00000000
00100000
00010000
00100000
00000000
,
00001000
00001000
00010000
00100000
,
10000000
00000000
00010000
00000000
00100000
01000000
00100000
00000000
,
00010000
00010000
01000000
00001000
,
00011000
00000000
00010000
00000000
00000100
00001000
00000100
00000000
,
00000010
00000010
00000001
00001000
,
00000010
00000000
00000100
00000000
00000001
00001000
00000001
00000000
,
00000010
00000010
00001000
00010000
,
00011000
00000000
00001000
00000000
01000000
00010000
01000000
00000000
,
00100000
00100000
10000000
00010000
,
10010000
00000000
10000000
00000000
01000000
00100000
01000000
00000000
,
00010000
00001000
00010000
00000000
00000100
00001000
00000100
00000000
,
00000110
00000000
00000000
00000000
,
00000000
00000000
00000000
00000000
,
00000000
00000000
00000000
00000000
,
00000000
00000000
00000000
00000000
,
00000000
00000000
00000000
00000000
,
00000000
00000000
00000000
00000000
,
00000000
00000000
00000000
00000000
,
00000000
00000000
00000000
00000000
,
00001000
00000200
00000000
00000000
00020300
00000000
00000000
00032000
,
00000000
00000000
02003000
00000000
00000000
03020000
00000000
20030000
,
00000000
32000000
00000000
00000000
03200000
00000000
00000000
00320000
,
00000000
00000000
00230000
00000000
00000000
00302000
00000000
00023000
,
00000000
00030020
00000000
00000000
00002030
00000000
00000000
00003002
,
00000000
00000000
00002003
00000000
00000000
00003200
00000000
00000310
,
00000001
00000010
00000001
00000000
00001000
00000100
00001000
00000000
,
00000010
00000000
00000010
00000000
00010000
00001000
00010000
00000000
,
00011000
00000000
00001000
00000000
01000000
00010000
01000000
00000000
,
00100000
10000000
00100000
00000000
10000000
00000000
01000000
00000000
,
00100000
00000000
00010000
00000000
00100000
00001000
00100000
00000000
,
00001000
00010000
00001000
00000000
00000100
00000000
00000010
00000000
,
00000110
00000000
00000100
00000000
00000001
00001000
00000001
00000000
,
00000010
00000100
00000010
00000000
00000001
00000000
00001000
00000000
,
00000010
00000000
00010000
00000000
00001000
01000000
00001000
00000000
,
01000000
00010000
01000000
00000000
00100000
00000000
10000000
00000000
,
10010000
00000000
00010000
00000000
00100000
00001000
00100000
00000000
,
00001000
00010000
00001000
00000000
00000100
00000000
00000010
00000000
,
00001000
00000000
00000001
00000000
00000010
00000100
00000010
00000000
,
00000001
00001000
00000001
00000000
00000100
00000000
00000010
00000000
,
00000110
00000000
00000100
00000000
00000001
00001000
00000001
00000000
,
00001000
00000100
00001000
00000000
00000010
00000000
00010000
00000000
,
00011000
00000000
00001000
00000000
00100000
00010000
00100000
00000000
,
01000000
10000000
01000000
00000000
00100000
00010000
00100000
00000000
,
00001000
00020000
00000000
00000000
00030020
00000000
00000000
00002030
,
00000000
00000000
00003002
00000000
00000000
00002003
00000000
00003200
,
00000000
00020300
00000000
00000000
00032000
00000000
00000000
02003000
,
00000000
00000000
03020000
00000000
00000000
20030000
00000000
31000000
,
00200000
00000000
00000000
00000000
,
00000000
00000000
00000000
00000000
,
00000000
00000000
00000000
00000000
,
00300000
00000000
00000000
00000000
;

//--------------- dance-double - forcednature ----------------
#NOTEDATA:;
#STEPSTYPE:dance-double;
#DESCRIPTION:forcednature;
#CREDIT:forcednature;
#DIFFICULTY:Medium;
#METER:14;
#RADARVALUES:0,0,0,0,0;
#NOTES:
00000000
00000000
00000000
00000000
,
00000000
00000000
00000000
00000000
,
00000000
00000000
00000000
00000000
,
00000000
00000000
00000000
00000000
,
00000000
00000000
00000000
00000000
,
00000000
00000000
00000000
00000000
,
00000000
00000000
00000000
00000000
,
00000000
00000000
00000000
00000000
,
00000000
00000000
00000000
00000000
,
00001000
00020000
00000000
00000000
00230000
00000000
00000000
02300000
,
00000000
00000000
03020000
00000000
00000000
20030000
00000000
32000000
,
00000000
03200000
00000000
00000000
00302000
00000000
00000000
00023000
,
00000000
00000000
00030020
00000000
00000000
00002030
00000000
00003002
,
00000000
00000203
00000000
00000000
00002300
00000000
00000000
00023000
,
00000000
00000000
02030000
00000000
00000000
03200000
00000000
00320000
,
00000000
20030000
00000000
00000000
30200000
00000000
00000000
20300000
,
00000000
00000000
32000000
00000000
00000000
03020000
00000000
00031000
,
00010000
00000100
00001000
00000000
00000010
00001000
00000001
00000000
,
00000010
00000100
00001000
00000000
00000010
00010000
00001000
01000000
,
00010000
00100000
01000000
00000000
00100000
00001000
00010000
00000000
,
00100000
00000000
10000000
00000000
00010000
00000000
00000000
00010000
00000000
00000000
00100000
00000000
01000000
00000000
10000000
00000000
,
00010000
01000000
00001000
00000000
00010000
00000100
00001000
00000000
,
00000010
00000100
00000001
00000000
00000010
00000100
00001000
00000001
,
00000100
00001000
00010000
00000000
00001000
01000000
00010000
00000000
,
00100000
00100000
00100000
01000000
10000000
00010000
01000000
00000000
,
00100000
10000000
00010000
10000000
01000000
00100000
00010000
00100000
,
00001000
00010000
00000010
00001000
00000100
00000001
00000100
00000010
,
00000000
00000001
00001000
00000010
00000100
00000001
00000100
00000010
,
00001000
00000000
00010000
00000000
01000000
00000000
00000000
01000000
00000000
00000000
00010000
00000000
10000000
00000000
00010000
00000000
,
00000000
10000000
00100000
10000000
01000000
00010000
00001000
01000000
,
00010000
00100000
00001000
00010000
00000010
00001000
00000100
00000001
,
00000000
00000100
00001000
00000001
00000100
00000010
00000100
00001000
,
00010000
00000000
00100000
00000000
01000000
00000000
00000000
01000000
00000000
00000000
00100000
00000000
10000000
00000000
00010000
00000000
,
00000000
10000000
01000000
00010000
00001000
00010000
00000010
00001000
,
00000100
00010000
00001000
00000100
00000010
00001000
00000001
00000010
,
00000000
00000001
00000100
00000001
00000010
00001000
00010000
00100000
,
01000000
00000000
00010000
00000000
10000000
00000000
00000000
10000000
00000000
00000000
00010000
00000000
01000000
00000000
00100000
00000000
,
00000000
10000000
01000000
00010000
00001000
00000100
00000001
00000010
,
00000100
00001000
00000010
00010000
00001000
00000010
00000001
00000100
,
00000000
00000001
00000100
00001000
00010000
00000100
00001000
00000010
,
00010000
00001000
01000000
00010000
00100000
01000000
00010000
00001000
,
00000100
00000000
00000000
00000100
00000000
00000000
00000010
00000000
00001000
00000000
00000001
00000000
00000000
00000010
00000000
00000000
,
00000100
00000000
00000000
00000100
00000000
00000000
00010000
00000000
00001000
00000000
01000000
00000000
00000000
00010000
00000000
00000000
,
10000000
00000000
00000000
10000000
00000000
00000000
01000000
00000000
00100000
00000000
00010000
00000000
00000000
00100000
00000000
00000000
,
00001000
00000000
00000000
00001000
00000000
00000000
00010000
00000000
00000010
00000000
00001000
00000000
00000000
00000001
00000000
00000000
,
00001001
00000000
00000000
00001000
00000000
00000000
00000010
00000000
00010000
00000000
00001000
00000000
00000000
00100000
00000000
00000000
,
00010000
00000000
00000000
00010000
00000000
00000000
01000000
00000000
00100000
00000000
10000000
00000000
00000000
01000000
00000000
00000000
,
00100000
00000000
00000000
00100000
00000000
00000000
00001000
00000000
00010000
00000000
00000010
00000000
00000000
00001000
00000000
00000000
,
00000100
00000000
00000000
00000100
00000000
00000000
00000010
00000000
00000001
00000000
00001000
00000000
00000000
00000010
00000000
00000000
,
00000110
00000000
00000000
00000100
00000000
00000000
00001000
00000000
00010000
00000000
00100000
00000000
00000000
10000000
00000000
00000000
,
00010000
00000000
00000000
00010000
00000000
00000000
00100000
00000000
01000000
00000000
00010000
00000000
00000000
00001000
00000000
00000000
,
00010000
00000000
00000000
00010000
00000000
00000000
00000100
00000000
00001000
00000000
00000010
00000000
00000000
00000100
00000000
00000000
,
00000001
00000000
00000000
00000001
00000000
00000000
00000010
00000000
00000100
00000000
00001000
00000000
00000000
00000010
00000000
00000000
,
00011000
00000000
00000000
00001000
00000000
00000000
00100000
00000000
00010000
00000000
10000000
00000000
00000000
00100000
00000000
00000000
,
00010000
00000000
00000000
00010000
00000000
00000000
00001000
00000000
00000010
00000000
00000100
00000000
00000000
00001000
00000000
00000000
,
00001001
00000000
00000000
00000001
00000000
00000000
00000100
00000000
00001000
00000000
00010000
00000000
00000000
00100000
00000000
00000000
,
10010000
00000000
00000000
10000000
00000000
00000000
01000000
00000000
00010000
00000000
00010000
00000000
00001000
00000000
00001000
00000000
,
00000010
00000000
00000000
00000000
,
00000000
00000000
00000000
00000000
,
00000000
00000000
00000000
00000000
,
00000000
00000000
00000000
00000000
,
00000000
00000000
00000000
00000000
,
00000000
00000000
00000000
00000000
,
00000000
00000000
00000000
00000000
,
00000000
00000000
00000000
00000000
,
00011000
00002000
00000000
00000000
02003000
00000000
00000000
03020000
,
00000000
00000000
20030000
00000000
00000000
32000000
00000000
03020000
,
00000000
00032000
00000000
00000000
00003020
00000000
00000000
00000032
,
00000000
00000000
00002003
00000000
00000000
00003002
00000000
00000203
,
00000000
00000320
00000000
00000000
00002030
00000000
00000000
00003200
,
00000000
00000000
00020300
00000000
00000000
00032000
00000000
01003000
,
00001000
00010000
00001000
00010000
00100000
01000000
00100000
01000000
,
00010000
10000000
01000000
00100000
00010000
01000000
00001000
00000000
,
00010000
00000100
00001000
00000010
00010000
00001000
00000010
00000100
,
00001000
00000001
00000100
00000010
00001000
00000100
00010000
00001000
,
00000000
00000100
00001000
00010000
00100000
01000000
00010000
10000000
,
01000000
00100000
00010000
01000000
00001000
00010000
00000100
00001000
,
00000000
00000010
00010000
00001000
00000010
00000100
00001000
00000001
,
00000100
00000010
00000100
00001000
00010000
01000000
00100000
00010000
,
00000000
10000000
00100000
10000000
01000000
00010000
00001000
01000000
,
00010000
00100000
00001000
00010000
00000010
00001000
00000100
00000001
,
00000000
00000100
00000010
00000001
00001000
00000010
00000100
00001000
,
00010000
00100000
01000000
00010000
10000000
01000000
00010000
00001000
,
00000000
01000000
00010000
00100000
01000000
10000000
00100000
01000000
,
00001000
00010000
00000100
00001000
00000010
00010000
00001000
00100000
,
00000000
00001000
00010000
00100000
01000000
00010000
10000000
01000000
,
00010000
00001000
00000100
00000001
00000010
00000100
00001000
00000010
,
00000000
00010000
00001000
00000010
00001000
00010000
00100000
01000000
,
00010000
00010000
10000000
10000000
01000000
00010000
00001000
00000010
,
00000110
00000200
00000000
00000000
00002300
00000000
00000000
00003002
,
00000000
00000000
00000203
00000000
00000000
00002300
00000000
00023000
,
00000000
00230000
00000000
00000000
20300000
00000000
00000000
30020000
,
00000000
00000000
20030000
00000000
00000000
32000000
00000000
03010000
,
00022000
00000000
00000000
00000000
,
00000000
00000000
00000000
00000000
,
00000000
00000000
00000000
00000000
,
00033000
00000000
00000000
00000000
;

//--------------- dance-double - forcednature ----------------
#NOTEDATA:;
#STEPSTYPE:dance-double;
#DESCRIPTION:forcednature;
#CREDIT:forcednature;
#DIFFICULTY:Hard;
#METER:17;
#RADARVALUES:0,0,0,0,0;
#NOTES:
00000000
00000000
00000000
00000000
,
00000000
00000000
00000000
00000000
,
00000000
00000000
00000000
00000000
,
00000000
00000000
00000000
00000000
,
00000000
00000000
00000000
00000000
,
00000000
00000000
00000000
00000000
,
00000000
00000000
00000000
00000000
,
00000000
00000000
00000000
00000000
,
00000000
00000000
00000000
00000000
,
00010000
00002000
00000000
00000000
00003020
00000000
00000000
00000032
,
00000000
00000000
00002003
00000000
00000000
00003002
00000000
00000203
,
00000000
00000320
00000000
00000000
00002030
00000000
00000000
00023000
,
00000000
00000000
02030000
00000000
00000000
03200000
00000000
20300000
,
00000000
30020000
00000000
00000000
20030000
00000000
00000000
32000000
,
00000000
00000000
03200000
00000000
00000000
00320000
00000000
00032000
,
00000000
00003200
00000000
00000000
00000320
00000000
00000000
00000032
,
00000000
00000000
00000203
00000000
00000000
00000320
00000000
00002030
,
00003001
00000010
00000110
00000000
00000000
00001000
00001100
00000000
,
00010000
00000000
00001000
00000000
01000000
00000000
00000000
01000000
00000000
00000000
00100000
00000000
10000000
00000000
00010000
00000000
,
10000000
01000000
01100000
00000000
00000000
00010000
00110000
00000000
,
00001000
00000000
00010000
00000000
00010010
00000000
00000000
00010010
00000000
00000000
00000010
00000000
00001000
00000000
00000001
00000000
,
00000010
00000100
00001100
00000000
00000000
00010000
00011000
00000000
,
01000000
00000000
00010000
00000000
00100000
00000000
00000000
00100000
00000000
00000000
01000000
00000000
10000000
00000000
00010000
00000000
,
10000000
00100000
01100000
00000000
00000000
00010000
00110000
00000000
,
00001000
00010000
00001000
00010000
00001000
00010000
00000100
00001000
00000100
00000010
00000001
00001000
00000001
00000000
00000100
00000001
,
00000100
00001000
00010000
00000100
00010000
00001000
00000100
00001000
,
00010000
00000100
00010000
00001000
00100000
00010000
01000000
00001000
,
00000000
00010000
01000000
00010000
00001000
01000000
00010000
01000000
,
00001000
00000000
00010000
00000000
01000000
00000000
00010000
00001000
00100000
00000000
00010000
00000000
10000000
00000000
00100000
00000000
,
00000000
01000000
00001000
00010000
01000000
00010000
00001000
01000000
,
00001000
00010000
01000000
00010000
00001000
00000020
00000032
00002003
,
00003000
00000010
00010000
00001000
00000010
00001000
00010000
00000010
,
00010000
00000000
00001000
00000000
00000010
00000000
00000100
00001000
00000001
00000000
00000100
00000000
00000010
00000000
00001000
00000000
,
00000001
00001000
00000010
00000100
00001000
00010000
00000100
00001000
,
00000010
00000100
00001000
00010000
00000010
00001000
00000100
00010000
,
00000000
00001000
00010000
00100000
10000000
01000000
00010000
00001000
,
00010000
00000000
00100000
00000000
10000000
00000000
01000000
00100000
00010000
00000000
01000000
00000000
00100000
00000000
10000000
00000000
,
10010000
00010000
00100000
00001000
00010000
00000100
00001000
00010000
,
00100000
00001000
00010000
00000100
00001000
00000020
00000230
00002300
,
00003000
00010000
00000100
00000010
00000001
00000100
00001000
00010000
,
00000100
00000000
00000010
00000000
00000001
00000000
00000100
00000010
00001000
00000000
00000100
00000000
00000000
00000000
00010000
00000000
,
00011000
00000000
00001000
01000000
00000000
00010000
01000000
00000000
00100000
10000000
00010000
10000000
00000000
01000000
00100000
00000000
,
00010000
00000000
00100000
00001000
00000000
00010000
00001000
00000000
00010000
00000010
00001000
00000010
00000000
00000100
00000001
00000000
,
00000010
00000000
00000100
00001000
00000000
00000001
00000100
00000000
00000010
00001000
00000010
00010000
00000000
00001000
00100000
00000000
,
00010000
00000000
10000000
00100000
00000000
01000000
00010000
00000000
10000000
01000000
10000000
01000000
00000000
00100000
00010000
00000000
,
00110000
00000000
00100000
00001000
00000000
00010000
00001000
00000000
00010000
00000010
00001000
00000010
00000000
00000100
00000001
00000000
,
00001000
00000000
00000100
00000010
00000000
00000001
00000010
00000000
00000100
00010000
00001000
00010000
00000000
00001000
01000000
00000000
,
00010000
00000000
10000000
00100000
00000000
10000000
00010000
00000000
10000000
01000000
00100000
00010000
00000000
00100000
00001000
00000000
,
00010000
00000000
00000010
00001000
00000000
00000001
00000100
00000000
00000001
00000010
00000001
00001000
00000000
00000010
00000100
00000000
,
00000101
00000000
00000001
00001000
00000000
00000100
00001000
00000000
00000010
00001000
00000010
00010000
00000000
00001000
00010000
00001000
,
01000000
00000000
00010000
00100000
00000000
01000000
10000000
00000000
01000000
00100000
00010000
00100000
00000000
00001000
00010000
00000010
,
00010000
00000000
00000100
00001000
00000000
00000001
00000100
00000000
00000010
00001000
00000010
00010000
00000000
00000100
00001000
00000100
,
00010000
00000000
00001000
01000000
00000000
00010000
01000000
00000000
00100000
10000000
00010000
00100000
00000000
01000000
10000000
00000000
,
10010000
00000000
00010000
01000000
00000000
00001000
00010000
00000000
00000100
00001000
00000100
00000010
00000000
00000001
00001000
00000001
,
00000100
00000000
00000010
00001000
00000000
00000010
00010000
00000000
00001000
00100000
00010000
00100000
00000000
01000000
10000000
00000000
,
10010000
00000000
00010000
01000000
00000000
00001000
00010000
00000000
00000100
00001000
00000100
00000010
00000000
00000001
00001000
00000000
,
00001001
00000000
00000001
00000100
00000001
00000000
00001000
00000010
00010000
00001000
00010000
00001000
00100000
00010000
00100000
01000000
,
10000000
00000000
00000000
00000000
,
00000000
00000000
00000000
00000000
,
00000000
00000000
00000000
00000000
,
00000000
00000000
00000000
00000000
,
00000000
00000000
00000000
00000000
,
00000000
00000000
00000000
00000000
,
00000000
00000000
00000000
00000000
,
00000000
00000000
00000000
00000000
,
00011000
00020000
00000000
00000000
00030200
00000000
00000000
00002300
,
00000000
00000000
00003002
00000000
00000000
00000203
00000000
00002300
,
00000000
00023000
00000000
00000000
00230000
00000000
00000000
20300000
,
00000000
00000000
30020000
00000000
00000000
00230000
00000000
02300000
,
00000000
03020000
00000000
00000000
00032000
00000000
00000000
00003020
,
00000000
00000000
00000230
00000000
00000000
00002300
00000000
00003001
,
00000100
00000001
00000100
00000001
00001000
00000100
00001000
00000100
00010000
00001000
00010000
00001000
01000000
00010000
01000000
00010000
,
00100000
00000000
00100000
00000000
01000000
10000000
00010000
01000000
00100000
10000000
00010000
00100000
00010000
00000000
01000000
00001000
,
00010000
00000000
00000100
00001000
00000001
00000000
00000100
00000000
00000010
00001000
00000100
00000000
00000010
00000000
00000001
00001000
,
00000010
00000000
00010000
00000000
00001000
00100000
00010000
00000000
01000000
00000000
00100000
10000000
01000000
00100000
00010000
00000000
,
01000000
00000000
00010000
00100000
00001000
00000000
00010000
00000000
00000010
00001000
00000100
00000000
00000010
00000000
00000001
00001000
,
00000010
00000000
00000100
00000000
00000001
00000010
00000100
00000000
00001000
00000000
00000010
00001000
00000100
00010000
00001000
00000000
,
00011000
00000000
00010000
00001000
01000000
00000000
00010000
00000000
00100000
01000000
10000000
00000000
00100000
00000000
01000000
00010000
,
10000000
00000000
01000000
00000000
00100000
00010000
10000000
00000000
00100000
00000000
01000000
00010000
01000000
00001000
00010000
00000000
,
00000100
00000000
00001000
00000100
00000010
00000000
00000001
00000000
00001000
00000010
00000100
00000000
00000001
00000000
00001000
00000100
,
00010000
00000000
00000010
00000000
00001000
00000100
00010000
00000000
00001000
00000000
01000000
00010000
10000000
00000000
01000000
10000000
,
00100000
00000000
01000000
00010000
10000000
00000000
01000000
00000000
00100000
00010000
10000000
00000000
00100000
00000000
01000000
00010000
,
10000000
00000000
01000000
00000000
00100000
00001000
00010000
00000000
00000100
00000000
00001000
00000001
00000100
00000010
00001000
00000000
,
00000001
00000000
00000010
00000100
00001000
00000000
00000001
00000000
00000100
00000010
00001000
00000000
00000100
00000000
00010000
00001000
,
00100000
00000000
00010000
00000000
01000000
00001000
00010000
00000000
00000100
00000000
00001000
00000010
00001000
00000100
00000010
00000000
,
00000110
00000000
00000100
00001000
00000001
00000000
00000010
00000000
00000001
00001000
00000100
00000000
00010000
00000000
00001000
01000000
,
00010000
00000000
00100000
00000000
00010000
01000000
00001000
00000000
00010000
00000000
00000100
00001000
00000010
00001000
00000001
00000000
,
00001001
00000000
00001000
00000010
00010000
00000000
00001000
00000000
00100000
00010000
01000000
00000000
00100000
00000000
10000000
01000000
,
00100000
00010000
00100000
00010000
01000000
00001000
00010000
00001000
00100000
00010000
10000000
00010000
01000000
00100000
10000000
00010000
,
00100000
02000000
00000000
00000000
03020000
00000000
00000000
00032000
,
00000000
00000000
00003020
00000000
00000000
00000032
00000000
00002003
,
00000000
00003002
00000000
00000000
00000203
00000000
00000000
00002300
,
00000000
00000000
00023000
00000000
00000000
00230000
00000000
01300000
,
20020000
00000000
00000000
00000000
,
00000000
00000000
00000000
00000000
,
00000000
00000000
00000000
00000000
,
30030000
00000000
00000000
00000000
;
