#VERSION:0.83;
#TITLE:THE FALLEN;
#SUBTITLE:;
#ARTIST:L.E.D.-G;
#TITLETRANSLIT:;
#SUBTITLETRANSLIT:;
#ARTISTTRANSLIT:;
#GENRE:GOTH NU-STYLE GABBA;
#CREDIT:;
#MUSIC:THE FALLEN.ogg;
#BANNER:THE FALLEN.png;
#BACKGROUND:THE FALLEN-bg.png;
#CDTITLE:./CDTitles/REFLEC BEAT.png;
#SAMPLESTART:38.972;
#SAMPLELENGTH:15.000;
#SELECTABLE:YES;
#OFFSET:1.252;
#BPMS:0.000=167.000;
#STOPS:40.000=1.796
,202.667=0.359
;
#TIMESIGNATURES:0.000=4=4,
40.000=3=4,
43.000=4=4,
199.000=7=4,
206.000=4=4,
234.000=3=4,
282.000=4=4
;
#BGCHANGES:0.000=../BGAs/08cy.mp4=1.000=0=0=0=StretchNoLoop====,
99999.000=-nosongbg-=1.000=0=0=0=StretchNoLoop====
;
#FGCHANGES:;

//--------------- dance-single - forcednature ----------------
#NOTEDATA:;
#STEPSTYPE:dance-single;
#DESCRIPTION:forcednature;
#DIFFICULTY:Beginner;
#METER:4;
#RADARVALUES:0,0,0,0,0;
#CREDIT:forcednature;
#NOTES:
0000
0000
0000
0000
,
0000
0000
0000
0000
,
0000
0000
0000
0000
,
0000
0000
0000
0000
,
0000
0000
0000
0000
,
0000
0000
0000
0000
,
1000
0000
0000
0000
,
0001
0000
0000
0000
,
1000
0000
0001
0000
,
0100
0000
0010
0000
,
1001
0000
0000
1000
,
0000
0000
0000
0100
,
0000
1000
0000
0100
,
0000
0010
0000
0001
,
0000
0000
0000
1001
,
0000
0000
0000
0001
,
0000
0100
0000
0001
,
0000
1000
0000
0010
,
0000
0010
0000
1001
,
0000
0000
0000
1000
,
0000
0100
0000
0010
,
0000
0001
0000
0100
,
0000
0000
0000
1001
,
0000
0000
0000
0001
,
0000
0100
0000
0010
,
0000
1000
0000
0001
,
0000
0000
0000
0010
,
0000
0100
0000
1000
,
0000
0100
0000
0010
,
0000
0001
0000
1000
,
1000
1000
0000
0001
,
0000
0100
0000
0010
,
0000
1000
0000
0010
,
0000
0100
0000
0001
,
0001
0001
0000
0010
,
0000
0100
0000
1000
,
0000
0001
0000
1000
,
0000
0010
0000
0100
,
0100
0100
0000
0010
,
0000
1000
0000
0001
,
0000
1000
0000
0100
,
0000
0010
0000
0001
,
1000
0001
1000
0020
,
0000
0000
0000
0000
,
0000
0000
0000
0000
0000
0030
0000
0000
,
0000
0000
0000
0000
,
0000
0000
0000
1001
,
0000
0100
0000
1001
,
0000
0010
0000
1000
,
1000
0001
0001
0100
,
0000
0010
0000
1000
,
0000
0000
0001
0000
,
0100
0000
0001
0000
,
0010
0000
0100
0000
,
1000
0000
1001
0000
,
0010
0000
0110
0000
,
0100
0000
0001
0000
,
1000
0000
0200
0000
,
0000
0300
1000
0000
,
1000
0001
0000
0001
,
0100
0000
0100
0010
,
0010
0010
1000
0000
,
1000
0001
0000
0001
,
0010
0000
0010
0100
,
0100
0100
1000
0000
,
1000
0010
0000
0010
,
0100
0000
0100
0001
,
0001
0001
0010
0000
,
0010
0100
0000
0100
,
1000
1000
1000
0001
,
0001
0001
0200
0000
,
0000
0000
0300
0000
;

//--------------- dance-single - forcednature ----------------
#NOTEDATA:;
#STEPSTYPE:dance-single;
#DESCRIPTION:forcednature;
#DIFFICULTY:Easy;
#METER:8;
#RADARVALUES:0,0,0,0,0;
#CREDIT:forcednature;
#NOTES:
0000
0000
0000
0000
,
0000
0000
0000
0000
,
0000
0000
0000
0000
,
0000
0000
0000
0000
,
0000
0000
0000
0000
,
0000
0000
0000
0000
,
1000
1000
0100
1000
,
0001
0001
0100
0001
,
0010
0100
0010
0001
,
1000
1000
0002
0100
,
0023
0030
0000
0000
0000
0000
0000
0000
0000
0001
0000
0000
,
0001
0100
0010
1000
,
0010
0100
0001
1000
,
1000
0100
0010
0100
,
1000
0001
0100
0010
,
0010
1000
0001
0010
,
0001
0100
0001
1000
,
0100
1000
0010
0110
,
0110
0110
0000
1000
,
0001
0010
0001
0100
,
0010
1000
0010
0100
,
0100
0001
1000
0100
,
0100
1000
0010
1001
,
0001
0100
0001
1000
,
0010
1000
0001
0110
,
1000
0001
0100
2002
,
0000
0000
3003
1000
,
0100
1000
0010
0100
,
0001
0010
0001
1000
,
0010
0100
0001
1001
,
1001
1001
0000
0001
,
0010
0100
0010
0001
,
0100
0010
0100
0001
,
1000
0010
1000
1001
,
1001
1001
0000
1000
,
0100
1000
0001
0100
,
0001
0010
0100
0010
,
0001
0100
0001
1001
,
1001
1001
0000
1000
,
0010
1000
0001
0010
,
0001
0100
0010
1000
,
0100
1000
0010
0110
,
0110
0001
1000
2002
,
0000
0000
0000
0000
,
0000
0000
0000
0000
0000
3003
0000
0000
,
0000
0000
0000
0000
,
0000
0000
0000
0001
,
0001
0100
0001
1000
,
1000
0100
1000
0020
,
0230
0320
0230
0301
,
1000
0000
0001
0000
0000
1000
0000
0001
0000
0100
0000
0000
,
0010
1000
0010
0100
,
0001
0000
0000
1000
0000
1000
0001
0000
0000
0010
0000
0000
,
0100
0010
0001
1000
,
0010
0000
0000
0100
0000
0100
0001
0000
0000
1000
0000
0000
,
0001
0010
0110
0100
,
1000
0001
1001
1000
,
0010
0100
0002
0010
,
0100
0010
1003
0010
,
1010
0001
0100
0101
,
1000
0100
1100
1001
,
1001
1001
0001
0010
,
0011
1000
0010
1010
,
0100
0010
0110
1001
,
1001
1001
1000
0100
,
0011
0001
0100
1010
,
1000
0001
0110
1001
,
1001
0100
0110
0010
,
1001
0110
0100
1001
,
2000
0100
3010
1001
,
1001
0000
0000
0010
0000
0010
0200
0000
0000
0000
0000
0000
,
0000
0000
0300
0000
;

//--------------- dance-single - forcednature ----------------
#NOTEDATA:;
#STEPSTYPE:dance-single;
#DESCRIPTION:forcednature;
#DIFFICULTY:Medium;
#METER:13;
#RADARVALUES:0,0,0,0,0;
#CREDIT:forcednature;
#NOTES:
0000
0000
0000
0000
,
0000
0000
0000
0000
,
0000
0000
0000
0000
,
0000
0000
0000
0000
,
0000
0000
0000
0000
,
0000
0000
0000
0000
,
2001
0100
0001
3010
,
1002
0100
1000
0013
,
0001
0000
0001
0100
0000
0100
0010
0000
0010
1000
0000
1000
,
0001
0000
0001
0010
0000
0010
0100
1000
0100
1000
0001
1000
,
0002
0003
0000
0000
0000
0000
0000
0000
0000
0001
0000
0000
,
0001
0000
0000
1000
0000
1000
0010
0000
0010
0100
0000
0000
,
0001
0000
0000
0010
0000
0000
0001
0000
0001
0100
0000
0000
,
0010
0000
0010
1000
0000
1000
0100
0000
0100
0010
0000
0000
,
0001
0000
0100
0001
0000
0000
1000
0000
1000
0010
0000
0000
,
0010
0000
0000
0010
0000
1000
0001
0000
1000
0100
0000
0000
,
0100
0000
0010
0001
0000
0000
0001
0000
0100
0010
0000
0000
,
1000
0000
0010
1000
0000
0010
1000
0000
0100
0010
0000
0000
,
0011
0000
0000
0101
0000
0000
0010
0100
0010
0100
0000
0000
,
0001
0000
0000
1000
0000
0010
1000
0000
0001
0010
0000
0000
,
0100
0000
0000
0010
0000
0000
0001
0000
0001
0100
0000
0000
,
0010
0000
0000
1000
0000
1000
0100
0010
0100
0010
0000
0000
,
0010
0000
0001
0100
0000
0000
0010
0000
0000
1001
0000
0000
,
1001
0000
0000
1000
0000
0010
0100
0000
0010
1000
0000
0000
,
0001
0000
0010
0100
0000
0000
0010
0000
0000
0011
0000
0000
,
1000
0000
0000
0001
0000
0001
0100
0000
0100
0020
0000
0000
,
1000
0000
0000
1030
0000
0000
0010
0100
0001
1000
0000
1000
,
0100
0000
0100
0010
0000
0010
0001
0000
0001
1000
0000
0000
,
0010
0001
0010
0100
,
1000
0100
0001
1001
,
0110
0000
0000
2002
0000
0000
3003
0000
0000
0001
0000
0001
,
0010
0000
0010
0100
0000
0100
1000
0000
1000
0010
0000
0000
,
0001
0000
0000
0010
0000
0000
1000
0000
1000
0100
0000
0000
,
0001
0000
0000
0100
0000
0100
1000
0000
1000
0010
0000
0000
,
0110
0000
0000
1001
0000
0002
0003
0000
2000
3001
0000
0001
,
0100
0000
0100
0010
0000
0010
1000
0000
1000
0001
0000
0000
,
0010
1000
0010
0110
,
0100
0000
0000
1000
0000
0000
0001
0000
0001
0100
0000
0000
,
0110
0000
0000
1000
0000
1000
0001
0000
0001
0100
0000
0000
,
0010
0000
1000
0001
0000
0000
0010
0000
0001
0100
0000
0000
,
0010
0000
1000
0001
0000
0000
0010
0000
0000
0100
0000
0100
,
1000
0000
1000
0001
0000
0001
0100
0000
0100
0010
1000
0010
,
1000
0010
1000
0002
0000
0000
0023
0000
0000
0230
0000
0000
,
0000
0000
0000
0000
,
0000
0000
0000
0000
0000
0300
0000
0000
,
0000
0000
0000
0000
,
0000
0000
0000
2100
,
0001
0010
3001
0102
,
1000
0000
0000
0010
0000
0000
1003
0000
0000
0001
0000
0001
,
0100
0000
0100
0010
0000
0010
1000
0000
1000
0001
0010
0100
,
1000
0000
1000
0001
0100
0010
1000
0010
0100
0001
0000
0001
,
0100
0000
0100
0001
0000
0001
0010
0000
1000
0010
0000
0001
,
0100
0000
1000
0100
0000
0010
1000
0000
0000
0001
0000
0001
,
0010
0000
0010
0100
0000
0100
1000
0000
0010
0001
0000
0010
,
1000
0000
0100
0001
0000
0100
0010
0000
0000
0010
0001
0100
,
0001
0000
0000
1000
0000
1000
0010
0000
0000
0010
1000
0100
,
1000
0000
1000
0001
0000
0001
0100
0000
0001
0010
0000
0100
,
1000
0000
1000
0001
0000
0001
0100
0010
0100
0010
0100
0010
,
0100
0010
0100
0010
0100
0010
1000
0000
0000
1010
0000
0000
,
0101
1001
0011
1100
,
1001
0000
0000
1010
0000
0000
0001
0010
0100
1000
0000
0000
,
1100
0101
1010
1100
,
1010
0011
0101
0011
,
1100
0000
0000
0101
0000
0000
0001
0100
0010
1000
0000
0100
,
0001
0000
0100
1000
0010
1000
0001
0000
0000
0011
0000
0000
,
0101
1010
1100
1001
,
1010
0000
0000
0011
0000
0000
0001
0100
0010
1000
0100
0010
,
0002
0000
0003
0100
0000
0100
0010
0000
0000
1010
0000
0000
,
1001
0000
1000
0100
0000
0000
0110
0000
0000
0011
0000
0001
,
0100
0010
0100
0010
0100
0010
1000
0001
1000
0100
0010
0100
,
0010
0100
0010
0001
1000
0001
0200
0000
0000
0000
0000
0000
,
0000
0000
0300
0000
;

//--------------- dance-single - forcednature ----------------
#NOTEDATA:;
#STEPSTYPE:dance-single;
#DESCRIPTION:forcednature;
#DIFFICULTY:Hard;
#METER:15;
#RADARVALUES:0,0,0,0,0;
#CREDIT:forcednature;
#NOTES:
0000
0000
0000
0000
,
0000
0000
0000
0000
,
0000
0000
0000
0000
,
0000
0000
0000
0000
,
0000
0000
0000
0000
,
0000
0000
0000
0000
,
0201
1000
0010
0301
,
1020
0001
0100
1030
,
0010
0000
0010
1000
0000
1000
0100
0000
0100
0010
0000
0010
,
0001
0100
0001
1000
0100
1000
0010
0100
0010
0100
0001
1000
,
0200
0300
0000
0000
0000
0000
0000
0000
0000
0011
0000
0000
,
0011
0000
0000
0001
0000
0100
0010
0000
1000
0010
0000
0010
,
0100
0000
0100
0001
0000
0001
1000
0000
0100
0010
0000
0001
,
0010
0000
0100
0001
0000
0100
1000
0001
1000
0010
0000
0000
,
0010
0000
1000
0001
0000
0000
0010
0000
0100
1000
0000
0010
,
1000
0000
0001
0100
0001
0010
0001
0000
0001
1000
0000
1000
,
0100
0000
0010
0001
0000
0100
0001
0000
0010
1000
0000
0000
,
1000
0000
0010
0001
0000
0100
0001
0000
0001
1000
0000
0000
,
1100
0000
0000
0101
0000
0000
0001
0010
0100
1000
0000
1000
,
0010
0000
0010
0100
0000
1000
0100
0000
0001
0010
0000
0000
,
0100
0000
0000
1000
0000
0100
0010
0000
0010
0001
0000
0100
,
0001
0000
1000
0010
0000
0001
0010
0100
0010
1000
0000
1000
,
0100
0000
0010
0100
0000
1000
0001
0000
0100
1000
0000
0100
,
0010
0000
0100
0001
1000
0001
0010
0000
0100
1000
0000
0100
,
0001
0000
0100
0010
0000
0000
0001
0000
0100
1000
0000
0100
,
0001
0000
1000
0010
0000
1000
0100
0000
0010
0002
0000
0000
,
1000
0000
0000
0103
0000
0000
0001
1000
0010
0100
0000
0100
,
0001
0010
0001
1000
0000
1000
0010
1000
0001
0010
0000
0010
,
0100
0000
0100
1000
0000
1000
0010
0000
0010
0100
0000
1000
,
0100
0000
0001
0100
0000
0001
0010
0000
0100
0110
0000
0000
,
1001
0000
0000
0220
0000
0000
0330
0000
0000
1001
0000
0001
,
0100
0010
1000
0001
0000
1000
0100
0010
0001
1000
0000
1000
,
0010
0000
0010
0001
0000
0001
0010
0000
0010
0100
0000
1000
,
0100
0000
0001
0100
0000
0001
0010
0000
0100
0110
0000
0000
,
1001
0000
0000
1000
0000
0001
0001
0000
0001
0010
0000
0100
,
1000
0100
0010
0001
0000
0100
0001
0100
0010
1000
0000
1000
,
0100
0000
0100
0001
0000
0001
0100
0000
0100
0010
0000
1000
,
0010
0000
0001
0010
0000
0001
0100
0000
0010
0110
0000
0000
,
1001
0000
0000
1100
0000
0001
0010
0000
1000
0010
0000
0100
,
1000
0010
1000
0100
0000
0010
0001
0100
0001
0010
0000
0100
,
1000
0001
0100
0010
0000
1000
0001
0010
0001
1000
0000
1000
,
0010
0000
0010
0001
0000
0001
0010
0000
0010
0100
0001
0010
,
0001
1000
0010
1000
0100
0010
0100
0001
0100
2000
0000
0000
,
0000
0000
0000
0000
,
0000
0000
0000
0000
0000
3000
0000
0000
,
0000
0000
0000
0000
,
0000
0000
0000
1001
,
1100
0000
0000
1010
0000
0000
1100
0000
1000
0001
0000
0000
,
0011
0000
0001
0100
0000
0000
0010
0000
0010
1000
0100
1000
,
0010
0100
0001
0010
0001
0100
0010
1000
0100
0001
0100
1000
,
0010
0000
0000
0000
0000
0000
0000
0000
0100
0000
0000
0000
1000
0000
0000
0000
0100
0000
0000
0000
0001
0000
0000
0000
1000
0000
0000
0000
0010
0000
0000
0000
0002
0003
0000
0000
0010
0000
0000
0000
0100
0000
0000
0000
0001
0000
0000
0000
,
1000
0001
0010
0001
0100
0010
1000
0100
0010
0100
1000
0001
,
0010
0001
0100
0010
1000
0100
0001
0000
0000
0100
1000
0001
,
0010
0001
1000
0010
0100
0001
1000
0001
0010
0001
1000
0010
,
0100
0001
0010
0001
0100
0010
0001
0000
0001
0010
1000
0010
,
1000
0100
1000
0100
0010
0100
0010
0001
0010
0001
0100
0001
,
1000
0100
1000
0010
0000
0010
0100
0000
0100
1000
0000
0100
,
0001
0010
0001
1000
0010
1000
0100
0010
0010
0001
0010
0010
,
0100
1000
1000
0001
1000
1000
0010
0000
0000
1010
0000
0000
,
0201
0000
1300
0100
0000
0000
0101
0000
0000
0021
0000
1030
,
0010
0000
0000
0110
0000
0000
0100
1000
0010
1010
0000
0000
,
0011
0000
0000
1010
0000
1000
0100
0000
0000
1100
0000
0000
,
1020
0000
0031
0010
0000
0000
1001
0000
0000
1200
0000
0301
,
0100
0000
0000
0110
0000
0000
0010
0001
0100
0101
0000
0010
,
1010
0000
0001
0100
1000
0100
0001
0000
0000
0011
0000
0000
,
0201
0000
1300
0100
0000
0000
0110
0000
0000
1020
0000
0031
,
0010
0000
0000
0110
0000
0000
0100
0001
0010
1000
0010
0001
,
0200
0000
0010
0310
0000
0100
1001
0000
0001
0010
0001
0100
,
0010
0000
1000
1001
0000
1000
0010
1000
0100
0010
0000
0010
,
0100
0001
0100
1000
0010
1000
0001
0010
0001
0100
0010
0010
,
1000
0010
0010
0100
0001
0010
2002
0000
0000
0000
0000
0000
,
0000
0000
3003
0000
;

//--------------- dance-double - forcednature ----------------
#NOTEDATA:;
#STEPSTYPE:dance-double;
#DESCRIPTION:forcednature;
#DIFFICULTY:Easy;
#METER:8;
#RADARVALUES:0,0,0,0,0;
#CREDIT:forcednature;
#NOTES:
00000000
00000000
00000000
00000000
,
00000000
00000000
00000000
00000000
,
00000000
00000000
00000000
00000000
,
00000000
00000000
00000000
00000000
,
00000000
00000000
00000000
00000000
,
00000000
00000000
00000000
00000000
,
00001000
00001000
01000000
00001000
,
00010000
00010000
00000100
00010000
,
00001000
00100000
00010000
00100000
,
01000000
01000000
20000000
00100000
,
30020000
00030000
00000000
00000000
00000000
00000000
00000000
00000000
00000000
01000000
00000000
00000000
,
01000000
00001000
00010000
00000100
,
00001000
00000100
00000010
00000001
,
00000001
00000100
00000010
00000100
,
00001000
00010000
00001000
01000000
,
01000000
00010000
00100000
00010000
,
10000000
00100000
10000000
01000000
,
00100000
01000000
00010000
00001000
,
00010000
00011000
00000000
00001000
,
00010000
00000010
00010000
00001000
,
00000010
00000100
00000010
00000001
,
00000001
00000100
00001000
00010000
,
00010000
00001000
01000000
00100000
,
00100000
10000000
00100000
01000000
,
00010000
01000000
00001000
00010000
,
00000100
00001000
00000100
00000220
,
00000000
00000000
00000330
00000010
,
00000001
00000100
00000001
00001000
,
00000100
00001000
00000010
00010000
,
00001000
00100000
00010000
01000000
,
01000000
01000000
00000000
00100000
,
10000000
01000000
10000000
00010000
,
01000000
00001000
00010000
00000100
,
00001000
00000100
00000010
00000001
,
00000001
00000001
00000000
00000100
,
00000001
00000010
00000001
00001000
,
00000010
00010000
00001000
00100000
,
00010000
01000000
00010000
00100000
,
00100000
00100000
00000000
01000000
,
10000000
00100000
10000000
00010000
,
01000000
00001000
00010000
00000100
,
00001000
00000010
00001000
00000001
,
00000001
00000010
00000100
00002002
,
00000000
00000000
00000000
00000000
,
00000000
00000000
00000000
00000000
00000000
00003003
00000000
00000000
,
00000000
00000000
00000000
00000000
,
00000000
00000000
00000000
00001000
,
00001000
00000100
00010000
00001000
,
00001000
01000000
00010000
00200000
,
02300000
03200000
02300000
13000000
,
10000000
00000000
10000000
00000000
00000000
00010000
00000000
01000000
00000000
00001000
00000000
00000000
,
00010000
00000100
00010000
00000010
,
00001000
00000000
00000000
00000010
00000000
00000010
00000100
00000000
00000000
00000001
00000000
00000000
,
00000010
00000001
00001000
00000010
,
00010000
00000000
00000000
00001000
00000000
00001000
00010000
00000000
00000000
00001000
00000000
00000000
,
01000000
00010000
00100000
01000000
,
10000000
01000000
00100000
00001000
,
00010000
00000010
00002000
00000100
,
00000001
00000010
00003001
00001000
,
00001100
00000100
00010000
00011000
,
00001000
01000000
01010000
00010000
,
10000000
10010000
10000000
00100000
,
10100000
10000000
01000000
01100000
,
00100000
00001000
00011000
00010000
,
00000100
00010100
00010000
00000010
,
00001010
00001000
00000100
00000110
,
00000010
00000001
00001001
00001100
,
00001100
00010000
00011000
00001000
,
01001000
00011000
00010000
00010100
,
00000200
00001000
00000310
00000110
,
00000110
00000000
00000000
00000001
00000000
00000001
00002000
00000000
00000000
00000000
00000000
00000000
,
00000000
00000000
00003000
00000000
;

//--------------- dance-double - forcednature ----------------
#NOTEDATA:;
#STEPSTYPE:dance-double;
#DESCRIPTION:forcednature;
#DIFFICULTY:Medium;
#METER:13;
#RADARVALUES:0,0,0,0,0;
#CREDIT:forcednature;
#NOTES:
00000000
00000000
00000000
00000000
,
00000000
00000000
00000000
00000000
,
00000000
00000000
00000000
00000000
,
00000000
00000000
00000000
00000000
,
00000000
00000000
00000000
00000000
,
00000000
00000000
00000000
00000000
,
00002000
01000000
00010000
00103000
,
00020000
00000100
00001000
00030010
,
00010000
00000000
00010000
00001000
00000000
00001000
00100000
00000000
00100000
00010000
00000000
00010000
,
10000000
00000000
10000000
00100000
00000000
00100000
01000000
00010000
01000000
00010000
01000000
00001000
,
00020000
00030000
00000000
00000000
00000000
00000000
00000000
00000000
00000000
00000100
00000000
00000000
,
00000100
00000000
00000000
00001000
00000000
00001000
00000001
00000000
00000001
00000100
00000000
00000000
,
00000010
00000000
00000000
00001000
00000000
00000000
00000010
00000000
00000010
00010000
00000000
00000000
,
00001000
00000000
00001000
00100000
00000000
00100000
00010000
00000000
00010000
10000000
00000000
00000000
,
00100000
00000000
10000000
00100000
00000000
00000000
01000000
00000000
01000000
00010000
00000000
00000000
,
00010000
00000000
00000000
00010000
00000000
00100000
00001000
00000000
00010000
00000010
00000000
00000000
,
00000010
00000000
00001000
00000100
00000000
00000000
00000100
00000000
00000010
00000001
00000000
00000000
,
00000100
00000000
00000001
00001000
00000000
00000001
00001000
00000000
00000100
00010000
00000000
00000000
,
00011000
00000000
00000000
01001000
00000000
00000000
01000000
00010000
01000000
00010000
00000000
00000000
,
00010000
00000000
00000000
00100000
00000000
01000000
10000000
00000000
01000000
00100000
00000000
00000000
,
00001000
00000000
00000000
00010000
00000000
00000000
00000010
00000000
00000010
00001000
00000000
00000000
,
00000100
00000000
00000000
00000010
00000000
00000010
00000001
00001000
00000001
00001000
00000000
00000000
,
00000010
00000000
00000010
00010000
00000000
00000000
00001000
00000000
00000000
00011000
00000000
00000000
,
00011000
00000000
00000000
00010000
00000000
00001000
01000000
00000000
00010000
01000000
00000000
00000000
,
00100000
00000000
10000000
00010000
00000000
00000000
00100000
00000000
00000000
01100000
00000000
00000000
,
01000000
00000000
00000000
10000000
00000000
10000000
00010000
00000000
00010000
02000000
00000000
00000000
,
00100000
00000000
00000000
03100000
00000000
00000000
01000000
00010000
10000000
01000000
00000000
01000000
,
00100000
00000000
00100000
00001000
00000000
00001000
00010000
00000000
00010000
00000100
00000000
00000000
,
00001000
00000010
00000001
00000010
,
00001000
00010000
01000000
10010000
,
01100000
00000000
00000000
20020000
00000000
00000000
30030000
00000000
00000000
00010000
00000000
00010000
,
01000000
00000000
01000000
00001000
00000000
00001000
00010000
00000000
00010000
00100000
00000000
00000000
,
10000000
00000000
00000000
01000000
00000000
00000000
00010000
00000000
00010000
00001000
00000000
00000000
,
00000010
00000000
00000000
00000001
00000000
00000001
00000100
00000000
00000100
00001000
00000000
00000000
,
00011000
00000000
00000000
00010100
00000000
00000200
00000300
00000000
00000200
00001300
00000000
00001000
,
00000010
00000000
00000010
00000100
00000000
00000100
00000001
00000000
00000001
00000010
00000000
00000000
,
00001000
00010000
01000000
01100000
,
00100000
00000000
00000000
00001000
00000000
00000000
00010000
00000000
00010000
00100000
00000000
00000000
,
01100000
00000000
00000000
01000000
00000000
01000000
00010000
00000000
00010000
10000000
00000000
00000000
,
01000000
00000000
00010000
00001000
00000000
00000000
00000100
00000000
00001000
00010000
00000000
00000000
,
00001000
00000000
00000010
00000001
00000000
00000000
00000100
00000000
00000000
00001000
00000000
00001000
,
00010000
00000000
00010000
00100000
00000000
00100000
10000000
00000000
10000000
01000000
00100000
01000000
,
00100000
01000000
00100000
00002000
00000000
00000000
00023000
00000000
00000000
00030200
00000000
00000000
,
00000000
00000000
00000000
00000000
,
00000000
00000000
00000000
00000000
00000000
00000300
00000000
00000000
,
00000000
00000000
00000000
00000000
,
00000000
00000000
00000000
00020010
,
00001000
00000100
00031000
00102000
,
00010000
00000000
00000000
01000000
00000000
00000000
00013000
00000000
00000000
00001000
00000000
00001000
,
01000000
00000000
01000000
00010000
00000000
00010000
10000000
00000000
10000000
01000000
00010000
00001000
,
00000010
00000000
00000010
00000100
00010000
00001000
00000100
00000001
00000010
00000100
00000000
00000100
,
00010000
00000000
00010000
00001000
00000000
00001000
01000000
00000000
00010000
01000000
00000000
10000000
,
01000000
00000000
00100000
10000000
00000000
01000000
10000000
00000000
00000000
00010000
00000000
00010000
,
00100000
00000000
00100000
00001000
00000000
00001000
00010000
00000000
00000010
00001000
00000000
00000010
,
00000100
00000000
00001000
00000100
00000000
00000001
00000010
00000000
00000000
00000010
00000100
00001000
,
00000100
00000000
00000000
00010000
00000000
00010000
00001000
00000000
00000000
01000000
00010000
00100000
,
00010000
00000000
00010000
10000000
00000000
10000000
00100000
00000000
00010000
00100000
00000000
01000000
,
00010000
00000000
00010000
00000000
00100000
00000000
00001000
00010000
00001000
00010000
00001000
00010000
,
00001000
00010000
00001000
00010000
00001000
00010000
00000010
00000000
00000000
00001010
00000000
00000000
,
00010100
00100000
00110000
01001000
,
00011000
00000000
00000000
00010100
00000000
00000000
00000100
00001000
00000001
00000100
00000000
00000000
,
00000110
00010010
00101000
00011000
,
01001000
00010010
00011000
00010100
,
01001000
00000000
00000000
00011000
00000000
00000000
00001000
00100000
00010000
00100000
00000000
01000000
,
00010000
00000000
01000000
10000000
00100000
10000000
00010000
00000000
00000000
00101000
00000000
00000000
,
00010100
00001000
00010010
01001000
,
01010000
00000000
00000000
00110000
00000000
00000000
00010000
01000000
00001000
00010000
00000010
00001000
,
00000200
00000000
00000300
00000010
00000000
00000010
00000001
00000000
00000000
00001001
00000000
00000000
,
00001010
00000000
00000010
00010000
00000000
00000000
00011000
00000000
00000000
00101000
00000000
00100000
,
00010000
01000000
00010000
01000000
00010000
01000000
00001000
00010000
00001000
00000010
00000100
00000010
,
00000100
00000010
00000100
00001000
00000001
00001000
00000020
00000000
00000000
00000000
00000000
00000000
,
00000000
00000000
00000030
00000000
;

//--------------- dance-double - forcednature ----------------
#NOTEDATA:;
#STEPSTYPE:dance-double;
#DESCRIPTION:forcednature;
#DIFFICULTY:Hard;
#METER:16;
#RADARVALUES:0,0,0,0,0;
#CREDIT:forcednature;
#NOTES:
00000000
00000000
00000000
00000000
,
00000000
00000000
00000000
00000000
,
00000000
00000000
00000000
00000000
,
00000000
00000000
00000000
00000000
,
00000000
00000000
00000000
00000000
,
00000000
00000000
00000000
00000000
,
00020000
00000100
00001000
00030010
,
00002000
01000000
00010000
00103000
,
00001000
00000000
00001000
00010000
00000000
00010000
00100000
00000000
00100000
10000000
00000000
10000000
,
01000000
00010000
01000000
00010000
00001000
00010000
00001000
00000010
00000100
00000010
00000001
00001000
,
00000020
00000030
00000000
00000000
00000000
00000000
00000000
00000000
00000000
00000110
00000000
00000000
,
00000110
00000000
00000000
00000100
00000000
00001000
00010000
00000000
00001000
01000000
00000000
01000000
,
00010000
00000000
00010000
10000000
00000000
10000000
01000000
00000000
00100000
00010000
00000000
00100000
,
00001000
00000000
00010000
00000010
00000000
00001000
00000010
00000100
00000001
00001000
00000000
00000000
,
00001000
00000000
00000100
00010000
00000000
00000000
00001000
00000000
01000000
00001000
00000000
00001000
,
00100000
00000000
00010000
01000000
00100000
10000000
00100000
00000000
00100000
10000000
00000000
10000000
,
01000000
00000000
00010000
00001000
00000000
00001000
00000010
00000000
00000010
00000100
00000000
00000000
,
00001000
00000000
00000010
00000100
00000000
00000001
00000010
00000000
00000010
00000100
00000000
00000000
,
00000110
00000000
00000000
00010100
00000000
00000000
00010000
00001000
00100000
00010000
00000000
10000000
,
00100000
00000000
00100000
01000000
00000000
10000000
01000000
00000000
00010000
00100000
00000000
00000000
,
01000000
00000000
00000000
10000000
00000000
01000000
00010000
00000000
00010000
00001000
00000000
00001000
,
00000010
00000000
00000010
00000100
00000000
00001000
00000010
00000100
00000001
00000010
00000000
00000010
,
00000100
00000000
00000100
00010000
00000000
00001000
00100000
00000000
00010000
01000000
00000000
10000000
,
01000000
00000000
00100000
10000000
00010000
10000000
01000000
00000000
00010000
00001000
00000000
00001000
,
00000010
00000000
00000100
00001000
00000000
00000000
00000010
00000000
00000100
00001000
00000000
00001000
,
00010000
00000000
00010000
00100000
00000000
00100000
10000000
00000000
01000000
00020000
00000000
00000000
,
00000100
00000000
00000000
00031000
00000000
00000000
00000010
00010000
00001000
00000010
00000000
00000010
,
00000100
00010000
00000010
00001000
00000000
00001000
00000100
00010000
00001000
01000000
00000000
01000000
,
00010000
00000000
00010000
00100000
00000000
00100000
01000000
00000000
01000000
00010000
00000000
00001000
,
00010000
00000000
00000010
00010000
00000000
00001000
00010000
00000000
00000100
00000110
00000000
00000000
,
00001001
00000000
00000000
00000220
00000000
00000000
00000330
00000000
00000000
00001001
00000000
00001000
,
00000100
00010000
00001000
00100000
00000000
00010000
01000000
00001000
00010000
00000010
00000000
00000010
,
00000100
00000000
00000100
00001000
00000000
00001000
00010000
00000000
00010000
01000000
00000000
10000000
,
01000000
00000000
00010000
00001000
00000000
00010000
00000010
00000000
00000100
00000110
00000000
00000000
,
00001001
00000000
00000000
00010000
00000000
00001000
00000010
00000000
00001000
00010000
00000000
00001000
,
01000000
00010000
01000000
00100000
00000000
00010000
00001000
00010000
00000100
00000010
00000000
00000010
,
00000001
00000000
00000001
00000100
00000000
00000100
00001000
00000000
00001000
00010000
00000000
01000000
,
10000000
00000000
01000000
00010000
00000000
00001000
00010000
00000000
00100000
01100000
00000000
00000000
,
10010000
00000000
00000000
11000000
00000000
01000000
00010000
00000000
00001000
00010000
00000000
00001000
,
00000010
00000100
00000010
00000001
00000000
00000001
00000100
00000010
00000100
00001000
00000000
00001000
,
00010000
00100000
01000000
00100000
00000000
10000000
01000000
00100000
01000000
00010000
00000000
00010000
,
00001000
00000000
00001000
00000100
00000000
00000100
00000001
00000000
00000001
00000010
00000100
00001000
,
00000100
00010000
00001000
01000000
00010000
01000000
00100000
10000000
00010000
00200000
00000000
00000000
,
00000000
00000000
00000000
00000000
,
00000000
00000000
00000000
00000000
00000000
00300000
00000000
00000000
,
00000000
00000000
00000000
00000000
,
00000000
00000000
00000000
10010000
,
01001000
00000000
00000000
00010100
00000000
00000000
00001001
00000000
00000001
00000010
00000000
00000000
,
00000110
00000000
00000100
00010000
00000000
00000000
00001000
00000000
00001000
01000000
00010000
00100000
,
00001000
00010000
00000010
00001000
00000100
00010000
00001000
01000000
00010000
00100000
01000000
00010000
,
00001000
00000000
00000000
00000000
00000000
00000000
00000000
00000000
00001000
00000000
00000000
00000000
00000010
00000000
00000000
00000000
00000100
00000000
00000000
00000000
00001000
00000000
00000000
00000000
00000001
00000000
00000000
00000000
00000100
00000000
00000000
00000000
00002000
00003000
00000000
00000000
00010000
00000000
00000000
00000000
00100000
00000000
00000000
00000000
10000000
00000000
00000000
00000000
,
00010000
10000000
01000000
00100000
00001000
00010000
00100000
01000000
00100000
00010000
00001000
00010000
,
00000100
00001000
00000010
00010000
00001000
00000010
00000001
00000000
00000000
00000100
00001000
00010000
,
00100000
00010000
00001000
01000000
00010000
00100000
01000000
00010000
01000000
10000000
00100000
10000000
,
01000000
00010000
00001000
00000010
00000001
00000100
00000001
00000000
00000001
00000010
00000100
00010000
,
00001000
00100000
01000000
00100000
00010000
01000000
00100000
10000000
01000000
00010000
00001000
00000010
,
00000001
00000100
00001000
00000100
00000000
00000100
00000010
00000000
00000010
00001000
00000000
00001000
,
00010000
01000000
00010000
10000000
01000000
10000000
00100000
00010000
00001000
00000100
00001000
00010000
,
01000000
00010000
00001000
00000010
00001000
00010000
00100000
00000000
00000000
01100000
00000000
00000000
,
01002000
00000000
00013000
00001000
00000000
00000000
00001010
00000000
00000000
00000210
00000000
00000301
,
00000100
00000000
00000000
00010100
00000000
00000000
00010000
00001000
01000000
01010000
00000000
00000000
,
00101000
00000000
00000000
00010010
00000000
00000010
00001000
00000000
00000000
00001100
00000000
00000000
,
00020100
00000000
00030010
00010000
00000000
00000000
00011000
00000000
00000000
02001000
00000000
03100000
,
01000000
00000000
00000000
10100000
00000000
00000000
10000000
01000000
00100000
00110000
00000000
00100000
,
00101000
00000000
00100000
00010000
01000000
00001000
00010000
00000000
00000000
00011000
00000000
00000000
,
00010200
00000000
00000310
00000100
00000000
00000000
00001100
00000000
00000000
00010020
00000000
00000130
,
00000010
00000000
00000000
00001001
00000000
00000000
00000001
00000100
00001000
00010000
01000000
10000000
,
00200000
00000000
01000000
01300000
00000000
00100000
10010000
00000000
10000000
01000000
00100000
00001000
,
00010000
00000000
00000100
00001001
00000000
00000001
00000100
00000010
00010000
00001000
00000000
01000000
,
00010000
01000000
00100000
00010000
00001000
00000100
00000010
00001000
00010000
01000000
00001000
00100000
,
00010000
00000010
00000100
00001000
00000001
00000100
00002002
00000000
00000000
00000000
00000000
00000000
,
00000000
00000000
00003003
00000000
;
