#VERSION:0.83;
#TITLE:THE DEEP STRIKER;
#SUBTITLE:;
#ARTIST:L.E.D.-G;
#TITLETRANSLIT:;
#SUBTITLETRANSLIT:;
#ARTISTTRANSLIT:;
#GENRE:NU STYLE GABBA;
#CREDIT:;
#MUSIC:THE DEEP STRIKER.ogg;
#BANNER:THE DEEP STRIKER.png;
#BACKGROUND:THE DEEP STRIKER-bg.png;
#CDTITLE:./CDTitles/bm IIDX 15 DJ TROOPERS.png;
#SAMPLESTART:19.751;
#SAMPLELENGTH:15.000;
#SELECTABLE:YES;
#OFFSET:1.037;
#BPMS:0.000=173.000;
#STOPS:252.000=1.387;
#BGCHANGES:0.000=THE DEEP STRIKER.mp4=1.000=0=0=0=StretchNoLoop====,
99999.000=-nosongbg-=1.000=0=0=0=StretchNoLoop====
;
#FGCHANGES:;

//--------------- dance-single - forcednature ----------------
#NOTEDATA:;
#STEPSTYPE:dance-single;
#DESCRIPTION:forcednature;
#DIFFICULTY:Beginner;
#METER:4;
#RADARVALUES:0,0,0,0,0;
#CREDIT:forcednature;
#NOTES:
0000
0000
0000
0000
,
0000
0000
0000
0000
,
0000
0000
0000
0000
,
0000
0000
0000
0000
,
0000
0000
0000
0000
,
1001
0000
0000
0000
,
0000
0000
0000
0000
,
0000
0000
0000
0000
,
0000
0000
0000
0000
,
0001
0000
0000
0000
,
1000
0000
0000
0000
,
0010
0000
0000
0000
,
0100
0000
0000
0000
,
2002
0000
0000
0000
,
0000
0000
0000
3003
,
1000
0000
0000
0000
,
1000
0000
0000
0000
,
0100
0000
0000
0000
,
0010
0000
0001
0000
,
0001
0000
0000
0000
,
0001
0000
0000
0000
,
0100
0000
0000
0000
,
0010
0000
1000
0000
,
1000
0000
0000
0000
,
0001
0000
0000
0000
,
0010
0000
0000
0000
,
0100
0000
0010
0000
,
0001
0000
0000
0000
,
1000
0000
0000
0000
,
0010
0000
0000
0000
,
0100
0000
0010
0000
,
1000
0000
0000
0000
,
1000
0000
1000
0000
,
0100
0000
0000
0000
,
0100
0000
0100
0000
,
0010
0000
0000
0000
,
0010
0000
0010
0000
,
0001
0000
0000
0000
,
0001
0000
0001
0000
,
1000
0000
0000
0000
,
0010
0000
1000
0000
,
0010
0000
0000
0000
,
0100
0000
0010
0000
,
0100
0000
0000
0000
,
0001
0000
0100
0000
,
0001
0000
0000
0000
,
1000
0000
0001
0000
,
2002
0000
0000
0000
,
0000
0000
0000
0000
,
0000
0000
0000
0000
,
0000
0000
0000
0000
,
0000
0000
0000
0000
,
0000
0000
0000
0000
,
0000
0000
0000
0000
,
0000
0000
0000
3003
,
0001
0000
0000
0000
,
0100
0000
0000
0000
,
0010
0000
0000
0000
,
1000
0000
0000
0000
,
1001
0000
0000
0000
,
0110
0000
0000
0000
,
0001
0000
0001
0000
,
1000
0000
1000
0000
,
1001
0000
0000
0000
,
1000
0000
0000
0000
,
0100
0000
1000
0000
,
0100
0000
0010
0000
,
0100
0000
0010
0000
,
0001
0000
0000
0000
,
0001
0000
0100
0000
,
0010
0000
0100
0000
,
0010
0000
1000
0000
,
0001
0000
0000
0000
,
1000
0000
0100
0000
,
0010
0000
0100
0000
,
1000
0000
0001
0000
,
0010
0000
0000
0000
,
0001
0000
0100
0000
,
0010
0000
0100
0000
,
0001
0000
1000
0000
,
1001
0000
0010
0000
,
1001
0000
0100
0000
,
0110
0000
0110
0000
,
1001
0000
1001
0000
,
0110
0000
0000
0000
;

//--------------- dance-single - forcednature ----------------
#NOTEDATA:;
#STEPSTYPE:dance-single;
#DESCRIPTION:forcednature;
#DIFFICULTY:Easy;
#METER:8;
#RADARVALUES:0,0,0,0,0;
#CREDIT:forcednature;
#NOTES:
0000
0000
0000
0000
,
0000
0000
0000
0000
,
0000
0000
0000
0000
,
0000
0000
0000
0000
,
0000
0000
0000
0000
,
1000
0000
1000
0000
,
0001
0000
0001
0000
,
0100
0000
0100
0000
,
0010
0000
0010
0000
,
0110
0000
1000
0000
,
0110
0000
0001
0000
,
1001
0000
0100
0000
,
1001
0000
0010
0000
,
0220
0000
0000
0000
,
0000
0000
0000
0330
,
1000
0100
1000
0001
,
0010
0001
1000
0000
,
0010
0100
0001
0010
,
0001
1000
0010
0000
,
1000
0100
1000
0001
,
0100
0001
0010
0000
,
0110
1000
0110
0001
,
0100
0010
1000
0001
,
1000
0100
1000
0001
,
0100
0001
0010
0000
,
0001
0100
0001
1000
,
0100
1000
0020
0030
,
0100
0001
0010
0001
,
1000
0010
1000
0000
,
0100
1000
0010
1000
,
0001
0010
0001
0000
,
0100
0100
0100
0000
,
0010
0000
1000
0000
,
0100
0100
0100
0000
,
0010
0000
0001
0000
,
1000
1000
1000
0000
,
0010
0000
0100
0000
,
0001
0001
0001
0000
,
0010
0000
0100
0000
,
1001
0000
1000
0010
,
1000
0100
1000
0000
,
1000
0000
0001
0010
,
0001
0001
0001
0000
,
1001
0000
1000
0100
,
1000
0000
0001
0100
,
0001
0001
1000
1000
,
0001
1000
0001
0000
,
2002
0000
0000
0000
,
0000
0000
0000
0000
,
0000
0000
0000
0000
,
0000
0000
0000
0000
,
0000
0000
0000
0000
,
0000
0000
0000
0000
,
0000
0000
0000
0000
,
0000
0000
0000
3003
,
1000
0000
1000
0000
,
0100
1000
0001
0000
,
0001
0000
0001
0000
,
0100
0001
1000
0000
,
1001
0000
0010
0000
,
0110
0000
0100
0000
,
1001
0000
0110
0000
,
0001
0001
1000
0001
,
1000
0000
0000
0000
,
0010
1000
0010
0100
,
0001
1000
0100
1000
,
0001
0010
0100
0010
,
0110
0100
1001
0000
,
0001
0010
0001
1000
,
0010
0100
0001
1000
,
0100
1000
0010
0100
,
0110
0010
1001
0000
,
1000
0100
1000
0001
,
0100
0001
0010
0100
,
1000
0001
0100
0010
,
1001
0100
0110
0000
,
1000
0001
0010
0001
,
1000
0010
1000
0001
,
1001
0100
0110
0010
,
1001
0110
1001
0000
,
1001
0100
1001
0010
,
0110
1000
0110
0001
,
1000
1000
0001
0001
,
0100
0010
0110
0100
,
1001
0000
0000
0000
;

//--------------- dance-single - forcednature ----------------
#NOTEDATA:;
#STEPSTYPE:dance-single;
#DESCRIPTION:forcednature;
#DIFFICULTY:Medium;
#METER:12;
#RADARVALUES:0,0,0,0,0;
#CREDIT:forcednature;
#NOTES:
0000
0000
0000
0000
,
0000
0000
0000
0000
,
0000
0000
0000
0000
,
0000
0000
0000
0000
,
0000
0000
0000
0000
,
2000
3200
2300
3002
,
0203
0302
0023
0230
,
2300
3020
2030
3002
,
0023
0032
0203
0310
,
2002
3003
2200
3300
,
0202
0303
2002
3003
,
1000
0000
1000
0100
0000
0100
0010
0000
0010
0001
0000
0001
,
1000
0000
0010
0000
0100
0000
0001
0000
0000
0010
0000
0000
,
2002
0000
0000
0000
,
0000
0000
0000
3003
,
1000
0000
0100
1000
0000
0000
0100
0000
0000
0011
0000
0000
,
0001
0000
0100
0001
0000
0000
1000
0000
0010
1000
0000
0000
,
0001
0000
0010
0001
0000
0000
1100
0000
0000
1010
0000
0000
,
0001
0000
0100
0001
0000
0000
0010
0000
0010
0000
0010
0000
,
0100
0000
1000
0100
0000
0000
1000
0000
0000
0010
0000
0000
,
0110
0001
1100
0001
,
0101
1000
0110
0001
,
1001
0000
0000
0100
0000
0000
0010
0000
0010
0000
0010
0000
,
0001
0000
0100
0001
0000
0000
1000
0000
0000
1010
0000
0000
,
1000
0000
0100
1000
0000
0000
0001
0000
0010
0001
0000
0000
,
1000
0000
0010
1000
0000
0000
0001
0000
0000
0101
0000
0000
,
0001
0000
0010
0001
0000
0000
0100
0000
0100
0010
0000
0010
,
0100
0000
0001
1000
0000
0000
0001
0000
0000
0011
0000
0000
,
1100
0000
0000
0001
0000
1000
0010
0000
0000
0110
0000
0000
,
0101
1000
1100
0001
,
0010
0100
0010
0100
0000
0000
1000
0000
0001
0000
1000
0000
,
1001
0000
0000
0001
0000
0000
0100
0000
0100
0010
0000
0010
,
1000
0001
0010
0002
,
0000
0000
0000
0003
0000
0000
1000
0000
1000
0010
0000
0010
,
0100
0000
0000
0001
0000
0000
1000
0000
0100
0000
1000
0000
,
0001
0000
0000
0000
0000
0000
0010
0000
0010
0001
0000
0001
,
1000
0010
0100
0002
,
0000
0000
0000
0003
0000
0000
0000
0000
0000
0000
0000
0000
0010
0000
0000
0000
0010
0000
0100
0000
0000
0000
0100
0000
,
1000
0000
0000
0000
0000
0000
0001
0000
0100
0000
0001
0000
,
1000
0000
0000
0010
0000
0010
1000
0000
1000
0001
0000
0000
,
0100
0001
0010
0001
,
1000
0000
0000
0010
0000
0010
0100
0000
0100
0001
0000
0000
,
0010
0000
0010
0000
0100
0000
2000
0000
0000
3000
0000
0000
,
0011
0000
0000
0001
0000
1000
0010
0000
0000
1000
0000
0000
,
1010
0000
0000
0010
0000
1000
0001
0000
0000
0100
0000
0000
,
0001
0000
0001
0010
0000
0000
0100
0000
0100
1000
0000
0000
,
0010
0000
0010
0100
0000
0100
0010
0000
0000
0110
0000
0000
,
2002
0000
0000
0000
,
0000
0000
0000
0000
,
0000
0000
0000
0000
,
0000
0000
0000
0000
,
0000
0000
0000
0000
,
0000
0000
0000
0000
,
0000
0000
0000
0000
,
0000
0000
3003
0000
,
0001
0100
0001
1000
,
0010
1000
0001
0001
,
1000
0100
1000
0001
,
0010
0001
1000
1000
,
1001
0001
0100
0010
,
1001
0000
0000
1000
0000
0000
0100
0000
0000
0010
0000
0001
,
0010
0000
0000
0100
0000
1000
0100
0000
0000
1000
0000
0001
,
0100
0000
0010
0100
0000
0010
1000
0000
0000
0001
0000
0000
,
1001
0000
0000
0000
,
1000
0000
0100
1000
0000
0100
0010
0000
0001
0010
0000
0000
,
0001
0000
1000
0010
0000
0000
1000
0000
0000
0001
0000
0000
,
0010
0000
0001
0010
0000
0100
0010
0000
0100
1000
0000
0000
,
0001
0000
0100
0001
0000
0000
1000
0000
0000
1010
0000
0000
,
0010
0000
0100
0001
0000
0100
0010
0000
1000
0010
0000
0000
,
1000
0000
0100
1000
0000
0100
0010
0000
0001
0010
0000
0000
,
0011
0001
1010
1000
,
0110
0000
0000
0010
0000
0000
0001
0000
1000
0000
0001
0000
,
1000
0000
1000
0010
0000
0100
0010
0000
0100
0001
0000
0000
,
1000
0100
1100
0011
,
0001
0000
0001
0100
0000
0010
0100
0000
0010
1000
0000
0000
,
0001
0010
0011
1100
,
1000
0000
0001
0100
0000
0000
0001
0000
1000
0100
0000
0000
,
0010
0000
0000
0100
0000
0000
1000
0000
0001
1000
0000
0000
,
1001
0100
1001
0010
,
1000
0001
1000
0001
0000
0000
0100
0000
0100
0000
0010
0000
,
0110
1000
0110
0001
,
1100
0010
0101
0010
,
1000
0001
1000
0001
0000
0000
0010
0000
0010
0100
0000
0100
,
1000
0000
1000
0010
0000
0000
0100
0000
0100
0000
0010
0000
,
2002
0000
0000
0000
,
3003
0000
0000
0000
;

//--------------- dance-single - forcednature ----------------
#NOTEDATA:;
#STEPSTYPE:dance-single;
#DESCRIPTION:forcednature;
#DIFFICULTY:Hard;
#METER:16;
#RADARVALUES:0,0,0,0,0;
#CREDIT:forcednature;
#NOTES:
0000
0000
0000
0000
,
0000
0000
0000
0000
,
0000
0000
0000
0000
,
0000
0000
0000
0000
,
0000
0000
0000
0000
,
2001
0001
0100
0100
,
0001
0000
0000
0001
0000
0000
3010
0000
0010
1000
0000
0002
,
1000
1000
0100
0100
,
1000
0000
0000
1000
0000
0000
0013
0000
0010
0001
0000
1000
,
0020
0030
0202
0303
,
2200
3300
0022
0033
,
1000
0000
1000
0010
0000
0010
0100
0000
0100
0001
0000
0001
,
1000
0100
1000
0001
0100
0001
0010
0100
0010
0100
0000
0000
,
2002
0000
0000
0000
,
0000
0000
0000
3003
,
0001
0100
0010
0100
0000
0001
1000
0000
0010
1000
0000
0001
,
0010
0100
0010
0001
0000
1000
0100
0000
0001
0100
0000
1000
,
0001
0010
0001
1000
0000
0010
0100
0000
0001
0100
0000
0010
,
1000
0001
0010
0001
0000
1000
0010
0000
0010
0100
0001
0100
,
0010
1000
0001
1000
0000
0100
0010
0000
0100
1000
0000
0001
,
0100
0010
1000
0001
0000
0000
1100
0000
0001
0020
0000
0000
,
0130
1000
0010
1000
0000
0001
0010
0000
0001
0100
0000
0100
,
0010
0000
1000
0100
0000
1000
0001
0000
0011
0000
0010
0001
,
1000
0010
0100
0010
0000
0100
0001
0000
1000
0001
0000
0010
,
0100
0000
1000
0100
0000
0001
0100
0000
0100
2000
0000
0000
,
3010
0100
0001
0100
0000
0010
1000
0000
0001
0010
0000
0001
,
0100
0000
0010
0100
0000
0010
1000
0000
1000
0002
0003
0020
,
0031
0100
0010
0100
0000
0001
1000
0000
0010
1000
0000
0001
,
0010
0100
0010
0001
0000
1000
0010
0000
0001
0020
0000
0000
,
0130
0001
1000
0010
0000
1000
0100
0000
0001
0100
0000
1000
,
0001
0010
0100
1000
0100
0010
0001
0000
1001
0000
0110
0000
,
1001
0000
0000
1000
0000
1000
0100
0000
0100
0010
0000
0010
,
0100
0000
0100
1000
0000
1000
0001
0000
0001
0020
0000
0000
,
1000
0000
0000
0031
0000
0001
0100
0000
0100
0010
0000
0010
,
1000
0000
1000
0001
0000
0001
0100
0010
1000
0100
1000
0010
,
0100
0000
0000
0001
0000
0001
0010
0000
0010
0100
0000
0100
,
1000
0000
1000
0010
0000
0010
0100
0000
1000
0100
0000
0001
,
0100
0000
0000
0010
0000
0010
1000
0000
1000
0001
0000
0001
,
0010
0000
0110
0000
0000
0100
2000
0000
3001
0100
0010
1000
,
0001
0000
0010
0001
0010
0100
0010
0000
0100
1000
0001
1000
,
0010
0000
0100
0001
0100
0010
1000
0000
0001
0010
0000
0001
,
0100
0000
0010
1000
0001
0100
0001
0000
1000
0100
1000
0001
,
0010
0000
0110
0000
0100
0000
2002
0000
0000
3003
0000
0000
,
0001
0100
0001
0100
0000
0010
0100
0000
0010
1000
0000
0001
,
0010
0100
0010
0001
0000
1000
0010
0000
0100
0010
0000
0100
,
0001
0000
0001
0010
0000
0010
0100
0000
0100
1000
0000
1000
,
0010
0100
0001
1000
0010
0100
0001
1000
0100
1000
0001
0010
,
0200
0000
0000
0000
,
2300
3002
0023
0032
,
2003
0000
0000
0000
,
3020
0230
0302
2003
,
3020
0000
0230
0000
,
0302
2003
3200
0320
,
0230
2300
3002
0203
,
0320
0000
2000
3030
,
0101
0000
0000
0001
0000
0100
0001
0000
0100
0010
0000
0000
,
1000
0000
0100
1000
0000
0100
0010
0000
0001
0010
0000
0000
,
0001
0000
0000
0001
0000
0100
0001
0000
1000
0010
0000
0000
,
1000
0000
0100
1000
0000
0100
0010
0000
0001
0010
0000
0000
,
0110
0000
0000
0100
0000
0100
1000
0000
1000
0010
0000
0000
,
0110
0000
0000
0100
0000
0100
0001
0000
0001
0010
0000
0001
,
0200
0000
0000
0310
0000
1000
0200
0000
0000
0310
0000
0001
,
1000
0010
1000
0001
0010
0001
0100
0010
1000
0001
1000
0010
,
0100
0000
0000
0000
,
1000
0100
0010
0100
0010
0001
1000
0000
0010
1000
0000
0010
,
0100
0001
0100
0001
0010
0001
1000
0010
0100
0010
1000
0001
,
1000
0100
0010
0100
1000
0001
0010
0000
0010
0001
0000
1000
,
0010
0100
0001
0100
0010
1000
0001
0010
0100
1000
0100
0010
,
0001
0000
0011
0000
0010
0001
1000
0000
1010
0000
0010
0100
,
0001
1000
0100
1000
0001
0100
0010
1000
0001
0010
0001
1000
,
0020
0000
0130
0001
1000
0100
0020
0000
0130
1000
0001
0100
,
0010
0000
0010
1000
0001
1000
0100
0000
0110
0000
0010
0001
,
1000
0010
0100
0010
1000
0001
0010
0000
0010
0100
0000
0100
,
1000
0001
0010
0001
1000
0100
1000
0001
0100
0010
1000
0001
,
0010
0001
0010
0100
0010
0100
1000
0000
1000
0010
0000
0010
,
0100
1000
0100
0001
0100
0001
1000
0010
0100
0001
0100
0010
,
1000
0000
0001
0010
0100
0010
0001
0000
0001
0100
0000
0100
,
0010
1000
0001
0010
0001
1000
0010
0100
0001
0010
0100
0010
,
0002
0000
0103
0010
1000
0100
2000
0000
3100
0010
0001
0100
,
0001
0010
0001
1000
0010
1000
0100
0000
0110
0000
0010
0001
,
0200
0000
0310
1000
0001
0010
0200
0000
0310
0001
1000
0010
,
0200
0000
0301
0010
0001
1000
0200
0000
1300
0010
1000
0001
,
0100
0010
0100
0001
1000
0001
0010
0100
1000
0010
0100
0001
,
1000
0100
1000
0001
0100
0001
0010
0000
0110
0000
0100
1000
,
0002
0000
0000
0000
,
0003
0000
0000
0000
;

//--------------- dance-single - forcednature ----------------
#NOTEDATA:;
#STEPSTYPE:dance-single;
#DESCRIPTION:forcednature;
#DIFFICULTY:Challenge;
#METER:17;
#RADARVALUES:0,0,0,0,0;
#CREDIT:forcednature;
#NOTES:
0000
0000
0000
0000
,
0000
0000
0000
0000
,
0000
0000
0000
0000
,
0000
0000
0000
0000
,
0000
0000
0000
0000
,
1000
0000
1000
0100
0000
0100
0010
0000
0010
0001
0000
0001
,
0100
0000
0100
0010
0000
0010
1000
0000
1000
0001
0000
0001
,
0010
0000
0100
0010
0000
0100
1000
0000
0010
1000
0000
0010
,
0100
0000
0001
0100
0000
0001
0010
0000
0100
0010
0000
0000
,
2100
3010
0102
0013
,
2010
3100
0012
0103
,
0001
0000
0010
1000
0000
0010
0001
0000
0100
1000
0000
0100
,
0001
0000
1000
0000
0010
0000
1000
0000
0001
0000
0010
0000
0001
0000
1000
0000
0010
0000
0100
0010
0100
0000
0010
0000
,
2002
0000
0000
0000
,
0000
0000
3003
MMMM
,
1000
0100
0001
0100
1000
0001
0010
0000
0010
0001
0000
0001
,
0100
1000
0100
0001
0000
1000
0010
0001
0010
1000
0000
0001
,
0100
0001
0010
0100
1000
0010
0100
0000
0001
0010
0000
1000
,
0010
0001
1000
0100
0000
1000
0010
0000
0010
0100
1000
0100
,
0001
1000
0010
0001
0010
1000
0001
0000
0001
0010
0000
0100
,
0110
0000
0000
0000
0010
0000
0010
0000
0000
0000
0000
0000
1001
0000
0000
0000
0100
0000
0220
0000
0000
0330
0000
0000
,
1000
0001
0010
0200
0000
0310
0001
1000
0010
0200
0000
1300
,
0100
0001
1000
0010
0000
0010
0100
1000
0100
0001
0100
1000
,
0100
0001
1000
0010
1000
0001
0010
0000
0100
1000
0000
0001
,
0010
0100
0001
0100
1000
0010
1010
0000
1000
0020
0000
0000
,
0031
0010
1000
0010
0100
0001
0010
0000
0001
1000
0000
0100
,
0001
0000
0000
0000
0000
0000
0000
0000
0000
0000
0000
0000
0000
0000
0000
0000
0100
0000
0000
0000
0000
0000
0000
0000
0000
0000
0000
0000
0000
0000
0000
0000
1000
0000
0000
0000
0000
0000
0000
0000
0000
0000
0000
0000
0000
0000
0000
0000
0001
0000
0000
0000
0000
0000
0000
0000
0000
0000
0000
0000
0000
0000
0000
0000
0010
0000
0000
0000
0000
0000
0000
0000
0000
0000
0000
0000
0000
0000
0000
0000
0001
0000
0000
0000
0000
0000
0000
0000
0000
0000
0000
0000
0000
0000
0000
0000
1000
0000
0000
0000
0000
0000
0000
0000
0000
0000
0000
0000
0000
0000
0000
0000
0000
0000
0000
0000
0000
0000
0000
0000
0000
0000
0000
0000
0000
0000
0000
0000
1000
0000
0000
0000
0000
0000
0000
0000
0000
0000
0000
0000
0000
0000
0000
0000
0200
0000
0000
0300
0000
0000
0000
0000
0000
0000
0000
0000
0000
0000
0000
0000
0000
0000
0000
0000
0000
0000
0000
0000
0000
0000
0000
0000
0000
0000
0000
0000
0200
0000
0000
0300
0000
0000
0000
0000
0000
0000
0000
0000
0000
0000
0000
0000
,
0001
1000
0010
1000
0100
0001
0100
0000
1000
0010
0000
1000
,
0001
0000
0010
0000
0001
0000
0200
0000
0000
0000
1300
0000
1000
0000
0000
0000
0100
0000
0001
0000
0000
MMMM
0000
0000
,
0010
0100
0001
1000
0001
0010
0110
0000
0000
1001
0000
0000
,
1000
0100
1000
0001
0100
0001
0010
0100
0110
0000
0100
0010
,
1001
0000
0000
1000
0100
1000
0010
0100
0010
1000
0100
1000
,
0001
0100
0001
0010
0100
0010
0002
0000
0000
2003
0000
0000
,
0000
0000
0000
3001
0100
0001
0010
0100
0010
0001
0100
0001
,
1000
0100
1000
0010
0100
0010
1000
0100
0001
1000
0010
0001
,
1000
0000
0000
0001
0010
0001
0100
0010
0100
0001
0010
0001
,
1000
0010
1000
0100
0010
0100
2000
0000
0000
3002
0000
0000
,
0000
0000
0000
1003
0010
1000
0100
0010
0100
1000
0010
1000
,
1100
0000
0002
0003
0000
0010
0011
0000
0001
0100
1000
0001
,
0010
0000
0000
1000
0100
1000
0010
0001
0010
1000
0100
1000
,
0001
0100
0001
0010
1000
0010
0001
1000
0010
0100
0000
0202
,
0000
0303
0000
1000
0010
0100
1000
0100
0010
1000
0001
0100
,
0101
0000
1100
0000
1010
0000
0022
0000
0000
0033
0000
0000
,
0001
0100
0010
0100
0000
0010
1000
0001
0100
0010
0000
1000
,
0100
0001
0100
1000
0000
0001
0010
0001
1000
0010
0000
0010
,
0100
0001
0010
0100
1000
0010
0100
0001
0010
0100
1000
0010
,
1000
0000
0000
0000
0000
0000
0000
0000
0000
0000
0000
0000
0000
0000
0000
0000
0200
0000
0000
0300
0000
0000
0000
0000
0000
0000
0000
0000
0000
0000
0000
0000
0200
0000
0000
0300
0000
0000
0000
0000
0000
0000
0000
0000
0000
0000
0000
0000
0001
0000
0000
0000
0000
0000
0000
0000
0000
0000
0000
0000
0000
0000
0000
0000
1000
0000
0000
0000
0000
0000
0000
0000
0000
0000
0000
0000
0000
0000
0000
0000
0010
0000
0000
0000
0000
0000
0000
0000
0000
0000
0000
0000
0000
0000
0000
0000
1000
0000
0000
0000
0000
0000
0000
0000
0001
0000
0000
0000
0000
0000
0000
0000
1000
0000
0000
0000
0000
0000
0000
0000
0001
0000
0000
0000
0000
0000
0000
0000
1000
0000
0000
0000
0000
0000
0000
0000
0001
0000
0000
0000
0000
0000
0000
0000
0200
0000
0000
0000
0000
0000
0000
0000
0000
0000
0000
0000
0000
0000
0000
0000
0000
0000
0000
0000
0000
0000
0000
0000
0300
0000
0000
0000
0000
0000
0000
0000
0000
0000
0000
0000
0000
0000
0000
0000
0000
0000
0000
0000
0000
0000
0000
0000
,
2002
0000
0000
0000
,
0000
0000
0000
0000
,
0000
0000
0000
0000
,
0000
0000
0000
0000
,
0000
0000
0000
0000
,
0000
0000
0000
0000
,
0000
0000
0000
0000
,
0000
0000
0000
3003
,
2000
0100
0100
0001
,
0001
0010
0010
0001
,
3002
0100
0100
1000
,
1000
0010
0010
1003
,
0101
MMMM
MMMM
MMMM
,
1100
0000
0000
MMMM
0000
0000
MMMM
0000
0000
MMMM
0000
0001
,
0011
0000
0000
MMMM
0000
1000
1010
0000
0000
MMMM
0000
0001
,
0100
0000
1000
0000
0100
0000
0001
0100
0001
0100
0001
0000
1000
0000
0010
0000
1000
0000
0001
0000
0010
0000
0100
0000
,
2002
0000
3003
MMMM
,
1000
0100
0001
0100
1000
0001
0011
0000
0010
0011
0000
0010
,
0001
0100
1000
0001
0010
1000
0001
0010
0100
0001
1000
0010
,
0001
0100
1000
0100
0001
1000
1010
0000
0010
1010
0000
0010
,
1000
0000
0000
0000
0000
0000
0000
0000
0000
0000
0000
0000
0000
0000
0000
0000
0200
0000
0000
0300
0000
0000
0000
0000
0000
0000
0000
0000
0000
0000
0000
0000
0200
0000
0000
0300
0000
0000
0000
0000
0000
0000
0000
0000
0000
0000
0000
0000
0001
0000
0000
0000
0000
0000
0000
0000
0000
0000
0000
0000
0000
0000
0000
0000
0010
0000
0000
0000
0000
0000
0000
0000
0000
0000
0000
0000
0000
0000
0000
0000
0100
0000
0000
0000
0000
0000
0000
0000
0000
0000
0000
0000
0000
0000
0000
0000
0001
0000
0000
0000
0000
0000
0000
0000
0000
0000
0000
0000
0000
0000
0000
0000
0100
0000
0000
0000
0000
0000
0000
0000
0000
0000
0000
0000
0000
0000
0000
0000
1000
0000
0000
0000
0000
0000
0000
0000
0000
0000
0000
0000
0000
0000
0000
0000
0001
0000
0000
0000
0000
0000
0000
0000
0000
0000
0000
0000
0000
0000
0000
0000
0010
0000
0000
0000
0000
0000
0000
0000
0000
0000
0000
0000
0000
0000
0000
0000
1000
0000
0000
0000
0000
0000
0000
0000
0000
0000
0000
0000
0000
0000
0000
0000
,
1010
0000
0010
0001
0100
1000
1100
0000
0100
0001
1000
0010
,
1000
0000
0100
0000
0001
0000
1000
0000
0010
0000
0001
0000
0010
0100
0010
0100
1000
0000
0001
0000
0100
0000
0010
0000
,
2001
0000
3100
0001
0100
1000
1002
0000
0103
1000
0100
0001
,
1001
0000
0000
0000
1000
0000
0100
0010
0001
0010
0100
0010
0001
0000
0000
0000
0011
0000
0000
0000
1100
0000
0100
0000
,
1000
0010
0001
1000
0100
0001
0101
0000
1000
1010
0000
0001
,
0100
1000
0001
0010
1000
0001
0010
0100
0001
0100
1000
0010
,
0100
1000
0001
0010
1000
0001
0011
0000
1000
1100
0000
0001
,
1000
0000
0000
0000
0000
0000
0000
0000
0000
0000
0000
0000
0000
0000
0000
0000
0200
0000
0000
0300
0000
0000
0000
0000
0000
0000
0000
0000
0000
0000
0000
0000
0200
0000
0000
0300
0000
0000
0000
0000
0000
0000
0000
0000
0000
0000
0000
0000
0001
0000
0000
0000
0000
0000
0000
0000
0000
0000
0000
0000
0000
0000
0000
0000
1000
0000
0000
0000
0000
0000
0000
0000
0000
0000
0000
0000
0000
0000
0000
0000
0010
0000
0000
0000
0000
0000
0000
0000
0000
0000
0000
0000
0000
0000
0000
0000
0100
0000
0000
0000
0000
0000
0000
0000
0000
0000
0000
0000
0000
0000
0000
0000
0101
0000
0000
0000
0000
0000
0000
0000
0000
0000
0000
0000
0000
0000
0000
0000
0001
0000
0000
0000
0000
0000
0000
0000
0000
0000
0000
0000
0000
0000
0000
0000
0010
0000
0000
0000
0000
0000
0000
0000
0000
0000
0000
0000
0000
0000
0000
0000
0100
0000
0000
0000
0000
0000
0000
0000
0000
0000
0000
0000
0000
0000
0000
0000
1000
0000
0000
0000
0000
0000
0000
0000
0000
0000
0000
0000
0000
0000
0000
0000
,
1010
0010
0100
1000
0001
0010
0110
0000
0100
0110
0000
0010
,
1001
0000
1000
0000
0100
0000
0010
0000
1000
0000
0010
0000
0001
0010
0001
0010
0001
0000
1000
0000
0010
0000
0100
0000
,
2001
0000
3010
0001
0010
1000
1002
0000
0013
1000
0010
0001
,
1000
0000
0010
0000
0010
0000
0100
0001
1000
0001
0100
0001
1000
0000
0000
0000
1100
0000
0000
0000
0011
0000
0001
0000
,
1000
0010
0001
1000
0100
0001
0201
0000
1000
1300
0000
0100
,
0001
0010
1000
0001
0100
1000
1200
0000
0001
0301
0100
1000
,
0001
0000
0000
0000
0000
0000
0000
0000
0000
0000
0000
0000
0000
0000
0000
0000
0010
0000
0000
0000
0000
0000
0000
0000
0000
0000
0000
0000
0000
0000
0000
0000
0001
0000
0000
0000
0000
0000
0000
0000
0000
0000
0000
0000
0000
0000
0000
0000
1000
0000
0000
0000
0000
0000
0000
0000
0010
0000
0000
0000
0000
0000
0000
0000
1000
0000
0000
0000
0000
0000
0000
0000
0010
0000
0000
0000
0000
0000
0000
0000
0100
0000
0000
0000
0000
0000
0000
0000
0000
0000
0000
0000
0000
0000
0000
0000
0001
0000
0000
0000
0000
0000
0000
0000
0000
0000
0000
0000
0000
0000
0000
0000
0020
0000
0000
0030
0000
0000
0000
0000
0000
0000
0000
0000
0000
0000
0000
0000
0020
0000
0000
0030
0000
0000
0000
0000
0000
0000
0000
0000
0000
0000
0000
0000
1000
0000
0000
0000
0000
0000
0000
0000
0000
0000
0000
0000
0000
0000
0000
0000
0200
0000
0000
0300
0000
0000
0000
0000
0000
0000
0000
0000
0000
0000
0000
0000
0200
0000
0000
0300
0000
0000
0000
0000
0000
0000
0000
0000
0000
0000
0000
0000
,
0001
0000
0010
0000
1000
0000
0010
0001
1000
0100
1001
0000
0010
0000
0000
0000
0110
0000
0000
0000
0100
0000
0110
0000
,
2002
0000
0000
0000
,
3003
0000
0000
0000
;

//--------------- dance-double - forcednature ----------------
#NOTEDATA:;
#STEPSTYPE:dance-double;
#DESCRIPTION:forcednature;
#DIFFICULTY:Easy;
#METER:8;
#RADARVALUES:0,0,0,0,0;
#CREDIT:forcednature;
#NOTES:
00000000
00000000
00000000
00000000
,
00000000
00000000
00000000
00000000
,
00000000
00000000
00000000
00000000
,
00000000
00000000
00000000
00000000
,
00000000
00000000
00000000
00000000
,
00001000
00000000
00010000
00000000
,
00001000
00000000
00010000
00000000
,
00000100
00000000
00010000
00000000
,
00001000
00000000
01000000
00000000
,
01100000
00000000
10000000
00000000
,
01100000
00000000
00010000
00000000
,
00011000
00000000
00001000
00000000
,
00000110
00000000
00000100
00000000
,
00002002
00000000
00000000
00000000
,
00000000
00000000
00000000
00003003
,
00001000
00000100
00010000
00001000
,
00010000
00000010
00001000
00000000
,
00000100
00010000
00001000
00100000
,
00001000
00010000
00001000
00000000
,
01000000
00010000
10000000
00100000
,
10000000
00010000
01000000
00000000
,
00011000
00001000
00011000
00010000
,
00000100
00001000
00000010
00000010
,
00000100
00000001
00000010
00000001
,
00001000
00000010
00001000
00000000
,
00000100
00010000
00001000
01000000
,
00001000
00010000
00200000
00300000
,
10000000
00010000
00100000
00010000
,
10000000
01000000
00010000
00000000
,
00001000
00100000
00001000
00010000
,
00000010
00001000
00000010
00000000
,
00000100
00000100
00000100
00000000
,
00000001
00000000
00000010
00000000
,
00000100
00000100
00000100
00000000
,
00010000
00000000
00001000
00000000
,
01000000
01000000
01000000
00000000
,
00010000
00000000
00100000
00000000
,
01000000
01000000
01000000
00000000
,
10000000
00000000
00100000
00000000
,
10010000
00000000
10000000
01000000
,
00100000
01000000
00100000
00000000
,
00001000
00000000
00010000
00000010
,
00001000
00001000
00001000
00000000
,
00001001
00000000
00000001
00000010
,
00000001
00000000
00001000
00000010
,
00001000
00000100
00010000
00001000
,
01000000
01000000
01000000
00000000
,
20020000
00000000
00000000
00000000
,
00000000
00000000
00000000
00000000
,
00000000
00000000
00000000
00000000
,
00000000
00000000
00000000
00000000
,
00000000
00000000
00000000
00000000
,
00000000
00000000
00000000
00000000
,
00000000
00000000
00000000
00000000
,
00000000
00000000
00000000
30030000
,
10000000
00000000
10000000
00000000
,
01000000
00010000
00001000
00000000
,
00000010
00000000
00000010
00000000
,
00000001
00000100
00001000
00000000
,
00011000
00000000
00100000
00000000
,
00011000
00000000
00000010
00000000
,
00011000
00000000
00011000
00000000
,
01000000
01000000
00010000
10000000
,
00100000
00000000
00000000
00000000
,
10000000
01000000
00010000
01000000
,
00100000
00001000
00010000
00000100
,
00001000
00000010
00000100
00000001
,
00001001
00000010
00000110
00000000
,
00000001
00000010
00000001
00001000
,
00000010
00010000
00001000
01000000
,
00010000
00100000
01000000
00100000
,
01100000
01000000
10010000
00000000
,
10000000
01000000
10000000
00010000
,
01000000
00001000
00010000
00000010
,
00001000
00000100
00000010
00000001
,
00001001
00000100
00000110
00000000
,
00000001
00000100
00000001
00001000
,
00000010
00010000
00001000
00100000
,
00011000
00000010
00011000
01000000
,
00011000
00000100
00011000
00000000
,
00011000
00100000
01100000
00000000
,
00011000
00000010
00000110
00000000
,
00000001
00000100
00001000
00010000
,
01000000
10000000
10010000
00100000
,
00011000
00000000
00000000
00000000
;

//--------------- dance-double - forcednature ----------------
#NOTEDATA:;
#STEPSTYPE:dance-double;
#DESCRIPTION:forcednature;
#DIFFICULTY:Medium;
#METER:12;
#RADARVALUES:0,0,0,0,0;
#CREDIT:forcednature;
#NOTES:
00000000
00000000
00000000
00000000
,
00000000
00000000
00000000
00000000
,
00000000
00000000
00000000
00000000
,
00000000
00000000
00000000
00000000
,
00000000
00000000
00000000
00000000
,
00002000
00023000
00030200
00002300
,
00003020
00020030
00032000
00203000
,
00320000
02030000
03002000
00023000
,
00030200
00002300
00003020
00010030
,
00022000
00033000
02002000
03003000
,
00020200
00030300
00202000
00303000
,
00100000
00000000
00100000
00001000
00000000
00001000
00010000
00000000
00010000
00000010
00000000
00000010
,
00001000
00000000
00000001
00000000
00000100
00000000
00001000
00000000
00000000
00010000
00000000
00000000
,
00022000
00000000
00000000
00000000
,
00000000
00000000
00000000
00033000
,
01000000
00000000
00010000
01000000
00000000
00000000
00100000
00000000
00000000
10100000
00000000
00000000
,
10000000
00000000
01000000
10000000
00000000
00000000
00010000
00000000
00100000
00010000
00000000
00000000
,
00100000
00000000
00001000
00010000
00000000
00000000
00011000
00000000
00000000
00010100
00000000
00000000
,
00000100
00000000
00001000
00000100
00000000
00000000
00000010
00000000
00000010
00000000
00000010
00000000
,
00000001
00000000
00000100
00000001
00000000
00000000
00001000
00000000
00000000
00000100
00000000
00000000
,
00011000
00100000
00011000
00000010
,
00011000
01000000
00011000
00000100
,
00011000
00000000
00000000
00100000
00000000
00000000
01000000
00000000
01000000
00000000
01000000
00000000
,
10000000
00000000
00100000
10000000
00000000
00000000
01000000
00000000
00000000
01100000
00000000
00000000
,
00100000
00000000
00010000
00100000
00000000
00000000
00001000
00000000
00010000
00001000
00000000
00000000
,
00010000
00000000
00000100
00001000
00000000
00000000
00000100
00000000
00000000
00000110
00000000
00000000
,
00000010
00000000
00000001
00000010
00000000
00000000
00000100
00000000
00001000
00000100
00000000
00010000
,
00001000
00000000
00001000
01000000
00000000
00000000
00010000
00000000
00000000
00110000
00000000
00000000
,
11000000
00000000
00000000
10000000
00000000
00100000
01000000
00000000
00000000
01100000
00000000
00000000
,
10010000
01000000
00011000
00000100
,
00001000
00000001
00001000
00000001
00000000
00000000
00000010
00000000
00000100
00000000
00000010
00000000
,
00001001
00000000
00000000
00000001
00000000
00000000
00000100
00000000
00000100
00001000
00000000
00001000
,
00010000
00100000
10000000
02000000
,
00000000
00000000
00000000
03000000
00000000
00000000
10000000
00000000
10000000
01000000
00000000
01000000
,
00010000
00000000
00000000
00001000
00000000
00000000
00000010
00000000
00000100
00000000
00001000
00000000
,
00000001
00000000
00000000
00000000
00000000
00000000
00000100
00000000
00000100
00001000
00000000
00001000
,
00010000
00100000
10000000
02000000
,
00000000
00000000
00000000
03000000
00000000
00000000
10000000
00000000
10000000
00100000
00000000
00100000
,
00010000
00000000
00000000
00000000
00000000
00000000
00001000
00000000
00000100
00000000
00000001
00000000
,
00001000
00000000
00000000
00000001
00000000
00000001
00000010
00000000
00000010
00000100
00000000
00000000
,
00010000
00001000
01000000
00001000
,
00010000
00000000
00000000
00100000
00000000
00100000
10000000
00000000
10000000
00010000
00000000
00000000
,
00100000
00000000
01000000
00000000
00010000
00000000
00022000
00000000
00000000
00033000
00000000
00000000
,
00001000
00000000
00000000
00000010
00000000
00000001
00000010
00000000
00000000
00000100
00000000
00000000
,
00001100
00000000
00000000
00010000
00000000
00001000
00010000
00000000
00000000
00100000
00000000
00000000
,
10000000
00000000
01000000
10000000
00000000
00000000
00010000
00000000
01000000
00010000
00000000
00000000
,
00100000
00000000
00100000
00001000
00000000
00001000
00010000
00000000
00000000
00011000
00000000
00000000
,
00020200
00000000
00000000
00000000
,
00000000
00000000
00000000
00000000
,
00000000
00000000
00000000
00000000
,
00000000
00000000
00000000
00000000
,
00000000
00000000
00000000
00000000
,
00000000
00000000
00000000
00000000
,
00000000
00000000
00000000
00000000
,
00000000
00000000
00030300
00000000
,
00010000
00001000
00000010
00000001
,
00000100
00000001
00000010
00001000
,
00001000
00010000
00100000
10000000
,
01000000
10000000
00100000
00010000
,
00011000
00000100
00001000
00000010
,
00011000
00000000
00000000
01000000
00000000
00000000
00010000
00000000
00000000
00100000
00000000
00001000
,
00010000
00000000
00000000
00000010
00000000
00010000
00001000
00000000
00000000
01000000
00000000
00010000
,
01000000
00000000
00001000
00010000
00000000
00000010
00001000
00000000
00000000
00000100
00000000
00000000
,
00001001
00000000
00000000
00000000
,
00000001
00000000
00000100
00000001
00000000
00000100
00000010
00000000
00001000
00000010
00000000
00000000
,
00010000
00000000
00001000
00100000
00000000
00000000
00001000
00000000
00000000
00010000
00000000
00000000
,
00100000
00000000
10000000
00100000
00000000
10000000
01000000
00000000
00100000
01000000
00000000
00000000
,
00100000
00000000
00001000
00010000
00000000
00000000
00000010
00000000
00000000
00001010
00000000
00000000
,
00000001
00000000
00000100
00000001
00000000
00001000
00000010
00000000
00010000
00001000
00000000
00000000
,
00100000
00000000
00010000
00100000
00000000
01000000
10000000
00000000
00100000
10000000
00000000
00000000
,
10010000
01000000
00011000
00000100
,
00001001
00000000
00000000
00000010
00000000
00000000
00000001
00000000
00000100
00000000
00001000
00000000
,
00010000
00000000
00001000
00010000
00000000
00001000
00100000
00000000
00010000
00100000
00000000
00000000
,
01000000
00010000
00011000
00011000
,
00000100
00000000
00001000
00000100
00000000
00010000
00001000
00000000
00010000
00000010
00000000
00000000
,
00001000
00000001
00000011
00001100
,
00001000
00000000
00000100
00010000
00000000
00000000
00001000
00000000
01000000
00010000
00000000
00000000
,
00100000
00000000
00000000
01000000
00000000
00000000
10000000
00000000
00010000
10000000
00000000
00000000
,
10010000
00100000
00011000
00000010
,
00001000
00000001
00001000
00000001
00000000
00000000
00000010
00000000
00000010
00000000
00000100
00000000
,
00000110
00001000
00011000
00010000
,
01100000
00010000
00011000
00001000
,
00010000
00000100
00001000
00000100
00000000
00000000
00010000
00000000
00010000
00001000
00000000
00001000
,
01000000
00000000
01000000
00010000
00000000
00000000
00100000
00000000
01000000
00000000
00100000
00000000
,
20020000
00000000
00000000
00000000
,
30030000
00000000
00000000
00000000
;

//--------------- dance-double - forcednature ----------------
#NOTEDATA:;
#STEPSTYPE:dance-double;
#DESCRIPTION:forcednature;
#DIFFICULTY:Hard;
#METER:17;
#RADARVALUES:0,0,0,0,0;
#CREDIT:forcednature;
#NOTES:
00000000
00000000
00000000
00000000
,
00000000
00000000
00000000
00000000
,
00000000
00000000
00000000
00000000
,
00000000
00000000
00000000
00000000
,
00000000
00000000
00000000
00000000
,
00002000
00023000
02030000
23000000
,
30200000
00000000
00000000
20300000
00000000
00000000
31000000
00000000
00100000
01000000
00000000
01000000
,
00020000
00032000
00003200
00000302
,
00000023
00000000
00000000
00000032
00000000
00000000
00000103
00000000
00000010
00000100
00000000
00001000
,
00000200
00000300
00022000
00033000
,
02000000
03000000
00022000
00033000
,
00100000
00000000
00100000
00001000
00000000
00001000
00010000
00000000
00010000
00000010
00000000
00000010
,
00001000
00000100
00010000
00001000
01000000
00010000
00100000
01000000
10000000
01000000
00000000
00000000
,
20020000
00000000
00000000
00000000
,
00000000
00000000
00000000
30030000
,
00010000
01000000
00001000
00010000
00000000
00000100
00001000
00000000
00000100
00000010
00000000
00000001
,
00001000
00000010
00010000
00001000
00000000
00100000
00010000
00000000
00100000
10000000
00000000
00100000
,
01000000
10000000
00010000
10000000
00000000
00100000
00010000
00000000
00100000
01000000
00000000
00010000
,
01000000
00001000
00010000
00001000
00000000
00000010
00000100
00000000
00000100
00001000
00000001
00000100
,
00001000
00000100
00000001
00001000
00000000
00000010
00001000
00000000
00000100
00010000
00000000
00001000
,
01000000
00001000
00010000
00100000
00000000
00000000
01100000
00000000
10000000
00020000
00000000
00000000
,
00130000
01000000
10000000
01000000
00000000
00100000
00001000
00000000
00010000
00000010
00000000
00000010
,
00001000
00000000
00000001
00000010
00000000
00000100
00010000
00000000
00011000
00000000
00001000
00100000
,
00010000
01000000
00100000
01000000
00000000
00100000
10000000
00000000
01000000
10000000
00000000
01000000
,
00010000
00000000
00001000
00010000
00000000
00001000
00000010
00000000
00000010
00000002
00000000
00000000
,
00000103
00000010
00001000
00000010
00000000
00000100
00001000
00000000
00010000
00001000
00000000
00010000
,
00100000
00000000
10000000
00100000
00000000
10000000
01000000
00000000
01000000
00020000
00030000
00002000
,
00013000
00000100
00001000
00000100
00000000
00010000
00001000
00000000
00000010
00001000
00000000
00000010
,
00000001
00000100
00000001
00000010
00000000
00001000
00010000
00000000
01000000
20000000
00000000
00000000
,
30100000
01000000
00010000
01000000
00000000
00001000
00010000
00000000
00000010
00001000
00000000
00000100
,
00000010
00000001
00000010
00000100
00001000
00000100
00010000
00000000
00011000
00000000
00100000
00000000
,
10010000
00000000
00000000
10000000
00000000
10000000
01000000
00000000
01000000
00010000
00000000
00010000
,
00001000
00000000
00001000
00000010
00000000
00000010
00000001
00000000
00000001
00002000
00000000
00000000
,
00000000
00000000
00000000
00003001
00000000
00000001
00000100
00000000
00000100
00001000
00000000
00001000
,
00010000
00000000
00010000
00100000
00000000
00100000
10000000
00010000
01000000
00100000
10000000
00010000
,
00000000
00000000
00000000
10000000
00000000
10000000
01000000
00000000
01000000
00010000
00000000
00010000
,
00001000
00000000
00001000
00000100
00000000
00000100
00000001
00000000
00000010
00000001
00000000
00000100
,
00000000
00000000
00000000
00000001
00000000
00000001
00000100
00000000
00000100
00001000
00000000
00001000
,
00010000
00000000
00100000
00000000
00000000
00100000
20000000
00000000
30010000
00100000
01000000
10000000
,
01000000
00000000
00000000
10000000
01000000
10000000
01000000
00000000
01000000
00010000
01000000
00010000
,
00001000
00000000
00010000
00001000
00010000
00001000
00000010
00000000
00000100
00000010
00000000
00000001
,
00000010
00000000
00000001
00000100
00000001
00000100
00000010
00000000
00001000
00000010
00010000
00001000
,
01000000
00000000
01100000
00000000
00100000
00000000
20020000
00000000
00000000
30030000
00000000
00000000
,
10000000
01000000
10000000
01000000
00000000
00010000
01000000
00000000
00010000
00001000
00000000
00010000
,
00000100
00001000
00000100
00010000
00000000
00001000
00000010
00000000
00000001
00000010
00000000
00000001
,
00000100
00000000
00000100
00001000
00000000
00001000
00010000
00000000
00010000
00100000
00000000
00100000
,
01000000
00010000
10000000
01000000
10000000
00010000
00100000
01000000
00010000
00001000
00000010
00000100
,
00002000
00000000
00000000
00000000
,
00003002
00000203
00002300
00023000
,
00230000
00000000
00000000
00000000
,
20300000
32000000
03020000
00032000
,
00203000
00000000
02300000
00000000
,
03020000
00030200
00002300
00003020
,
00020030
00032000
02003000
03020000
,
00230000
00000000
02000000
03300000
,
10000000
01000000
00010000
00001000
,
00000100
00000001
00000010
00000001
,
00000100
00001000
00010000
01000000
,
10000000
00100000
10000000
01000000
,
01100000
00000000
00000000
00100000
00000000
00100000
00001000
00000000
00001000
00010000
00000000
00000000
,
00011000
00000000
00000000
00001000
00000000
00001000
00000010
00000000
00000010
00000001
00000000
00001000
,
00000200
00000000
00000000
00010300
00000000
00001000
02000000
00000000
00000000
03001000
00000000
00010000
,
00000010
00001000
00000100
00010000
00001000
01000000
00010000
00100000
01000000
00010000
00001000
00000010
,
00000100
00000000
00000000
00000000
,
00001000
00000001
00000100
00000010
00001000
00000001
00000010
00000000
00001000
00000010
00000000
00001000
,
00010000
00000100
00010000
00001000
00100000
00001000
00010000
00100000
01000000
00100000
10000000
00010000
,
10000000
01000000
00100000
01000000
10000000
00010000
00100000
00000000
00100000
00001000
00000000
00001000
,
00010000
00000010
00001000
00000010
00010000
00001000
00000010
00000100
00001000
00000100
00000010
00000001
,
00000100
00000000
00001000
00010000
00001000
00010000
00100000
00000000
00010000
00001000
00010000
00001000
,
01000000
00010000
01000000
00001000
00010000
00001000
00100000
00010000
00100000
00001000
00010000
00000100
,
00002000
00000000
00003010
00000100
00001000
00010000
00002000
00000000
00103000
01000000
00010000
00001000
,
00010000
00000000
00010000
00000100
00001000
00000100
00000010
00000000
00001001
00000000
00000001
00000100
,
00000001
00000010
00000100
00010000
00000100
00000010
00000001
00000000
00000001
00000100
00000000
00000100
,
00001000
00010000
00001000
01000000
00010000
01000000
00100000
10000000
01000000
00100000
00010000
01000000
,
00100000
10000000
00100000
10000000
01000000
10000000
01000000
00000000
01000000
00010000
00000000
00010000
,
00001000
00100000
00010000
00100000
00001000
00010000
00000010
00000100
00001000
00010000
00001000
00000100
,
00000010
00000000
00001000
00000001
00000010
00000001
00000100
00000000
00000100
00001000
00000000
00001000
,
00010000
00000100
00001000
00000100
00010000
00001000
00100000
01000000
00010000
00001000
00010000
01000000
,
00200000
00000000
00301000
00010000
00000100
00001000
00000020
00000000
00010030
00001000
01000000
00010000
,
00100000
01000000
10000000
01000000
00010000
00001000
00010000
00000000
00011000
00000000
00001000
00000010
,
00000002
00000000
00000103
00001000
00010000
00100000
20000000
00000000
31000000
00010000
00001000
00000010
,
00000002
00000000
00000103
00001000
00010000
01000000
20000000
00000000
31000000
00010000
00001000
00000100
,
00000001
00000010
00000001
00001000
00000010
00001000
00000001
00000100
00001000
00010000
01000000
10000000
,
00100000
10000000
01000000
00100000
00010000
00001000
00000100
00000000
00011000
00000000
00010000
00100000
,
20000000
00000000
00000000
00000000
,
30000000
00000000
00000000
00000000
;

//--------------- dance-double - forcednature ----------------
#NOTEDATA:;
#STEPSTYPE:dance-double;
#DESCRIPTION:forcednature;
#DIFFICULTY:Challenge;
#METER:17;
#RADARVALUES:0,0,0,0,0;
#CREDIT:forcednature;
#NOTES:
00000000
00000000
00000000
00000000
,
00000000
00000000
00000000
00000000
,
00000000
00000000
00000000
00000000
,
00000000
00000000
00000000
00000000
,
00000000
00000000
00000000
00000000
,
00001000
00000000
00001000
01000000
00000000
01000000
00010000
00000000
00010000
00100000
00000000
00100000
,
01000000
00000000
01000000
10000000
00000000
10000000
00100000
00000000
00100000
00010000
00000000
00010000
,
00001000
00000000
00001000
00000100
00000000
00000100
00000001
00000000
00000001
00000010
00000000
00000010
,
00000100
00000000
00000100
00010000
00000000
00010000
00001000
00000000
00001000
00100000
00000000
00000000
,
01002000
00103000
00020100
00030010
,
00102000
01003000
00020010
00030100
,
00010000
00000000
00001000
00000010
00000000
00000001
00000010
00000000
00001000
00010000
00000000
01000000
,
00010000
00001000
00100000
00010000
00100000
00001000
00010000
00000010
00001000
00000001
00000010
00000100
,
00002002
00000000
00000000
00000000
,
00000000
00000000
00003003
MMMMMMMM
,
00000001
00000100
00001000
00000100
00000001
00001000
00000010
00000000
00000010
00010000
00000000
00010000
,
00001000
00100000
01000000
00100000
00000000
00010000
10000000
00100000
00010000
00100000
00000000
00100000
,
10000000
01000000
00010000
01000000
00100000
00001000
00010000
00000000
00010000
00000100
00000000
00000100
,
00001000
00000010
00000100
00001000
00000000
00000100
00000001
00000000
00000001
00000010
00000100
00000001
,
00000100
00001000
00000010
00001000
00010000
01000000
00100000
00000000
00100000
10000000
00000000
10000000
,
01000000
00000000
00000000
00000000
00010000
00000000
00001000
00000000
00000000
00000000
00000000
00000000
00011000
00000000
00000000
00000000
00000010
00000000
00000220
00000000
00000000
00000330
00000000
00000000
,
00000001
00001000
00000100
00000020
00000000
00000130
00010000
00001000
00100000
02000000
00000000
03010000
,
01000000
10000000
00100000
10000000
00000000
10000000
01000000
00010000
00001000
00010000
01000000
00010000
,
00001000
00010000
00000100
00001000
00000100
00000010
00000001
00000000
00000001
00000100
00000000
00001000
,
00010000
00001000
01000000
00010000
00100000
01000000
01100000
00000000
10000000
00020000
00000000
00000000
,
01030000
10000000
01000000
00010000
00100000
00001000
00010000
00000000
00010000
00001000
00000000
00001000
,
00000010
00000000
00000000
00000000
00000000
00000000
00000000
00000000
00000000
00000000
00000000
00000000
00000000
00000000
00000000
00000000
00000100
00000000
00000000
00000000
00000000
00000000
00000000
00000000
00000000
00000000
00000000
00000000
00000000
00000000
00000000
00000000
00010000
00000000
00000000
00000000
00000000
00000000
00000000
00000000
00000000
00000000
00000000
00000000
00000000
00000000
00000000
00000000
00001000
00000000
00000000
00000000
00000000
00000000
00000000
00000000
00000000
00000000
00000000
00000000
00000000
00000000
00000000
00000000
00100000
00000000
00000000
00000000
00000000
00000000
00000000
00000000
00000000
00000000
00000000
00000000
00000000
00000000
00000000
00000000
01000000
00000000
00000000
00000000
00000000
00000000
00000000
00000000
00000000
00000000
00000000
00000000
00000000
00000000
00000000
00000000
10000000
00000000
00000000
00000000
00000000
00000000
00000000
00000000
00000000
00000000
00000000
00000000
00000000
00000000
00000000
00000000
00100000
00000000
00000000
00000000
00000000
00000000
00000000
00000000
00000000
00000000
00000000
00000000
00000000
00000000
00000000
00000000
10000000
00000000
00000000
00000000
00000000
00000000
00000000
00000000
00000000
00000000
00000000
00000000
00000000
00000000
00000000
00000000
02000000
00000000
00000000
03000000
00000000
00000000
00000000
00000000
00000000
00000000
00000000
00000000
00000000
00000000
00000000
00000000
00000000
00000000
00000000
00000000
00000000
00000000
00000000
00000000
00000000
00000000
00000000
00000000
00000000
00000000
00000000
00000000
02000000
00000000
00000000
03000000
00000000
00000000
00000000
00000000
00000000
00000000
00000000
00000000
00000000
00000000
00000000
00000000
,
00010000
00100000
00001000
00010000
00000010
00010000
00001000
00000000
00001000
00000010
00000000
00000010
,
00000001
00000000
00000100
00000000
00000001
00000000
00002000
00000000
00000000
00000000
00003010
00000000
00000010
00000000
00000000
00000000
00010000
00000000
00001000
00000000
00000000
MMMMMMMM
00000000
00000000
,
00000100
00001000
00000001
00000100
00001000
00000100
00000001
00000000
00000000
00000110
00000000
00000000
,
00000001
00000100
00001000
00000100
00001000
00010000
00001000
00010000
00100000
00000000
01000000
00100000
,
10010000
00000000
00000000
10000000
00000000
10000000
01000000
00000000
01000000
00010000
00000000
00010000
,
00001000
00000000
00001000
00000100
00000000
00000100
00000002
00000000
00000000
00000023
00000000
00000000
,
00000000
00000000
00000000
00000031
00000000
00000001
00000100
00000000
00000100
00001000
00000000
00001000
,
00010000
00000000
00010000
00100000
00000000
00100000
10000000
01000000
00010000
00001000
00000010
00000001
,
00001000
00000000
00000000
00000010
00000000
00000010
00000100
00000000
00000100
00001000
00000000
00001000
,
01000000
00000000
01000000
00010000
00100000
01000000
20000000
00000000
00000000
30020000
00000000
00000000
,
00000000
00000000
00000000
10030000
00000000
10000000
00100000
00000000
00100000
00010000
00000000
00010000
,
00011000
00000000
00000020
00000030
00000000
00000100
00001001
00000000
00000001
00000100
00001000
00010000
,
00100000
00000000
00000000
01000000
00010000
00100000
00010000
10000000
00100000
10000000
01000000
00010000
,
00001000
00010000
01000000
00100000
00001000
00010000
00000100
00010000
00001000
00000010
00000000
00000220
,
00000000
00000330
00000000
00000100
00001000
00000001
00000100
00001000
00000100
00000001
00001000
00000010
,
00010000
00000000
00011000
00000000
00101000
00000000
00220000
00000000
00000000
00330000
00000000
00000000
,
00010000
10000000
00100000
10000000
00000000
01000000
00010000
00001000
00010000
00000100
00000000
00000100
,
00010000
00001000
00000010
00000001
00000000
00001000
00000010
00000100
00000001
00000100
00000000
00000100
,
00001000
00010000
00100000
00010000
00001000
01000000
00010000
00100000
01000000
00010000
00001000
00100000
,
00010000
00000000
00000000
00000000
00000000
00000000
00000000
00000000
00000000
00000000
00000000
00000000
00000000
00000000
00000000
00000000
02000000
00000000
00000000
03000000
00000000
00000000
00000000
00000000
00000000
00000000
00000000
00000000
00000000
00000000
00000000
00000000
02000000
00000000
00000000
03000000
00000000
00000000
00000000
00000000
00000000
00000000
00000000
00000000
00000000
00000000
00000000
00000000
10000000
00000000
00000000
00000000
00000000
00000000
00000000
00000000
00000000
00000000
00000000
00000000
00000000
00000000
00000000
00000000
00100000
00000000
00000000
00000000
00000000
00000000
00000000
00000000
00000000
00000000
00000000
00000000
00000000
00000000
00000000
00000000
00010000
00000000
00000000
00000000
00000000
00000000
00000000
00000000
00000000
00000000
00000000
00000000
00000000
00000000
00000000
00000000
00001000
00000000
00000000
00000000
00000000
00000000
00000000
00000000
00010000
00000000
00000000
00000000
00000000
00000000
00000000
00000000
00001000
00000000
00000000
00000000
00000000
00000000
00000000
00000000
00010000
00000000
00000000
00000000
00000000
00000000
00000000
00000000
00001000
00000000
00000000
00000000
00000000
00000000
00000000
00000000
00010000
00000000
00000000
00000000
00000000
00000000
00000000
00000000
00002000
00000000
00000000
00000000
00000000
00000000
00000000
00000000
00000000
00000000
00000000
00000000
00000000
00000000
00000000
00000000
00000000
00000000
00000000
00000000
00000000
00000000
00000000
00000000
00003000
00000000
00000000
00000000
00000000
00000000
00000000
00000000
00000000
00000000
00000000
00000000
00000000
00000000
00000000
00000000
00000000
00000000
00000000
00000000
00000000
00000000
00000000
00000000
,
02002000
00000000
00000000
00000000
,
00000000
00000000
00000000
00000000
,
00000000
00000000
00000000
00000000
,
00000000
00000000
00000000
00000000
,
00000000
00000000
00000000
00000000
,
00000000
00000000
00000000
00000000
,
00000000
00000000
00000000
00000000
,
00000000
00000000
00000000
03003000
,
10020000
01000000
10000000
00100000
,
00032000
00000100
00000001
00000010
,
00023000
01000000
10000000
00100000
,
00032000
00000100
00000001
00000010
,
00013000
00000000
01000000
00010000
00000000
00100000
00010000
00000000
00001000
00000100
00000000
00001000
,
00000010
00000000
00000100
00001000
00000000
00000100
00000001
00000010
00000001
00001000
00000010
00010000
,
00011000
00000000
00000000
MMMMMMMM
00000000
00000100
00010100
00000000
00000000
MMMMMMMM
00000000
01000000
,
00010000
00000000
00100000
00000000
01000000
00000000
10000000
01000000
10000000
01000000
10000000
00000000
00010000
00000000
00100000
00000000
00001000
00000000
00010000
00000000
00000010
00000000
00001000
00000000
,
00000200
00000000
00000300
MMMMMMMM
,
00000001
00000100
00001000
00000100
00001000
00010000
00001000
00000000
00100000
00010000
00000000
00100000
,
01000000
10000000
01000000
00010000
00001000
00010000
00000010
00000100
00001000
00010000
00001000
00000100
,
00000010
00001000
00000001
00000010
00000100
00001000
01000000
00000000
00010000
00100000
00000000
00010000
,
10000000
00000000
00000000
00000000
00000000
00000000
00000000
00000000
00000000
00000000
00000000
00000000
00000000
00000000
00000000
00000000
02000000
00000000
00000000
03000000
00000000
00000000
00000000
00000000
00000000
00000000
00000000
00000000
00000000
00000000
00000000
00000000
02000000
00000000
00000000
03000000
00000000
00000000
00000000
00000000
00000000
00000000
00000000
00000000
00000000
00000000
00000000
00000000
00010000
00000000
00000000
00000000
00000000
00000000
00000000
00000000
00000000
00000000
00000000
00000000
00000000
00000000
00000000
00000000
00100000
00000000
00000000
00000000
00000000
00000000
00000000
00000000
00000000
00000000
00000000
00000000
00000000
00000000
00000000
00000000
00001000
00000000
00000000
00000000
00000000
00000000
00000000
00000000
00000000
00000000
00000000
00000000
00000000
00000000
00000000
00000000
00010000
00000000
00000000
00000000
00000000
00000000
00000000
00000000
00000000
00000000
00000000
00000000
00000000
00000000
00000000
00000000
00000010
00000000
00000000
00000000
00000000
00000000
00000000
00000000
00000000
00000000
00000000
00000000
00000000
00000000
00000000
00000000
00000100
00000000
00000000
00000000
00000000
00000000
00000000
00000000
00000000
00000000
00000000
00000000
00000000
00000000
00000000
00000000
00001000
00000000
00000000
00000000
00000000
00000000
00000000
00000000
00000000
00000000
00000000
00000000
00000000
00000000
00000000
00000000
00000100
00000000
00000000
00000000
00000000
00000000
00000000
00000000
00000000
00000000
00000000
00000000
00000000
00000000
00000000
00000000
00000010
00000000
00000000
00000000
00000000
00000000
00000000
00000000
00000000
00000000
00000000
00000000
00000000
00000000
00000000
00000000
,
00001000
00000000
00001000
00000001
00000100
00001000
00010000
00000000
00100000
10000000
01000000
00010000
,
00001000
00000000
00000100
00000000
00000010
00000000
00001000
00000000
00000100
00000000
00000010
00000000
00000001
00000010
00000001
00000000
00000010
00000000
00000100
00000000
00010000
00000000
00001000
00000000
,
00012000
00000000
01003000
00010000
00100000
00001000
00021000
00000000
00030100
00001000
00000010
00010000
,
00011000
00000000
00000000
00000000
00001000
00000000
00100000
00010000
00100000
00010000
00100000
00010000
00100000
00000000
00000000
00000000
01100000
00000000
00000000
00000000
10000000
00000000
00010000
00000000
,
10000000
01000000
00010000
00001000
00010000
01000000
10000000
00000000
10000000
00100000
00000000
00100000
,
00010000
00001000
00010000
00000100
00001000
00000100
00000010
00001000
00010000
00000100
00010000
00001000
,
00000010
00000001
00000100
00001000
00000100
00000001
00000010
00000000
00001000
00000010
00000000
00000100
,
00010000
00000000
00000000
00000000
00000000
00000000
00000000
00000000
00000000
00000000
00000000
00000000
00000000
00000000
00000000
00000000
00002000
00000000
00000000
00003000
00000000
00000000
00000000
00000000
00000000
00000000
00000000
00000000
00000000
00000000
00000000
00000000
00002000
00000000
00000000
00003000
00000000
00000000
00000000
00000000
00000000
00000000
00000000
00000000
00000000
00000000
00000000
00000000
00000010
00000000
00000000
00000000
00000000
00000000
00000000
00000000
00000000
00000000
00000000
00000000
00000000
00000000
00000000
00000000
00000100
00000000
00000000
00000000
00000000
00000000
00000000
00000000
00000000
00000000
00000000
00000000
00000000
00000000
00000000
00000000
00001000
00000000
00000000
00000000
00000000
00000000
00000000
00000000
00000000
00000000
00000000
00000000
00000000
00000000
00000000
00000000
00010000
00000000
00000000
00000000
00000000
00000000
00000000
00000000
00000000
00000000
00000000
00000000
00000000
00000000
00000000
00000000
00001000
00000000
00000000
00000000
00000000
00000000
00000000
00000000
00000000
00000000
00000000
00000000
00000000
00000000
00000000
00000000
00010000
00000000
00000000
00000000
00000000
00000000
00000000
00000000
00000000
00000000
00000000
00000000
00000000
00000000
00000000
00000000
00100000
00000000
00000000
00000000
00000000
00000000
00000000
00000000
00000000
00000000
00000000
00000000
00000000
00000000
00000000
00000000
10000000
00000000
00000000
00000000
00000000
00000000
00000000
00000000
00000000
00000000
00000000
00000000
00000000
00000000
00000000
00000000
00010000
00000000
00000000
00000000
00000000
00000000
00000000
00000000
00000000
00000000
00000000
00000000
00000000
00000000
00000000
00000000
,
00100000
01000000
00010000
00001000
00010000
01000000
00100000
00000000
00001000
00000010
00000000
00000100
,
00001000
00000000
00000001
00000000
00000100
00000000
00001000
00000000
00010000
00000000
00100000
00000000
01000000
00100000
01000000
00100000
01000000
00000000
00010000
00000000
00100000
00000000
00001000
00000000
,
00021000
00000000
00030010
00001000
00000100
00010000
00012000
00000000
00103000
00010000
01000000
00001000
,
00010000
00000000
00000010
00000000
00001000
00000000
00000001
00000100
00000001
00001000
00000010
00001000
00000001
00000000
00000000
00000000
00000011
00000000
00000000
00000000
00000010
00000000
00001000
00000000
,
00010000
01000000
10000000
01000000
00010000
00001000
00100000
00000000
00010000
00100000
00000000
00100000
,
00001000
00000100
00000001
00000100
00001000
00010000
00001000
00000000
00001000
00010000
00100000
10000000
,
00010000
00000000
01000000
00000000
00010000
00000000
10000000
01000000
10000000
01000000
00100000
00000000
01000000
00000000
00010000
00000000
00001000
00000000
00000100
00000000
00001000
00000000
00010000
00000000
,
00001000
00000000
00000010
00000000
00000001
00000000
00001000
00000100
00010000
00001000
00010000
00000000
00001000
00000000
00000000
00000000
00011000
00000000
00000000
00000000
00010000
00000000
00100000
00000000
,
20000000
00000000
00000000
00000000
,
30000000
00000000
00000000
00000000
;
