#VERSION:0.83;
#TITLE:THE BRAVE MUST DIE;
#SUBTITLE:;
#ARTIST:BEMANI Sound Team "L.E.D.-G";
#TITLETRANSLIT:;
#SUBTITLETRANSLIT:;
#ARTISTTRANSLIT:L.E.D.-G;
#GENRE:HARDCORE;
#CREDIT:;
#MUSIC:THE BRAVE MUST DIE.ogg;
#BANNER:THE BRAVE MUST DIE.png;
#BACKGROUND:THE BRAVE MUST DIE-bg.png;
#CDTITLE:./CDTitles/bm IIDX 27 HEROIC VERSE.png;
#SAMPLESTART:21.088;
#SAMPLELENGTH:15.000;
#SELECTABLE:YES;
#OFFSET:0.115;
#BPMS:0.000=215.000;
#STOPS:;
#TIMESIGNATURES:0.000=4=4;
#BGCHANGES:0.000=THE BRAVE MUST DIE.mp4=1.000=0=0=0=StretchNoLoop====,
99999.000=-nosongbg-=1.000=0=0=0=StretchNoLoop====
;
#FGCHANGES:;

//--------------- dance-single - forcednature ----------------
#NOTEDATA:;
#STEPSTYPE:dance-single;
#DESCRIPTION:forcednature;
#DIFFICULTY:Beginner;
#METER:6;
#RADARVALUES:0,0,0,0,0;
#CREDIT:forcednature;
#NOTES:
0000
0000
0000
0000
,
0000
0000
0000
0000
,
0000
0000
0000
0000
,
0000
0000
0000
0000
,
0000
0000
0000
0000
,
0000
0000
0000
0000
,
0000
0000
0000
0000
,
0000
0000
0000
0000
,
0000
0000
0000
0000
,
0000
0000
0000
0000
,
0000
0000
0000
0000
,
1001
0000
0000
0000
,
0000
0000
0000
0000
,
0110
0000
0000
0000
,
0000
0000
0000
0000
,
1001
0000
0000
0000
,
0110
0000
0000
0000
,
1001
0000
0110
0000
,
1001
0000
0000
0000
,
1000
1000
1000
0000
,
0001
0000
0100
0000
,
0010
0010
0010
0000
,
1000
0000
0000
1000
0000
0000
0000
0000
,
0100
0100
0100
0000
,
0010
0000
0001
0000
,
0100
0100
0100
0000
,
0010
0000
1000
0000
,
0001
0001
0001
0000
,
0010
0000
0100
0000
,
1000
1000
1000
0000
,
0010
0000
0000
0010
0000
0000
0000
0000
,
0110
0100
0100
0000
,
0001
0000
1000
0000
,
0100
0100
0100
0000
,
2002
0000
3003
0000
,
1000
0001
1000
0000
,
0010
0000
0100
0000
,
0001
1000
0001
0000
,
0010
0000
0000
0000
,
0100
1000
0100
0000
,
0010
0000
0001
0000
,
0100
0010
0100
0000
,
0001
0000
0000
0000
,
1000
0010
1000
0000
,
0100
0000
0010
0000
,
0100
1000
0100
0000
,
0010
0000
0001
0000
,
0000
0100
0010
0000
,
1000
0000
0001
0000
,
0010
0000
0100
0000
,
2002
0000
3003
0000
,
1000
0000
0000
0000
,
1000
0000
1000
0000
,
0001
0000
0000
0000
,
0001
0000
0001
0000
,
0110
0000
0000
0000
,
1001
0000
0000
0000
,
0100
0000
0010
0000
,
1001
0000
0000
0000
,
1000
0100
1000
0000
,
0001
0000
0100
0000
,
0010
1000
0010
0000
,
0100
0000
0001
0000
,
0000
0110
0000
1000
,
0001
0000
0100
0000
,
0110
0000
1001
0000
,
0110
0000
0000
0000
,
1000
1000
1000
1000
,
0001
1000
0001
0000
,
0001
0001
0001
0001
,
1000
0001
1000
0000
,
0010
0010
0010
0010
,
0100
0010
0100
0000
,
0100
0100
0100
0100
,
0010
0100
0010
0000
,
0000
1000
1000
1000
,
0001
0001
0000
0000
,
0000
0001
0001
0001
,
1000
1000
1000
0100
,
0000
0010
0100
0010
,
0001
1000
0001
1000
,
0010
0100
0010
0100
,
0001
0001
1000
1000
,
2002
0000
0000
0000
,
0000
0000
0000
0000
,
0000
0000
0000
0000
,
3003
0000
0000
0000
,
0001
0000
0000
0000
,
1000
0000
0000
0000
,
0001
0000
1000
0000
,
0001
0000
1000
0000
,
0010
0000
0100
0000
,
0010
0000
0100
0000
,
0001
0000
1000
0000
,
0100
0000
0010
0000
,
0200
0000
0000
0000
,
0300
0000
0000
0000
,
1000
1000
1000
0000
,
0001
0000
0100
0000
,
0010
0010
0010
0000
,
0100
0000
0001
0000
,
0110
0000
1000
0000
,
0001
0001
0001
0000
,
0110
0000
1001
0000
,
0110
0000
0000
0000
,
1000
1000
1000
0000
,
0010
0000
0100
0000
,
0001
0001
0001
0000
,
0010
0000
0100
0000
,
1001
0000
0000
0000
,
0001
1000
0001
1000
,
0001
0100
1000
0100
,
0010
0100
0000
0010
,
0000
2002
0000
3003
;

//--------------- dance-single - forcednature ----------------
#NOTEDATA:;
#STEPSTYPE:dance-single;
#DESCRIPTION:forcednature;
#DIFFICULTY:Easy;
#METER:10;
#RADARVALUES:0,0,0,0,0;
#CREDIT:forcednature;
#NOTES:
0000
0000
0000
0000
,
0000
0000
0000
0000
,
0000
0000
0000
0000
,
0000
0000
0000
0000
,
0000
0000
0000
0000
,
0000
0000
0000
0000
,
0000
0000
0000
0000
,
0000
0000
0000
0000
,
0000
0000
0000
0000
,
0000
0000
0000
0000
,
0000
0000
0000
0000
,
1001
0000
0001
0000
,
0100
0000
0010
0000
,
1001
0000
1000
0000
,
0100
0000
0010
0000
,
1001
0000
0100
0000
,
1001
0000
0010
0000
,
0110
0000
1001
0000
,
0020
0000
0000
0030
,
0001
0001
0001
0000
,
0100
0001
0100
0000
,
0001
0001
0001
0000
,
1000
0000
0000
0010
0000
0000
0000
0000
,
1000
1000
1000
0000
,
0100
1000
0100
0000
,
1000
1000
1000
0000
,
0010
0100
0001
0000
,
0010
0010
0010
0000
,
0100
0010
0100
0000
,
0010
0010
0010
0000
,
0001
0000
0000
1000
0000
0000
0000
0000
,
0010
0010
0010
0000
,
0100
0010
0100
0000
,
0010
0010
0010
0000
,
2002
0000
3003
0000
,
1000
0100
1000
0100
,
0010
0001
0010
0000
,
0001
0100
0001
0100
,
0010
1000
0010
0000
,
1000
0001
1000
0001
,
0010
0100
0010
0000
,
0001
1000
0001
1000
,
0010
0100
0010
0000
,
1000
0100
0010
0001
,
0010
0100
1000
0000
,
0001
0100
0010
1000
,
0010
0100
0001
1000
,
0000
1001
0000
0001
,
0010
0001
1000
0010
,
1000
0100
0010
0100
,
0020
0000
0000
0030
,
0002
0000
0100
0000
,
0100
0000
0100
0003
,
2000
0000
0100
0000
,
0100
0000
0100
3000
,
0002
0000
0010
0003
,
2000
0000
0010
3000
,
1001
0000
0110
0000
,
2002
0000
0000
0000
0000
3003
0000
0000
,
1000
0100
0010
0100
,
1000
0100
0010
0000
,
0001
0100
0010
0100
,
0001
1000
0010
0000
,
0000
0100
0100
0001
,
0100
0001
1000
0001
,
1000
1000
0001
0001
,
0010
0000
0000
0000
,
0001
1001
1000
1001
,
0001
0100
0110
0110
,
1000
1001
0001
1001
,
1000
0100
0110
0110
,
0001
1001
1000
1001
,
0001
0010
0110
0110
,
1000
1001
0001
1001
,
1000
0010
0110
0110
,
0000
1001
1000
1001
,
0001
1001
0000
0000
,
0000
0110
0100
0110
,
0010
0110
0100
0110
,
0000
1000
0001
0010
,
0001
1000
0010
0100
,
0110
0000
1001
0000
,
0100
0110
0010
0110
,
2002
0000
0000
0000
,
0000
0000
0000
0000
,
0000
0000
0000
0000
,
0000
0000
3003
0000
,
1000
0000
0000
0000
,
0100
0000
0000
0000
,
0010
0000
0001
0000
,
0100
0000
0001
0000
,
1000
0000
0100
0000
,
1000
0000
0010
0000
,
0100
0001
0100
0001
,
0010
0100
0010
0100
,
1000
0010
0100
0001
,
0000
0000
0000
0000
,
0010
0000
0100
0010
0000
0000
0100
0000
,
1000
0001
1000
0010
,
0100
0000
0010
0100
0000
0000
0010
0000
,
1000
0001
0010
0100
,
0110
0000
0010
0001
,
1000
0001
1000
0000
0010
0000
0100
0000
,
0001
1001
1000
1001
,
0010
0000
0010
0100
0000
0000
0000
0000
,
0001
0000
1000
0001
0000
0000
1000
0000
,
0100
0010
0001
1000
,
0010
0000
0100
0010
0000
0000
1000
0000
,
0001
0010
0100
1000
,
2002
0000
0000
0000
,
0000
0000
0000
3003
,
0001
0000
0100
0000
0001
1000
0001
0000
,
1000
0001
1000
0001
0000
0010
0100
0000
,
0000
2002
0000
3003
;

//--------------- dance-single - forcednature ----------------
#NOTEDATA:;
#STEPSTYPE:dance-single;
#DESCRIPTION:forcednature;
#DIFFICULTY:Medium;
#METER:14;
#RADARVALUES:0,0,0,0,0;
#CREDIT:forcednature;
#NOTES:
0000
0000
0000
0000
,
0000
0000
0000
0000
,
0000
0000
0000
0000
,
0000
0000
0000
0000
,
0000
0000
0000
0000
,
0000
0000
0000
0000
,
0000
0000
0000
0000
,
0000
0000
0000
0000
,
0000
0000
0000
0000
,
0000
0000
0000
0000
,
0000
0000
0000
0000
,
1000
0100
1000
0100
,
0010
0001
0010
0000
,
0001
0100
0001
0100
,
0010
1000
0010
0000
,
0100
0001
0100
0000
0001
0000
0010
0000
,
0100
1000
0100
0000
1000
0000
0010
0000
,
0100
0010
0100
0000
0001
1000
0001
0000
,
0020
0000
0000
0030
,
0110
0110
0110
0100
,
1000
0001
1000
0000
0010
0000
0100
0000
,
0110
0110
0110
0010
,
1000
0000
0100
1000
0000
0001
0010
0000
,
0110
0110
0110
0100
,
1000
0001
0100
0000
0001
0000
1000
0100
,
0010
0000
0110
0000
0100
1000
0100
0000
,
1000
0010
1000
0000
0001
0020
0000
0130
,
1000
1100
1100
0100
,
0010
0001
1000
0000
0010
0100
0001
0000
,
0101
0000
0101
0000
1000
0001
1000
0000
,
0010
0000
0010
0100
0000
0100
0001
0000
,
0011
0110
0011
1000
,
0001
0100
0010
0000
1000
0100
0010
0000
,
0100
0000
1000
0000
0010
0100
0010
0000
,
2002
0000
0000
3003
,
1000
0100
1000
0100
1000
0000
0001
0010
,
0001
0000
1000
0100
1000
0100
0010
0000
,
0001
0100
0001
0100
0001
0000
1000
0010
,
1000
0000
0001
0100
0001
0100
0010
0000
,
1000
0001
1000
0001
1000
0000
0100
0010
,
0100
0000
1000
0001
1000
0001
0010
0000
,
0001
1000
0001
1000
0001
0000
0100
0010
,
0100
0000
0001
1000
0001
0000
0010
0000
,
0100
1000
0100
0010
0001
0000
0010
0100
,
1000
0000
0100
0010
0001
0000
1000
0000
,
0001
0100
0010
1000
0001
0000
0010
0000
,
0100
1000
0001
0100
0010
0000
1000
0001
,
0000
0110
0000
1000
0001
0000
1000
0010
,
1000
0000
0001
0010
0001
0000
0100
0010
,
0100
0010
1000
0001
1000
0000
0100
0010
,
0002
0000
0000
0003
,
2000
0010
0010
0001
,
0001
0100
3100
1000
,
0002
0010
0010
1000
,
1000
0100
0103
0001
,
2000
0100
0001
3010
,
0002
0100
1000
0013
,
2002
3003
0220
0330
,
2002
0000
0000
0000
0000
3003
0000
0000
,
1000
0000
1000
0100
0000
0100
0010
0000
,
0010
0001
1000
0000
0010
1000
0001
0000
,
0001
0000
0001
0100
0000
0100
0010
0000
,
1000
0100
0010
0000
0100
0010
0002
0000
,
0003
0000
1000
0010
1000
0010
0100
0000
,
0001
0010
0100
0000
1000
0010
0100
0000
,
0001
1000
0001
1000
0100
0010
0100
0010
,
0002
0000
0000
0003
,
0101
1100
0101
1100
,
1000
0000
0010
0100
0000
0000
0001
0000
0010
0100
0000
0000
,
1010
0011
1010
0011
,
1000
0000
0100
0010
0000
0000
0001
0000
0100
0010
0000
0000
,
1100
0101
1100
0101
,
0001
0000
0010
0100
0000
0000
1000
0000
0010
0100
0000
0000
,
0011
1010
0011
1010
,
1000
0000
0100
0010
0000
0000
0001
0000
0100
0010
0000
0000
,
0000
0000
0000
1000
0000
1000
0100
0000
0100
0010
0000
0010
,
0001
0000
0001
2000
0000
0000
3000
0000
0000
0000
0000
0000
,
0000
0000
0000
0001
0000
0001
0100
0000
0100
0010
0000
0010
,
1000
0000
1000
0100
0000
0100
0010
0000
0010
0002
0000
0000
,
0003
0000
0000
0101
0000
0000
0100
0000
0000
0010
0000
1000
,
0010
0000
0000
1000
0000
0001
0010
0001
0010
0100
0000
0000
,
1000
0010
1000
0010
0000
0000
0100
0001
0100
0001
0000
0000
,
0010
0000
0010
0100
0000
0100
0010
0000
0010
0100
0000
0000
,
2002
0000
0000
0000
,
0000
0000
0000
0000
,
0000
0000
0000
0000
,
0000
0000
3003
0000
,
0001
0000
0000
0100
0000
0000
0001
0000
,
0000
1000
0000
0000
0001
0000
0000
0000
,
0010
0010
0100
0100
,
1000
0001
1000
0001
,
0100
0100
0010
0010
,
1000
0001
1000
0001
,
0010
0100
1000
0100
,
0010
0001
1000
0001
,
0100
0010
0100
0010
0100
0010
0100
0010
,
0000
0000
0000
0000
,
1000
0100
0010
0001
0000
0010
0100
1000
,
0001
0101
1000
1100
,
0001
0100
0010
1000
0000
0010
0100
0001
,
1000
0000
1010
0000
0001
0010
0100
0000
,
0110
0000
0010
0001
0100
0001
1000
0000
,
0010
1000
0100
1000
0001
0000
0100
0000
,
0110
0000
0010
1000
0100
0010
0001
0000
,
0100
0100
0010
1000
0000
0001
0010
0000
,
0100
0010
0100
1000
0000
0001
0100
0010
,
1000
1100
0001
0101
,
1000
0010
0100
0010
0000
1000
0001
0010
,
0100
0000
0011
0000
0001
1000
0010
0000
,
0220
0000
0000
0000
,
0000
0000
0000
0330
,
0100
0001
0010
0100
0001
0100
1000
0001
,
0100
0010
0001
0010
0000
1000
0100
0001
,
0000
0220
0000
0330
;

//--------------- dance-single - forcednature ----------------
#NOTEDATA:;
#STEPSTYPE:dance-single;
#DESCRIPTION:forcednature;
#DIFFICULTY:Hard;
#METER:17;
#RADARVALUES:0,0,0,0,0;
#CREDIT:forcednature;
#NOTES:
0000
0000
0000
0000
,
0000
0000
0000
0000
,
0000
0000
0000
0000
,
0000
0000
0000
0000
,
0000
0000
0000
0000
,
0000
0000
0000
0000
,
0000
0000
0000
0000
,
0000
0000
0000
0000
,
0000
0000
0000
0000
,
0000
0000
0000
0000
,
0000
0000
0000
0000
,
0102
0100
1000
1000
,
0013
0001
1000
0100
,
2100
0100
0001
0001
,
3010
1000
0001
0100
,
0010
1000
0100
1000
0010
1000
0100
1000
,
0001
0010
0001
0100
0001
0010
0001
0100
,
0001
1000
0001
0000
0010
0000
0100
0000
1000
0001
1000
0000
0010
0000
0100
0000
,
0002
0000
0000
0003
,
1100
0000
1100
0000
1100
0000
0100
0010
,
0001
0100
0010
0100
1000
0100
0001
1000
,
0010
0000
1010
0000
1010
0000
0010
0100
,
0001
0000
1000
0100
1000
0100
0010
0000
0001
0100
0001
0100
0010
0000
1000
0001
,
0010
0000
0000
0000
0011
0000
0000
0000
0011
0000
0000
0000
0001
0000
0000
0001
,
0100
0010
1000
0010
0001
0010
0100
0001
,
0010
0000
0110
0000
1000
0100
1000
0010
,
0100
0000
0001
0010
0001
0000
1000
0010
0100
0000
0201
0000
0000
0000
0301
0000
,
0011
0000
0011
0000
0011
0000
0001
0100
,
1000
0000
0100
0000
0010
0000
1000
0000
0001
0000
1000
0000
0100
0010
0001
0000
,
0101
0000
0000
0000
0101
0000
0000
0000
1000
0100
1000
0000
0001
0100
0001
0000
,
0010
0000
0100
1000
0100
1000
0010
0000
0100
0001
0100
0001
1000
0100
0010
0001
,
0100
0000
0000
0000
0110
0000
0000
0000
0110
0000
0000
0010
1000
0000
0001
0000
,
1000
0000
0100
0000
0001
0000
0000
0000
0100
0000
0010
0001
0010
0000
0100
0000
,
1000
0000
0000
0000
0001
0000
0100
0000
1000
0000
0100
0000
0010
0000
1000
0001
,
2000
0010
0200
3300
,
0100
0000
0010
0000
0001
0000
0100
0000
0010
0000
0000
0000
1000
0000
0001
0010
,
0001
0000
1000
0010
0100
1000
0100
0000
,
0010
1000
0100
0001
0100
0000
0010
0001
,
1000
0000
0010
0100
1000
0100
0002
0010
,
1003
0000
0001
0000
0010
0000
0100
0000
0001
0000
0000
0000
0100
0000
1000
0010
,
1000
0000
0001
0100
1000
0100
0010
0000
,
1000
0000
0100
0000
0001
0000
0100
0000
0010
0000
0001
0000
1000
0010
1000
0000
,
0100
0001
0100
0010
0001
1000
1020
0000
,
0031
0000
0010
0000
1000
0000
0001
0000
0010
0000
0000
0000
0100
0000
1000
0001
,
1000
0000
0010
0100
1000
0100
0010
0000
,
1000
0001
0010
0001
0100
0000
0010
1000
,
0200
0001
1300
0100
0010
0001
0100
0010
,
0000
0000
0110
0000
1000
0000
0001
0000
0100
0000
0000
0000
0010
0000
1000
0001
,
1000
0100
1000
0010
0001
0010
0100
0001
,
0010
0000
0100
0000
1000
0000
0001
0100
0001
0000
0010
0000
0100
1000
0001
0100
,
0020
0000
0000
0030
,
0110
0000
0100
0001
0000
0001
0010
0000
,
0010
0100
0000
0100
1000
0001
1000
0010
,
0110
0000
0001
1000
0000
1000
0100
0000
,
0100
0010
0000
0010
0001
1000
0001
0100
,
0120
0000
2030
0000
3002
0000
0013
0100
,
0120
0000
0032
0000
2003
0000
3010
0100
,
0220
0330
2002
3003
,
0220
0000
0000
0000
0000
0000
0000
0000
0000
0000
0330
0000
0000
0000
1000
0001
,
2000
0000
0000
0000
3001
0000
0100
0000
0010
0000
0100
0000
1000
0000
0100
0001
,
0100
0010
1000
0001
1000
0100
0010
0010
,
0002
0000
1003
0100
0010
0100
0001
0100
,
1000
0000
0001
0100
0001
0000
1000
0100
0010
0001
1000
0001
0200
0000
0000
0000
,
0310
1000
0001
1000
0100
0000
0100
0000
0010
0000
0010
0000
0001
0000
0000
0001
,
0100
0000
1000
0000
0100
0000
0000
0100
0010
0000
1000
0000
0010
0000
0001
0000
,
0010
0000
0100
0000
0001
0000
1000
0000
0100
0000
0010
0001
0010
0000
0100
1000
,
0002
0000
0000
0003
,
1001
0000
0000
1100
0000
0000
1001
0000
0000
1100
0000
0010
,
0010
0000
0000
0101
0000
0000
1000
0100
0010
0100
1000
0001
,
0100
0000
0000
0010
1000
0001
0010
0000
0000
0110
0000
1000
,
1000
0000
0000
0011
0000
0000
0001
0100
0010
1000
0100
0010
,
0001
0000
0000
0101
0000
0000
1001
0000
0000
0101
0000
0010
,
0010
0000
0000
1100
0000
0000
1000
0010
1000
0001
0010
0001
,
0100
0000
0000
0101
0000
0000
1100
0000
0000
1001
0000
0010
,
0110
0000
0000
1001
0000
0000
1000
0100
0010
0001
0100
0010
,
0000
0000
0000
1000
0100
1000
0010
0100
0001
0010
0001
0100
,
0010
1000
0001
0020
0000
0000
0030
0000
0000
0000
0000
0000
,
0000
0000
0000
0100
1000
0010
0100
0001
0010
0100
1000
0001
,
0100
0001
1000
0010
1000
0001
0010
0001
0100
0010
1000
0001
,
0000
0000
0000
1100
0000
0000
1001
0000
0000
1010
0000
0001
,
0001
0000
0000
0101
0000
0000
0001
1000
0001
0010
0100
1000
,
0010
1000
0100
1000
0010
1000
0001
0010
0001
0100
0001
0010
,
0001
0100
1000
0100
0010
1000
0100
0001
0100
0010
0001
1000
,
0020
0000
0000
0000
,
0000
0000
0000
0000
,
0000
0000
0000
0000
,
0000
0000
0030
0000
,
2000
0000
0000
3200
0000
0000
0320
0000
,
0000
0032
0000
0000
0203
0000
0320
0000
,
2030
0100
3200
0010
,
0320
0001
0032
1000
,
2003
0010
3020
0100
,
0230
0001
0302
0010
,
0013
0100
1000
0100
0010
0001
1000
0001
,
0100
0010
1000
0001
0010
0100
1000
0001
,
0100
0100
0010
0010
1000
1000
0001
0001
,
0000
0000
0000
0000
,
1000
0100
0010
0001
0100
0000
0201
0000
0000
0000
0301
0000
0010
0000
0001
0000
,
0100
0010
0100
1000
0100
0001
1000
0010
,
1000
0000
0000
1000
0100
0000
0010
0000
0001
0000
0100
0000
1000
0000
0100
0000
,
0010
0000
1000
0100
1000
0000
0001
0100
0001
0000
0010
0000
0100
0000
0010
0000
,
0021
0000
0000
0000
0031
0010
0100
1000
0001
0000
0000
0001
0100
0000
0010
0000
,
1000
0000
0100
0000
0001
0000
0100
0000
1000
0000
0001
0100
0010
0000
0010
1000
,
0001
0000
1000
0100
0010
0001
1000
0001
0100
0000
0100
0000
0010
0000
0010
0000
,
1000
0100
1000
0001
0100
0000
0020
0000
0030
0000
1000
0000
1000
0000
0001
0000
,
0010
0100
1000
0100
0010
0000
0012
0000
0000
0000
0103
0000
0010
0000
0100
0000
,
1000
0100
0001
1000
0010
1000
0100
0010
,
0001
0100
0001
0000
0010
0000
0100
0000
1000
0000
0010
0000
0001
0000
0010
0000
,
0100
0000
0001
1000
0100
0000
0100
0010
0001
0000
0001
0000
1000
0000
1000
0000
,
1002
0000
0000
0000
1003
0010
0100
0001
0010
0000
0000
0010
0100
0000
1000
0000
,
0010
0010
0100
0100
0001
0001
1000
1000
,
1001
0000
0001
0010
0100
1000
0001
1000
0010
0000
0100
0000
1000
0000
0100
0000
,
0001
0010
0001
0000
1000
0010
1000
0000
0000
0000
0001
0000
1000
0100
0010
0001
,
0000
2002
0000
3003
;

//--------------- dance-double - forcednature ----------------
#NOTEDATA:;
#STEPSTYPE:dance-double;
#DESCRIPTION:forcednature;
#DIFFICULTY:Easy;
#METER:12;
#RADARVALUES:0,0,0,0,0;
#CREDIT:forcednature;
#NOTES:
00000000
00000000
00000000
00000000
,
00000000
00000000
00000000
00000000
,
00000000
00000000
00000000
00000000
,
00000000
00000000
00000000
00000000
,
00000000
00000000
00000000
00000000
,
00000000
00000000
00000000
00000000
,
00000000
00000000
00000000
00000000
,
00000000
00000000
00000000
00000000
,
00000000
00000000
00000000
00000000
,
00000000
00000000
00000000
00000000
,
00000000
00000000
00000000
00000000
,
00011000
00010000
00000100
00000100
,
00001000
00001000
00000001
00000001
,
00000101
00000100
00000010
00000010
,
00010000
00010000
00001000
00001000
,
00100000
00010000
00100000
00000000
01000000
00000000
10000000
00000000
,
00010000
01000000
00010000
00000000
00100000
00000000
00001000
00000000
,
00010000
00000010
00010000
00000000
00000100
00001000
00000100
00000000
,
00000020
00000000
00000000
00000030
,
00001001
00000000
00000001
00000000
00000100
00000000
00000010
00001000
,
00000010
00010000
00001000
00000000
00100000
00000000
00010000
00000000
,
10000000
00000000
00100000
00000000
01000000
00000000
00010000
00100000
,
01000000
00000000
00000000
00010000
00000000
00000000
00001000
00000000
00000000
00010000
00000000
00000000
00100000
00000000
00000000
00000000
,
01100000
00000000
01000000
00000000
00010000
00000000
10000000
01000000
,
10000000
01000000
00100000
00000000
00010000
00000000
01000000
00010000
,
01000000
00000000
00001000
00000000
00010000
00000100
00010000
00000000
,
00000100
00001000
00000100
00000000
00000000
00000110
00000000
00000000
,
00001001
00000000
00000001
00000000
00000100
00000000
00000010
00001000
,
00000010
00000000
00010000
00000000
00001000
00010000
00001000
00010000
,
00001000
00100000
01000000
01000000
,
00010000
00000000
00000000
00001000
00000000
00000000
00000100
00000000
00000000
00001000
00000000
00000000
00010000
00000000
00010000
00000000
,
00100000
00000000
01000000
00000000
00010000
00000000
10000000
01000000
,
10000000
01000000
00100000
00000000
00010000
01000000
00010000
00000000
,
00100000
00000000
00001000
00010000
00001000
00000000
00000010
00000000
,
00000220
00000000
00000330
00000000
,
00001000
00000001
00001000
00000001
00001000
00000000
00000010
00000000
,
00000100
00001000
00010000
00100000
,
01000000
00010000
01000000
00010000
01000000
00000000
00100000
00000000
,
10000000
01000000
00100000
00010000
,
01000000
00001000
01000000
00001000
01000000
00000000
00010000
00000000
,
00100000
00001000
00020000
00030020
,
00001030
00000100
00001000
00000100
00001000
00000000
00000001
00000000
,
00000100
00000010
00001000
00000001
,
00000010
00000100
00001000
00000001
00000010
00000000
00000100
00000000
,
00001000
00000010
00010000
00001000
,
00100000
00010000
01000000
00010000
10000000
00000000
00100000
00000000
,
10000000
01000000
00010000
00001000
,
00000000
00000110
00000000
00000000
00000001
00000000
00001000
00000001
,
00001000
00000000
00000010
00000000
00000100
00000001
00000100
00000000
,
00001000
00010000
00001000
00000000
00100000
00010000
00100000
00000000
,
02000000
00000000
00000000
03000000
,
10010000
00000000
01000000
00000000
,
00010000
00000000
00001000
00000100
,
00001001
00000000
00000100
00000000
,
00001000
00000000
00010000
01000000
,
01100000
00010000
00001000
00010000
,
00000110
00001000
00010000
00001000
,
00010100
00000000
01001000
00000000
,
00011000
00000000
00000000
00000000
,
00100000
00000000
00010000
00100000
00000000
01000000
10000000
00000000
,
00010000
01000000
00010000
00000000
00100000
00000000
00001000
00000000
,
00010000
00000000
00000010
00001000
00000000
00000100
00000010
00000000
,
00000001
00000100
00000001
00000000
00000010
00000000
00000100
00000000
,
00000000
00000000
00001000
00000100
00001000
00000100
00001000
00000000
,
00000010
00001000
00000010
00000000
00010000
00001000
00010000
00000000
,
01001000
00010000
00010100
00001000
,
00022000
00000000
00000000
00033000
,
00200000
00302000
00023000
00230000
,
20300000
00000000
00000000
30020000
00000000
00000000
00130000
00000000
00100000
00000000
00100000
00000000
,
02000000
03020000
00032000
00003200
,
00000320
00000000
00000000
00002030
00000000
00000000
00003001
00001000
00000001
00001000
00000001
00001000
,
00000002
00000203
00000320
00002030
,
00003200
00000000
00000000
00020300
00000000
00000000
00031000
00000000
00001000
00000000
00001000
00000000
,
00200000
00320000
02030000
03020000
,
00230000
00000000
00000000
02300000
00000000
00000000
13000000
00010000
10000000
00010000
10000000
00010000
,
00000000
00000000
00000000
01000000
00001000
01000000
00001000
01000000
00001000
01000000
00001000
01000000
,
00001000
01000000
00001000
01000000
00000000
00000000
00000000
00000000
00000000
00000000
00000000
00000000
,
00000000
00000000
00000000
00000100
00010000
00000100
00010000
00000100
00010000
00000100
00010000
00000100
,
00010000
00001000
00010000
00001000
00010000
00001000
00010000
00001000
00010000
00001000
00010000
00001000
,
00000000
00000020
00000230
00002300
,
00003002
00000203
00002300
00023000
,
00031000
00000000
00001000
00000000
00001000
00000000
00010000
00000000
00010000
00000000
00010000
00000000
,
00100000
00000000
00100000
00000000
00100000
00000000
10000000
00010000
10000000
00010000
10000000
00010000
,
20000000
00000000
00000000
00000000
,
00000000
00000000
00000000
00000000
,
00000000
00000000
00000000
00000000
,
00000000
00000000
30000000
00000000
,
02000000
00000000
00000000
03020000
00000000
00000000
00032000
00000000
,
00000000
00003020
00000000
00000000
00000032
00000000
00002003
00000000
,
00003001
00000001
00000100
00000100
,
00000010
00001000
00000010
00010000
,
00002000
00000000
00000000
00203000
00000000
00000000
00320000
00000000
,
00000000
20030000
00000000
00000000
30200000
00000000
02300000
00000000
,
03010000
00010000
00100000
00100000
,
00001000
00001000
00010000
00010000
,
00000010
00001000
00000010
00001000
00000010
00001000
00000010
00001000
,
00000000
00000000
00000000
00000000
,
00000110
00000000
00000100
00000010
00000000
00000010
00000001
00000000
,
00000100
00000010
00001000
00000001
,
00000100
00000010
00001000
00000010
,
00010000
00000000
00001000
00000000
00100000
00010000
00100000
00000000
,
01100000
01000000
10000000
00010000
,
01000000
00000000
00001000
00000000
00010000
00000100
00010000
00000000
,
00011000
00100000
00001000
00010000
,
00000010
00000000
00000010
00001000
00000000
00001000
00000100
00000000
,
00000010
00000000
00000010
00000001
00000000
00000001
00000100
00000000
,
00000010
00001000
00010000
01000000
,
01100000
00100000
10000000
00010000
,
10000000
00000000
01000000
00000000
00100000
00010000
00100000
00000000
,
00022000
00000000
00000000
00000000
,
00000000
00000000
00000000
00033000
,
00000100
00001000
00000100
00000000
00010000
00001000
00010000
00000000
,
00100000
01000000
00100000
01000000
00000000
00010000
10000000
00010000
,
00000000
02200000
00000000
03300000
;

//--------------- dance-double - forcednature ----------------
#NOTEDATA:;
#STEPSTYPE:dance-double;
#DESCRIPTION:forcednature;
#DIFFICULTY:Medium;
#METER:15;
#RADARVALUES:0,0,0,0,0;
#CREDIT:forcednature;
#NOTES:
00000000
00000000
00000000
00000000
,
00000000
00000000
00000000
00000000
,
00000000
00000000
00000000
00000000
,
00000000
00000000
00000000
00000000
,
00000000
00000000
00000000
00000000
,
00000000
00000000
00000000
00000000
,
00000000
00000000
00000000
00000000
,
00000000
00000000
00000000
00000000
,
00000000
00000000
00000000
00000000
,
00000000
00000000
00000000
00000000
,
00000000
00000000
00000000
00000000
,
00011000
00001000
01000000
01000000
,
00010000
00010000
10000000
10000000
,
11000000
01000000
00010000
00010000
,
00001000
00001000
00000100
00000100
,
00000001
00000010
00000001
00000000
00000100
00000000
00000010
00000000
,
00001000
00000100
00001000
00000000
00000010
00000000
00010000
00000000
,
00001000
01000000
00001000
01000000
00010000
10000000
00010000
10000000
,
00200000
00000000
00000000
00300000
,
10010000
00000000
01100000
00000000
10010000
00000000
10000000
01000000
,
00100000
00010000
01000000
00000000
00001000
00010000
00000100
00001000
,
00000100
00000000
00000110
00000000
00000011
00000000
00000001
00000100
,
00001000
00000000
00000000
00001000
00010000
00000000
00001000
00000000
00000000
00001000
00010000
00000000
00100000
00000000
00100000
00000000
,
01000000
00000000
01100000
00000000
10010000
00000000
10000000
01000000
,
00100000
00010000
00100000
00000000
00001000
00010000
00000010
00001000
,
00000010
00000000
00000110
00000000
00000001
00000010
00000001
00000100
,
00000010
00010000
00001000
00010000
00000000
01001000
00000000
00000000
,
00110000
00000000
00011000
00000000
00110000
00000000
01000000
10000000
,
00010000
01000000
00100000
00000000
10000000
01000000
00010000
00001000
,
00010000
00000000
00010100
00000000
00000100
00001000
00000010
00001000
,
00000100
00000000
00000000
00000100
00001000
00000000
00000010
00000000
00000000
00000000
00000100
00000000
00000001
00000000
00000001
00000000
,
00000010
00000000
00000000
00000000
00001100
00000000
00000000
00000000
00000001
00000000
00000000
00000001
00000100
00000000
00000010
00000000
,
00001000
00000001
00000010
00000000
00000100
00010000
00001000
00010000
,
00100000
00000000
01000000
00010000
10000000
00010000
00100000
01000000
,
00020000
00000000
00002000
00033000
,
00010000
00000100
00001000
00000010
00000100
00000000
00000001
00000010
,
00000100
00000000
00001000
00000001
00000100
00000010
00010000
00000000
,
00001000
00100000
00010000
01000000
00100000
00000000
10000000
01000000
,
00010000
00000000
01000000
00100000
00001000
00010000
00000010
00000000
,
00000100
00001000
00000100
00000001
00001000
00000000
00000010
00010000
,
00001000
00000000
00100000
00010000
01000000
00100000
10000000
00000000
,
01000000
00010000
00001000
00010000
00001000
00000000
00100000
00010000
,
01000000
00000000
00100000
00010000
00001000
00000100
00000010
00000000
,
00001000
00000001
00000010
00001000
00010000
00000000
00000100
00001000
,
00000010
00000000
00000100
00001000
00010000
01000000
00100000
00000000
,
00010000
01000000
00100000
10000000
00010000
00000000
00100000
01000000
,
00010000
00001000
00000010
00000100
00001000
00000001
00000100
00001000
,
00000000
00100000
00100000
00100000
00100000
00000000
10000000
00010000
,
10000000
01000000
00100000
00010000
01000000
00001000
00010000
00000100
,
00001000
00000010
00010000
00001000
00000010
00000100
00001000
00000001
,
00000200
00000000
00000020
00000330
,
00001001
00001000
00000010
00000010
,
00010000
00000000
00010000
00000000
00001000
00100000
00001000
00100000
,
01000000
01000000
10000000
10000000
,
00100000
00000000
00100000
00000000
00010000
00001000
00010000
00001000
,
00000010
00000000
00000100
00000000
00001000
00000000
00000010
00001000
,
00010000
00000000
01000000
00000000
00010000
00000000
00100000
00010000
,
00001000
00000000
00000110
00000000
,
00001001
00000000
00000000
00000000
00000000
00000000
00000000
00000000
00000000
00000000
00000000
00000000
00000000
00000000
00000001
00000100
,
00000001
00000000
00000000
00000000
00000010
00000000
00000001
00000000
00000100
00000000
00000010
00000000
00001000
00000000
00000000
00001000
,
00000100
00000010
00000100
00001000
00000010
00010000
00001000
00001000
,
00100000
00000000
00010000
01000000
00100000
10000000
00010000
10000000
,
01000000
00010000
00001000
00010000
00000010
00000010
00002000
00000000
,
00003000
00000000
00000001
00000100
00001000
00010000
00100000
00000000
,
10000000
01000000
00010000
00000000
00001000
00000100
00000001
00000010
,
00000100
00001000
00000010
00000100
00001000
00010000
01000000
00100000
,
00020000
00000000
00000000
00030000
,
11000000
00000000
00000000
11000000
00000000
00000000
11000000
00000000
00000000
11000000
00000000
10000000
,
00010000
00000000
00000000
00110000
00000000
00000000
00100000
00001000
00010000
00000100
00001000
00000100
,
00000010
00000000
00000000
00000001
00001000
00000010
00001000
00000000
00000000
00001010
00000000
00000001
,
00000100
00000000
00000000
00000101
00000000
00000000
00000001
00000010
00000100
00010000
00001000
00100000
,
01000000
00000000
00000000
01100000
00000000
00000000
01100000
00000000
00000000
01100000
00000000
00100000
,
00010000
00000000
00000000
10010000
00000000
00000000
10000000
00100000
01000000
00010000
00100000
00001000
,
00010000
00000000
00000000
00010010
00000000
00000000
00010010
00000000
00000000
00010010
00000000
00001000
,
00000100
00000000
00000000
00000110
00000000
00000000
00000010
00000001
00001000
00000001
00000100
00000010
,
00000000
00000000
00000000
00000100
00000001
00001000
00000010
00010000
00001000
00100000
00010000
00100000
,
01000000
10000000
00010000
10000000
00000000
00000000
00000000
00000000
00000000
00000000
00000000
00000000
,
00000000
00000000
00000000
00100000
01000000
00010000
01000000
00001000
00010000
00000100
00001000
00000100
,
00000010
00000001
00001000
00000001
00000100
00000010
00010000
00001000
01000000
00010000
01000000
00100000
,
00000000
00000000
00000000
10100000
00000000
00000000
10100000
00000000
00000000
10100000
00000000
10000000
,
00010000
00000000
00000000
00110000
00000000
00000000
10000000
01000000
10000000
00010000
01000000
00010000
,
00100000
00001000
00010000
00000010
00001000
00000010
00001000
00000100
00000010
00000001
00000100
00000001
,
00000010
00000100
00001000
00000010
00010000
00001000
00000100
00000001
00000010
00000100
00000010
00000001
,
00000200
00000000
00000000
00000000
,
00000000
00000000
00000000
00000000
,
00000000
00000000
00000000
00000000
,
00000000
00000000
00000000
00000300
,
00000100
00000000
00000100
00001000
00000000
00001000
00010000
00000000
,
00010000
01000000
00000000
01000000
00100000
00010000
00100000
00010000
,
10000000
00000000
10000000
00100000
00000000
00100000
00010000
00000000
,
00001000
00000010
00000001
00000100
,
00001000
00000000
00001000
00010000
00000000
00010000
00100000
00000000
,
00100000
10000000
00000000
10000000
01000000
00100000
00010000
00100000
,
00001000
00010000
00001000
00010000
00000010
00001000
00000010
00001000
,
00000100
00010000
00000100
00010000
00001000
01000000
00001000
01000000
,
00100000
10000000
01000000
10000000
00100000
10000000
01000000
10000000
,
00000000
00000000
00000000
00000000
,
01000000
01000000
01000000
00010000
00000000
00001000
00000100
00000001
,
00000010
00000000
00000110
00000000
00000100
00001000
00000001
00001000
,
00000010
00000000
00010000
00001000
00100000
00010000
00100000
00001000
,
00010000
00000000
00000010
00001000
00000010
00000000
00001000
00000010
00001000
00000000
00000100
00000000
00000010
00000000
00000100
00000000
,
00000001
00000000
00000000
00000000
00000100
00000000
00001000
00000000
00000001
00000000
00000000
00000001
00000100
00000000
00000010
00000000
,
00001000
00000000
00000010
00000000
00010000
00000000
00001000
00000000
00100000
00000000
00010000
10000000
00010000
00000000
01000000
00000000
,
00100000
10000000
01000000
00100000
00010000
00001000
00000100
00000010
,
00000001
00000001
00000001
00000100
00000000
00001000
00010000
00001000
,
00100000
00100000
00100000
00010000
00000000
01000000
00100000
10000000
,
00010000
00000000
10010000
00000000
10000000
01000000
00100000
00010000
,
01000000
00000000
00001000
00010000
00000100
00001000
00000010
00001000
,
00000100
00000010
00000001
00000100
00000010
00001000
00000001
00000000
,
00002002
00000000
00000000
00000000
,
00000000
00000000
00000000
00003003
,
00000001
00000000
00000100
00000000
00000010
00001000
00000010
00000000
00010000
00000000
00001000
00000000
00100000
00000000
00010000
00000000
,
01000000
10000000
01000000
00010000
00000000
00100000
01000000
00010000
,
00000000
00000220
00000000
00000330
;

//--------------- dance-double - forcednature ----------------
#NOTEDATA:;
#STEPSTYPE:dance-double;
#DESCRIPTION:forcednature;
#DIFFICULTY:Hard;
#METER:17;
#RADARVALUES:0,0,0,0,0;
#CREDIT:forcednature;
#NOTES:
00000000
00000000
00000000
00000000
,
00000000
00000000
00000000
00000000
,
00000000
00000000
00000000
00000000
,
00000000
00000000
00000000
00000000
,
00000000
00000000
00000000
00000000
,
00000000
00000000
00000000
00000000
,
00000000
00000000
00000000
00000000
,
00000000
00000000
00000000
00000000
,
00000000
00000000
00000000
00000000
,
00000000
00000000
00000000
00000000
,
00000000
00000000
00000000
00000000
,
00011000
00010000
01000000
01000000
,
10000000
10000000
00100000
00010000
,
00011000
00001000
00000100
00000100
,
00000001
00000001
00000010
00001000
,
00010000
00000100
00010000
00001000
00010000
00000010
00010000
00001000
,
01000000
00001000
00010000
00001000
00100000
00001000
00010000
00001000
,
00010000
00000100
00010000
00000000
00001000
00000000
00010000
00000000
00001000
01000000
00001000
00000000
00010000
00000000
00001000
00000000
,
00000020
00000000
00000000
00000030
,
00000011
00000000
00000001
00000100
00001000
00000000
00010000
00100000
,
10000000
00010000
10000000
01000000
00100000
00010000
00100000
00001000
,
00010000
00000000
00100000
10000000
01000000
00000000
00100000
00010000
,
01000000
00000000
00001000
00010000
00001000
00010000
00000100
00000000
00001000
00000100
00001000
00000100
00000010
00000000
00000001
00001000
,
00000010
00000000
00000000
00000000
00000100
00000000
00001000
00000000
00010000
00000000
00000000
00000000
00100000
00000000
00000000
00100000
,
10000000
00010000
10000000
01000000
00010000
00001000
00000010
00000001
,
00001000
00000000
00000110
00000000
00000001
00000100
00001000
00010000
,
00000100
00000000
00001000
00000001
00001000
00000000
00000010
00010000
00001000
00000000
00200000
00000000
00000000
00000000
10300000
00000000
,
01100000
00000000
00100000
00001000
00010000
00000000
00100000
10000000
,
01000000
00000000
00010000
00000000
00001000
00000000
00000010
00000000
00000100
00000000
00001000
00000000
00000001
00000010
00000001
00000000
,
00000101
00000000
00000000
00000000
00000100
00000000
00000010
00000000
00001000
00000010
00001000
00000000
00000100
00001000
00000100
00000000
,
00010000
00000000
00001000
01000000
00001000
01000000
00010000
00000000
00100000
00010000
00100000
00010000
10000000
00100000
01000000
00010000
,
10000000
00000000
00000000
00000000
01000000
00000000
00010000
00000000
00001000
00000000
00000000
00001000
00000010
00000000
00000001
00000000
,
00001000
00000000
00000001
00000000
00000100
00000000
00000000
00000000
00001000
00000000
00010000
00001000
00010000
00000000
00100000
00000000
,
01000000
00000000
00000000
00000000
00010000
00000000
00100000
00000000
10000000
00000000
00100000
00000000
01000000
00000000
10000000
00010000
,
20000000
00000000
00000000
00000000
00000000
00000000
00000000
00000000
00100000
00000000
00000000
00100000
30000000
00000000
00000000
00000000
,
10000000
00000000
01000000
00000000
00010000
00000000
00001000
00000000
00000010
00000000
00000000
00000000
00000100
00000000
00001000
00000001
,
00001000
00000000
00000010
00000100
00001000
00010000
00000100
00001000
,
00000001
00000100
00001000
00010000
00100000
00000000
01000000
00010000
,
10000000
00000000
01000000
00010000
00001000
00010000
00200000
00000000
,
10300000
00000000
01000000
00000000
00010000
00000000
00001000
00000000
00000010
00000000
00000000
00000000
00000100
00000000
00010000
00001000
,
00010000
00000000
00100000
01000000
00001000
00010000
00000100
00001000
,
00000001
00000000
00000100
00000000
00001000
00000000
00010000
00000000
00100000
00000000
00000000
00000000
10000000
00010000
10000000
00000000
,
01000000
00010000
01000000
00100000
00001000
00010000
00200000
00000000
,
10300000
00000000
01000000
00000000
00010000
00000000
00001000
00000000
00000100
00000000
00000000
00000000
00000010
00000000
00001000
00000100
,
00001000
00000000
00000010
00010000
00001000
00010000
00000100
00001000
,
00000001
00000100
00001000
00010000
01000000
00000000
00100000
00010000
,
02000000
10000000
03010000
01000000
00100000
10000000
01000000
00100000
,
00000000
00000000
00000010
00000000
00000100
00000000
00001000
00000000
00000100
00000000
00000000
00000000
00000001
00000000
00001000
00000100
,
00001000
00000010
00001000
00000100
00010000
00001000
00010000
00100000
,
10000000
00000000
01000000
00000000
00100000
00000000
00010000
01000000
00010000
00000000
00100000
00000000
00001000
00010000
00000100
00001000
,
00000200
00000000
00000000
00000300
,
00000110
00000010
00000001
00000001
,
00000100
00001000
00010000
00100000
,
01100000
00100000
10000000
10000000
,
01000000
00010000
00001000
00000010
,
00000110
00001000
00010000
01000000
,
01100000
00010000
00001000
00000100
,
00000110
00000000
00011000
00000000
,
02200000
00000000
00000000
00000000
00000000
00000000
00000000
00000000
00000000
00000000
03300000
00000000
00000000
00000000
10000000
00010000
,
20000000
00000000
00000000
00000000
31000000
00000000
00010000
00000000
00001000
00000000
00010000
00000000
00000010
00000000
00010000
00001000
,
00010000
00000100
00001000
00000100
00010000
00001000
00000100
00000100
,
00000020
00000000
00001030
00000001
00000010
00001000
00000010
00000100
,
00001000
00000000
00000001
00000100
00000001
00000000
00001000
00000100
00010000
00001000
01000000
00001000
00020000
00000000
00000000
00000000
,
00130000
01000000
00100000
01000000
00010000
00000000
00010000
00000000
00010000
00000000
00010000
00000000
00010000
00000000
00000000
00010000
,
01000000
00000000
01000000
00000000
01000000
00000000
00000000
01000000
00100000
00000000
00100000
00000000
00100000
00000000
00100000
00000000
,
10000000
00000000
01000000
00000000
00010000
00000000
00001000
00000000
00000010
00000000
00000100
00001000
00000100
00000000
00010000
00001000
,
00020000
00000000
00000000
00030000
,
10100000
00000000
00000000
11000000
00000000
00000000
01010000
00000000
00000000
00011000
00000000
00000010
,
00000010
00000000
00000000
00001001
00000000
00000000
00000001
00000100
00001000
00010000
01000000
10000000
,
00100000
00000000
00000000
10000000
01000000
00100000
00010000
00000000
00000000
10010000
00000000
01000000
,
01000000
00000000
00000000
00011000
00000000
00000000
00001000
00010000
01000000
00010000
00001000
00000100
,
00001000
00000000
00000000
01001000
00000000
00000000
10010000
00000000
00000000
00101000
00000000
00010000
,
00010000
00000000
00000000
00001100
00000000
00000000
00000010
00010000
00001000
00010000
01000000
00010000
,
00001000
00000000
00000000
01001000
00000000
00000000
00010010
00000000
00000000
01001000
00000000
00100000
,
01100000
00000000
00000000
10010000
00000000
00000000
10000000
01000000
00010000
00001000
00000100
00000001
,
00000000
00000000
00000000
00000010
00000100
00001000
00000100
00010000
00001000
01000000
00010000
00100000
,
01000000
00010000
00001000
00000020
00000000
00000000
00000030
00000000
00000000
00000000
00000000
00000000
,
00000000
00000000
00000000
00000001
00000100
00001000
00010000
01000000
10000000
00100000
01000000
10000000
,
01000000
00010000
00100000
01000000
00010000
00001000
00000100
00001000
00010000
00100000
10000000
00010000
,
00000000
00000000
00000000
11000000
00000000
00000000
01010000
00000000
00000000
00011000
00000000
00000010
,
00000010
00000000
00000000
00001001
00000000
00000000
00000001
00000100
00001000
00010000
00100000
10000000
,
01000000
10000000
00100000
10000000
01000000
00010000
00001000
00000010
00000001
00000100
00000001
00000010
,
00001000
00010000
00100000
00010000
00001000
00010000
01000000
10000000
00010000
01000000
00001000
00010000
,
00200000
00000000
00000000
00000000
,
00000000
00000000
00000000
00000000
,
00000000
00000000
00000000
00000000
,
00000000
00000000
00300000
00000000
,
20000000
00000000
00000000
32000000
00000000
00000000
03020000
00000000
,
00000000
00032000
00000000
00000000
00003200
00000000
00000302
00000000
,
00000023
00000100
00000230
00001000
,
00002300
00010000
00023000
01000000
,
02030000
00100000
03200000
10000000
,
20300000
00010000
30020000
01000000
,
01030000
00010000
00100000
00010000
00001000
00000100
00001000
00000010
,
00000100
00001000
00010000
00100000
01000000
00010000
00001000
00000010
,
00000100
00000100
00000001
00000001
00000010
00000010
00000100
00000100
,
00000000
00000000
00000000
00000000
,
00001000
00000001
00001000
00000010
00000100
00000000
00002000
00000000
00000000
00000000
00013000
00000000
00100000
00000000
01000000
00000000
,
00100000
10000000
01000000
00010000
01000000
00100000
00001000
00010000
,
00000100
00000000
00000000
00000100
00001000
00000000
00000010
00000000
00000100
00000000
00001000
00000000
00000100
00000000
00000001
00000000
,
00000010
00000000
00000100
00001000
00000100
00000000
00010000
00001000
00010000
00000000
00100000
00000000
00100000
00000000
10000000
00000000
,
10020000
00000000
00000000
00000000
00130000
00010000
00100000
01000000
10000000
00000000
00000000
10000000
00100000
00000000
01000000
00000000
,
10000000
00000000
01000000
00000000
00010000
00000000
01000000
00000000
00001000
00000000
00010000
00000100
00001000
00000000
00000100
00000010
,
00000001
00000000
00001000
00000001
00000100
00000010
00001000
00000010
00010000
00000000
00010000
00000000
00001000
00000000
00001000
00000000
,
00100000
00010000
00100000
01000000
10000000
00000000
00200000
00000000
00300000
00000000
01000000
00000000
01000000
00000000
00010000
00000000
,
00100000
00001000
00010000
00001000
01000000
00000000
00200000
00000000
00000000
00000000
10300000
00000000
01000000
00000000
00010000
00000000
,
00001000
00000010
00000100
00001000
00000001
00000100
00001000
00000100
,
00000010
00001000
00000010
00000000
00010000
00000000
00001000
00000000
00100000
00000000
01000000
00000000
00010000
00000000
01000000
00000000
,
00100000
00000000
00010000
10000000
00100000
00000000
00100000
01000000
00001000
00000000
00001000
00000000
00010000
00000000
00010000
00000000
,
00012000
00000000
00000000
00000000
00013000
00000100
00001000
00000100
00000010
00000000
00000000
00000010
00000001
00000000
00001000
00000000
,
00000001
00000100
00001000
00010000
01000000
10000000
01000000
00010000
,
00001000
00000000
00010000
00000100
00001000
00000100
00000010
00000001
00001000
00000000
00000010
00000000
00000100
00000000
00000010
00000000
,
00010000
00001000
00100000
00010000
00100000
01000000
10000000
00000000
00000000
00000000
00100000
00000000
10000000
01000000
00010000
00001000
,
00000000
00022000
00000000
00033000
;
