#VERSION:0.83;
#TITLE:TAKE YOU AWAY;
#SUBTITLE:;
#ARTIST:SHIN feat.MiA & BEMANI Sound Team "あさき";
#TITLETRANSLIT:;
#SUBTITLETRANSLIT:;
#ARTISTTRANSLIT:SHIN feat.MiA & Asaki;
#GENRE:;
#CREDIT:;
#MUSIC:TAKE YOU AWAY.ogg;
#BANNER:TAKE YOU AWAY.png;
#BACKGROUND:TAKE YOU AWAY-bg.png;
#CDTITLE:./CDTitles/GITADORA HIGH-VOLTAGE.png;
#SAMPLESTART:73.539;
#SAMPLELENGTH:15.000;
#SELECTABLE:YES;
#OFFSET:0.986;
#BPMS:0.000=186.000;
#STOPS:230.000=0.323;
#TIMESIGNATURES:0.000=4=4,
228.000=3=4,
231.000=4=4
;
#BGCHANGES:0.000=../BGAs/17te.mp4=1.000=0=0=0=StretchNoLoop====,
99999.000=-nosongbg-=1.000=0=0=0=StretchNoLoop====
;
#FGCHANGES:;

//--------------- dance-single - forcednature ----------------
#NOTEDATA:;
#STEPSTYPE:dance-single;
#DESCRIPTION:forcednature;
#DIFFICULTY:Beginner;
#METER:1;
#RADARVALUES:0,0,0,0,0;
#CREDIT:forcednature;
#NOTES:
0000
0000
0000
0000
,
0000
0000
0000
0000
,
0000
0000
0000
0000
,
0000
0000
0000
0000
,
0000
0000
0000
0000
,
0000
0000
0000
0000
,
0001
0000
0000
0000
,
0000
0000
0000
0000
,
0000
0000
0000
0000
,
0000
0000
0000
0000
,
1000
0000
0000
0000
,
0000
0000
0000
0000
,
0000
0000
0000
0000
,
0000
0000
0000
0000
,
0010
0000
0000
0000
,
0000
0000
0000
0000
,
0000
0000
0000
0000
,
0000
0000
0000
0000
,
0100
0000
0000
0000
,
0000
0000
0000
0000
,
0001
0000
0000
0000
,
0000
0000
0000
0000
,
0100
0000
0000
0000
,
0000
0000
0000
0000
,
0010
0000
0000
0000
,
0000
0000
0000
0000
,
1000
0000
0000
0000
,
0000
0000
0000
0000
,
0000
0000
0000
0000
,
0000
0000
0000
0000
,
0001
0000
0000
0000
,
0001
0000
0000
0000
,
0001
0000
0000
0000
,
0001
0000
0000
0000
,
0010
0000
0000
0000
,
0000
0000
0000
0000
,
0000
0000
0000
0000
,
0000
0000
0000
0000
,
0100
0000
0000
0000
,
0100
0000
0000
0000
,
0100
0000
0000
0000
,
0100
0000
0000
0000
,
1000
0000
0000
0000
,
0000
0000
0000
0000
,
0010
0000
0000
0000
,
0000
0000
0000
0000
,
0100
0000
0000
0000
,
0000
0000
0000
0000
,
0001
0000
0000
0000
,
0000
0000
0000
0000
,
0010
0000
0000
0000
,
0010
0000
0000
0000
,
0010
0000
0000
0000
,
0010
0000
0000
0000
,
0100
0000
0000
0000
,
0000
0000
0000
0000
,
1000
0000
0000
0000
,
0000
0000
0000
0000
,
0000
1000
0000
0000
,
0000
0000
0000
0001
,
0000
0000
0000
0000
,
0000
0000
0000
0100
,
0000
0000
0000
0000
,
0000
0000
0000
0010
,
0000
0000
0000
0000
,
0000
0000
0000
1000
,
0000
0000
0000
0000
,
0000
0000
0000
0001
,
0000
0000
0000
0000
,
0000
0000
0000
0010
,
0000
0000
0000
0000
,
0000
0000
0000
0100
,
0000
0000
0000
0000
,
0000
0000
0000
1000
,
0000
0000
0000
1000
,
0000
0000
0000
1000
,
0000
0000
0000
0000
,
0000
0000
0000
0001
,
0000
0000
0000
0001
,
0000
0000
0000
0001
,
0000
0000
0000
0100
,
0000
0100
0000
0000
;

//--------------- dance-single - forcednature ----------------
#NOTEDATA:;
#STEPSTYPE:dance-single;
#DESCRIPTION:forcednature;
#DIFFICULTY:Easy;
#METER:6;
#RADARVALUES:0,0,0,0,0;
#CREDIT:forcednature;
#NOTES:
0000
0000
0000
0000
,
0000
0000
0000
0000
,
0000
0000
0000
0000
,
0000
0000
0000
0000
,
0000
0000
0000
0000
,
0000
0000
0000
0000
,
0001
0000
0000
0000
,
0001
0000
0100
0000
,
0010
0000
0010
0000
,
1000
0000
0000
0000
,
0001
0001
0000
0010
,
0010
0000
0100
0000
,
1000
0000
0010
0000
,
1000
0000
0000
0000
,
0100
0100
0000
0010
,
0010
0000
0001
0001
,
0000
1000
0000
0010
,
0000
0100
0100
0000
,
1001
0000
0001
0000
,
0010
0100
0010
0000
,
0100
0000
1000
0000
,
0010
0100
0010
0000
,
1000
0000
0001
0000
,
0010
0001
0010
0000
,
0001
0000
1000
0000
,
0010
1000
0010
0000
,
0110
0000
0100
0000
,
0001
1000
0001
0000
,
0010
0000
0100
0000
,
1000
0001
1000
0000
,
0010
0100
0100
0000
,
0001
0010
0010
0000
,
0100
1000
1000
0000
,
0010
0010
0010
0000
,
0100
0000
0001
0000
,
0010
0001
0010
0000
,
0100
0000
1000
0000
,
0010
1000
0010
0000
,
1000
0100
0100
0000
,
0010
0001
0001
0000
,
0100
0010
0010
0000
,
0110
0000
1001
0000
,
0001
0001
0001
0000
,
0200
0000
0300
0000
,
0010
0010
0010
0000
,
2000
0000
3000
0000
,
0001
0001
0001
0000
,
0020
0000
0030
0000
,
0100
0100
0100
0000
,
2000
3000
0002
0003
,
1000
0010
1000
0000
,
0001
0100
0001
0000
,
1000
0100
1000
0000
,
0001
0010
0001
0010
,
0000
0000
0000
0000
,
0000
0000
0000
0000
,
0001
0000
1000
0000
,
0010
0000
0000
0000
0010
0000
0000
0000
0020
0030
0000
0000
0000
0000
0000
0000
,
0000
1000
0000
0100
,
0010
0100
1000
0001
,
0000
0100
0000
0010
,
0100
0010
1000
0001
,
0000
0010
0000
0001
,
1000
0100
1000
0001
,
0000
0100
0000
0010
,
1000
0001
0100
0010
,
0000
1000
0000
0001
,
0010
0001
1000
0100
,
0000
0010
0000
0001
,
1000
0010
1000
0001
,
0000
0100
0000
0010
,
1000
0100
1000
0001
,
0000
0010
0010
0010
,
0000
0001
0000
1001
,
0000
1000
0010
1000
,
0000
0001
0000
0100
,
0100
0100
0000
0010
,
0010
0010
0000
1000
,
0000
0001
0000
0010
,
0001
0010
0000
0220
,
0000
0000
0330
1000
,
1000
0001
0100
0000
;

//--------------- dance-single - forcednature ----------------
#NOTEDATA:;
#STEPSTYPE:dance-single;
#DESCRIPTION:forcednature;
#DIFFICULTY:Medium;
#METER:11;
#RADARVALUES:0,0,0,0,0;
#CREDIT:forcednature;
#NOTES:
0000
0000
0000
0000
,
0000
0000
0000
0000
,
0000
0000
0000
0000
,
0000
0000
0000
0000
,
0000
0000
0000
0000
,
0000
0000
0000
0000
,
2000
0000
0000
3200
0000
0000
0320
0000
,
0000
0030
0001
0000
1000
0000
0001
0000
,
0100
0000
0010
0000
0100
0010
0100
0000
,
0220
0000
0000
0330
,
1000
0000
1000
0001
0000
0001
0100
0000
,
0100
0001
0000
0001
0010
0000
0000
0220
,
0000
0330
0100
0000
1000
0000
0010
0000
,
1000
0000
0100
0000
1000
0010
1000
0000
,
0001
0000
0001
1000
0000
1000
0010
0000
,
0010
0100
0000
0100
0001
0000
0000
0022
,
0000
0033
0001
0000
0100
0000
0001
0000
,
0010
0000
0100
0000
1000
0001
1000
0002
,
0000
0003
0100
0000
0010
0100
0010
0000
,
1000
0010
1000
0000
0001
0000
0100
0002
,
0000
0003
0010
0000
0001
0010
0001
0000
,
0010
0100
0010
0000
0100
0000
1000
0002
,
0000
0003
1000
0000
0010
1000
0010
0000
,
0100
0010
0100
0000
0001
0000
1000
0002
,
0000
0003
0010
0000
0001
0010
0001
2000
,
0000
0000
3010
0000
0100
0001
0100
0002
,
0000
1003
0010
1010
,
1000
0000
0100
0000
0010
0100
0010
0000
,
0001
1000
0001
0101
,
1000
0000
0010
0000
0100
0000
0000
0110
,
0000
1000
0002
0000
0013
0000
0000
0110
,
0000
0001
2000
0000
3010
0000
0000
0110
,
0000
0100
0002
0000
0013
0000
0000
0110
,
0000
0100
2000
0000
3010
0000
0010
0200
,
0000
0300
0001
0000
0010
0000
0001
0100
,
0000
0001
0000
1000
0000
0010
0000
2020
,
0000
3030
1000
0000
0100
0000
0010
0100
,
0000
1000
0000
0001
0000
0010
0000
0110
,
0000
1000
0020
0000
0130
0000
0000
0110
,
0000
0001
0020
0000
0130
0100
0000
0110
,
0000
0100
2000
0000
3001
0010
0001
0000
,
1000
0000
0010
0000
1000
0001
1000
0002
,
0000
0003
0010
0000
0110
0000
0000
0200
,
0000
1300
0100
0000
0110
0000
0000
2000
,
0000
3001
0100
0000
0110
0000
0000
0001
,
0000
1000
0010
0000
0100
0000
0100
0001
,
0000
0001
0010
0000
0110
0000
0000
1000
,
0000
1000
0010
0000
0110
0000
0000
0001
,
0000
0001
1000
0000
1100
0000
0000
0001
,
0000
0010
0001
0000
1000
0010
1000
0020
,
0000
0130
0002
0000
0013
0000
0001
2000
,
0000
3100
2000
0000
3010
0000
1000
0200
,
0000
0310
0002
0000
0103
0000
0001
0010
,
0000
0110
0000
1000
0100
1000
0001
0000
,
0000
0010
0010
0010
,
0000
0100
0110
0010
,
0001
0000
0001
1000
0000
1000
0001
0000
,
0000
0000
0010
0000
0100
0000
0010
0000
0200
0300
0000
0000
0000
0000
0000
0000
,
1000
0000
0010
0000
0100
2000
0000
3200
,
0000
0302
0000
0013
0000
1001
0000
0000
,
0001
0000
0010
0000
0100
0002
0000
0203
,
0000
2300
0000
3010
0000
1001
0000
0000
,
0001
0000
0100
0000
0010
0002
0000
0023
,
0000
2030
0000
3000
0001
0200
0000
0300
,
0010
0000
1000
0001
1000
0000
0100
0000
,
0010
0000
0001
1000
0001
1000
0000
0000
,
0100
0000
0010
0000
1000
0020
0000
0031
,
0000
0201
0000
1300
0000
0001
0000
0000
,
0010
0000
0100
0000
1000
0200
0000
0301
,
0000
0021
0000
1030
0000
0001
0000
0000
,
1000
0000
0001
0000
0010
2000
0000
3010
,
0000
0120
0000
0031
1000
0001
0000
0001
,
0010
0000
0001
1000
0001
0000
0100
0010
,
0010
0000
0110
0000
0001
0100
0000
0100
,
0010
0000
1000
0001
1000
0000
0100
1000
,
0100
0000
0010
0010
0000
1001
0000
0001
,
0100
0001
0000
1000
0010
1000
0000
0001
,
0010
0000
0100
0100
1000
0100
0000
1000
,
0001
0000
0010
0001
0010
0000
0001
0100
,
0001
0000
1000
0010
1000
0020
0000
0000
,
0100
0000
0130
1001
,
1001
0000
0100
0100
0010
0100
0000
0000
;

//--------------- dance-single - forcednature ----------------
#NOTEDATA:;
#STEPSTYPE:dance-single;
#DESCRIPTION:forcednature;
#DIFFICULTY:Hard;
#METER:16;
#RADARVALUES:0,0,0,0,0;
#CREDIT:forcednature;
#NOTES:
0000
0000
0000
0000
,
0000
0000
0000
0000
,
0000
0000
0000
0000
,
0000
0000
0000
0000
,
0000
0000
0000
0000
,
0000
0000
0000
0000
,
0001
0000
0001
0100
0000
0100
0010
0000
,
0010
1000
0001
0100
0010
0000
0110
0000
,
1000
0000
0000
0000
0100
0000
1000
0000
0100
0000
0010
0100
0010
0000
0100
0010
,
0002
0000
0000
0000
0000
0103
0001
0000
,
1000
1000
0100
2200
0000
3300
0001
0001
,
0010
0011
0000
0001
0100
1000
0100
0102
,
0000
1003
0010
0000
0100
0000
1001
0000
,
1000
0010
0100
0001
0010
0100
2000
0000
,
3001
0001
0100
0202
0000
0303
1000
1000
,
0010
1010
0000
1000
0100
0001
0100
2100
,
0000
3001
0010
0000
0100
0000
1001
0000
,
0001
0000
0100
0000
0010
0000
1000
0000
0001
1000
0001
1000
0001
0000
0200
0000
,
0000
0301
0010
0001
0100
0001
0010
0001
,
0100
0000
0010
0100
0010
0000
1000
0010
1000
0000
0001
0000
0010
0000
0210
0000
,
0000
1300
0010
1000
0100
1000
0010
1000
,
0100
0000
0010
0100
0010
0000
0001
0010
0001
0000
0100
0000
0010
0000
0120
0000
,
0000
1030
0100
1000
0010
1000
0100
1000
,
0010
0000
0100
0010
0100
0000
0001
0100
0001
0000
0010
0000
0100
0000
0120
0000
,
0000
0031
0100
0001
0010
0001
0100
2000
,
0000
0000
3100
0000
0001
0000
1000
0000
0010
0100
0010
0100
0001
0000
2000
0000
,
0000
3100
0001
0100
1000
0000
0001
0010
,
0000
0100
0010
0001
0100
0010
0100
0002
,
0000
0013
0100
1000
0010
0000
1000
0100
,
0000
1000
0010
0100
0001
0010
0100
0002
,
0000
0103
2000
0000
3010
0010
0100
0210
,
0000
0000
0301
0000
1000
0000
0010
1000
0001
0000
0100
0000
0001
0000
0021
0000
,
0000
0000
0130
0000
0001
0000
0100
0000
1000
0100
1000
0100
0010
0000
0002
0000
,
0000
0000
1003
0000
0010
0000
1000
0000
0001
0100
0001
0100
0010
0000
2000
0000
,
0000
3001
0010
0100
0010
0001
0100
0010
,
0000
1000
0100
0010
0100
1000
0000
0011
,
0000
0001
0100
0010
1000
0001
0010
0001
,
0000
0100
0010
1000
0100
0010
0000
0120
,
0000
0130
2000
0000
3001
0001
0100
0201
,
0000
0000
0310
0000
2000
0000
0000
3000
0001
1000
0001
1000
0001
0000
0020
0000
,
0000
0000
0130
0000
1000
0000
0010
0000
1000
0000
0100
1000
0001
0000
0200
0000
,
0000
0000
1300
0000
0100
0000
0001
0000
1000
0000
0010
1000
0001
0000
0200
0000
,
0000
0010
0310
0000
0101
0000
0001
0020
,
0000
0100
0130
0000
1100
0000
1000
0020
,
0000
0100
0130
0000
1001
0000
0001
0200
,
0000
1300
0100
0001
1000
0010
0010
0210
,
0000
0001
0301
0000
1010
0000
1000
0200
,
0000
0001
0301
0000
0110
0000
0010
0002
,
0000
0100
0103
0000
0110
0000
1000
0002
,
0000
0000
0013
0000
0001
0000
0100
0000
0010
0100
0010
0100
0010
0000
2000
0000
,
0000
3001
0010
1000
0010
0001
1000
0002
,
0000
1003
0010
0001
0010
1000
0001
2000
,
0000
3100
0001
0100
1000
0010
1000
0002
,
0000
0000
0013
0000
0100
0010
0100
0000
1000
0001
1000
0001
0010
0000
0000
0000
,
0000
0001
0001
0001
,
0000
0000
1000
0000
1000
0010
0010
1000
,
0001
0100
0100
1000
0100
0100
0001
0020
,
0000
0000
0130
0000
0100
0000
0010
0000
0220
0330
1001
0000
0000
0000
0001
0000
,
1000
0000
0010
0000
0100
0000
0001
0100
0010
0000
1000
0000
0001
0000
0010
0000
,
1000
0010
0100
1000
0001
0011
0000
1000
,
0001
0000
0010
0000
0100
0000
1000
0100
0010
0000
0001
0000
1000
0000
0010
0000
,
0001
0010
0100
0001
1000
1010
0000
1000
,
0100
0000
0001
0000
0100
0000
1000
0001
0010
0000
0100
0000
1000
0000
0010
0000
,
0100
0001
0010
0010
0100
0110
0000
0100
,
1000
0001
0010
1000
0001
0100
1000
1000
,
0001
0000
0100
0000
0001
0100
0001
0100
0010
0000
1000
0000
0000
0000
0000
0000
,
0001
0000
0010
0000
0100
0000
0010
0001
1000
0000
0100
0000
1000
0000
0010
0000
,
0100
1000
0100
0001
0010
0011
0000
0001
,
1000
0000
0010
0000
0100
0000
0010
1000
0001
0000
0100
0000
0001
0000
0010
0000
,
0100
0001
0100
1000
0010
1010
0000
0010
,
0100
0000
1000
0000
0100
0000
0001
1000
0010
0000
0100
0000
0001
0000
0010
0000
,
1000
0010
0001
0001
0100
0110
0000
1000
,
0001
0000
0100
0000
1000
0000
0001
0000
0010
0000
0000
0000
1000
0000
0010
0100
,
0010
0100
0001
0000
1000
0000
0001
0000
0010
0000
0110
0000
0000
0000
0100
0000
,
0001
0100
1000
0100
0001
0100
1000
0100
,
0001
0100
1000
1000
0001
0011
0000
0010
,
1000
1000
1000
0010
0001
0001
0001
0010
,
1000
0000
0010
0000
0001
0000
1000
0001
1000
0001
0100
0000
0000
0000
1000
0000
,
0100
0001
0100
1000
0100
0001
0100
1000
,
0100
0001
0100
0100
0010
2001
0000
0000
,
0100
0000
0000
0000
0000
0000
0000
0000
0100
0000
0000
0000
3001
0000
1000
0001
,
0010
0000
0001
1000
0100
0000
0110
0000
0010
0000
1001
0000
0000
0000
0000
0000
;

//--------------- dance-double - forcednature ----------------
#NOTEDATA:;
#STEPSTYPE:dance-double;
#DESCRIPTION:forcednature;
#DIFFICULTY:Easy;
#METER:6;
#RADARVALUES:0,0,0,0,0;
#CREDIT:forcednature;
#NOTES:
00000000
00000000
00000000
00000000
,
00000000
00000000
00000000
00000000
,
00000000
00000000
00000000
00000000
,
00000000
00000000
00000000
00000000
,
00000000
00000000
00000000
00000000
,
00000000
00000000
00000000
00000000
,
00001000
00000000
00000000
00000000
,
00010000
00000000
00001000
00000000
,
00010000
00000000
00010000
00000000
,
00000100
00000000
00000000
00000000
,
00001000
00001000
00000000
00000100
,
00000100
00000000
00000010
00000000
,
00000001
00000000
00000010
00000000
,
00000100
00000000
00000000
00000000
,
00001000
00001000
00000000
00000100
,
00000100
00000000
00010000
00010000
,
00000000
00001000
00000000
01000000
,
00000000
00010000
00010000
00000000
,
10010000
00000000
10000000
00000000
,
01000000
00100000
01000000
00000000
,
00100000
00000000
00001000
00000000
,
00010000
00001000
00010000
00000000
,
00001000
00000000
00010000
00000000
,
00000100
00001000
00000100
00000000
,
00000010
00000000
00000100
00000000
,
00000010
00000001
00000010
00000000
,
00001001
00000000
00001000
00000000
,
00000010
00001000
00000010
00000000
,
00010000
00000000
00001000
00000000
,
00010000
00001000
00010000
00000000
,
00001000
01000000
01000000
00000000
,
00010000
01000000
01000000
00000000
,
00100000
10000000
10000000
00000000
,
00010000
00010000
00010000
00000000
,
10000000
00000000
01000000
00000000
,
00100000
01000000
00100000
00000000
,
00010000
00000000
00100000
00000000
,
00001000
00010000
00001000
00000000
,
00010000
00000100
00000100
00000000
,
00001000
00000100
00000100
00000000
,
00000010
00000100
00000100
00000000
,
00000110
00000000
00001001
00000000
,
00000001
00000001
00000001
00000000
,
00000200
00000000
00000300
00000000
,
00000010
00000010
00000010
00000000
,
00002000
00000000
00003000
00000000
,
00000100
00000100
00000100
00000000
,
00020000
00000000
00030000
00000000
,
00001000
00001000
00001000
00000000
,
02000000
03000000
00020000
00030000
,
10000000
00100000
10000000
00000000
,
00010000
00100000
00010000
00000000
,
00100000
00001000
00100000
00000000
,
00001000
00010000
00001000
00010000
,
00000000
00000000
00000000
00000000
,
00000000
00000000
00000000
00000000
,
00000100
00000000
00001000
00000000
,
00000010
00000000
00000000
00000000
00000010
00000000
00000000
00000000
00000020
00000030
00000000
00000000
00000000
00000000
00000000
00000000
,
00000000
00001000
00000000
00000100
,
00001000
00000100
00010000
00001000
,
00000000
01000000
00000000
00010000
,
01000000
00010000
10000000
00100000
,
00000000
10000000
00000000
01000000
,
00100000
00010000
00100000
01000000
,
00000000
10000000
00000000
00010000
,
01000000
00001000
00010000
00001000
,
00000000
00100000
00000000
00001000
,
00010000
00000100
00001000
00000100
,
00000000
00000010
00000000
00000001
,
00001000
00000010
00001000
00000001
,
00000000
00000010
00000000
00000100
,
00001000
00000100
00010000
00001000
,
00000000
00100000
00100000
00100000
,
00000000
00001000
00000000
00011000
,
00000000
01000000
00010000
01000000
,
00000000
00001000
00000000
00100000
,
00100000
00100000
00000000
00001000
,
00001000
00001000
00000000
00010000
,
00000000
00000100
00000000
00001000
,
00000100
00001000
00000000
00000220
,
00000000
00000000
00000330
00000001
,
00000001
00001000
00000100
00000000
;

//--------------- dance-double - forcednature ----------------
#NOTEDATA:;
#STEPSTYPE:dance-double;
#DESCRIPTION:forcednature;
#DIFFICULTY:Medium;
#METER:11;
#RADARVALUES:0,0,0,0,0;
#CREDIT:forcednature;
#NOTES:
00000000
00000000
00000000
00000000
,
00000000
00000000
00000000
00000000
,
00000000
00000000
00000000
00000000
,
00000000
00000000
00000000
00000000
,
00000000
00000000
00000000
00000000
,
00000000
00000000
00000000
00000000
,
00002000
00000000
00000000
00023000
00000000
00000000
00030200
00000000
,
00000000
00000300
00001000
00000000
00000001
00000000
00001000
00000000
,
00000010
00000000
00000100
00000000
00000010
00000100
00000010
00000000
,
00000220
00000000
00000000
00000330
,
00000001
00000000
00000001
00001000
00000000
00001000
00000100
00000000
,
00000100
00010000
00000000
00010000
00001000
00000000
00000000
00022000
,
00000000
00033000
00010000
00000000
01000000
00000000
10000000
00000000
,
01000000
00000000
00010000
00000000
00001000
00010000
00001000
00000000
,
00100000
00000000
00100000
00010000
00000000
00010000
10000000
00000000
,
10000000
00100000
00000000
00100000
01000000
00000000
00000000
02200000
,
00000000
03300000
00010000
00000000
01000000
00000000
10000000
00000000
,
01000000
00000000
00010000
00000000
10000000
00010000
10000000
00020000
,
00000000
00030000
00100000
00000000
00001000
00010000
00001000
00000000
,
00010000
00000100
00010000
00000000
00000100
00000000
00001000
00000200
,
00000000
00000300
00000010
00000000
00000100
00000010
00000100
00000000
,
00000010
00000001
00000010
00000000
00000001
00000000
00001000
00000020
,
00000000
00000030
00000100
00000000
00000001
00001000
00000001
00000000
,
00000010
00000100
00000010
00000000
00000100
00000000
00001000
00000200
,
00000000
00000300
00010000
00000000
00001000
00010000
00001000
00020000
,
00000000
00030000
00000010
00000000
00001000
00000001
00001000
00000002
,
00000000
00000013
00001000
00010000
,
00001000
00000000
00010000
00000000
01000000
10000000
00100000
00000000
,
10000000
00010000
10000000
00100000
,
00010000
00000000
00001000
00000000
00000100
00000000
00000000
00000110
,
00000000
00000001
00002000
00000000
00003100
00000000
00000000
00011000
,
00000000
01000000
00020000
00000000
00130000
00000000
00000000
01100000
,
00000000
01000000
20000000
00000000
30100000
00000000
00000000
10010000
,
00000000
10000000
02000000
00000000
03010000
00000000
00010000
00002000
,
00000000
00003000
00100000
00000000
00010000
00000000
00100000
00001000
,
00000000
00010000
00000000
00000010
00000000
00001000
00000000
00000101
,
00000000
00000001
00001000
00000000
00000100
00000000
00000010
00000100
,
00000000
00001000
00000000
00000001
00000000
00000100
00000000
00000110
,
00000000
00000010
00002000
00000000
00003100
00000000
00000000
00011000
,
00000000
00100000
00020000
00000000
01030000
01000000
00000000
01100000
,
00000000
00010000
20000000
00000000
31000000
00100000
01000000
00100000
,
00000000
00000000
00001000
00000000
00010000
00001000
00010000
00002000
,
00000000
00003000
00010000
00000000
00011000
00000000
00000000
00000200
,
00000000
00001300
00000100
00000000
00001100
00000000
00000000
00000002
,
00000000
00000013
00000001
00000000
00000011
00000000
00000000
00001000
,
00000000
00000010
00000100
00000000
00001000
00000000
00001000
00010000
,
00000000
00010000
00001000
00000000
00011000
00000000
00000000
01000000
,
00000000
01000000
00010000
00000000
01010000
00000000
00000000
00100000
,
00000000
00100000
10000000
00000000
10100000
00000000
00000000
10000000
,
00000000
00010000
10000000
00000000
01000000
00100000
01000000
00100000
,
00000000
00100000
00020000
00000000
00130000
00000000
00001000
00010000
,
00000000
00010000
00000200
00000000
00001300
00000000
00000100
00000010
,
00000000
00000010
00000002
00000000
00000013
00000000
00000100
00001000
,
00000000
00001001
00000000
00000001
00000100
00000000
00000110
00000000
,
00000000
00001000
00001000
00001000
,
00000000
00000001
00000001
00000001
,
00000010
00000000
00000010
00001000
00000000
00010000
00000000
00012000
,
00000000
00000000
01000000
00000000
01000000
00000000
01000000
00000000
02003000
03000000
00000000
00000000
00000000
00000000
00000000
00000000
,
00001000
00000000
00010000
00000000
00100000
10000000
00100000
00000000
,
01000000
00010000
00100000
10010000
,
10000000
00000000
01000000
00000000
00010000
00001000
00010000
00000000
,
00000100
00001000
00000010
00001001
,
00000001
00000000
00000010
00000000
00001000
00010000
00001000
00000000
,
01000000
00010000
00100000
10010000
,
10000000
00000000
01000000
00100000
01000000
00000000
00100000
00010000
,
00100000
00000000
00001000
00010000
00001000
00000000
00011000
00000000
,
00010000
00000000
00000100
00000000
00001000
00000001
00000100
00000000
,
00001000
00010000
00011000
00001000
,
00100000
00000000
00010000
00000000
10000000
00100000
10000000
00000000
,
01000000
00010000
00011000
00001000
,
00000010
00000000
00000001
00000000
00001000
00000100
00000010
00000000
,
00000001
00000100
00001001
00001000
,
00000100
00000000
00010000
00001000
00010000
00000000
00002000
00000000
,
01000000
00010000
00103000
00000000
,
00011000
00011000
01001000
01001000
,
00011000
00000000
00011000
00000000
00001000
00020000
00000000
00000000
,
00000100
00001000
00000010
00001000
,
00000100
00000000
00031000
00000000
00010000
00001000
00000000
00000000
,
00011000
00011000
00010100
00010100
,
00011000
00000000
00011000
00000000
00001000
00020000
00000000
00000000
,
00000000
00000000
00030000
00011000
,
00011000
00000000
01000000
01000000
01000000
01000000
00000000
00000000
;

//--------------- dance-double - forcednature ----------------
#NOTEDATA:;
#STEPSTYPE:dance-double;
#DESCRIPTION:forcednature;
#DIFFICULTY:Hard;
#METER:16;
#RADARVALUES:0,0,0,0,0;
#CREDIT:forcednature;
#NOTES:
00000000
00000000
00000000
00000000
,
00000000
00000000
00000000
00000000
,
00000000
00000000
00000000
00000000
,
00000000
00000000
00000000
00000000
,
00000000
00000000
00000000
00000000
,
00000000
00000000
00000000
00000000
,
00001000
00000000
00001000
00010000
00000000
00010000
00100000
00000000
,
00100000
10000000
00010000
01000000
00100000
00000000
01100000
00000000
,
00010000
00000000
00000000
00000000
00010000
00000000
00001000
00000000
00010000
00000000
00001000
00010000
00001000
00000000
00010000
00000100
,
00002000
00000000
00000000
00000000
00000000
00003001
00000010
00000000
,
00000001
00000001
00000100
00000202
00000000
00000303
00001000
00001000
,
00000010
00001010
00000000
00010000
00001000
00010000
00100000
20000000
,
00000000
30010000
01000000
00000000
00100000
00000000
10010000
00000000
,
10000000
01000000
00010000
00001000
00100000
00010000
20000000
00000000
,
30010000
00010000
00100000
00220000
00000000
00330000
10000000
10000000
,
01000000
11000000
00000000
00010000
00100000
01000000
00010000
00002000
,
00000000
00103000
00010000
00000000
01000000
00000000
00011000
00000000
,
00000010
00000000
00001000
00000000
00000001
00000000
00000100
00000000
00000001
00001000
00000001
00001000
00000001
00000000
00000020
00000000
,
00000000
00000130
00000010
00000100
00010000
00001000
00100000
01000000
,
10000000
00000000
00010000
01000000
00010000
00000000
01000000
00100000
10000000
00000000
00010000
00000000
00100000
00000000
02000000
00000000
,
00000000
03010000
00001000
00100000
00001000
00010000
00001000
00000010
,
00000001
00000000
00000010
00000001
00000010
00000000
00000100
00000010
00000100
00000000
00001000
00000000
00000001
00000000
00000200
00000000
,
00000000
00001300
00010000
00000010
00010000
00001000
00010000
00100000
,
10000000
00000000
00100000
10000000
00100000
00000000
01000000
00100000
01000000
00000000
00010000
00000000
10000000
00000000
02000000
00000000
,
00000000
03010000
00001000
00100000
00001000
00000010
00000100
00002000
,
00000000
00000000
00003001
00000000
00000100
00000000
00001000
00000000
00010000
00001000
00010000
00001000
00010000
00000000
00002000
00000000
,
00000000
00013000
00100000
10000000
00100000
00000000
10000000
01000000
,
00000000
00100000
01000000
00010000
00001000
00010000
01000000
00200000
,
00000000
00301000
00010000
00000100
00010000
00000000
00001000
00000010
,
00000000
00000001
00000010
00001000
00010000
00000100
00001000
00000002
,
00000000
00000103
00002000
00000000
00013000
00100000
10000000
00020000
,
00000000
00000000
10030000
00000000
01000000
00000000
10000000
00010000
00100000
00000000
01000000
00000000
00010000
00000000
00002000
00000000
,
00000000
00000000
00103000
00000000
00010000
00000000
00100000
00000000
00001000
00010000
00001000
00010000
00000100
00000000
00002000
00000000
,
00000000
00000000
00003001
00000000
00000100
00000000
00001000
00000000
00010000
00001000
00010000
00001000
00010000
00000000
00021000
00000000
,
00000000
00031000
00000010
00000001
00000010
00000000
00000001
00000100
,
00000000
00000010
00000100
00001000
00010000
00001000
00000100
00000020
,
00000000
00010030
00001000
01000000
00001000
00000000
00010000
00100000
,
00000000
10000000
00100000
00010000
00001000
01000000
00010000
20000000
,
00000000
31000000
00020000
00000000
00031000
00000010
00000001
00002000
,
00000000
00000000
00003001
00000000
00000200
00000000
00000000
00000000
00000310
00001000
00000010
00001000
00000010
00000000
00020000
00000000
,
00000000
00000000
00030010
00000000
00001000
00000000
00000010
00000000
00010000
00001000
00010000
00001000
01000000
00000000
00020000
00000000
,
00000000
00000000
10030000
00000000
01000000
00000000
00010000
00000000
00001000
00000000
00010000
00001000
00010000
00000000
00000020
00000000
,
00000000
00001000
00001030
00000000
00010100
00000000
00001000
00200000
,
00000000
00010000
00310000
00000000
01001000
00000000
00010000
00000200
,
00000000
00001000
00001300
00000000
00010010
00000000
00001000
02000000
,
00000000
03010000
00100000
01000000
00010000
00001000
00001000
00201000
,
00000000
01000000
01300000
00000000
00011000
00000000
00010000
00000020
,
00000000
00000100
00000130
00000000
00011000
00000000
00001000
02000000
,
00000000
00100000
03100000
00000000
00011000
00000000
00010000
00000200
,
00000000
00000000
00001300
00000000
00000001
00000000
00000010
00000000
00000100
00000010
00000100
00000010
00000100
00000000
00002000
00000000
,
00000000
00003001
00000100
00001000
00010000
01000000
10000000
00200000
,
00000000
10300000
01000000
00010000
00001000
00000100
00000001
00000020
,
00000000
00000031
00000100
00001000
00010000
01000000
10000000
00200000
,
00000000
00000000
10300000
00000000
01000000
10000000
01000000
00000000
00100000
01000000
00100000
00010000
00100000
00000000
00000000
00000000
,
00000000
00001000
00001000
00001000
,
00000000
00000000
00000000
00000000
00010000
00000000
00000000
00000000
00010000
00000000
00001000
00010000
00001000
00000000
00010000
00000000
,
00000100
00001000
00000100
00000010
00000001
00000010
00001000
00020000
,
00000000
00000000
01030000
00000000
01000000
00000000
00100000
00000000
02200000
03300000
10010000
00000000
00000000
00000000
10000000
00000000
,
01000000
00000000
00010000
00000000
00001000
00000000
00010000
00001000
00100000
00000000
00010000
00000000
00100000
00000000
00001000
00000000
,
00000010
00000100
00001000
00000001
00000100
00001001
00000000
00000001
,
00000100
00000000
00001000
00000000
00010000
00000000
00001000
00010000
00000010
00000000
00001000
00000000
00000010
00000000
00010000
00000000
,
00100000
01000000
00010000
10000000
01000000
10010000
00000000
10000000
,
00100000
00000000
00010000
00000000
00001000
00000000
00010000
00001000
01000000
00000000
00010000
00000000
00100000
00000000
00001000
00000000
,
00000010
00000100
00001000
00000001
00000100
00001001
00000000
00000001
,
00000100
00001000
00010000
01000000
10000000
00000000
00100000
00100000
,
10000000
00000000
00010000
00000000
01000000
00100000
01000000
00100000
10000000
00000000
10010000
00000000
00000000
00000000
10000000
00000000
,
00100000
00000000
00010000
00000000
00001000
00000000
01000000
00010000
00100000
00000000
01000000
00000000
00010000
00000000
00001000
00000000
,
00000010
00000100
00010000
00001000
00000010
00001001
00000000
00000001
,
00000010
00000000
00001000
00000000
00010000
00000000
00000100
00001000
00000010
00000000
00000100
00000000
00001000
00000000
00010000
00000000
,
00100000
01000000
00001000
00010000
00100000
10010000
00000000
10000000
,
00100000
00000000
00010000
00000000
00001000
00000000
00100000
00010000
01000000
00000000
00100000
00000000
00010000
00000000
00001000
00000000
,
00000100
00000010
00010000
00001000
00000100
00001001
00000000
00000001
,
00000010
00000000
00001000
00000000
00010000
00000000
01000000
00000000
10000000
00000000
00000000
00000000
00100000
00000000
01000000
00100000
,
01000000
00100000
10000000
00000000
00010000
00000000
01000000
00000000
00001000
00000000
00011000
00000000
00000000
00000000
00010000
00000000
,
01000000
00010000
00001000
00010000
00100000
00010000
00001000
00010000
,
01000000
00010000
00001000
00001000
00000010
00000110
00000000
00001000
,
00000001
00000100
00001000
00010000
01000000
10000000
01000000
00010000
,
00001000
00000000
00000100
00000000
00000001
00001000
00000001
00001000
00000010
00000000
00010000
00000000
00000000
00000000
00001000
00000000
,
00000100
00001000
00010000
00001000
00000010
00001000
00010000
00001000
,
00000100
00001000
00010000
00010000
00100000
02200000
00000000
00000000
,
00000000
00000000
00000000
00000000
00000000
00000000
00000000
00000000
03300000
00000000
00000000
00000000
00010000
00000000
01000000
00001000
,
00010000
00000000
00001000
01000000
00010000
00000000
00100000
00000000
00001000
00000000
00000010
00000000
00000000
00000000
00000000
00000000
;
