#VERSION:0.83;
#TITLE:Submerge Serenade;
#SUBTITLE:;
#ARTIST:lapix;
#TITLETRANSLIT:;
#SUBTITLETRANSLIT:;
#ARTISTTRANSLIT:;
#GENRE:HARDTECHNO;
#CREDIT:;
#MUSIC:Submerge Serenade.ogg;
#BANNER:Submerge Serenade.png;
#BACKGROUND:Submerge Serenade-bg.png;
#CDTITLE:./CDTitles/bm IIDX 31 EPOLIS.png;
#SAMPLESTART:107.095;
#SAMPLELENGTH:12.211;
#SELECTABLE:YES;
#OFFSET:1.440;
#BPMS:0.000=157.000
,126.500=314.000
,127.500=157.000
,176.000=78.500
,176.250=157.000
,176.500=314.000
,177.000=157.000
,177.500=314.000
,178.000=157.000
,217.250=314.000
,217.750=157.000
,249.500=314.000
,250.000=157.000
,280.000=314.000
,282.000=157.000
,310.000=314.000
,311.500=157.000
;
#STOPS:112.000=0.191
,112.500=0.191
,113.000=0.191
,113.500=0.191
,126.500=0.048
,126.750=0.048
,127.000=0.048
,127.250=0.048
,177.500=0.096
,217.250=0.048
,217.500=0.048
,249.500=0.096
,280.000=0.096
,280.500=0.048
,280.750=0.096
,281.250=0.048
,281.500=0.096
,310.000=0.024
,310.125=0.024
,310.250=0.024
,310.375=0.024
,310.500=0.024
,310.625=0.024
,310.750=0.024
,310.875=0.024
,311.000=0.024
,311.125=0.024
,311.250=0.024
,311.375=0.024
;
#TIMESIGNATURES:0.000=4=4,
112.000=2=4,
114.000=4=4
;
#DISPLAYBPM:157.000;
#BGCHANGES:4.000=Submerge Serenade.mp4=1.000=0=0=0=StretchNoLoop====,
99999.000=-nosongbg-=1.000=0=0=0=StretchNoLoop====
;
#FGCHANGES:;

//--------------- dance-single - forcednature ----------------
#NOTEDATA:;
#STEPSTYPE:dance-single;
#DESCRIPTION:forcednature;
#CREDIT:forcednature;
#DIFFICULTY:Beginner;
#METER:4;
#RADARVALUES:0,0,0,0,0;
#NOTES:
0000
0000
0000
0000
,
0000
0000
0000
0000
,
0000
0000
0000
0000
,
0000
0000
0000
0000
,
0000
0000
0000
0000
,
0001
0000
0000
0000
,
0000
0000
0000
0000
,
0100
0000
0000
0000
,
0010
0000
0000
0000
,
1000
0000
0000
0000
,
1000
0000
0000
0000
,
0100
0000
0100
0000
,
0010
0000
0000
0000
,
1001
0000
0000
0000
,
0001
0000
0000
0000
,
0100
0000
0000
0000
,
0010
0000
0010
0000
,
1000
0000
0000
0000
,
0001
0000
0000
0000
,
0010
0000
0010
0000
,
0001
0000
0000
0000
,
1001
0000
0000
0000
,
1000
0000
0000
0000
,
0010
0000
0000
0000
,
0100
0000
0100
0000
,
0001
0000
0001
0000
,
0010
0000
0010
0000
,
0100
0000
1000
0000
,
0001
0000
1000
0000
,
0000
0000
0000
0000
,
0000
0000
0010
0000
,
0000
0000
0100
0000
,
0000
0000
0001
0000
,
0000
0001
0010
0000
,
0000
0010
0100
0000
,
1000
0000
2002
0000
,
3003
0000
0110
0000
,
0000
0000
0000
0000
,
0000
0000
0001
0000
,
0000
0000
1000
0000
,
0000
0000
2002
0000
,
0000
0000
0000
0000
,
0000
0000
0000
0000
,
0000
0000
0000
0000
,
3003
0000
0001
0000
,
0000
0000
0100
0000
,
0000
0000
0010
0000
,
0000
0000
1000
0000
,
0000
0000
0001
0000
,
0000
0000
0010
0000
,
0000
0000
0100
0000
,
0000
0000
1000
0000
,
0001
0000
2002
0000
,
0000
0000
0000
0000
,
0000
3003
0100
0000
,
0001
0000
0100
0000
,
0010
0000
1000
0000
,
0010
0000
0100
0000
,
0001
0000
1000
0000
,
0100
0000
0010
0000
,
0100
0000
1000
0000
,
0001
0000
0010
0010
,
0010
0000
1001
0000
,
0001
0000
0100
0000
,
0001
0000
1000
0000
,
0010
0000
1000
1000
,
1000
0000
0100
0000
,
0010
0000
0001
0000
,
0100
0000
0010
0010
,
0010
0000
1000
0000
,
0001
0000
1001
0000
,
1000
0000
0100
0000
,
1000
0000
0010
0000
,
0100
0000
0001
0000
,
0010
0000
0001
0000
,
0100
0000
0010
0000
,
1000
0000
0001
0000
,
0010
0000
0000
0000
0200
0000
0000
0300
,
0000
0000
2002
0000
,
0000
0000
0000
0000
,
0000
0000
3003
0000
;

//--------------- dance-single - forcednature ----------------
#NOTEDATA:;
#STEPSTYPE:dance-single;
#DESCRIPTION:forcednature;
#CREDIT:forcednature;
#DIFFICULTY:Easy;
#METER:8;
#RADARVALUES:0,0,0,0,0;
#NOTES:
0000
0000
0000
0000
,
0000
0000
0000
0000
,
0000
0000
0000
0000
,
0000
0000
0000
0000
,
0000
0000
0000
0000
,
1001
0000
0001
0000
,
0100
0000
0010
0010
,
1000
0000
0100
0000
,
1000
0000
0001
0001
,
0010
0000
0001
0001
,
0100
0000
0001
0001
,
1000
1000
0001
0001
,
2002
0000
3003
0000
,
0110
0000
0001
0000
,
0010
0100
0010
0000
,
0100
1000
0010
0000
,
1000
0001
0100
0000
,
0110
0000
1000
0000
,
0001
0010
0100
0000
,
0010
0010
0001
0001
,
0100
0010
0100
0000
,
1001
0000
1000
0100
,
1000
0010
0100
0000
,
1001
0000
0001
0100
,
0001
0010
0100
0000
,
0010
0010
0001
0000
,
0100
0100
0001
0000
,
1000
1000
0001
0001
,
0100
0100
0010
0010
1001
0000
0000
0000
,
1000
0000
0001
0001
,
1000
0000
0110
0000
,
0001
0000
0010
0010
,
0010
0000
0000
0000
0110
0000
0000
1000
,
0000
0000
0000
0000
0110
0000
0000
0001
,
0000
0000
0010
0010
,
0010
0100
2002
0000
,
3003
0000
1000
0000
,
0100
0000
1000
0000
,
0010
0000
0100
0000
,
0001
0000
0010
0010
,
0010
0000
2002
0000
,
0000
0000
0000
0000
,
3003
0000
0002
0003
,
0200
0300
0020
0030
,
2000
3000
0002
0000
,
0000
0003
0020
0000
,
0000
0030
0200
0000
,
0000
0300
2000
0000
,
0000
3000
0002
0000
,
0000
0003
0200
0000
,
0000
0300
0020
0000
,
0000
0030
2000
3000
,
0002
0003
1002
0000
,
0010
0010
0023
0000
,
0200
0330
1001
1000
,
0100
1000
0010
1000
,
0100
0000
0010
0001
,
0100
0001
0010
0100
,
1000
0000
0010
0100
,
0001
1000
0010
0100
,
0001
0000
0010
0001
,
1000
0100
1000
1000
,
0002
0000
0000
0003
0100
0000
0010
0000
,
1000
0010
0100
0001
,
0010
0000
0100
0010
,
0001
0010
0100
1000
,
0010
0000
1001
0000
,
1000
0100
1000
0010
,
1000
0000
0001
0100
,
0001
0010
0002
0000
,
2003
3000
1001
0001
,
0010
0100
1000
0010
,
0100
0010
0100
0000
0001
0000
0010
0000
,
0001
1000
0010
1000
,
0100
0010
0100
0000
0010
0000
0010
0001
,
0010
0000
0001
0000
0100
0000
0100
0001
,
0100
0000
0010
0000
1000
0000
1000
0001
,
1000
0000
0100
0000
0220
0000
0000
0330
,
1000
0001
2002
0000
,
0000
0000
0000
0000
,
0000
0000
3003
0000
;

//--------------- dance-single - forcednature ----------------
#NOTEDATA:;
#STEPSTYPE:dance-single;
#DESCRIPTION:forcednature;
#CREDIT:forcednature;
#DIFFICULTY:Medium;
#METER:14;
#RADARVALUES:0,0,0,0,0;
#NOTES:
0000
0000
0000
0000
,
0000
0000
0000
0000
,
0000
0000
0000
0000
,
0000
0000
0000
0000
,
0000
0000
0000
0000
,
1001
0000
0001
0100
0010
0000
1000
0100
,
0010
0000
0001
0100
0010
0000
1000
0000
,
0001
0000
0010
0100
1000
0000
0010
0100
,
0001
0000
0010
0100
1000
0000
0010
0000
,
1001
0000
1000
0100
0001
0100
1000
0000
,
1001
0000
0001
0100
1000
0100
0001
0000
,
0110
0000
0000
0000
0010
0000
1001
0000
0000
1000
0100
1000
0100
0000
0010
0001
,
1000
0000
0000
0010
0100
0010
0200
0000
0000
0301
0000
0010
0001
0000
0000
0000
,
1100
0001
0010
0100
1000
0010
0100
0001
,
1010
0001
1000
0100
0010
0001
1000
0010
,
0101
1000
0100
0010
0001
1000
0010
0100
,
1001
0010
0100
1000
0001
0010
0100
0100
,
0110
0001
1000
0010
0100
0001
0010
0100
,
1001
0010
1000
0100
0001
1000
0010
0001
,
0110
0000
0000
1000
0001
0000
0001
0000
0100
0001
0100
0001
0000
1000
0000
0000
,
0010
0000
1000
0100
1000
0100
0020
0000
0001
0000
0000
0001
0000
0031
0000
0000
,
0010
0000
0100
1000
0001
0000
0100
0000
0010
0000
1000
0000
0001
0000
0010
0000
,
0100
0000
0010
0001
1000
0000
0010
0000
0100
0000
0001
0000
0010
0000
0001
0000
,
1000
0000
0010
0100
0001
0000
0010
0000
0100
0000
1000
0000
0001
0000
0100
0000
,
0010
0000
1000
0100
0010
0000
0001
0000
1000
0000
0010
0000
0110
0000
0110
0000
,
0001
0000
1000
0100
0010
0000
0100
0000
1000
0000
0001
0000
0010
0000
0001
0000
,
1000
0000
0010
0100
0001
0000
0010
0000
0100
0000
1000
0000
0001
0000
0100
0000
,
0110
0000
0001
0000
1000
0000
0010
0100
0000
0100
0000
0001
0010
0000
0100
0000
,
1001
0000
0110
0000
1001
0000
0110
0000
1000
0000
1000
0100
0000
0000
0010
0000
,
0001
0000
0100
0000
0010
0000
1000
0000
0001
0000
0001
0100
0000
0000
0010
0000
,
1000
0000
0100
0000
0010
0000
0001
0000
1000
0000
1000
0010
0000
0000
0100
0000
,
0001
0000
0010
0000
0200
0000
0000
0000
1300
0000
0001
1000
0001
1000
0001
0000
,
0100
0000
0010
0000
0110
0000
0000
0000
0001
0000
0001
0100
0000
0000
0001
0000
,
0001
0100
0000
0000
0010
0000
0010
0000
1000
0000
1000
0100
0000
0000
1000
0000
,
1000
0100
0000
0000
0010
0000
0001
0000
1000
0000
0010
0100
0000
0010
0000
0100
,
0000
0010
0100
0000
0001
0000
0000
0000
2002
0000
0000
0000
0000
0000
0000
0000
,
0000
0000
3003
0000
1000
0100
0001
0000
,
0100
1000
0010
0000
1000
0100
0001
0000
,
0100
1000
0010
1000
0001
0100
1000
0000
,
0100
0001
0010
0000
0001
0100
1000
0100
,
0001
1000
0010
0000
0200
0000
0001
0000
,
0302
0010
0023
0100
,
0230
1000
1000
0000
2300
0000
0010
0000
,
3002
0000
0010
0000
2003
0001
0001
3001
,
0200
0000
0310
0000
2001
0000
0000
3200
,
0000
0000
0000
0000
0320
0000
0000
0000
0001
0000
0000
0001
0000
0000
0001
0000
,
0000
0001
0000
0000
0031
0000
0000
0000
0200
0000
0000
0000
0000
0000
0320
0000
,
0000
0000
0000
0000
2030
0000
0000
0000
0100
0000
0000
0100
0000
0000
0100
0000
,
0000
0010
0000
0000
3001
0000
0000
0000
1002
0000
0000
0000
0000
0000
0203
0000
,
0000
0000
0000
0000
0320
0000
0000
0000
1000
0000
0000
1000
0000
0000
1000
0000
,
0000
1030
0000
0000
0001
0000
0000
0000
0020
0000
0000
0000
0000
0000
0230
0000
,
0000
0000
0000
0000
2300
0000
0000
0000
3010
0100
0000
0010
0100
0000
0010
0100
,
0000
0001
0010
0000
0100
1000
0000
0000
0002
0000
0100
0000
0000
0000
0100
0000
,
0000
1000
0000
1003
0001
0010
0001
0010
,
0100
1000
0100
1000
0000
0001
0100
0000
0110
0000
0000
0010
0000
1000
0100
0000
,
0010
0000
0000
0001
0000
0100
0010
0000
1000
0000
0000
0001
0000
0010
0100
0000
,
0010
0000
0000
0001
0000
1000
0010
0000
0100
0000
0000
0001
0000
1000
0100
0000
,
1000
0000
0000
0001
0000
0100
0010
0000
1000
0000
0000
0100
0000
0001
0100
0000
,
0010
0000
0001
0010
0001
0000
1000
0000
0010
0000
0000
0100
0000
0001
0010
0000
,
0100
0000
0000
1000
0000
0001
0100
0000
0010
0000
0000
1000
0000
0100
0010
0000
,
0001
0000
0000
1000
0000
0010
0100
0000
0001
0010
0000
0011
0000
0000
0001
0100
,
0000
0101
0000
0000
1000
0000
0010
0000
1000
0100
0000
0010
0100
0000
0010
0001
,
0000
0200
0000
0000
0310
1000
0001
0000
0010
0000
0000
0100
0000
0010
0001
0000
,
1000
0000
0000
0010
0000
0100
0001
0000
1000
0000
0000
0100
0000
1000
0010
0000
,
0100
0000
0000
0001
0000
0010
0100
0000
1000
0000
0000
0001
0000
0100
1000
0000
,
0100
0000
0000
0001
0000
1000
0010
0000
0010
0000
0100
0000
0110
0000
0000
0001
,
1000
0000
0000
0001
0000
0001
0010
0000
0100
0000
0000
1000
0000
0010
0100
0000
,
0001
0000
0000
0010
0000
0001
0100
0000
0010
0000
0100
0010
0100
0000
0010
0000
,
2000
0000
0001
0000
3001
0000
1000
0000
0010
0000
0000
0110
0000
0000
0001
0000
,
0000
0011
0000
0000
1000
0000
0100
1000
0200
0000
0000
0000
1300
0000
1000
0000
,
0001
0000
0010
0001
0000
0010
0001
0000
1000
0000
0010
0100
0010
0000
1000
0000
,
0001
0000
0010
0000
0100
0000
1000
0000
0010
0100
0000
0010
0100
0000
0001
0010
,
0000
0100
1000
0000
0001
0100
0000
0000
0010
0000
1000
0001
1000
0000
0100
0000
,
0010
0000
0001
0000
1000
0000
0010
0000
1000
0100
0000
1000
0100
0000
0010
0001
,
0000
1000
0010
0000
0100
0001
0000
0000
0010
0000
0100
0010
0000
0010
0100
0000
,
1000
0001
0000
0001
1000
0000
1000
0000
0010
0100
0000
0001
0100
0000
0010
0100
,
0000
0001
1000
0000
0010
0100
0000
0000
0001
0000
0010
0001
0010
0000
0100
0010
,
0100
0000
1000
0000
0001
1000
0001
1000
0020
0000
0000
0000
0000
0000
0030
0000
,
0100
0001
0010
0000
1002
0000
0000
0100
,
0100
0000
0000
0010
0010
0000
0000
0100
,
0103
0000
0000
0001
0000
0000
0010
0000
0000
0000
0000
0000
0000
0000
0000
0000
;

//--------------- dance-single - forcednature ----------------
#NOTEDATA:;
#STEPSTYPE:dance-single;
#DESCRIPTION:forcednature;
#CREDIT:forcednature;
#DIFFICULTY:Hard;
#METER:17;
#RADARVALUES:0,0,0,0,0;
#NOTES:
0000
0000
0000
0000
,
0000
0000
0000
0000
,
0000
0000
0000
0000
,
0000
0000
0000
0000
,
0000
0000
0000
0000
,
1001
0000
1001
0000
0001
0100
0010
0000
,
1000
0000
0000
0001
0010
0000
0000
0100
1000
0000
0000
0000
0001
0100
0000
0100
,
0001
0000
0000
0000
1010
0000
0000
0000
0001
0000
0100
0010
1000
0000
0000
0000
,
0001
0000
0010
0100
0000
0010
0001
0000
1000
0010
0000
0100
0010
0100
0001
0000
,
1001
0000
1000
0100
0000
0010
0100
0010
0001
0000
1000
0010
0000
0100
0001
0000
,
1001
0000
0001
0100
0000
0010
0100
0010
1000
0000
0001
0010
0000
0100
1000
0000
,
0001
0000
0100
0010
1000
0010
0100
0000
0001
0010
0000
0110
0000
0100
1000
0000
,
0002
0000
0000
0000
0103
0000
0100
0000
0010
1000
0001
0100
0020
0000
0000
0000
,
1030
0000
0100
1000
0000
0100
0010
0000
0001
0000
1000
0000
0001
0100
0010
1000
,
0001
0000
0010
0001
0000
0010
0100
0000
1000
0000
0001
0100
0000
0001
1000
0000
,
0001
0000
0010
0100
0010
0001
0010
0000
0100
0000
1000
0001
0000
0100
0001
0000
,
1000
0010
1000
0010
0000
0100
0010
0100
0001
0000
0010
0000
0011
0000
0001
0000
,
1100
0000
0100
0010
0000
0100
1000
0000
0001
0100
0010
0100
0000
0001
1000
0000
,
0011
0000
0010
0001
0000
0100
0010
1000
0010
0000
1000
0100
0000
0010
0100
0000
,
1001
0000
0000
0001
0010
0000
0110
0000
0100
1000
0100
1000
0000
0001
0000
0100
,
0010
0000
1000
0001
1000
0001
0010
0000
0200
0000
0000
1000
0000
0000
1300
0000
,
0110
0000
0000
0010
0001
0100
0010
0000
1000
0000
0100
0001
0000
0100
1000
0000
,
0010
0000
0000
0100
0010
1000
0100
0000
1001
0000
0000
0001
0000
0010
0000
0001
,
1000
0000
0001
0100
0010
0100
0001
0000
1000
0000
0010
0100
0000
0010
1000
0000
,
0001
0010
0000
0100
0010
0100
1000
0000
0002
0000
0100
0000
0103
0010
0100
0010
,
1000
0000
0001
0010
0100
0010
0001
0000
1000
0000
0010
0100
0000
0010
1000
0000
,
1001
0000
1000
0100
0010
0100
1000
0000
0001
0000
0100
0010
0000
0100
0001
0000
,
0011
0000
1000
0000
1100
0000
0001
0010
0000
0110
0000
1000
0001
1000
0001
0100
,
0020
0030
2000
3000
0002
0003
0200
0300
0001
0000
0010
1000
0000
0000
0010
0000
,
0001
0000
1000
0010
0000
0100
0001
0000
1000
0000
0010
0001
0000
0000
0010
0000
,
1000
0000
0001
0010
0000
0110
0000
1000
0001
0000
0010
1000
0000
0000
0010
0000
,
0001
0000
1000
0010
0000
0100
0001
0000
1000
0000
0001
0100
1000
0100
0001
0000
,
2000
0000
3020
0000
0100
0000
0130
0000
1001
0000
0010
0100
0010
0000
1001
0000
,
0010
0100
0010
0000
1000
0001
0010
0100
1000
0000
0001
0010
0001
0000
1100
0000
,
0001
0010
0001
0000
1000
0010
0100
0001
1000
0000
0100
0010
0000
0110
0000
0011
,
0000
0001
1000
0000
0010
0000
0110
0000
2001
0000
0000
0000
3100
0010
0100
0010
,
0002
0000
0203
0000
0320
0000
2030
0000
3001
0000
0000
0010
0100
0000
0010
0000
,
0001
0000
0000
0010
0100
1000
0001
0000
1000
0000
0000
0010
0100
0000
0010
0000
,
1000
0000
0000
0010
0100
0001
1000
0000
0100
0000
0000
0010
0001
0000
1000
0000
,
0100
0000
0000
0010
0001
1000
0010
0000
0100
0001
0100
0001
0100
0000
0010
0000
,
2000
3001
2002
3000
,
0200
0003
0020
0300
,
2000
0000
0030
0000
3001
0010
0001
0010
,
0100
0000
0100
0000
1000
0000
1000
0000
0010
0100
0010
0100
0010
0100
0010
0000
,
2000
0000
0000
0000
3001
0000
0010
0000
1001
0000
0000
0001
0100
0000
0010
0100
,
0000
0010
1000
0000
0001
0100
0010
1000
0001
0010
0000
0001
0010
0000
0100
0010
,
0000
0100
1000
0000
0001
1000
0000
1000
0001
0000
0000
1000
0100
0000
0010
0100
,
0000
0010
0001
0000
1000
0100
0010
0001
0100
0001
0000
0100
0001
0000
0100
0001
,
0000
0100
0010
0000
1000
0001
0000
0010
0100
0000
0000
1000
0001
0000
0100
0001
,
0000
1000
0010
0000
0100
0010
1000
0001
0010
0100
0000
1000
0100
0000
0010
0001
,
0000
1000
0010
0000
0100
0001
0000
0001
0010
0000
0000
0100
1000
0000
0001
0010
,
0000
0100
0010
0000
0001
1000
0010
0100
0001
1000
0000
0001
1000
0000
0001
1000
,
0000
0010
0100
0000
0001
0010
0100
1000
0002
0000
0000
0000
0100
0000
0100
0000
,
0203
0000
0000
0000
0010
0000
0010
0000
0310
1000
0010
1000
0001
0100
0001
0100
,
0010
1000
0001
0100
0000
0010
0020
0000
1030
0000
0100
0010
0000
0100
1000
0100
,
0010
0000
0001
1000
0000
0010
0100
0001
0100
0000
0010
1000
0000
0001
0010
0100
,
0010
0000
0001
1000
0000
0100
0001
0000
0100
0000
1000
0010
0000
0100
0001
1000
,
0001
0000
0010
0100
0000
1000
0100
0000
0010
0000
0001
1000
0000
0001
0100
0010
,
2000
0000
3100
0010
0002
0000
0103
0010
1000
0000
0001
0010
0000
0100
0010
0100
,
1000
0000
0001
0100
0000
0010
1000
0001
0010
0000
0100
1000
0000
0001
0100
0001
,
1000
0000
0010
0100
0000
0001
0010
0001
1000
0010
0000
0110
0000
0000
0001
0010
,
0000
0110
0000
1000
0001
1000
0001
0000
0100
0010
1000
0100
0010
0001
0100
0000
,
0010
1000
0010
1000
0001
0100
0020
0000
1030
0000
0001
0010
0000
0100
0010
0100
,
1000
0000
0001
0100
0001
1000
0010
0000
1000
0000
0100
0010
0000
0100
1000
0001
,
0010
0000
0001
1000
0001
0100
0010
0000
1000
0000
0001
0010
0000
0100
1000
0001
,
1000
0000
0010
0100
0001
0100
0010
0000
1000
0000
0001
0000
1001
0000
0000
0001
,
0010
0000
0100
1000
0100
1000
0020
0000
0130
0000
0001
0100
0000
0001
0010
0000
,
0110
0000
0100
1000
0100
0000
0010
0001
1000
0000
0001
0100
1000
0000
0100
0000
,
0001
1000
0001
1000
0010
0100
0001
0000
1100
0000
0000
0110
0000
0000
0011
0000
,
0000
1001
0000
0000
0010
0100
0010
0100
0002
0000
0000
0000
0013
0000
0010
0000
,
0200
0300
0001
0200
0300
1000
0200
0300
0010
0001
1000
0100
1000
0001
0100
0010
,
1000
0010
0100
0001
0010
0100
1000
0001
1000
0010
0000
0100
0010
0000
0001
0010
,
0000
1000
0001
0000
0100
0010
0000
1000
0001
0010
0100
1000
0010
0100
0001
0010
,
0001
1000
0100
1000
0001
0100
0010
1000
0100
0001
0000
0100
1000
0000
0001
0010
,
0000
1000
0010
0000
0100
1000
0100
1000
0010
0100
0000
0011
0000
0001
0100
0010
,
1000
0100
0010
0001
1000
0010
0001
0010
1000
0001
0000
0100
1000
0000
0100
0001
,
0000
0010
0100
0010
0100
1000
0010
1000
0001
0010
0100
1000
0010
0100
0001
0010
,
0100
1000
0010
0100
0001
1000
0100
0010
0002
0000
0000
0000
0000
0000
0103
0010
,
1000
0100
0001
0100
1000
0000
0010
0000
0102
0000
0000
0100
0000
0000
1000
0000
,
0010
0000
0000
0010
0000
0000
1000
0000
0100
0000
0000
0100
0000
0000
1000
0000
,
0023
0000
0000
0230
0000
0000
2300
0000
3000
0000
0000
0000
0000
0000
0000
0000
;

//--------------- dance-double - forcednature ----------------
#NOTEDATA:;
#STEPSTYPE:dance-double;
#DESCRIPTION:forcednature;
#CREDIT:forcednature;
#DIFFICULTY:Easy;
#METER:8;
#RADARVALUES:0,0,0,0,0;
#NOTES:
00000000
00000000
00000000
00000000
,
00000000
00000000
00000000
00000000
,
00000000
00000000
00000000
00000000
,
00000000
00000000
00000000
00000000
,
00000000
00000000
00000000
00000000
,
00011000
00000000
01000000
00000000
,
00010000
00000000
00100000
00100000
,
01000000
00000000
10000000
00000000
,
00100000
00000000
10000000
10000000
,
00010000
00000000
00100000
00100000
,
00001000
00000000
00010000
00010000
,
00000100
00000100
00001000
00000010
,
00002002
00000000
00003003
00000000
,
00000110
00000000
00000001
00000000
,
00000100
00000001
00000100
00000000
,
00000010
00001000
00000010
00000000
,
00010000
00001000
00010000
00000000
,
00011000
00000000
00100000
00000000
,
00010000
01000000
00010000
00000000
,
10000000
10000000
00100000
00100000
,
10000000
00010000
01000000
00000000
,
10010000
00000000
00010000
00100000
,
00001000
00010000
00000100
00000000
,
00011000
00000000
00001000
00010000
,
00000010
00001000
00000001
00000000
,
00000100
00000100
00000001
00000000
,
00000010
00000010
00000001
00000000
,
00000100
00000100
00001000
00001000
,
00010000
00010000
00001000
00001000
00011000
00000000
00000000
00000000
,
01000000
00000000
00010000
00010000
,
00100000
00000000
01100000
00000000
,
10000000
00000000
00100000
00100000
,
00100000
00000000
00000000
00000000
01100000
00000000
00000000
00010000
,
00000000
00000000
00000000
00000000
00011000
00000000
00000000
00000100
,
00000000
00000000
00001000
00001000
,
00000010
00000100
00002002
00000000
,
00003003
00000000
00000001
00000000
,
00000010
00000000
00000100
00000000
,
00001000
00000000
00010000
00000000
,
00100000
00000000
01000000
01000000
,
01000000
00000000
20020000
00000000
,
00000000
00000000
00000000
00000000
,
30030000
00000000
20000000
30000000
,
00200000
00300000
02000000
03000000
,
00020000
00030000
00200000
00000000
,
00000000
00300000
00002000
00000000
,
00000000
00003000
00020000
00000000
,
00000000
00030000
00000200
00000000
,
00000000
00000300
00002000
00000000
,
00000000
00003000
00000020
00000000
,
00000000
00000030
00000200
00000000
,
00000000
00000300
00000002
00000003
,
00000020
00000030
00002001
00000000
,
00000100
00000100
00003200
00000000
,
00020000
00030300
00011000
01000000
,
00010000
00100000
00010000
10000000
,
01000000
00000000
00100000
00010000
,
00100000
00001000
00010000
00000010
,
00001000
00000000
00000001
00000010
,
00000100
00000010
00000001
00001000
,
00000100
00000000
00010000
00001000
,
01000000
00010000
10000000
10000000
,
00200000
00000000
00000000
00300000
10000000
00000000
01000000
00000000
,
00100000
01000000
10000000
00010000
,
00100000
00000000
00001000
00010000
,
00000010
00000100
00000001
00000010
,
00000100
00000000
00001001
00000000
,
00001000
00000100
00010000
00001000
,
00100000
00000000
00001000
00010000
,
00100000
00000000
20000000
00000000
,
30020000
00030000
10010000
00010000
,
00100000
00001000
00010000
00000010
,
00001000
00000100
00001000
00000000
00000001
00000000
00000100
00000000
,
00000001
00000010
00000100
00010000
,
00001000
00010000
00001000
00000000
00100000
00000000
00100000
00010000
,
00100000
00000000
00010000
00000000
01000000
00000000
01000000
00010000
,
01000000
00000000
00100000
00000000
10000000
00000000
10000000
00010000
,
10000000
00000000
01000000
00000000
00020000
00000000
00000000
00030000
,
00001000
00000010
00002002
00000000
,
00000000
00000000
00000000
00000000
,
00000000
00000000
00003003
00000000
;

//--------------- dance-double - forcednature ----------------
#NOTEDATA:;
#STEPSTYPE:dance-double;
#DESCRIPTION:forcednature;
#CREDIT:forcednature;
#DIFFICULTY:Medium;
#METER:14;
#RADARVALUES:0,0,0,0,0;
#NOTES:
00000000
00000000
00000000
00000000
,
00000000
00000000
00000000
00000000
,
00000000
00000000
00000000
00000000
,
00000000
00000000
00000000
00000000
,
00000000
00000000
00000000
00000000
,
00011000
00000000
00001000
00010000
00100000
00000000
00010000
00001000
,
00100000
00000000
00001000
00010000
00100000
00000000
10000000
00000000
,
01000000
00000000
00010000
00001000
00000010
00000000
00001000
00010000
,
00000010
00000000
00010000
00001000
00000010
00000000
00000001
00000000
,
00001001
00000000
00001000
00000100
00010000
00001000
00100000
00000000
,
10010000
00000000
00010000
01000000
00001000
00010000
00000010
00000000
,
00001001
00000000
00000000
00000000
00000100
00000000
00000110
00000000
00000000
00000001
00000000
00000001
00000000
00000100
00000010
00000000
,
00001000
00000000
00000000
00001000
00000100
00000000
00020000
00000000
00000000
00030000
00001000
00010000
00001000
00000000
00000000
00000000
,
00010000
00100000
10000000
01000000
10000000
00100000
00010000
00001000
,
00100000
00010000
00100000
00001000
00000010
00000100
00001000
00000000
,
00000001
00000100
00001000
00000100
00000001
00000010
00001000
00010000
,
01000000
00100000
00001000
00010000
00100000
10000000
00010000
00000000
,
01000000
10000000
01000000
00010000
00100000
00001000
00010000
00000100
,
00010000
00001000
00000010
00000001
00000100
00000001
00000010
00000000
,
00000110
00000000
00000000
00000100
00010000
00000000
00010000
00000000
00001000
00000000
00001000
00010000
00000000
00100000
00000000
00000000
,
10000000
00000000
00010000
10000000
00010000
00000000
00200000
00000000
01000000
00000000
00000000
01000000
00000000
01300000
00000000
00000000
,
01100000
00000000
00000000
00100000
00010000
00000000
01000000
00000000
00001000
00000000
00010000
00000000
00000010
00000000
00001000
00000000
,
00000100
00000000
00000000
00000010
00000001
00000000
00000100
00000000
00000001
00000000
00000010
00000000
00001000
00000000
00010000
00000000
,
00000100
00000000
00000000
00001000
00000010
00000000
00010000
00000000
00001000
00000000
00100000
00000000
00001000
00000000
00010000
00000000
,
00100000
00000000
00000000
01000000
00010000
00000000
10000000
00000000
01000000
00000000
00010000
00000000
00011000
00000000
00011000
00000000
,
00001000
00000000
00000000
00000010
00000100
00000000
00001000
00000000
00000001
00000000
00000100
00000000
00001000
00000000
00000100
00000000
,
00000001
00000000
00000000
00001000
00000010
00000000
00010000
00000000
00001000
00000000
00100000
00000000
00010000
00000000
01000000
00000000
,
10000000
00000000
01000000
00000000
00010000
00000000
00100000
00010000
00000000
00010000
00000000
01000000
00100000
00000000
10000000
00000000
,
02000000
03000000
00020000
00030000
00002000
00003000
00000020
00000030
00000001
00000000
00000001
00000100
00000000
00000000
00001000
00000000
,
00010000
00000000
00001000
00000000
00010000
00000000
00000000
00000000
00100000
00000000
00100000
10000000
00000000
00000000
01000000
00000000
,
00010000
00000000
01000000
00000000
00010000
00000000
00000000
00000000
00001000
00000000
00001000
00010000
00000000
00000000
00001000
00000000
,
00000010
00000000
00001000
00000000
00000020
00000000
00000000
00000000
00000031
00000000
00001000
00000001
00001000
00000001
00001000
00000000
,
00000010
00000000
00000100
00000000
00000010
00000000
00000000
00000000
00010000
00000000
00010000
00000100
00000000
00000000
00010000
00000000
,
00010000
00000100
00000000
00000000
00011000
00000000
00000000
00000000
00001000
00000000
00001000
01000000
00000000
00000000
00001000
00000000
,
00001000
01000000
00000000
00000000
00011000
00000000
00000000
00000000
00100000
00000000
00001000
00010000
00000000
00010000
00000000
00001000
,
00000000
00001000
00010000
00000000
00000100
00000000
00000000
00000000
00002002
00000000
00000000
00000000
00003000
00000000
00000000
00000000
,
00000100
00000100
00000103
00000000
00000001
00000010
00001000
00000000
,
00010000
00001000
00000010
00000000
00000001
00000010
00001000
00000000
,
00010000
01000000
10000000
00000000
10000000
00100000
00010000
00000000
,
00001000
00010000
00100000
00000000
10000000
10000000
00100000
00000000
,
00010000
00001000
00022000
00003000
,
00000200
00030000
00002000
00000300
,
00000010
00003010
00000002
00000100
,
00000203
00000000
00001000
00000000
00002300
00010000
00010000
00000000
,
00203000
00000000
01300000
00000000
20010000
00000000
00000000
32000000
,
00000000
00000000
00000000
00000000
03020000
00000000
00000000
00000000
00001000
00000000
00000000
00001000
00000000
00000000
00001000
00000000
,
00000000
00001000
00000000
00000000
00031000
00000000
00000000
00000000
00000200
00000000
00000000
00000000
00000000
00000000
00002300
00000000
,
00000000
00000000
00000000
00000000
00003020
00000000
00000000
00000000
00000100
00000000
00000000
00000100
00000000
00000000
00000100
00000000
,
00000000
00001000
00000000
00000000
00010030
00000000
00000000
00000000
00002001
00000000
00000000
00000000
00000000
00000000
00003200
00000000
,
00000000
00000000
00000000
00000000
00020300
00000000
00000000
00000000
00001000
00000000
00000000
00001000
00000000
00000000
00001000
00000000
,
00000000
00001000
00000000
00000000
00030010
00000000
00000000
00000000
02000000
00000000
00000000
00000000
00000000
00000000
03020000
00000000
,
00000000
00000000
00000000
00000000
20030000
00000000
00000000
00000000
31000000
00100000
00000000
01000000
00100000
00000000
01000000
00100000
,
00000000
00010000
00100000
00000000
00001000
00010000
00000000
00000000
00000200
00000000
00001000
00000000
00000000
00000000
00001000
00000000
,
00000000
00000010
00000000
00000310
00000100
00010000
00001000
00100000
,
00010000
00000000
01000000
00000000
00000000
00100000
01000000
00000000
01100000
00000000
00000000
00000000
00010000
00000000
10000000
00000000
,
01000000
00000000
00000000
00100000
00000000
01000000
00100000
00000000
00001000
00000000
00000000
00000000
00010000
00000000
00000100
00000000
,
00001000
00000000
00000000
00000010
00000000
00001000
00000001
00000000
00000100
00000000
00000000
00000000
00000001
00000000
00000010
00000000
,
00001000
00000000
00000000
00010000
00000000
00001000
00100000
00000000
00010000
00000000
00000000
01000000
00000000
00100000
01000000
00000000
,
00010000
00000000
10000000
00010000
10000000
00000000
00010000
00000000
00100000
00000000
00000000
01000000
00000000
10000000
01000000
00000000
,
00100000
00000000
00000000
00010000
00000000
00100000
00001000
00000000
00010000
00000000
00000000
00000100
00000000
00001000
00000100
00000000
,
00000010
00000000
00000000
00000001
00000000
00001000
00000001
00000000
00000100
00000010
00000000
00000110
00000000
00000000
00000001
00001000
,
00000000
00001001
00000000
00000000
00001000
00000000
00000100
00000000
00010000
00001000
00000000
00010000
00001000
00000000
00010000
00000000
,
00200000
00000000
00000000
00000000
10300000
00000000
00010000
00000000
00100000
00000000
00000000
01000000
00000000
10000000
01000000
00000000
,
00010000
00000000
00000000
00001000
00000000
00010000
00000100
00000000
00001000
00000000
00000000
00000010
00000000
00000100
00000010
00000000
,
00001000
00000000
00000000
00000001
00000000
00000100
00000001
00000000
00000010
00000000
00000000
00000100
00000000
00001000
00000100
00000000
,
00010000
00000000
00000000
00001000
00000000
00100000
00010000
00000000
01000000
00000000
00100000
00000000
01100000
00000000
00000000
00010000
,
10000000
00000000
00000000
01000000
10000000
00000000
00010000
00000000
00100000
00000000
00000000
00001000
00000000
00010000
00000100
00000000
,
00010000
00000000
00000000
00001000
00000000
00100000
00010000
00000000
00100000
00000000
01000000
00100000
01000000
00000000
10000000
00000000
,
00020000
00000000
00000000
00000000
00130000
00000000
00001000
00000000
00010000
00000000
00000000
00011000
00000000
00000000
00100000
00000000
,
00000000
00011000
00000000
00000000
00000010
00000000
00001000
00000010
00002000
00000000
00000000
00000000
00003001
00000000
00000001
00000000
,
00000010
00000000
00000100
00000010
00000000
00000100
00000010
00000000
00000100
00000000
00010000
00000000
00001000
00000000
00100000
00000000
,
00001000
00000000
00010000
00000000
00100000
00000000
10000000
00000000
01000000
10000000
00000000
01000000
10000000
00000000
00010000
00100000
,
00000000
01000000
10000000
00000000
00010000
01000000
00000000
00000000
00100000
00000000
10000000
00000000
01000000
00000000
00010000
00000000
,
00001000
00000000
00000100
00000000
00000001
00000000
00000010
00000000
00000100
00001000
00000000
00000100
00001000
00000000
00000001
00000010
,
00000000
00000001
00001000
00000000
00000010
00001000
00000000
00000000
00000001
00000000
00000000
00000100
00000000
00000000
00001000
00000000
,
00000000
00010000
00000000
00001000
00010000
00000000
00100000
00000000
10000000
01000000
00000000
00100000
01000000
00000000
10000000
01000000
,
00000000
00100000
01000000
00000000
00100000
00010000
00000000
00000000
00100000
00000000
00001000
00000000
00010000
00001000
00010000
00000000
,
00000100
00000000
00001000
00000000
00000100
00000010
00000100
00000010
00000002
00000000
00000000
00000000
00000000
00000000
00000003
00000000
,
00000100
00001000
00010000
00000000
00021000
00000000
00000000
00000010
,
00000010
00000000
00000000
00001000
00001000
00000000
00000000
00000100
,
00030100
00000000
00000000
00010000
00000000
00000000
00100000
00000000
00000000
00000000
00000000
00000000
00000000
00000000
00000000
00000000
;

//--------------- dance-double - forcednature ----------------
#NOTEDATA:;
#STEPSTYPE:dance-double;
#DESCRIPTION:forcednature;
#CREDIT:forcednature;
#DIFFICULTY:Hard;
#METER:17;
#RADARVALUES:0,0,0,0,0;
#NOTES:
00000000
00000000
00000000
00000000
,
00000000
00000000
00000000
00000000
,
00000000
00000000
00000000
00000000
,
00000000
00000000
00000000
00000000
,
00000000
00000000
00000000
00000000
,
00011000
00000000
00010000
00000000
00100000
10000000
01000000
00000000
,
00010000
00000000
00000000
00010000
00001000
00000000
00000000
00001000
00000010
00000000
00000000
00000000
00000001
00000100
00000000
00000100
,
00000001
00000000
00000000
00000000
00001010
00000000
00000000
00000000
00001000
00000000
00000001
00000100
00001000
00000000
00000000
00000000
,
00010000
00000000
00001000
00100000
00000000
00010000
00100000
00000000
01000000
10000000
00000000
00100000
01000000
00000000
00010000
00000000
,
10010000
00000000
10000000
01000000
00000000
00100000
01000000
00000000
00100000
00000000
00010000
00100000
00000000
00001000
00010000
00000000
,
00011000
00000000
00001000
00010000
00000000
00000010
00001000
00000000
00000010
00000000
00000100
00000001
00000000
00001000
00000100
00000000
,
00000110
00000000
00000010
00000001
00001000
00000001
00000010
00000000
00000100
00001000
00000000
00001100
00000000
00000100
00010000
00000000
,
00002000
00000000
00000000
00000000
00103000
00000000
00100000
00000000
00010000
10000000
01000000
10000000
00200000
00000000
00000000
00000000
,
10300000
00000000
01000000
10000000
00000000
01000000
00010000
00000000
00001000
00000000
00100000
00000000
00001000
00010000
00001000
00000000
,
00010000
00000000
00001000
00000010
00000000
00000001
00000010
00000000
00000100
00000000
00001000
00000010
00000000
00000100
00000001
00000000
,
00000100
00000000
00001000
00010000
00000010
00010000
00001000
00000000
00100000
00000000
00010000
01000000
00000000
00100000
01000000
00000000
,
00010000
00000000
10000000
00010000
10000000
00000000
01000000
00100000
00010000
00000000
00100000
00000000
01000000
00000000
00010000
00000000
,
00011000
00000000
00001000
00000010
00000000
00000100
00000010
00000000
00000001
00001000
00000100
00001000
00000000
00000001
00000010
00000000
,
00000110
00000000
00000100
00001000
00000000
00000100
00010000
00001000
00010000
00000000
00001000
00100000
00000000
00010000
00100000
00000000
,
10010000
00000000
00000000
10000000
01000000
00000000
01100000
00000000
00100000
00010000
00100000
00010000
00000000
00100000
00000000
00001000
,
00010000
00000000
00000010
00001000
00000010
00001000
00000001
00000000
00000200
00000000
00000000
00001000
00000000
00000000
00000301
00000000
,
00000110
00000000
00000000
00000010
00001000
00000001
00000100
00000000
00001000
00000000
00010000
00001000
00000000
00001000
00010000
00000000
,
00100000
00000000
00000000
10000000
01000000
00100000
00010000
00000000
10010000
00000000
00000000
00010000
00000000
00010000
00000000
01000000
,
00100000
00000000
10000000
00010000
00100000
00010000
10000000
00000000
01000000
00000000
00010000
00001000
00000000
00100000
00001000
00000000
,
00010000
00000100
00000000
00001000
00000100
00000010
00000100
00000000
00000020
00000000
00000001
00000000
00000031
00001000
00000001
00001000
,
00000010
00000000
00000100
00000001
00001000
00000001
00000100
00000000
00001000
00000000
00010000
00000100
00000000
00010000
00001000
00000000
,
00011000
00000000
00100000
00010000
00100000
01000000
00100000
00000000
01000000
00000000
10000000
00100000
00000000
01000000
00010000
00000000
,
00110000
00000000
00001000
00000000
00011000
00000000
00010000
00000100
00000000
00001100
00000000
00001000
00000010
00001000
00000010
00000100
,
00000002
00000003
00000020
00000030
00002000
00003000
00020000
00030000
00001000
00000000
00100000
10000000
00000000
00000000
00100000
00000000
,
00010000
00000000
10000000
01000000
00000000
00010000
00001000
00000000
00010000
00000000
00000010
00000001
00000000
00000000
00000010
00000000
,
00001000
00000000
00000001
00000100
00000000
00001000
00010000
00001000
00010000
00000000
00000100
00000001
00000000
00000000
00000100
00000000
,
00010000
00000000
00001000
00100000
00000000
00010000
10000000
00000000
01000000
00000000
01000000
00010000
00001000
00010000
00000010
00000000
,
00002000
00000000
00003002
00000000
00000100
00000000
00000103
00000000
00001001
00000000
00000001
00000100
00001000
00000000
00011000
00000000
,
00010000
01000000
10000000
00000000
00100000
01000000
00100000
00000000
10010000
00000000
10000000
00100000
00010000
00000000
00011000
00000000
,
00001000
00000010
00000001
00000000
00000010
00000100
00000010
00000100
00001000
00000000
00000001
00000100
00000000
00001000
00000000
00010000
,
00000000
00100000
10000000
00000000
01000000
00000000
01100000
00000000
20010000
00000000
00000000
00000000
31000000
00100000
01000000
00100000
,
00002000
00000000
00023000
00000000
00030200
00000000
00000320
00000000
00000031
00000000
00000000
00000001
00000100
00000000
00001000
00000000
,
00010000
00000000
00000000
00010000
00100000
10000000
00010000
00000000
10000000
00000000
00000000
10000000
01000000
00000000
00010000
00000000
,
00001000
00000000
00000000
00001000
00000010
00000001
00001000
00000000
00000001
00000000
00000000
00000001
00000100
00000000
00001000
00000000
,
00010000
00000000
00000000
00010000
00100000
10000000
00010000
00000000
01000000
00100000
01000000
00100000
01000000
00000000
00010000
00000000
,
00200000
00301000
00022000
00003000
,
00000200
00030000
00000020
00000300
,
00000002
00000000
00000030
00000000
00000103
00000001
00000100
00000001
,
00000100
00000000
00000100
00000000
00001000
00000000
00001000
00000000
00010000
00001000
00010000
00001000
00010000
00001000
00010000
00000000
,
00200000
00000000
00000000
00000000
10300000
00000000
01000000
00000000
10020000
00000000
00000000
00230000
00000000
00000000
02300000
00000000
,
00000000
03020000
00000000
00000000
00031000
00000000
00000010
00000000
00000001
00000100
00000000
00000001
00000100
00000000
00000010
00001000
,
00000000
00000100
00001000
00000000
00000100
00010000
00000000
00010000
00002000
00000000
00000000
00203000
00000000
00000000
00320000
00000000
,
00000000
02030000
00000000
00000000
13000000
00000000
01000000
00000000
00010000
00100000
00000000
00010000
00100000
00000000
00001000
00010000
,
00000000
00000010
00001000
00000000
00000100
00000010
00000000
00000001
00000200
00000000
00000000
00002300
00000000
00000000
00023000
00000000
,
00000000
00230000
00000000
00000000
10300000
00000000
00010000
00000000
00100000
01000000
00000000
00100000
01000000
00000000
00010000
00001000
,
00000000
00000010
00000100
00000000
00001000
00000001
00000000
00000001
00000200
00000000
00000000
00002300
00000000
00000000
00023000
00000000
,
00000000
00230000
00000000
00000000
10300000
00000000
00010000
00000000
00100000
01000000
00000000
00100000
01000000
00000000
00100000
01000000
,
00000000
00010000
00001000
00000000
00000010
00000100
00000010
00000000
00000210
00000000
00000000
00000000
00000000
00000000
00010000
00000000
,
00020300
00000000
00000000
00000000
00000000
00000000
00001000
00000000
00031000
00010000
00001000
00010000
00001000
00100000
00010000
00100000
,
01000000
10000000
00010000
01000000
00000000
00100000
20000000
00000000
31000000
00000000
00010000
01000000
00000000
10000000
01000000
00000000
,
00100000
00000000
00001000
00010000
00000000
00000010
00001000
00000000
00000100
00000000
00000001
00000100
00000000
00001000
00000100
00000000
,
00010000
00000000
00001000
00100000
00000000
00010000
00100000
00000000
01000000
00000000
10000000
00100000
00000000
00010000
00100000
00000000
,
10000000
00000000
00010000
01000000
00000000
00001000
00010000
00000000
00000010
00000000
00001000
00000100
00000000
00000001
00000100
00000000
,
00001100
00000000
00001000
00000001
00000010
00000000
00000110
00000000
00001001
00000000
00000001
00000100
00000000
00001000
00000100
00000000
,
00001000
00000000
00010000
00001000
00000000
00010000
00100000
00000000
10000000
00000000
01000000
00010000
00000000
01000000
10000000
00000000
,
00010000
00000000
00100000
00001000
00000000
00010000
00000100
00000000
00001000
00000010
00000000
00000210
00000000
00000000
00000301
00000010
,
00000000
00000210
00000000
00000000
00001300
00000001
00001000
00000000
00000010
00000100
00000000
00000100
00001000
00000000
00010000
00000000
,
00001000
00100000
00010000
00100000
00001000
00010000
00002000
00000000
01003000
00000000
00010000
00100000
00000000
01000000
00100000
01000000
,
10000000
00000000
00010000
00100000
00001000
00010000
00001000
00000000
00010000
00000000
00000100
00001000
00000000
00000100
00000010
00000001
,
00000010
00000000
00000001
00000100
00000001
00001000
00000010
00000000
00010000
00000000
00001000
00100000
00000000
00010000
10000000
01000000
,
10000000
00000000
00100000
01000000
00010000
01000000
00100000
00000000
10000000
00000000
01000000
00000000
00020000
00000000
00000000
00031000
,
00000010
00000000
00000001
00001000
00000100
00001000
00000002
00000000
00000013
00000000
00000001
00000100
00000000
00001000
00000100
00000000
,
00000110
00000000
00000010
00001000
00000010
00000000
00010000
00001000
00010000
00000000
00010000
01000000
10000000
00000000
00100000
00000000
,
10000000
00010000
10000000
00010000
00100000
01000000
10000000
00000000
11000000
00000000
00000000
00110000
00000000
00000000
00001100
00000000
,
00000000
00000011
00000000
00000000
00000001
00001000
00000001
00001000
00000020
00000000
00000000
00000000
00000130
00000000
00000100
00000000
,
00002000
00003000
00010000
00002000
00003000
00010000
00002000
00003000
00010000
00100000
10000000
00100000
10000000
00010000
01000000
00100000
,
10000000
01000000
00100000
00010000
00100000
00001000
00010000
00000100
00010000
00001000
00000000
00000010
00001000
00000000
00010000
00001000
,
00000000
00000100
00001000
00000000
00010000
00001000
00000000
00000000
00000010
00000100
00001000
00000100
00010000
00001000
00010000
00000010
,
00001000
00000010
00000100
00000001
00000010
00000100
00001000
00000100
00010000
00001000
00000000
00010000
00100000
00000000
00010000
00001000
,
00000000
00010000
01000000
00000000
10000000
01000000
00100000
01000000
00100000
00010000
00000000
00110000
00000000
00100000
00001000
00010000
,
00000100
00010000
00001000
00000010
00000100
00000010
00001000
00010000
00000100
00001000
00000000
00000010
00000100
00000000
00001000
00010000
,
00000000
00100000
01000000
00100000
01000000
00010000
10000000
00100000
10000000
01000000
00100000
00010000
00100000
00001000
00010000
00000100
,
00001000
00000100
00000010
00000001
00000100
00000010
00001000
00000001
00000020
00000000
00000000
00000000
00000000
00000000
00001030
00010000
,
00000100
00010000
00001000
00100000
00001000
00000000
01000000
00000000
10020000
00000000
00000000
00000000
10030000
00000000
01000000
00000000
,
00020000
00000000
00031000
00000010
00000002
00000000
00000103
00001000
,
00020000
00000000
00000000
00230000
00000000
00000000
20300000
00000000
30000000
00000000
00000000
00000000
00000000
00000000
00000000
00000000
;
