#VERSION:0.83;
#TITLE:Stand Alone Beat Masta;
#SUBTITLE:;
#ARTIST:GUHROOVY;
#TITLETRANSLIT:;
#SUBTITLETRANSLIT:;
#ARTISTTRANSLIT:;
#GENRE:;
#CREDIT:;
#MUSIC:Stand Alone Beat Masta.ogg;
#BANNER:Stand Alone Beat Masta.png;
#BACKGROUND:Stand Alone Beat Masta-bg.png;
#CDTITLE:./CDTitles/jubeat saucer.png;
#SAMPLESTART:39.089;
#SAMPLELENGTH:15.000;
#SELECTABLE:YES;
#OFFSET:0.499;
#BPMS:0.000=200.000;
#STOPS:;
#TIMESIGNATURES:0.000=4=4;
#BGCHANGES:0.000=../BGAs/09te.mp4=1.000=0=0=0=StretchNoLoop====,
99999.000=-nosongbg-=1.000=0=0=0=StretchNoLoop====
;
#FGCHANGES:;

//--------------- dance-single - forcednature ----------------
#NOTEDATA:;
#STEPSTYPE:dance-single;
#DESCRIPTION:forcednature;
#DIFFICULTY:Beginner;
#METER:8;
#RADARVALUES:0,0,0,0,0;
#CREDIT:forcednature;
#NOTES:
0000
0000
0000
0000
,
0000
0000
0000
0000
,
0000
0000
0000
0000
,
0000
0000
0000
0000
,
0000
0000
0000
0000
,
0000
0000
0000
0000
,
0000
0000
0000
0000
,
0000
0000
0000
0000
,
0000
0000
0000
0000
,
0002
0000
0003
0000
,
0002
0000
0003
0000
,
0002
0000
0003
0000
,
0200
0000
0300
0000
,
0110
0000
0010
0000
,
1000
0000
1000
0000
,
0001
0001
0001
0000
,
2002
0000
3003
0000
,
1000
0000
1000
0000
,
0100
0000
1000
0000
,
0001
0000
0001
0000
,
0100
0001
0100
0000
,
0010
0000
0010
0000
,
0100
0000
0010
0000
,
1000
0000
0001
0000
,
2002
0000
3003
0000
,
1000
0100
1000
0000
,
0100
0100
0100
0000
,
1000
0010
1000
0000
,
0100
0100
0100
0000
,
1000
0001
1000
0000
,
0100
0100
0100
0000
,
1000
0010
1000
0000
,
2002
0000
3003
0000
,
0001
0100
0001
0100
,
0010
0010
0010
0000
,
1000
0100
1000
0100
,
0010
0010
0010
0000
,
0001
1000
0001
1000
,
0010
0010
0010
0000
,
0100
0001
0100
0001
,
2000
0000
3000
0000
,
0100
0010
0100
0010
,
0001
0001
0001
0000
,
0100
0010
0100
0010
,
1000
1000
1000
0000
,
0001
0010
0001
0010
,
0100
0100
0100
0000
,
1000
0001
1000
0001
,
2002
0000
0000
0000
,
3003
0000
0000
0000
,
2000
0000
0000
0000
,
0000
0000
3000
0000
,
0200
0000
0000
0000
,
0000
0000
0300
0000
,
0020
0000
0000
0000
,
0000
0000
0030
0000
,
0002
0000
0000
0000
,
0000
0000
0003
0000
,
0100
0000
0100
0000
,
0110
0000
0000
0000
,
0010
0000
0010
0000
,
0110
0000
0000
0000
,
1000
0000
1000
0000
,
1001
0000
0000
0000
,
0110
0000
0000
0000
,
1001
0000
0000
0000
,
0001
0000
0001
0000
,
1001
0000
0000
0000
,
0010
0000
0010
0000
,
0110
0000
0000
0000
,
0100
0000
0100
0000
,
0110
0000
0000
0000
,
1001
0000
0000
0000
,
0110
0000
0000
0000
,
0001
0000
0001
0100
,
0010
0000
0010
1000
,
0001
0000
0001
0010
,
0100
0000
0100
1000
,
0001
0000
0001
0100
,
1000
0000
1000
0100
,
0001
0000
0001
1000
,
2002
0000
3003
0000
,
0001
0100
0001
0000
0100
0001
0100
0000
,
0010
1000
0002
0003
,
1000
0100
1000
0000
0100
1000
0100
0000
,
0010
0001
2000
3000
,
0010
0100
0010
0000
0100
0010
0100
0000
,
0001
1000
0200
0300
,
0010
0100
0010
0000
0100
0010
0100
0010
,
0100
0000
0000
0000
,
1002
0000
0000
0000
,
0000
0000
0003
0000
,
2000
0000
0000
0000
,
0000
0000
3000
0000
,
0200
0000
0000
0000
,
0000
0000
0300
0000
,
0020
0000
0000
0000
,
0000
0000
0030
0000
,
2002
0000
0000
0000
,
0000
0000
0000
0000
,
3003
0000
0000
0000
;

//--------------- dance-single - forcednature ----------------
#NOTEDATA:;
#STEPSTYPE:dance-single;
#DESCRIPTION:forcednature;
#DIFFICULTY:Easy;
#METER:10;
#RADARVALUES:0,0,0,0,0;
#CREDIT:forcednature;
#NOTES:
0000
0000
0000
0000
,
0000
0000
0000
0000
,
0000
0000
0000
0000
,
0000
0000
0000
0000
,
0000
0000
0000
0000
,
0000
0000
0000
0000
,
0000
0000
0000
0000
,
0000
0000
0000
0000
,
0000
0000
0000
0000
,
0002
0000
0003
0000
,
0200
0000
0300
0000
,
0020
0000
0030
0000
,
2000
0000
3000
0000
,
1001
0000
0001
0000
,
1001
0000
1000
0000
,
0010
0010
0100
0100
,
0220
0000
0330
0000
,
0001
0100
0010
1000
,
0001
0100
0010
0000
,
1000
0100
0010
0001
,
1000
0100
0010
0000
,
0001
1000
0010
0100
,
0001
1000
0010
0000
,
1000
0001
0010
0000
,
0220
0000
0000
0330
,
0100
1000
0001
0000
,
0100
0100
0100
0000
,
0100
0001
1000
0000
,
0100
0100
0100
0000
,
1000
0001
0010
0000
,
0100
0100
0100
0000
,
0010
0001
1000
0000
,
2002
0000
0000
3003
,
0001
0100
0001
0000
0100
0001
0100
0000
,
0010
1000
0100
1000
,
1000
0100
1000
0000
0001
0010
0001
0000
,
1000
0010
0100
0010
,
1000
0001
1000
0000
0100
0010
0100
0000
,
1000
0001
0010
0001
,
0100
0001
0100
0000
0010
0100
0010
0000
,
2002
0000
0000
3003
,
0001
0100
0001
0000
1000
0100
1000
0000
,
0010
0110
0100
0110
,
1000
0100
1000
0000
0001
0100
0001
0000
,
0010
0110
0100
0110
,
0001
0010
0001
0000
1000
0010
1000
0000
,
0100
1001
0010
1001
,
0100
0010
0100
0000
0010
0100
0010
0000
,
2002
0000
0000
0000
,
3003
0000
0000
0000
,
0002
0000
0000
0000
,
0000
0000
0000
0000
,
0203
0000
0000
0000
,
0000
0000
0000
0000
,
0320
0000
0000
0000
,
0000
0000
0000
0000
,
2030
0000
0000
0000
,
0000
0000
0000
0000
,
3001
0001
0001
0000
,
0010
0100
0010
0000
,
0100
0100
0100
0000
,
1000
0001
1000
0000
,
0010
0010
0010
0000
,
0100
0001
0100
0000
,
0220
0000
0330
0000
,
2002
0000
3003
0000
,
1000
0100
1000
0100
,
0010
0100
0010
0100
,
0010
0001
0010
0001
,
1000
0001
1000
0001
,
1000
0010
1000
0010
,
0100
0001
0100
0001
,
2002
0000
3003
0000
,
0220
0000
0330
0000
,
1000
0100
1000
0000
0100
0010
0100
0000
,
0010
0001
0010
0000
0100
0000
1000
0000
,
0001
0100
0001
0000
0100
0010
0100
0000
,
0010
1000
0010
0000
0100
0000
0001
0000
,
1000
0100
1000
0000
0001
0100
0001
0000
,
0010
0100
0010
0000
0001
0000
1000
0000
,
0010
0100
0010
0000
0100
0010
0100
0000
,
2002
0000
3003
0000
,
0000
1000
0100
1000
0000
0100
0010
0100
,
0000
0010
0001
0010
0000
0100
0000
1001
,
0000
0001
0100
0001
0000
0100
0010
0100
,
0000
0010
1000
0010
0000
0100
0000
1001
,
0000
1000
0010
1000
0000
0001
0010
0001
,
0000
0100
0010
0100
0000
0010
0000
1001
,
0000
0001
0100
0001
0000
1000
0100
1000
,
0001
0000
0000
0000
,
0200
0000
0000
0000
,
0000
0000
0000
0000
,
0320
0000
0000
0000
,
0000
0000
0000
0000
,
2030
0000
0000
0000
,
0000
0000
0000
0000
,
3002
0000
0000
0000
,
0000
0000
0000
0000
,
0023
0000
0000
0000
,
0000
0000
0000
0000
,
0030
0000
0000
0000
;

//--------------- dance-single - forcednature ----------------
#NOTEDATA:;
#STEPSTYPE:dance-single;
#DESCRIPTION:forcednature;
#DIFFICULTY:Medium;
#METER:13;
#RADARVALUES:0,0,0,0,0;
#CREDIT:forcednature;
#NOTES:
0000
0000
0000
0000
,
0000
0000
0000
0000
,
0000
0000
0000
0000
,
0000
0000
0000
0000
,
0000
0000
0000
0000
,
0000
0000
0000
0000
,
0000
0000
0000
0000
,
0000
0000
0000
0000
,
0000
0000
0000
0000
,
0001
0000
0100
0000
0001
0020
0000
0000
,
0030
0000
0100
0000
1000
0020
0000
0000
,
0030
0000
0100
0000
0001
0020
0000
0000
,
0030
0100
1000
0200
0000
0000
1300
0000
,
1001
0000
0101
0000
,
1001
0000
1100
0000
,
1000
0010
1000
0000
0001
0010
0001
0000
,
2002
0000
3003
0000
,
0001
0100
0001
0100
0010
0000
1000
0000
,
0100
1000
0100
1000
0010
0000
0100
0000
,
0001
0010
0001
0010
0100
0000
1000
0000
,
0010
0100
0010
0000
1000
0001
1000
0000
,
0100
1000
0100
1000
0001
0000
0100
0000
,
0010
1000
0010
1000
0100
0000
0010
0000
,
0001
1000
0001
1000
0010
0000
0100
0000
,
2002
0000
0000
3003
,
1000
0100
1000
0000
0001
0100
0001
0000
,
0011
0110
2200
3300
,
0001
0100
0001
0000
1000
0100
1000
0000
,
1001
0000
0000
0220
0000
0330
0000
0000
,
1000
0010
1000
0000
0001
0010
0001
0000
,
0101
0110
2020
3030
,
1000
0100
1000
0000
0001
0100
0001
0000
,
2002
0000
0000
3003
,
1000
0100
1000
0100
0010
0001
0010
0000
,
0011
0110
0011
0110
,
0001
0100
0001
0100
0010
1000
0010
0000
,
1010
0110
1010
0110
,
1000
0100
1000
0100
0010
0001
0010
0000
,
0101
1100
0101
1100
,
0001
0100
0001
0100
0010
1000
0010
0000
,
2002
0000
0000
3003
,
1000
0100
0010
0001
0010
0100
1000
0000
,
1010
1100
1001
1100
,
0001
0100
0010
1000
0010
0100
0001
0000
,
0011
0101
1001
0101
,
1000
0010
0100
0001
0010
0100
1000
0000
,
1010
0011
0101
0011
,
0001
0010
0100
1000
0010
0100
0010
0000
,
2002
0000
0000
0000
,
3003
0000
0000
0000
,
2000
0000
0000
0000
,
3200
0000
0000
0000
,
0320
0000
0000
0000
,
0032
0000
0000
0000
,
0203
0000
0000
0000
,
0320
0000
0000
0000
,
2030
0000
0000
0000
,
3002
0000
0000
0000
,
0003
0000
1000
0000
0100
0000
0000
1000
,
0000
0001
0000
0010
0000
0002
0000
0000
,
0003
0000
0100
0000
0100
0000
0000
0010
,
0000
0110
0000
2002
0000
0000
0000
3003
,
0000
0000
0001
0000
0100
0000
0000
0010
,
0000
1000
0000
0010
0000
0100
0000
0000
,
2002
0000
3003
0000
,
0220
0000
0330
0000
,
2000
3200
2300
3002
,
0023
0032
2003
3000
,
0002
0203
0302
2003
,
3020
2030
3002
0003
,
0020
0230
2300
3002
,
2003
3200
0320
0030
,
0220
0000
0330
0000
,
2002
0000
3003
0000
,
1000
0100
0010
0001
0100
0001
0010
0000
,
0001
0100
0010
1000
0100
1000
0010
0000
,
1000
0100
0010
0001
0100
0010
1000
0000
,
0001
0010
0100
1000
0010
0100
0001
0000
,
1000
0100
1000
0001
0100
0001
0010
0000
,
0100
1000
0001
0100
0001
1000
0100
0000
,
0010
0001
1000
0010
0100
0001
0010
0000
,
0220
0330
2002
3003
,
1000
0100
1000
0010
0100
0010
1000
0001
,
0010
0100
0010
0001
0100
0010
1000
0000
,
0001
0010
0100
0010
0001
0100
0010
0100
,
0001
1000
0100
1000
0001
0100
0010
0000
,
1000
0100
0010
0100
1000
0001
0010
0001
,
1000
0010
0100
0001
0010
0100
1000
0000
,
0001
0100
0010
0100
0001
0010
0100
1000
,
0010
0000
0000
0000
,
2002
0000
0000
0000
,
0003
0000
0000
0000
,
0200
0000
0000
0000
,
3000
0000
0000
0000
,
0020
0000
0000
0000
,
0300
0000
0000
0000
,
0002
0000
0000
0000
,
0030
0000
0000
0000
,
0200
0000
0000
0000
,
0000
0000
0000
0000
,
0303
0000
0000
0000
;

//--------------- dance-single - forcednature ----------------
#NOTEDATA:;
#STEPSTYPE:dance-single;
#DESCRIPTION:forcednature;
#DIFFICULTY:Hard;
#METER:16;
#RADARVALUES:0,0,0,0,0;
#CREDIT:forcednature;
#NOTES:
0000
0000
0000
0000
,
0000
0000
0000
0000
,
0000
0000
0000
0000
,
0000
0000
0000
0000
,
0000
0000
0000
0000
,
0000
0000
0000
0000
,
0000
0000
0000
0000
,
0000
0000
0000
0000
,
0000
0000
0000
0000
,
1001
0000
1000
0000
0100
0020
0000
0030
,
0001
0000
0001
0000
0100
0020
0000
0030
,
1000
0000
1000
0000
0001
0020
0000
0030
,
0100
0000
1000
0002
0000
0003
0100
0100
,
0110
0000
1010
0000
,
0110
0000
1010
0000
,
1000
0100
1000
0100
0010
0001
0010
0001
,
0200
0000
0020
0330
,
0100
0001
0010
0001
0100
0001
1000
0000
,
0100
1000
0010
1000
0100
1000
0001
0000
,
0010
0100
1000
0001
1000
0100
0010
0000
,
0001
1000
0010
0100
0001
0010
0001
0000
,
1000
0100
0010
0100
1000
0010
0100
0000
,
0010
1000
0100
1000
0001
0100
0001
0000
,
0010
0100
0010
0001
0100
0010
0100
0000
,
2002
0000
0000
3003
,
1100
0000
0100
0010
0001
0000
0001
0100
,
0010
0110
2002
3003
,
0101
0000
0100
0010
1000
0000
1000
0100
,
0010
0110
2002
3003
,
1010
0000
0010
0100
0001
0000
0001
0010
,
0100
0011
2200
3300
,
0011
0000
0001
0100
0010
0100
0010
0000
,
2002
0000
0000
3003
,
1000
0100
0010
0100
1000
0100
0001
0100
,
1000
0100
1000
0000
0100
0010
0100
0000
0010
0001
0010
0000
0001
0000
1000
0000
,
0001
0100
0010
0100
1000
0100
0001
0100
,
0010
1000
0010
0000
0100
0010
0100
0000
0001
0100
0001
0000
0010
0000
0001
0000
,
1000
0010
0100
0010
1000
0010
0001
0010
,
1000
0001
1000
0000
0100
1000
0100
0000
0010
0100
0010
0000
0001
0000
1000
0000
,
0001
0010
0100
0010
1000
0010
0001
0010
,
0220
0000
0000
0330
,
0001
0100
1000
0100
0001
0010
1000
0010
,
0001
0100
0001
0000
1000
0100
1000
0000
0001
0010
0001
0000
1000
0010
1000
0000
,
0100
0001
0100
1000
0010
0001
0010
1000
,
0100
1000
0100
0000
1000
0010
1000
0000
0001
0010
0001
0000
0100
0001
0100
0000
,
0010
0001
0010
1000
0100
0001
0100
1000
,
0010
0100
0010
0000
1000
0001
1000
0000
0100
0010
0100
0000
1000
0001
1000
0000
,
0010
0000
0100
0000
0001
0000
0010
0000
0100
0010
0100
0000
1000
0100
1000
0000
,
0020
0000
0000
0000
,
0030
0000
0000
0000
,
0002
0000
0000
0000
,
0203
0000
0000
0000
,
0320
0000
0000
0000
,
2030
0000
0000
0000
,
3002
0000
0000
0000
,
0023
0000
0000
0000
,
0230
0000
0000
0000
,
2300
0000
0000
3000
,
1001
0000
0001
0000
0100
0000
0000
0010
,
0000
1000
0000
0001
0000
1000
0000
0000
,
0000
0000
0100
0000
0010
0000
0000
0011
,
0000
0011
0000
2200
0000
0000
0000
3300
,
0000
0000
0001
0000
0100
0010
0000
0100
,
0000
0001
0000
1000
0000
0100
0010
0000
,
0110
0000
0000
1001
0000
0000
0000
0000
,
0220
0000
0330
2002
0000
3003
0000
0000
,
1100
0000
0001
0000
0010
0000
0000
0011
,
0000
0101
0000
1100
0000
2020
0000
3030
,
0000
0000
0110
0000
1001
0000
0000
1100
,
0000
0101
0000
0022
0000
0000
0000
0033
,
0000
0000
0101
0000
0100
0010
0000
0110
,
0000
1010
0000
1100
0000
0100
0010
0000
,
1001
0000
0000
0110
0000
0000
0000
0000
,
0220
0000
0330
2002
0000
0000
3003
0000
,
1000
0000
0100
1000
0100
0000
0010
0000
0001
0000
0100
0001
0100
0000
0010
0000
,
1000
0000
0001
1000
0001
0000
0010
0000
0100
0000
1000
0100
1000
0000
0100
0010
,
0001
0000
0010
0001
0010
0000
0100
0000
1000
0000
0010
1000
0010
0000
0100
0000
,
0001
0000
1000
0001
1000
0000
0100
0000
0010
0000
0001
0100
0010
0000
0100
0010
,
1000
0000
0100
1000
0100
0000
0010
0000
0100
0000
1000
0001
1000
0000
0010
0000
,
0100
0000
0001
0010
0001
0000
0100
0000
0010
0000
1000
0010
1000
0000
0100
0010
,
0001
0000
0100
0010
0100
0000
0001
0000
1000
0100
1000
0100
0010
0000
0000
0000
,
2002
0000
3003
0000
,
0001
0100
0001
0100
0000
0010
0100
0000
0010
1000
0010
1000
0000
0001
1000
0000
,
0001
0010
0001
0010
0000
0100
0010
0000
0100
1000
0100
0000
1000
0001
1000
0000
,
0010
1000
0010
1000
0000
0010
0100
0000
0001
0100
0001
0100
0000
0001
1000
0000
,
0001
0010
0001
0010
0000
0100
0010
0000
0001
0100
0001
0000
1000
0100
1000
0000
,
0010
0100
1000
0100
0000
0010
0100
0000
0001
0010
0100
0010
0000
0001
0010
0000
,
0001
1000
0001
0100
0000
0010
0100
0000
0010
1000
0010
1000
0010
0000
0100
0000
,
0001
0010
0100
0010
0000
0100
1000
0000
0001
1000
0001
1000
0001
0000
0000
0000
,
1001
0000
0000
0000
,
2000
3200
0320
0230
,
2300
3200
0320
0230
,
2300
3002
0203
0302
,
2003
3002
0203
0302
,
0023
0230
0320
0032
,
0023
0230
0320
0032
,
0203
0320
2030
3002
,
0203
0320
2030
3001
,
2002
0000
0000
0000
,
0000
0000
0000
0000
,
3003
0000
0000
0000
;

//--------------- dance-single - forcednature ----------------
#NOTEDATA:;
#STEPSTYPE:dance-single;
#DESCRIPTION:forcednature;
#DIFFICULTY:Challenge;
#METER:17;
#RADARVALUES:0,0,0,0,0;
#CREDIT:forcednature;
#NOTES:
0000
0000
0000
0000
,
0000
0000
0000
0000
,
0000
0000
0000
0000
,
0000
0000
0000
0000
,
0000
0000
0000
0000
,
0000
0000
0000
0000
,
0000
0000
0000
0000
,
0000
0000
0000
0000
,
0000
0000
0000
0000
,
1000
0100
1000
0000
0001
0020
0000
0030
,
0001
0100
0001
0000
1000
0020
0000
0030
,
1000
0100
1000
0000
0001
0200
0000
0300
,
0010
1000
0100
0020
0000
0030
0001
0001
,
0022
0033
0022
0033
,
2200
3300
2200
3300
,
1000
0000
0010
0000
1000
0000
0010
0000
0100
0001
0100
0001
0100
0001
0100
0001
,
2000
0000
0000
0000
3000
0000
0100
0010
0001
0000
0020
0000
0000
0000
0030
0000
,
0001
0100
0010
0000
0100
0000
0001
0000
0010
0000
0100
0000
0010
0000
0001
0000
,
1000
0100
0010
0000
0100
0000
1000
0000
0010
0000
0100
0000
0010
0000
1000
0000
,
0001
0010
0100
0000
0010
0000
0001
0000
0100
0000
0010
0000
0100
0000
0001
0000
,
1000
0010
0100
0000
0010
0000
1000
0000
0100
0000
0010
0000
0001
0000
1000
0000
,
0010
0100
0001
0000
0010
0000
0100
0000
0010
0000
0001
0000
0100
0000
0010
0000
,
1000
0010
0100
0000
0010
0000
1000
0000
0100
0000
0010
0000
0100
0000
1000
0001
,
0100
0010
1000
0000
0100
0000
0010
0000
0100
0000
1000
0001
0100
0000
0001
1000
,
0100
1000
0100
1000
0100
1000
0100
1000
0100
1000
0100
1000
0000
0000
0000
0000
,
0001
0010
0100
0000
0010
0000
0100
0000
1000
0010
0100
0000
0010
0000
0100
0000
,
0001
0010
0001
0000
0100
0010
0100
0000
0001
0010
0100
0010
0002
0000
0000
0000
,
1003
0010
0100
0000
0010
0000
0100
0000
0001
0010
0100
0000
0010
0000
0100
0000
,
1000
0010
0100
0010
1000
0000
0001
0010
0100
0010
0001
0000
1000
0001
1000
0001
,
1000
0100
0010
0000
0100
0000
0010
0000
0001
0100
0010
0000
0100
0000
0010
0000
,
1000
0100
1000
0000
0010
0100
0010
0000
1000
0100
0010
0100
2000
0000
0000
0000
,
3001
0100
0010
0000
0100
0000
0010
0000
1000
0100
1000
0100
0010
0001
0010
0001
,
0200
0000
0000
0020
0000
0000
0330
0000
,
1000
0001
0010
0100
0100
0010
0001
1000
,
0001
0100
0001
0100
0010
0100
0010
0100
0001
0100
0001
0100
0010
0100
0010
0100
,
0001
1000
0010
0100
0100
0010
1000
0001
,
1000
0100
1000
0100
0010
0100
0010
0100
1000
0100
1000
0100
0010
0100
0010
0100
,
1000
0001
0100
0010
0010
0100
0001
1000
,
0001
0010
0001
0010
0100
0010
0100
0010
0001
0010
0001
0010
0100
0010
0100
0010
,
0001
0000
1000
0000
0100
0000
0100
0000
1000
0000
0001
1000
0001
0000
1000
0001
,
0020
0000
0000
0030
,
0001
1000
0100
0001
0001
0100
1000
0001
,
1000
0100
1000
0100
0010
0001
0010
0001
1000
0100
1000
0100
0010
0001
0010
0001
,
1000
0001
0100
1000
1000
0100
0001
1000
,
0001
0100
0001
0100
0010
1000
0010
1000
0001
0100
0001
0100
0010
1000
0010
1000
,
0001
1000
0010
0001
0001
0010
1000
0001
,
1000
0010
1000
0010
0100
0001
0100
0001
1000
0010
1000
0010
0100
0001
0100
0001
,
1000
0000
0001
0000
0010
0000
0010
0000
0001
1000
0100
1000
0001
1000
0100
1000
,
0020
0000
0000
0000
,
0030
0000
0000
0000
,
2001
0000
0000
0000
,
3200
0000
0000
0000
,
0320
0000
0000
0000
,
0032
0000
0000
0000
,
2003
0000
0000
0000
,
3020
0000
0000
0000
,
0230
0000
0000
0000
,
0302
0000
0000
0003
,
1001
0000
0002
0000
0023
0000
0000
0230
,
0000
2300
0000
3002
0000
0203
0000
0000
,
0300
0000
0020
0000
2030
0000
0000
3200
,
0000
0310
0000
0220
0000
0000
0000
0330
,
0000
0000
0200
0000
1300
0002
0000
0203
,
0000
0320
0000
2030
0000
3001
0010
0000
,
0110
0000
0000
1000
0000
0000
2020
0000
0000
0000
3030
0000
0000
0000
0000
0000
,
0110
0000
0000
0001
0000
0000
0022
0000
0000
0000
0033
0000
0000
0000
0000
0000
,
2100
0000
0000
0100
0000
0000
3200
0000
0010
0000
0000
0010
0000
0000
0320
0000
,
0001
0000
0000
0001
0000
0000
0032
0000
0100
0000
0000
0100
0000
0000
0203
0000
,
0010
0000
0000
0010
0000
0000
0320
0000
1000
0000
0000
1000
0000
0000
2030
0000
,
0001
0000
0000
0001
0000
0000
3002
0000
0010
0000
0000
0010
0000
0000
0023
0000
,
0100
0000
0000
0100
0000
0000
0230
0000
1000
0000
0000
1000
0000
0000
2300
0000
,
0001
0000
0000
0001
0000
0000
3002
0000
0100
0000
0000
0100
0000
0000
0103
0000
,
0110
0000
0000
0110
0000
0000
0220
0000
0000
0000
0000
0000
0330
0000
0000
0000
,
2002
0000
0000
3003
,
0001
0000
0100
0001
0000
0100
0010
0000
1000
0000
0100
1000
0000
0100
0010
0000
,
0001
0000
1000
0010
0000
0100
0010
0000
1000
0000
0001
0010
0000
0100
0010
0100
,
1000
0000
0010
0100
0000
0010
1000
0000
0001
0000
0010
0100
0000
0010
0001
0000
,
0100
0000
0010
1000
0000
0001
1000
0000
0100
0000
0010
0001
1000
0000
1000
0001
,
0100
0000
0010
1000
0000
0001
0010
0000
0100
0000
0010
0001
0000
1000
0010
0000
,
0100
0000
0001
0010
0000
0001
1000
0000
0100
0000
1000
0010
0100
0001
0100
0001
,
1000
0000
0100
0010
0000
0001
0010
0000
0100
1000
0001
1000
0010
0100
0010
0100
,
0002
0000
0020
0033
,
0001
0100
0010
0100
0001
0000
1000
0100
0000
0100
0010
0001
0010
0000
0100
1000
,
0001
1000
0010
0100
0001
0000
1000
0100
0000
0100
0010
0001
0010
0100
1000
0000
,
0001
1000
0100
1000
0010
0000
0100
0001
0000
0001
0010
0100
0010
0000
0010
0001
,
1000
0001
0100
0001
1000
0000
0010
0100
0000
0100
0001
0000
1000
0100
0010
0001
,
1000
0010
0100
0010
1000
0000
0001
0010
0000
0010
0100
1000
0100
0000
0010
0001
,
1000
0001
0010
0001
1000
0000
0010
0100
0001
1000
0100
0010
0001
0010
0100
1000
,
0001
0100
0010
0100
0001
1000
0000
0001
1000
0100
1000
0100
0010
0001
1000
0001
,
0100
0000
0000
0000
,
0120
2030
3020
0230
,
0320
2030
3020
0230
,
0302
0023
0230
0320
,
0032
0023
0230
0320
,
0032
2003
3200
2300
,
3002
2003
3200
2300
,
3002
0203
0302
0023
,
0032
0203
0302
0023
,
0230
0000
0000
0000
,
0000
0000
0000
0000
,
0300
0000
0000
0000
;

//--------------- dance-double - forcednature ----------------
#NOTEDATA:;
#STEPSTYPE:dance-double;
#DESCRIPTION:forcednature;
#DIFFICULTY:Easy;
#METER:10;
#RADARVALUES:0,0,0,0,0;
#CREDIT:forcednature;
#NOTES:
00000000
00000000
00000000
00000000
,
00000000
00000000
00000000
00000000
,
00000000
00000000
00000000
00000000
,
00000000
00000000
00000000
00000000
,
00000000
00000000
00000000
00000000
,
00000000
00000000
00000000
00000000
,
00000000
00000000
00000000
00000000
,
00000000
00000000
00000000
00000000
,
00000000
00000000
00000000
00000000
,
00002000
00000000
00003000
00000000
,
00020000
00000000
00030000
00000000
,
00000200
00000000
00000300
00000000
,
00002000
00000000
00003000
00000000
,
00001001
00000000
00000001
00000000
,
00001001
00000000
00001000
00000000
,
00000100
00000100
00010000
00010000
,
00002000
00000000
00003000
00000000
,
01000000
00010000
01000000
00100000
,
10000000
00010000
10000000
00000000
,
01000000
00100000
01000000
00010000
,
00001000
00010000
00000100
00000000
,
00001000
00000010
00010000
00001000
,
00010000
00000010
00001000
00000000
,
00000001
00000010
00000100
00001000
,
00002002
00000000
00000000
00003003
,
00000001
00000100
00000001
00000000
,
00001000
00001000
00001000
00000000
,
00000100
00010000
00001000
00000000
,
01000000
01000000
01000000
00000000
,
00010000
10000000
00100000
00000000
,
01000000
01000000
01000000
00000000
,
00001000
00010000
00000100
00000000
,
00002002
00000000
00000000
00003003
,
00001000
00000100
00001000
00000000
00000100
00001000
00000100
00000000
,
00010000
00001000
00100000
00010000
,
01000000
00010000
01000000
00000000
00010000
01000000
00010000
00000000
,
00100000
00001000
00010000
00000010
,
00010000
00001000
00010000
00000000
00000100
00001000
00000100
00000000
,
00010000
00001000
01000000
00010000
,
00100000
01000000
00100000
00000000
01000000
10000000
01000000
00000000
,
20020000
00000000
00000000
30030000
,
00010000
01000000
00010000
00000000
00100000
00001000
00100000
00000000
,
00001000
00011000
00010000
00011000
,
00000010
00001000
00000010
00000000
00010000
00001000
00010000
00000000
,
00000100
00001100
00001000
00001100
,
00000100
00000010
00000100
00000000
00000010
00000001
00000010
00000000
,
00000100
00001001
00000010
00001001
,
00001000
00000100
00010000
00000000
00001000
01000000
00010000
00000000
,
20020000
00000000
00000000
00000000
,
30030000
00000000
00000000
00000000
,
20000000
00000000
00000000
00000000
,
00000000
00000000
00000000
00000000
,
32000000
00000000
00000000
00000000
,
00000000
00000000
00000000
00000000
,
03200000
00000000
00000000
00000000
,
00000000
00000000
00000000
00000000
,
00302000
00000000
00000000
00000000
,
00000000
00000000
00000000
00000000
,
00013000
00010000
00010000
00000000
,
00000010
00000000
00001000
00000000
,
00000001
00000001
00000001
00000000
,
00000010
00000000
00000100
00000000
,
00010000
00010000
00010000
00000000
,
00001000
00000000
01000000
00000000
,
02200000
00000000
03300000
00000000
,
20020000
00000000
30030000
00000000
,
10000000
01000000
10000000
01000000
,
00100000
00001000
00100000
00001000
,
00010000
00000100
00010000
00000100
,
00000010
00000001
00000010
00000001
,
00000100
00000010
00000100
00000010
,
00010000
00001000
00010000
00001000
,
00022000
00000000
00033000
00000000
,
02200000
00000000
03300000
00000000
,
10000000
01000000
10000000
00000000
01000000
00100000
01000000
00000000
,
00100000
00010000
00100000
00000000
00001000
00000000
00010000
00000000
,
00000010
00001000
00000010
00000000
00000100
00000010
00000100
00000000
,
00000001
00000100
00000001
00000000
00000010
00000000
00000100
00000000
,
00001000
00000010
00001000
00000000
00000010
00010000
00000010
00000000
,
00010000
00001000
00010000
00000000
00001000
00000000
00100000
00000000
,
00010000
10000000
00010000
00000000
10000000
00010000
10000000
00000000
,
20020000
00000000
30030000
00000000
,
00000000
10000000
01000000
10000000
00000000
01000000
00010000
01000000
,
00000000
00010000
00001000
00010000
00000000
00000100
00000000
00001000
,
00000000
00000001
00000100
00000001
00000000
00000100
00001000
00000100
,
00000000
00001000
00010000
00001000
00000000
00100000
00000000
00010000
,
00000000
10000000
00100000
10000000
00000000
00100000
00010000
00100000
,
00000000
00010000
00001000
00010000
00000000
00000010
00000000
00001000
,
00000000
00000001
00000010
00000001
00000000
00000010
00001000
00010000
,
00001000
00000000
00000000
00000000
,
02000000
00000000
00000000
00000000
,
00000000
00000000
00000000
00000000
,
03002000
00000000
00000000
00000000
,
00000000
00000000
00000000
00000000
,
00023000
00000000
00000000
00000000
,
00000000
00000000
00000000
00000000
,
00030200
00000000
00000000
00000000
,
00000000
00000000
00000000
00000000
,
00000320
00000000
00000000
00000000
,
00000000
00000000
00000000
00000000
,
00000030
00000000
00000000
00000000
;

//--------------- dance-double - forcednature ----------------
#NOTEDATA:;
#STEPSTYPE:dance-double;
#DESCRIPTION:forcednature;
#DIFFICULTY:Medium;
#METER:13;
#RADARVALUES:0,0,0,0,0;
#CREDIT:forcednature;
#NOTES:
00000000
00000000
00000000
00000000
,
00000000
00000000
00000000
00000000
,
00000000
00000000
00000000
00000000
,
00000000
00000000
00000000
00000000
,
00000000
00000000
00000000
00000000
,
00000000
00000000
00000000
00000000
,
00000000
00000000
00000000
00000000
,
00000000
00000000
00000000
00000000
,
00000000
00000000
00000000
00000000
,
00001000
00000000
01000000
00000000
00010000
00200000
00000000
00000000
,
00300000
00000000
00001000
00000000
00010000
00000020
00000000
00000000
,
00000030
00000000
00001000
00000000
00000100
00020000
00000000
00000000
,
00030000
00001000
01000000
00020000
00000000
00000000
00130000
00000000
,
10010000
00000000
01001000
00000000
,
00010100
00000000
00001001
00000000
,
00001000
00000100
00010000
00000000
00001000
01000000
00010000
00000000
,
20020000
00000000
30030000
00000000
,
10000000
01000000
00100000
01000000
00100000
00000000
00001000
00000000
,
00010000
00000010
00001000
00000010
00000100
00000000
00000001
00000000
,
00000010
00000100
00001000
00000100
00010000
00000000
00001000
00000000
,
01000000
00010000
00100000
00000000
01000000
10000000
00100000
00000000
,
01000000
00010000
00100000
00001000
00010000
00000000
00000010
00000000
,
00010000
00001000
00000010
00000100
00001000
00000000
00000001
00000000
,
00000100
00001000
00010000
00001000
01000000
00000000
00010000
00000000
,
20020000
00000000
30030000
00000000
,
10000000
01000000
00010000
00000000
01000000
10000000
00010000
00000000
,
00110000
00011000
00001100
00000000
,
00000001
00000100
00001000
00000000
00000100
00000001
00001000
00000000
,
00001010
00011000
01010000
00000000
,
10000000
00100000
00010000
00000000
00100000
10000000
00010000
00000000
,
01010000
00011000
00001010
00000000
,
00000001
00000010
00001000
00000000
00000010
00000001
00001000
00000000
,
00002002
00000000
00003003
00000000
,
00000001
00000100
00001000
00000000
00000100
00001000
00010000
00000000
,
00011000
01001000
00011000
00101000
,
10000000
01000000
00010000
00000000
01000000
00010000
00001000
00000000
,
00011000
00010100
00011000
00010010
,
00000001
00000010
00001000
00000000
00000010
00001000
00010000
00000000
,
00011000
00101000
00011000
01001000
,
10000000
00100000
00010000
00000000
00100000
00010000
00001000
00000000
,
00022000
00000000
00000000
00033000
,
00001000
00000010
00000100
00001000
00000001
00000010
00000100
00000000
,
00000110
00010100
00011000
00010010
,
00010000
00100000
01000000
00010000
10000000
00100000
01000000
00000000
,
01100000
01001000
00011000
00101000
,
00001000
00000100
00000010
00001000
00000001
00000100
00000010
00000000
,
00000110
00010010
00011000
00010100
,
00010000
01000000
00100000
00010000
10000000
01000000
00100000
00000000
,
02200000
00000000
00000000
00000000
,
03300000
00000000
00000000
00000000
,
20000000
00000000
00000000
00000000
,
32000000
00000000
00000000
00000000
,
03200000
00000000
00000000
00000000
,
00320000
00000000
00000000
00000000
,
00032000
00000000
00000000
00000000
,
00003200
00000000
00000000
00000000
,
00000320
00000000
00000000
00000000
,
00000032
00000000
00000000
00000000
,
00000003
00000000
00000100
00000000
00000100
00000000
00000000
00001000
,
00000000
00010000
00000000
00001000
00000000
00020000
00000000
00000000
,
00030000
00000000
00100000
00000000
00100000
00000000
00000000
01000000
,
00000000
01100000
00000000
20020000
00000000
00000000
00000000
30030000
,
00000000
00000000
10000000
00000000
01000000
00000000
00000000
00100000
,
00000000
01000000
00000000
00100000
00000000
00001000
00000000
00000000
,
00022000
00000000
00033000
00000000
,
00022000
00000000
00033000
00000000
,
00002000
00203000
00320000
00230000
,
02300000
23000000
30020000
00030000
,
02000000
03002000
00023000
00030020
,
00002030
00003200
00020300
00030000
,
00002000
00003020
00000230
00020300
,
00030020
00002030
00003002
00000003
,
00002002
00000000
00003003
00000000
,
00022000
00000000
00033000
00000000
,
01000000
00010000
00100000
01000000
00010000
00001000
00010000
00000000
,
00000100
00001000
00000010
00000100
00001000
00010000
00001000
00000000
,
00100000
01000000
00010000
00001000
01000000
00010000
00100000
00000000
,
00001000
00010000
00000010
00000100
00001000
00010000
00000100
00000000
,
00000010
00000001
00000100
00001000
00000100
00000001
00000010
00000000
,
00000100
00010000
00001000
00100000
00001000
00010000
01000000
00000000
,
00100000
00001000
00010000
00100000
10000000
01000000
00100000
00000000
,
02200000
00000000
03300000
00000000
,
01000000
10000000
01000000
10000000
01000000
00010000
01000000
00010000
,
00001000
00000010
00000001
00000100
00000001
00000010
00001000
00000000
,
00000001
00000100
00000001
00000100
00001000
00000100
00001000
00000100
,
00001000
00010000
00100000
10000000
01000000
10000000
00100000
00010000
,
00000000
00001000
00100000
00010000
01000000
00001000
00010000
01000000
,
00100000
00001000
00010000
00000100
00010000
00001000
00000100
00000010
,
00000000
00010000
00001000
00000010
00000001
00000100
00000001
00000010
,
00001000
00000000
00000000
00000000
,
00021000
00000000
00000000
00000000
,
00000000
00000000
00000000
00000000
,
00230000
00000000
00000000
00000000
,
00000000
00000000
00000000
00000000
,
20300000
00000000
00000000
00000000
,
00000000
00000000
00000000
00000000
,
32000000
00000000
00000000
00000000
,
00000000
00000000
00000000
00000000
,
03020000
00000000
00000000
00000000
,
00000000
00000000
00000000
00000000
,
00030000
00000000
00000000
00000000
;

//--------------- dance-double - forcednature ----------------
#NOTEDATA:;
#STEPSTYPE:dance-double;
#DESCRIPTION:forcednature;
#DIFFICULTY:Hard;
#METER:16;
#RADARVALUES:0,0,0,0,0;
#CREDIT:forcednature;
#NOTES:
00000000
00000000
00000000
00000000
,
00000000
00000000
00000000
00000000
,
00000000
00000000
00000000
00000000
,
00000000
00000000
00000000
00000000
,
00000000
00000000
00000000
00000000
,
00000000
00000000
00000000
00000000
,
00000000
00000000
00000000
00000000
,
00000000
00000000
00000000
00000000
,
00000000
00000000
00000000
00000000
,
00011000
00000000
00010000
00000000
00100000
02000000
00000000
03000000
,
00001000
00000000
00010000
00000000
00000010
00000200
00000000
00000300
,
00001000
00000000
00010000
00000000
01000000
00200000
00000000
00300000
,
00001000
00000000
00010000
00000020
00000000
00000030
00000100
00000100
,
00001001
00000000
00010100
00000000
,
01001000
00000000
10010000
00000000
,
10000000
01000000
00100000
00001000
00010000
00000100
00000010
00000001
,
00000200
00000000
00000020
00000330
,
00000010
00010000
00001000
00000010
00000100
00001000
00000010
00000000
,
00000100
00001000
00010000
00100000
01000000
00010000
10000000
00000000
,
01000000
00010000
00001000
00100000
00010000
01000000
00001000
00000000
,
00010000
00000100
00001000
00000010
00010000
00001000
00000010
00000000
,
00000100
00001000
00000001
00000100
00001000
00000100
00000010
00000000
,
00010000
00001000
00100000
01000000
00100000
00001000
00010000
00000000
,
00100000
01000000
00010000
10000000
01000000
00010000
00001000
00000000
,
00022000
00000000
00000000
00033000
,
00001000
00000010
00000001
00000100
00000001
00000010
00001000
00000000
,
00010100
00011000
00020020
00030030
,
00010000
00100000
10000000
01000000
10000000
00100000
00010000
00000000
,
01001000
00000000
00000000
00022000
00000000
00000000
00033000
00000000
,
00001000
00000100
00000001
00000010
00000001
00000100
00001000
00000000
,
01001000
00101000
00022000
00033000
,
00010000
01000000
10000000
00100000
10000000
01000000
00010000
00000000
,
00022000
00000000
00000000
00033000
,
00001000
00000010
00000100
00010000
00000010
00000100
00001000
00010000
,
00100000
00000000
01000000
00000000
00010000
10000000
00010000
00000000
00100000
00000000
01000000
00000000
10000000
00010000
10000000
00000000
,
01000000
00010000
00001000
00000010
00000100
00010000
00000010
00000100
,
00000001
00000000
00000010
00000000
00000100
00001000
00000100
00000000
00010000
00000000
00001000
00000000
01000000
00010000
01000000
00000000
,
00100000
10000000
01000000
00010000
00001000
01000000
00100000
10000000
,
01000000
00000000
00010000
00000000
00001000
00010000
00001000
00000000
01000000
00000000
00001000
00000000
00010000
00001000
00010000
00000000
,
00000010
00001000
00000100
00000010
00001000
00010000
00000010
00000000
,
00000220
00000000
00000000
00000330
,
00000100
00001000
00000100
00000001
00000010
00000100
00010000
00001000
,
01000000
00010000
01000000
00000000
00100000
01000000
00100000
00000000
10000000
00100000
10000000
00000000
00100000
01000000
00100000
00000000
,
01000000
00001000
00100000
01000000
00010000
00001000
00000010
00000100
,
00001000
00000010
00001000
00000000
00000010
00000100
00000010
00000000
00000100
00000001
00000100
00000000
00000010
00000100
00000010
00000000
,
00001000
00000001
00000010
00001000
00010000
00000100
00001000
00000010
,
00010000
00001000
00010000
00000000
00001000
01000000
00001000
00000000
01000000
00010000
01000000
00000000
00010000
00100000
00010000
00000000
,
10000000
00100000
10000000
01000000
00010000
00001000
00000010
00000000
,
00002002
00000000
00000000
00000000
,
00003003
00000000
00000000
00000000
,
00000002
00000000
00000000
00000000
,
00000203
00000000
00000000
00000000
,
00000320
00000000
00000000
00000000
,
00002030
00000000
00000000
00000000
,
00023000
00000000
00000000
00000000
,
02030000
00000000
00000000
00000000
,
03200000
00000000
00000000
00000000
,
20300000
00000000
00000000
30000000
,
10010000
00000000
00010000
00000000
00100000
00000000
00000000
00001000
,
00000000
00010000
00000000
00000100
00000000
00001000
00000000
00000000
,
00000000
00000000
00000001
00000000
00000100
00000000
00000000
00001000
,
00000000
00010000
00000000
00022000
00000000
00000000
00000000
00033000
,
00000000
00000000
00001000
00000000
00010000
00100000
00000000
01000000
,
00000000
00100000
00000000
10000000
00000000
01000000
00100000
00000000
,
01100000
00000000
00000000
00011000
00000000
00000000
00000000
00000000
,
00000220
00000000
00000330
00002002
00000000
00003003
00000000
00000000
,
00000101
00000000
00000100
00000000
00001000
00000000
00000000
00011000
,
00000000
01001000
00000000
01010000
00000000
00220000
00000000
00330000
,
00000000
00000000
01100000
00000000
10010000
00000000
00000000
11000000
,
00000000
01010000
00000000
00022000
00000000
00000000
00000000
00033000
,
00000000
00000000
00010100
00000000
00000100
00001000
00000000
00001010
,
00000000
00000110
00000000
00000101
00000000
00000001
00000010
00000000
,
00000110
00000000
00000000
00011000
00000000
00000000
00000000
00000000
,
02200000
00000000
03300000
20020000
00000000
00000000
30030000
00000000
,
10000000
00000000
01000000
00100000
01000000
00000000
00100000
00000000
00001000
00000000
00010000
00001000
00010000
00000000
00000100
00000000
,
00001000
00000000
00000010
00001000
00000010
00000000
00000100
00000000
00000001
00000000
00000010
00000100
00000010
00000000
00000100
00010000
,
00001000
00000000
00010000
00001000
00010000
00000000
00001000
00000000
01000000
00000000
00010000
01000000
00010000
00000000
00100000
00000000
,
01000000
00000000
10000000
01000000
10000000
00000000
00010000
00000000
00100000
00000000
00001000
00010000
00001000
00000000
00010000
00000010
,
00001000
00000000
00000010
00000100
00000010
00000000
00000100
00000000
00000001
00000000
00000010
00000001
00000010
00000000
00000100
00000000
,
00010000
00000000
00001000
00010000
00001000
00000000
01000000
00000000
00010000
00000000
00100000
00010000
00100000
00000000
01000000
10000000
,
00010000
00000000
01000000
00010000
01000000
00000000
00001000
00000000
00010000
00000100
00010000
00000100
00001000
00000000
00000000
00000000
,
00002002
00000000
00003003
00000000
,
00000001
00000000
00000100
00000001
00001000
00000000
00000010
00000000
00010000
00000000
00001000
00010000
00001000
00000000
00100000
00000000
,
00010000
00000000
01000000
00100000
10000000
00000000
00010000
00000000
00100000
00000000
01000000
10000000
00010000
00000000
00100000
00010000
,
10000000
00000000
00100000
10000000
00010000
00000000
01000000
00000000
00001000
00000000
00010000
00001000
00010000
00000000
00000100
00000000
,
00001000
00000000
00000001
00000100
00000010
00000000
00001000
00000000
00000100
00000000
00010000
00001000
01000000
00000000
00010000
01000000
,
00001000
00000000
00010000
00001000
00010000
00000000
00000100
00000000
00001000
00000000
00000001
00000100
00000010
00000000
00001000
00000000
,
00000100
00000000
00010000
00001000
01000000
00000000
00010000
00000000
00100000
01000000
00100000
01000000
00100000
01000000
00100000
00000000
,
01000000
00000000
10000000
00010000
01000000
00000000
00001000
00000000
00010000
00001000
00010000
00001000
00010000
00000000
00000000
00000000
,
00011000
00000000
00000000
00000000
,
00002000
00003020
00000230
00000320
,
00000032
00000203
00000320
00000230
,
00002300
00023000
00032000
02003000
,
03020000
00230000
02300000
03200000
,
00302000
00023000
00230000
02300000
,
03002000
00023000
02030000
03200000
,
00302000
00023000
00030200
00000320
,
00002030
00023000
00030020
00000130
,
00002002
00000000
00000000
00000000
,
00000000
00000000
00000000
00000000
,
00003003
00000000
00000000
00000000
;

//--------------- dance-double - forcednature ----------------
#NOTEDATA:;
#STEPSTYPE:dance-double;
#DESCRIPTION:forcednature;
#DIFFICULTY:Challenge;
#METER:17;
#RADARVALUES:0,0,0,0,0;
#CREDIT:forcednature;
#NOTES:
00000000
00000000
00000000
00000000
,
00000000
00000000
00000000
00000000
,
00000000
00000000
00000000
00000000
,
00000000
00000000
00000000
00000000
,
00000000
00000000
00000000
00000000
,
00000000
00000000
00000000
00000000
,
00000000
00000000
00000000
00000000
,
00000000
00000000
00000000
00000000
,
00000000
00000000
00000000
00000000
,
00001000
00010000
00001000
00000000
01000000
00020000
00000000
00030000
,
00100000
01000000
00100000
00000000
01000000
20000000
00000000
30000000
,
00010000
01000000
00010000
00000000
00100000
00002000
00000000
00003000
,
00010000
00000010
00001000
00000200
00000000
00000300
00000010
00000010
,
00000220
00000330
00020200
00030300
,
02002000
03003000
02200000
03300000
,
00100000
00000000
10000000
00000000
00100000
00000000
10000000
00000000
00010000
01000000
00010000
01000000
00010000
01000000
00010000
01000000
,
00002000
00000000
00000000
00000000
00003000
00000000
00010000
00000100
00001000
00000000
00000002
00000000
00000000
00000000
00000003
00000000
,
00000100
00000010
00000100
00000000
00001000
00000000
00010000
00000000
01000000
00000000
00100000
00000000
00001000
00000000
00010000
00000000
,
01000000
00100000
01000000
00000000
00010000
00000000
00001000
00000000
00000100
00000000
00000010
00000000
00010000
00000000
00001000
00000000
,
00000100
00000010
00000100
00000000
00001000
00000000
00010000
00000000
01000000
00000000
00100000
00000000
00001000
00000000
00010000
00000000
,
01000000
00100000
01000000
00000000
00010000
00000000
00001000
00000000
00000100
00000000
00000010
00000000
00010000
00000000
00001000
00000000
,
00000010
00000100
00000010
00000000
00001000
00000000
00010000
00000000
00100000
00000000
01000000
00000000
00001000
00000000
00010000
00000000
,
00100000
01000000
00100000
00000000
00010000
00000000
00001000
00000000
00000010
00000000
00000100
00000000
00010000
00000000
00001000
00000000
,
00000010
00000100
00000010
00000000
00001000
00000000
00010000
00000000
00100000
00000000
01000000
00000000
00001000
00000000
00010000
00000000
,
01000000
00100000
01000000
00100000
01000000
00100000
01000000
00100000
01000000
00100000
01000000
00100000
00000000
00000000
00000000
00000000
,
00010000
00100000
01000000
00000000
00100000
00000000
00001000
00000000
00010000
00000100
00000010
00000000
00000100
00000000
00001000
00000000
,
00000001
00000100
00000010
00000000
00000100
00000010
00001000
00000000
00000010
00010000
00001000
01000000
00020000
00000000
00000000
00000000
,
00130000
01000000
10000000
00000000
01000000
00000000
00010000
00000000
00001000
00100000
00010000
00000000
01000000
00000000
00001000
00000000
,
00010000
00000100
00001000
00000100
00010000
00000000
00001000
01000000
00010000
01000000
00001000
00000000
00010000
00001000
00010000
00001000
,
00100000
00010000
01000000
00000000
00001000
00000000
00010000
00000000
00000100
00001000
00000001
00000000
00000100
00000000
00001000
00000000
,
00010000
00001000
01000000
00000000
00010000
00100000
00010000
00000000
10000000
00100000
01000000
00100000
20000000
00000000
00000000
00000000
,
31000000
00010000
00001000
00000000
00100000
00000000
00010000
00000000
01000000
00001000
00010000
00000010
00001000
00000010
00000100
00000001
,
00000020
00000000
00000000
00000200
00000000
00000000
00000330
00000000
,
00000110
00000000
00011000
00000000
00010000
00001000
01000000
00010000
,
00100000
01000000
00100000
01000000
10000000
01000000
10000000
01000000
00100000
01000000
00100000
01000000
00010000
01000000
00010000
01000000
,
00100000
00000000
00011000
00000000
00001000
00010000
00000100
00001000
,
00000010
00000100
00000010
00000100
00000001
00000100
00000001
00000100
00000010
00000100
00000010
00000100
00001000
00000100
00001000
00000100
,
00000010
00000000
00011000
00000000
00010000
00001000
00100000
00010000
,
01000000
00100000
01000000
00100000
10000000
00100000
10000000
00100000
01000000
00100000
01000000
00100000
00010000
00100000
00010000
00100000
,
01000000
00000000
00000000
00000000
00011000
00000000
00000000
00000000
00000100
00000000
00001000
00000100
00000010
00000000
00000100
00000010
,
00000002
00000000
00000000
00000003
,
00000101
00000000
00011000
00000000
00010000
01000000
10000000
00100000
,
01000000
10000000
01000000
10000000
01000000
00010000
01000000
00010000
01000000
10000000
01000000
10000000
01000000
00010000
01000000
00010000
,
00100000
00000000
00011000
00000000
00001000
00000100
00000001
00000010
,
00000100
00000001
00000100
00000001
00000100
00001000
00000100
00001000
00000100
00000001
00000100
00000001
00000100
00001000
00000100
00001000
,
00000010
00000000
00011000
00000000
00010000
00100000
10000000
01000000
,
00100000
10000000
00100000
10000000
00100000
00010000
00100000
00010000
00100000
10000000
00100000
10000000
00100000
00010000
00100000
00010000
,
01000000
00000000
00000000
00000000
00001000
00000000
00010000
00000000
00000100
00001000
00000001
00001000
00000010
00001000
00000001
00001000
,
00000200
00000000
00000000
00000000
,
00000300
00000000
00000000
00000000
,
00000120
00000000
00000000
00000000
,
00000032
00000000
00000000
00000000
,
00000203
00000000
00000000
00000000
,
00002300
00000000
00000000
00000000
,
00023000
00000000
00000000
00000000
,
00230000
00000000
00000000
00000000
,
20300000
00000000
00000000
00000000
,
32000000
00000000
00000000
03000000
,
01100000
00000000
00200000
00000000
00302000
00000000
00000000
00023000
,
00000000
00030200
00000000
00002300
00000000
00003002
00000000
00000000
,
00000003
00000000
00000200
00000000
00002300
00000000
00000000
00023000
,
00000000
00130000
00000000
02200000
00000000
00000000
00000000
03300000
,
00000000
00000000
02000000
00000000
03010000
20000000
00000000
32000000
,
00000000
03020000
00000000
00032000
00000000
00003010
00000100
00000000
,
00000110
00000000
00000000
00000001
00000000
00000000
00002200
00000000
00000000
00000000
00003300
00000000
00000000
00000000
00000000
00000000
,
00011000
00000000
00000000
00100000
00000000
00000000
02020000
00000000
00000000
00000000
03030000
00000000
00000000
00000000
00000000
00000000
,
21000000
00000000
00000000
01000000
00000000
00000000
32000000
00000000
00010000
00000000
00000000
00010000
00000000
00000000
03020000
00000000
,
00001000
00000000
00000000
00001000
00000000
00000000
00032000
00000000
00000010
00000000
00000000
00000010
00000000
00000000
00003020
00000000
,
00000001
00000000
00000000
00000001
00000000
00000000
00000032
00000000
00000100
00000000
00000000
00000100
00000000
00000000
00000203
00000000
,
00001000
00000000
00000000
00001000
00000000
00000000
00002300
00000000
00010000
00000000
00000000
00010000
00000000
00000000
00023000
00000000
,
00100000
00000000
00000000
00100000
00000000
00000000
00230000
00000000
10000000
00000000
00000000
10000000
00000000
00000000
20300000
00000000
,
01000000
00000000
00000000
01000000
00000000
00000000
32000000
00000000
00010000
00000000
00000000
00010000
00000000
00000000
03010000
00000000
,
00011000
00000000
00000000
00011000
00000000
00000000
00022000
00000000
00000000
00000000
00000000
00000000
00033000
00000000
00000000
00000000
,
00000220
00000000
00000000
00000330
,
00000001
00000000
00000100
00000001
00000000
00000100
00000010
00000000
00001000
00000000
00000100
00010000
00000000
00001000
00100000
00000000
,
00010000
00000000
01000000
00010000
00000000
01000000
00100000
00000000
10000000
00000000
01000000
00100000
00000000
01000000
00100000
00010000
,
10000000
00000000
00010000
01000000
00000000
00001000
00010000
00000000
00000100
00000000
00001000
00000001
00000000
00000010
00000001
00000000
,
00000100
00000000
00000010
00001000
00000000
00000010
00010000
00000000
00001000
00000000
00100000
00010000
10000000
00000000
10000000
00010000
,
01000000
00000000
00001000
00010000
00000000
00000100
00001000
00000000
00000100
00000000
00000010
00000001
00000000
00001000
00000010
00000000
,
00010000
00000000
00001000
01000000
00000000
00010000
01000000
00000000
00100000
00000000
10000000
00010000
00100000
01000000
00100000
01000000
,
10000000
00000000
00010000
01000000
00000000
00001000
00010000
00000000
00000100
00001000
00000001
00001000
00000010
00000100
00000010
00000100
,
00000002
00000000
00002000
00003003
,
00000001
00000010
00000100
00000010
00000001
00000000
00001000
00000010
00000000
00000010
00000100
00000010
00001000
00000000
00000100
00010000
,
00001000
00100000
00010000
00100000
01000000
00000000
10000000
00010000
00000000
00010000
01000000
00001000
00010000
00001000
00100000
00000000
,
00010000
10000000
00100000
10000000
00010000
00000000
00100000
00001000
00000000
00001000
00010000
00000010
00010000
00000000
00010000
00000100
,
00001000
00000100
00000010
00000001
00001000
00000000
00000010
00000100
00000000
00000100
00000001
00000000
00000010
00000100
00001000
00000100
,
00010000
00001000
01000000
00001000
00010000
00000000
00100000
01000000
00000000
01000000
00010000
01000000
00100000
00000000
10000000
00010000
,
10000000
01000000
10000000
00010000
00100000
00000000
00001000
00010000
00000010
00001000
00000100
00010000
00001000
01000000
00010000
00100000
,
01000000
10000000
01000000
00100000
00010000
01000000
00000000
00001000
00010000
00000100
00001000
00000100
00000010
00000001
00000100
00001000
,
00010000
00000000
00000000
00000000
,
20000000
32000000
03200000
00320000
,
00032000
00003200
00000320
00000031
,
00000002
00000203
00000320
00002030
,
00023000
02030000
03200000
10300000
,
20000000
32000000
03200000
00320000
,
00032000
00003200
00000320
00000031
,
00000002
00000203
00000320
00002030
,
00023000
02030000
03200000
10300000
,
20020000
00000000
00000000
00000000
,
00000000
00000000
00000000
00000000
,
30030000
00000000
00000000
00000000
;
