#VERSION:0.83;
#TITLE:Space Diver Tama;
#SUBTITLE:;
#ARTIST:黒魔;
#TITLETRANSLIT:;
#SUBTITLETRANSLIT:;
#ARTISTTRANSLIT:Chroma;
#GENRE:;
#CREDIT:;
#MUSIC:Space Diver Tama.ogg;
#BANNER:Space Diver Tama.png;
#BACKGROUND:Space Diver Tama-bg.png;
#CDTITLE:./CDTitles/SDVX BOOTH.png;
#SAMPLESTART:87.169;
#SAMPLELENGTH:15.000;
#SELECTABLE:YES;
#OFFSET:0.000;
#BPMS:0.000=170.000;
#STOPS:;
#BGCHANGES:0.000=../BGAs/19cy.mp4=1.000=0=0=0=StretchNoLoop====,
99999.000=-nosongbg-=1.000=0=0=0=StretchNoLoop====
;
#FGCHANGES:;

//--------------- dance-single - forcednature ----------------
#NOTEDATA:;
#STEPSTYPE:dance-single;
#DESCRIPTION:forcednature;
#DIFFICULTY:Beginner;
#METER:3;
#RADARVALUES:0,0,0,0,0;
#CREDIT:forcednature;
#NOTES:
0000
0000
0000
0000
,
0000
0000
0000
0000
,
0000
0000
0000
0000
,
0000
0000
0000
0000
,
0000
0000
0000
0000
,
0000
0000
0000
0000
,
1000
0000
0000
0000
,
0001
0000
0000
0000
,
1000
0000
0000
0000
,
0001
0000
0000
0000
,
0010
0000
0000
0000
,
0001
0000
0000
0000
,
0100
0000
0000
0000
,
0001
0000
0000
0000
,
1000
0000
0000
0000
,
0100
0000
0000
0000
,
1000
0000
0000
0000
,
0010
0000
0000
0000
,
0100
0000
0100
0000
,
0001
0000
0000
0000
,
1000
0000
0000
0000
,
0100
0000
0000
0000
,
0010
0000
0000
0000
,
0001
0000
0000
0000
,
1000
0000
0000
0000
,
0010
0000
0000
0000
,
2002
0000
0000
0000
,
0000
0000
0000
0000
,
3003
0000
0000
0000
,
0000
0000
0000
0000
,
1000
0000
0100
0000
,
1000
0000
0000
0000
,
0001
0000
0100
0000
,
0001
0000
0000
0000
,
0010
0000
0000
0000
,
0001
0000
0010
0000
,
0001
0000
0000
0000
,
1000
0000
0010
0000
,
1000
0000
0000
0000
,
0001
0000
0100
0000
,
0001
0000
0000
0000
,
1000
0000
0100
0000
,
1000
0000
0000
0000
,
1000
0000
1000
0000
,
0010
0000
0000
0000
,
0100
0000
0000
0000
,
0001
0000
0001
0000
,
1000
0000
1000
0000
,
0010
0000
0100
0000
,
0001
0000
1000
0000
,
2002
0000
0000
0000
,
0000
0000
0000
0000
,
3003
0000
0000
0000
,
0000
0000
0000
0000
,
1000
0000
0000
0000
,
0100
0000
0000
0000
,
0010
0000
0000
0000
,
0001
0000
0000
0000
,
1000
0000
0000
0000
,
0010
0000
0000
0000
,
0100
0000
0000
0000
,
0001
0000
1000
0000
,
0001
0000
0000
0000
,
0010
0000
0100
0000
,
1000
0000
0000
0000
,
0001
0000
1000
0000
,
0010
0000
0000
0000
,
0100
0000
0001
0000
,
1000
0000
0000
0000
,
0100
0000
0010
0000
,
1001
0000
0000
0000
,
0001
0000
1000
0000
,
0010
0000
0000
0000
,
0100
0000
0001
0000
,
1000
0000
0000
0000
,
0100
0000
0000
0000
,
0010
0000
0010
0000
,
0010
0000
0001
0000
,
0100
0000
0000
0110
,
0000
0000
0010
0000
,
1000
0000
0000
1001
,
0000
0000
0001
0000
,
1001
0000
0000
0000
;

//--------------- dance-single - forcednature ----------------
#NOTEDATA:;
#STEPSTYPE:dance-single;
#DESCRIPTION:forcednature;
#DIFFICULTY:Easy;
#METER:7;
#RADARVALUES:0,0,0,0,0;
#CREDIT:forcednature;
#NOTES:
0000
0000
0000
0000
,
0000
0000
0000
0000
,
0000
0000
0000
0000
,
0000
0000
0000
0000
,
0000
0000
0000
0000
,
0000
0000
0000
0000
,
1000
0100
0000
0000
,
1000
0001
0010
0000
,
0001
0100
0000
0000
,
0001
1000
0010
0000
,
0110
0000
0100
0001
,
1000
0001
0010
0000
,
0110
0000
0100
1000
,
0001
1000
0010
0000
,
1001
0000
1000
0100
,
0010
0001
1000
0000
,
1001
0000
0001
0100
,
0010
1000
0001
0000
,
0010
0010
0010
0000
,
0001
0100
0010
1000
,
0001
0010
0001
0000
,
1000
0100
0010
0001
,
0100
0001
0100
0000
,
0010
1000
0001
0010
,
0100
1000
0100
0000
,
0010
0001
1000
0010
,
0200
0000
0000
0000
,
0000
0000
0000
0000
,
0301
0000
0001
0000
,
0001
0000
1000
0010
,
1000
0000
1000
0100
,
0010
0000
0001
1000
,
0010
0000
0100
0001
,
1000
0000
0100
0010
,
0001
0100
0001
0010
,
0001
0100
0000
0001
,
1000
0000
0010
1000
,
0100
1000
0001
0000
,
0100
0010
1000
0010
,
0100
0001
0010
0000
,
0100
1000
0000
0001
,
1000
0010
0100
0000
,
1001
0000
1000
0100
,
1000
0001
0100
0001
,
0010
0000
0100
1000
,
0001
0010
0000
0100
,
1000
1000
0010
0010
,
0100
0100
0001
0001
,
1000
0100
1000
0010
,
0100
0001
0010
0001
,
2002
0000
0000
0000
,
0000
0000
0000
0000
,
3003
0000
0000
0000
,
0000
0000
0000
0000
,
1000
0000
0010
0000
,
1000
0000
0001
0000
,
0010
0000
0001
0000
,
0100
0000
0001
0000
,
1000
0000
0100
0000
,
1000
0000
0001
0000
,
0100
0000
0001
0000
,
0010
0010
0010
0000
,
1001
0000
1000
0010
,
1000
0001
0010
0000
,
0100
1000
0100
0000
,
0010
0001
0010
0000
,
0001
0100
0001
0000
,
1000
0010
1000
0000
,
0100
1000
0001
1000
,
0010
0100
0001
0000
,
1000
0010
1001
0000
,
0001
0010
1001
0000
,
1000
0100
1000
0001
,
0100
0001
0010
0000
,
0110
0000
0100
1000
,
0001
0000
0100
0001
,
2000
3000
2000
3000
,
2000
3000
0002
0023
,
0031
0000
0000
1001
0000
0000
1000
0000
,
0000
1001
0000
0000
0010
0000
0100
0000
,
0010
0000
0000
1001
0000
0000
0100
0000
,
0000
1001
0000
0000
0010
0000
0100
0000
,
2002
0000
0000
0000
,
3003
0000
0000
0000
;

//--------------- dance-single - forcednature ----------------
#NOTEDATA:;
#STEPSTYPE:dance-single;
#DESCRIPTION:forcednature;
#DIFFICULTY:Medium;
#METER:13;
#RADARVALUES:0,0,0,0,0;
#CREDIT:forcednature;
#NOTES:
0000
0000
0000
0000
,
0000
0000
0000
0000
,
0000
0000
0000
0000
,
0000
0000
0000
0000
,
0000
0000
0000
0000
,
0000
0000
0000
0000
,
1000
0100
0001
0000
0000
0000
0000
0000
,
0100
0000
1000
0000
0010
0000
1000
0000
0000
1000
0000
1000
0000
0000
0000
0000
,
0001
0100
1000
0000
0000
0000
0000
0000
,
0100
0000
0001
0000
0010
0000
0001
0000
0100
0000
0000
0100
0000
0010
0000
0000
,
1000
0100
0001
0100
0000
0010
0001
1000
,
0001
0100
1000
0100
0000
0010
1000
0001
,
0010
1000
0010
0001
0000
0100
0001
1000
,
0010
0001
0010
1000
0000
0001
0010
0100
,
0001
0100
1000
0010
0000
0100
1000
0100
,
0001
0010
0001
1000
0000
0010
1000
0100
,
0001
0100
1000
0001
0000
0010
0001
0100
,
0010
1000
0001
0010
0000
0100
1000
0001
,
0100
0000
0000
0010
0000
0000
0110
0000
0000
0000
0100
0000
0001
0000
1000
0000
,
0001
0010
0100
1000
0000
0010
1000
0001
,
0010
1000
0010
0001
0000
1000
0001
0100
,
0010
1000
0100
1000
0000
0001
0100
1000
,
0100
0010
1000
0001
0000
0010
1000
0010
,
0001
0100
0001
1000
0000
0100
0001
0100
,
0010
0001
1000
0010
0000
0100
1000
0001
,
0010
0100
0001
1000
0000
0100
0001
0100
,
0020
0000
0000
0000
,
0000
0000
0000
0030
,
0010
0000
0000
0010
0000
0000
0001
0000
,
0000
0001
0000
0000
0100
0000
0010
0000
,
1000
0000
1000
0100
0001
0100
1000
0000
,
1000
0010
0001
0010
1000
0000
1000
0000
,
0001
0000
0001
0100
1000
0100
0001
0000
,
0001
0010
1000
0010
0001
0000
0001
0000
,
1000
0010
0100
0010
1000
0010
0000
0110
,
0000
0100
0001
0010
0000
0001
1000
0010
,
1000
0100
0000
0110
0000
0011
0000
0001
,
1000
0010
1000
0001
0000
0010
0100
0100
,
0010
0001
1000
0010
1000
0001
0000
0001
,
1000
0100
1000
1000
0010
0000
0100
0001
,
0010
0001
0100
0001
0000
1000
0100
1000
,
0010
1000
0100
0100
0010
0001
0100
0000
,
0010
1000
0001
0010
0001
1000
0100
1000
,
0001
0100
0001
1000
0100
0001
0000
0001
,
0100
0000
0010
0000
0001
0000
0000
0001
0000
0001
0000
0000
0100
0000
0100
0000
,
0010
0010
1000
1000
0000
0000
0001
0010
,
0001
0000
0001
0100
0000
0100
0010
0000
0010
1000
0000
1000
,
0100
0000
0100
0010
0000
0010
0001
0000
0001
1000
0000
1000
,
0010
0000
0100
0001
0000
0010
0001
0000
1000
0010
0000
1000
,
0100
0000
0010
0001
0000
0100
0001
0000
1000
0100
0000
1000
,
0020
0000
0000
0000
,
0000
0000
0000
0000
,
0030
0000
0000
0000
,
0000
0000
0000
0000
,
0100
0000
0001
0000
0010
0001
0000
1000
,
0010
0000
0010
1000
0000
0000
0100
0010
,
0001
0000
0001
0100
0000
0010
1000
0000
,
0100
0000
1000
0001
0000
0100
0001
0000
,
0010
0000
0001
0100
0000
0010
1000
0000
,
0100
0000
1000
0001
0000
0010
0001
0000
,
0100
0000
0010
1000
0000
0100
1000
0000
,
0001
0100
0001
0100
0001
0100
0010
1000
,
0001
0000
0000
0010
0000
0000
0100
0000
0000
0010
0000
0000
0001
0000
1000
0000
,
0010
0000
0000
0010
0100
0000
0000
0100
0001
0000
0000
0001
1000
0000
0000
1000
,
0100
0010
0100
1000
0001
0100
0010
0000
,
1000
0001
0010
0001
0100
0001
1000
0000
,
0100
0000
0000
0010
0000
0000
0100
0000
0010
0000
0001
0000
1000
0000
0000
0000
,
0010
0000
0000
0100
0000
0000
0010
0000
1000
0000
0001
0000
0010
0000
0000
0000
,
0100
1000
0010
1000
0001
0010
0001
0100
,
0010
1000
0001
1000
0100
0000
0010
0001
,
0100
1000
0100
0001
0010
0000
0100
1000
,
0010
0001
0010
1000
0100
0000
0010
0000
,
0001
0000
0000
0100
0000
0000
0010
0000
0000
1000
0000
0000
0100
0000
1000
0000
,
0001
0100
1000
0100
0010
0000
1000
0001
,
0010
0000
0000
0100
0000
0000
0010
0000
0001
0000
0000
0000
1000
0000
0000
0000
,
0010
0000
0000
0100
0000
0000
0010
0000
1000
0000
0000
0000
0001
0000
0000
0000
,
0100
0000
0000
0001
0000
0000
1000
0000
0100
0000
0000
1000
0000
0000
0001
0000
,
0010
0000
0000
0001
0000
0000
1000
0000
0010
0000
0000
0100
0000
0000
0001
0000
,
0010
0000
0000
1100
0000
0000
0101
0000
,
0000
0110
0000
0000
1010
0000
0011
0000
,
1100
0000
0000
0101
0000
0000
1010
0000
,
0000
0011
0000
0000
0101
0000
1100
0000
,
2002
0000
0000
0000
,
3003
0000
0000
0000
;

//--------------- dance-single - forcednature ----------------
#NOTEDATA:;
#STEPSTYPE:dance-single;
#DESCRIPTION:forcednature;
#DIFFICULTY:Hard;
#METER:16;
#RADARVALUES:0,0,0,0,0;
#CREDIT:forcednature;
#NOTES:
0000
0000
0000
0000
,
0000
0000
0000
0000
,
0000
0000
0000
0000
,
0000
0000
0000
0000
,
0000
0000
0000
0000
,
0000
0000
0000
0000
,
1000
0000
0100
0000
0010
0000
0000
0000
0001
0100
0001
0000
2000
0000
3000
0000
,
0010
0000
0100
0000
0001
0000
0010
0000
0000
0010
0000
0010
0100
0000
0000
0000
,
1000
0001
0100
0000
0000
0000
0020
0030
,
1000
0000
0100
0000
1000
0000
0001
0000
0100
0010
0000
0100
0010
1000
0000
0000
,
0001
0000
0010
0100
0010
0000
0100
0000
1000
0000
0001
0100
0010
0000
1000
0000
,
0001
0000
0010
0001
0010
0000
0100
0000
1000
0000
0001
0100
0010
0000
1000
0010
,
1000
0000
0100
0000
0001
0000
0100
0000
0000
0000
0010
0001
0010
0000
0001
0100
,
0010
0000
0001
0000
0010
0000
1000
0000
0000
0000
0100
1000
0001
0000
0100
0001
,
0100
0010
0001
0010
0000
1000
0001
1000
,
0100
0000
0010
0000
1000
0000
0010
0000
0000
0000
0001
0000
1000
0000
0010
1000
,
0010
0000
0100
0000
1000
0000
0100
0000
0000
0000
0001
0000
0010
0000
0001
1000
,
0010
0000
0100
0000
1000
0000
0001
0000
0000
0000
0010
0000
1000
0010
0100
0000
,
0101
0000
0000
1001
0000
0000
0011
0000
0010
0000
0100
0000
1000
0000
0001
0000
,
0100
0000
1000
0000
0100
0000
0001
0000
0000
0000
0001
0000
0010
0000
0100
1000
,
0001
0000
0010
0100
0010
0000
0001
0000
0000
0000
1000
0000
0010
0000
0001
0000
,
1000
0000
0100
0000
0001
0000
0010
0000
0000
0000
0100
0000
1000
0001
1000
0010
,
0100
0000
1000
0000
0100
0000
0001
0000
0000
0000
0010
0100
0010
0000
0001
1000
,
0010
0000
0100
0000
1000
0000
0100
0000
0000
0000
0001
0010
0001
0000
1000
0010
,
0100
0000
0001
0000
0010
0000
0100
0000
0000
0000
0010
0001
0010
0000
0100
1000
,
0001
0000
1000
0000
0010
0000
0001
0000
0010
0000
0100
0000
0001
0100
0001
0000
,
2002
0000
3000
0000
,
1003
0100
1000
0100
0010
0100
0010
0001
0010
0001
1000
0001
,
0200
0000
0300
0200
0000
0300
0020
0000
,
0030
0020
0000
0030
2000
0000
3002
0000
,
1003
0100
0010
0000
0100
0000
1000
0001
0000
0001
0100
0000
0010
1000
0000
0001
,
0010
0100
0010
0000
0001
0000
1000
0010
0000
0010
0100
0000
0001
1000
0100
0000
,
0010
0100
0010
0000
0001
0000
1000
0010
0000
0010
0100
0000
0001
1000
0000
0100
,
1000
0100
0010
0000
0001
0000
0100
0001
2000
0000
0000
0000
3100
0010
0100
0000
,
0010
1000
0010
0001
0100
0001
0000
1010
,
0000
0001
0100
1000
0000
0001
0010
1000
,
0100
0001
0000
0101
0000
0110
0000
0010
,
0001
0000
0100
0000
1000
0000
0001
0000
0000
0000
0010
0000
1000
0010
0100
0000
,
0001
0010
1000
0001
0100
1000
0000
0010
,
0100
0000
1000
0000
0001
0000
0010
1000
0010
0000
0000
0000
0100
0000
0001
0000
,
0010
0001
0010
0000
0100
0000
1000
0000
0000
0000
0010
0000
0100
0000
1000
0000
,
0001
0000
0010
0000
1000
0010
1000
0000
0100
0000
0001
0000
0100
1000
0100
0010
,
0001
0000
1000
0001
0100
0000
0010
0000
0100
0001
1000
0000
0100
0000
0010
0100
,
1000
0000
0001
0000
0100
0010
1000
0000
0001
0000
0010
0100
0010
0000
1000
0000
,
0010
0000
0001
0000
0010
0000
0000
0010
0000
0010
0000
0000
0100
1000
0100
0010
,
0001
0010
0100
1000
0001
0000
0100
0000
0000
0000
0000
0000
0020
0000
0000
0000
,
0130
0001
1000
0100
1000
0001
0010
0001
1000
0010
1000
0001
,
0100
0010
1000
0100
0010
0001
1000
0010
0100
0001
0010
0100
,
0001
0100
1000
0100
1000
0010
1000
0010
0001
1000
0100
0001
,
0100
0001
0010
0001
0010
1000
0001
0100
1000
0010
0100
0001
,
2000
0000
0000
0000
,
0000
0000
0000
0000
,
3000
0000
0000
0000
,
0000
0000
0000
0000
,
0001
0100
0010
1000
0001
0010
0000
0010
,
0100
0010
0001
1000
0000
0000
1000
0010
,
0001
0000
0001
0010
0000
0100
0001
1000
,
0100
0001
0100
1000
0000
0001
0010
0001
,
1000
0000
0010
0100
0000
1000
0100
0001
,
0010
0001
1000
0010
0000
1000
0100
0010
,
0100
0000
1000
0001
0000
0100
0001
1000
,
0010
0000
0010
0000
1000
0000
1000
0000
0001
0000
0001
0000
1000
0100
0010
0001
,
0100
0000
0001
0100
0000
0010
1000
0000
0001
0010
0000
0100
0010
0000
0001
0000
,
1000
0000
1000
0100
0010
0000
0010
0001
1000
0000
1000
0010
0100
0000
0100
0001
,
1000
0000
0100
0010
0001
0000
1000
0000
0010
0100
0001
0000
0010
0000
0100
0000
,
1000
0010
1000
0010
0100
0001
1000
0001
0010
0100
1000
0100
0010
0000
0000
0000
,
0001
0000
0100
0010
0000
1000
0010
0000
0100
0000
0001
1000
0100
0000
0000
0000
,
0010
0000
0100
1000
0000
0001
0100
0000
0010
0000
1000
0001
0010
0000
0100
0000
,
0010
0000
0010
0001
0100
0000
0100
0010
1000
0000
1000
0100
0010
0000
0010
0001
,
1000
0000
0001
0100
0010
0000
0010
1000
0100
0000
0100
0010
0001
0000
1000
0000
,
0001
0000
0100
1000
0100
0000
0001
0000
0011
0000
0000
0000
1000
0000
0010
0000
,
1000
0000
0100
0001
0100
0000
1000
0000
1010
0000
0000
0000
0002
0000
0000
0000
,
0013
0000
0100
1000
0000
0010
1000
0000
0001
0010
0000
0001
0100
0000
0010
0000
,
1000
0100
0010
0100
1000
0000
0001
1000
0010
0000
0100
0001
0010
0000
0100
1000
,
0001
0000
0000
0100
0000
0000
1000
0000
0100
0000
0010
0000
1000
0000
0010
0000
,
0100
0000
0000
0001
0000
0000
0010
0000
0001
0000
1000
0000
0010
0000
1000
0000
,
0002
0000
0000
0010
0000
0000
0103
0000
2000
0000
0000
0010
0000
0000
3100
0000
,
0002
0000
0000
0010
0000
0000
1003
0000
0100
0001
0100
0001
1000
0100
0010
0001
,
0100
0001
0100
0000
0000
0000
0010
1000
0010
0000
0000
0000
1000
0100
1000
0000
,
0000
0000
0001
0010
0001
0000
0000
0000
0100
0010
0100
0010
1000
0000
0000
0000
,
0100
1000
0001
0000
0000
0000
0100
0001
1000
0000
0000
0000
0010
1000
0001
0000
,
0000
0000
0010
0001
1000
0000
0000
0000
0010
0100
0010
0100
0001
0000
0000
0000
,
2002
0000
0000
0000
,
3003
0000
0000
0000
;

//--------------- dance-double - forcednature ----------------
#NOTEDATA:;
#STEPSTYPE:dance-double;
#DESCRIPTION:forcednature;
#DIFFICULTY:Easy;
#METER:7;
#RADARVALUES:0,0,0,0,0;
#CREDIT:forcednature;
#NOTES:
00000000
00000000
00000000
00000000
,
00000000
00000000
00000000
00000000
,
00000000
00000000
00000000
00000000
,
00000000
00000000
00000000
00000000
,
00000000
00000000
00000000
00000000
,
00000000
00000000
00000000
00000000
,
00001000
01000000
00000000
00000000
,
01000000
00001000
00010000
00000000
,
00010000
00000100
00000000
00000000
,
00000100
00010000
00001000
00000000
,
00011000
00000000
00010000
00001000
,
01000000
00010000
01000000
00000000
,
01100000
00000000
00100000
10000000
,
00010000
10000000
01000000
00000000
,
01100000
00000000
00100000
00001000
,
00010000
00000100
00001000
00000000
,
00000110
00000000
00000010
00000001
,
00001000
00000001
00000100
00000000
,
00000010
00000010
00000010
00000000
,
00010000
00001000
00010000
00001000
,
00100000
00010000
00100000
00000000
,
01000000
10000000
00010000
10000000
,
00100000
01000000
00100000
00000000
,
01000000
00001000
00010000
00001000
,
00010000
00000100
00001000
00000000
,
00000001
00000100
00000010
00001000
,
00000002
00000000
00000000
00000000
,
00000000
00000000
00000000
00000000
,
00000013
00000000
00000010
00000000
,
00000010
00000000
00000100
00010000
,
00001000
00000000
00001000
01000000
,
00010000
00000000
00010000
10000000
,
00100000
00000000
00100000
10000000
,
01000000
00000000
00010000
00000000
,
00011000
00000000
00001000
00010000
,
00000100
00001000
00000000
00001000
,
00000001
00000000
00000001
00000100
,
00000010
00001000
00000010
00000000
,
00010000
00001000
00100000
00010000
,
00100000
00001000
00010000
00000000
,
00000010
00001000
00000000
00001000
,
00000100
00010000
00001000
00000000
,
00011000
00000000
00010000
00001000
,
01000000
00010000
01000000
00100000
,
10000000
00000000
01000000
00100000
,
00001000
00010000
00000000
00000100
,
00001000
00001000
00000001
00000001
,
00000100
00000100
00000001
00000001
,
00000010
00000100
00001000
00000100
,
00010000
00001000
01000000
00010000
,
20020000
00000000
00000000
00000000
,
00000000
00000000
00000000
00000000
,
30030000
00000000
00000000
00000000
,
00000000
00000000
00000000
00000000
,
10000000
00000000
00100000
00000000
,
10000000
00000000
01000000
00000000
,
00100000
00000000
00001000
00000000
,
00010000
00000000
00000100
00000000
,
00001000
00000000
00000001
00000000
,
00000100
00000000
00000001
00000000
,
00000010
00000000
00000100
00000000
,
00001000
00001000
00001000
00000000
,
00001001
00000000
00000001
00000100
,
00000001
00001000
00000010
00000000
,
00010000
00001000
00010000
00000000
,
00001000
00100000
00010000
00000000
,
00100000
01000000
10000000
00000000
,
01000000
10000000
00100000
00000000
,
10000000
00010000
01000000
00001000
,
00010000
00000010
00001000
00000000
,
00000001
00000010
00000110
00000000
,
00000100
00010000
00011000
00000000
,
00001000
01000000
00010000
01000000
,
00001000
00010000
00001000
00000000
,
00011000
00000000
00010000
00001000
,
01000000
00000000
00010000
01000000
,
00002000
00003000
00002000
00003000
,
00002000
00003000
00020000
00032000
,
00103000
00000000
00000000
00100000
00000000
00000000
00100000
00000000
,
00000000
00100000
00000000
00000000
00001000
00000000
00010000
00000000
,
00000010
00000000
00000000
00000010
00000000
00000000
00000010
00000000
,
00000000
00000010
00000000
00000000
00010000
00000000
00001000
00000000
,
00022000
00000000
00000000
00000000
,
00033000
00000000
00000000
00000000
;

//--------------- dance-double - forcednature ----------------
#NOTEDATA:;
#STEPSTYPE:dance-double;
#DESCRIPTION:forcednature;
#DIFFICULTY:Medium;
#METER:12;
#RADARVALUES:0,0,0,0,0;
#CREDIT:forcednature;
#NOTES:
00000000
00000000
00000000
00000000
,
00000000
00000000
00000000
00000000
,
00000000
00000000
00000000
00000000
,
00000000
00000000
00000000
00000000
,
00000000
00000000
00000000
00000000
,
00000000
00000000
00000000
00000000
,
00001000
00010000
01000000
00000000
00000000
00000000
00000000
00000000
,
10000000
00000000
01000000
00000000
00010000
00000000
01000000
00000000
00000000
01000000
00000000
01000000
00000000
00000000
00000000
00000000
,
00100000
00001000
00010000
00000000
00000000
00000000
00000000
00000000
,
00000010
00000000
00010000
00000000
00001000
00000000
00010000
00000000
00000100
00000000
00000000
00000100
00000000
00001000
00000000
00000000
,
00000001
00000100
00001000
00000100
00000000
00000100
00000001
00001000
,
00000010
00010000
00001000
01000000
00000000
00001000
00010000
00100000
,
01000000
00100000
00010000
00001000
00000000
00010000
00000100
00001000
,
00000100
00010000
00001000
00000010
00000000
00000001
00000010
00001000
,
00010000
00000100
00001000
00000100
00000000
00010000
00001000
01000000
,
00010000
00100000
00010000
10000000
00000000
00100000
10000000
01000000
,
00010000
00001000
00010000
01000000
00000000
00100000
00001000
00010000
,
00000010
00010000
00001000
00000010
00000000
00000100
00001000
00000001
,
00000100
00000000
00000000
00000010
00000000
00000000
00000110
00000000
00000000
00000000
00000100
00000000
00001000
00000000
00010000
00000000
,
00100000
01000000
00100000
10000000
00000000
01000000
00010000
01000000
,
10000000
00010000
00100000
00010000
00000000
10000000
00100000
00010000
,
00001000
01000000
00001000
00010000
00000000
00000100
00001000
00000010
,
00001000
00000100
00000001
00000100
00000000
00001000
00000001
00000010
,
00001000
00000010
00000100
00010000
00000000
00001000
01000000
00010000
,
00100000
01000000
00010000
01000000
00000000
00100000
00001000
00010000
,
00100000
10000000
01000000
00010000
00000000
01000000
00100000
00001000
,
00020000
00000000
00000000
00000000
,
00000000
00000000
00000000
00030000
,
00000010
00000000
00000000
00000010
00000000
00000000
00001000
00000000
,
00000000
00001000
00000000
00000000
00000001
00000000
00000010
00000000
,
00000100
00000000
00000100
00010000
00001000
00010000
00000010
00000000
,
00000010
00010000
00001000
00010000
00000100
00000000
00011000
00000000
,
01000000
00000000
01000000
00001000
00010000
00001000
00100000
00000000
,
00100000
00001000
00010000
00001000
01000000
00000000
00011000
00000000
,
00001000
00010000
00000100
00001000
00000001
00000010
00000000
00000110
,
00000000
00000100
00010000
00001000
00000000
01000000
00001000
00010000
,
00001000
00100000
00000000
01100000
00000000
10010000
00000000
10000000
,
01000000
00010000
00001000
00100000
00000000
00010000
01000000
10000000
,
01000000
00010000
10000000
00100000
00010000
00001000
00000000
00010000
,
00001000
00000010
00000100
00000010
00000001
00000000
00000100
00001000
,
00000100
00000001
00001000
00000010
00000000
00010000
00001000
00100000
,
00010000
01000000
10000000
01000000
00010000
10000000
00200000
00000000
,
10300000
01000000
00010000
00001000
00010000
01000000
10000000
00010000
,
00100000
10000000
00100000
00010000
00001000
00000100
00000000
00001000
,
00000010
00000000
00000100
00000000
00000001
00000000
00000000
00000001
00000000
00000001
00000000
00000000
00000010
00000000
00000100
00000000
,
00010000
00001000
00100000
01000000
00000000
00000000
20000000
00000000
,
30100000
00000000
00100000
10000000
00000000
10000000
01000000
00000000
01000000
00010000
00000000
00010000
,
00001000
00000000
00001000
00000100
00000000
00000100
00000001
00000000
00000001
00000010
00000000
00000010
,
00000100
00000000
00001000
00000100
00000000
00010000
00001000
00000000
00100000
00010000
00000000
01000000
,
00100000
00000000
10000000
01000000
00000000
00100000
00010000
00000000
01000000
00001000
00000000
00010000
,
00000020
00000000
00000000
00000000
,
00000000
00000000
00000000
00000000
,
00000030
00000000
00000000
00000000
,
00000000
00000000
00000000
00000000
,
00000100
00000000
00000001
00000000
00000010
00000001
00000000
00000100
,
00001000
00000000
00010000
00001000
00000000
00000000
00010000
00100000
,
01000000
00000000
00100000
10000000
00000000
01000000
10000000
00000000
,
01000000
00000000
00010000
01000000
00000000
00010000
00001000
00000000
,
00000010
00000000
00001000
00000010
00000000
00000001
00000010
00000000
,
00000001
00000000
00000100
00000001
00000000
00000100
00000010
00000000
,
00001000
00000000
00000010
00010000
00000000
00001000
01000000
00000000
,
00010000
10000000
00010000
10000000
00010000
10000000
01000000
00100000
,
00001000
00000000
00000000
00010000
00000000
00000000
00000100
00000000
00000000
00010000
00000000
00000000
00001000
00000000
00000010
00000000
,
00000001
00000100
00000010
00000100
00001000
00010000
00001000
01000000
,
00010000
10000000
00100000
10000000
00010000
00100000
01000000
00000000
,
00100000
00001000
00010000
01000000
00100000
00001000
00010000
00000000
,
00000010
00000000
00000000
00001000
00000000
00000000
00000010
00000000
00000100
00000000
00000001
00000000
00001000
00000000
00000000
00000000
,
00000100
00000000
00000000
00010000
00000000
00000000
00001000
00000000
00100000
00000000
00001000
00000000
00010000
00000000
00000000
00000000
,
00100000
01000000
00100000
10000000
00010000
00100000
01000000
00010000
,
00000100
00001000
00000010
00010000
00002000
00000000
00003010
00000001
,
00000100
00001000
00010000
00001000
01000000
00000000
00100000
10000000
,
01000000
00010000
00001000
00010000
00000100
00000000
00000020
00000000
,
00000031
00000000
00000000
00000100
00000000
00000000
00001000
00000000
00000000
00010000
00000000
00000000
01000000
00000000
10000000
00000000
,
00010000
00100000
10000000
00100000
02000000
00000000
13000000
00010000
,
01000000
00000000
00000000
00100000
00000000
00000000
01000000
00000000
00001000
00000000
00010000
00000000
00001000
00000000
00000000
00000000
,
00010000
00000000
00000000
00000100
00000000
00000000
00001000
00000000
00000100
00000000
00000010
00000000
00000001
00000000
00000000
00000000
,
00000100
00000000
00000000
00001000
00000000
00000000
00010000
00000000
00001000
00000000
00000000
00010000
00000000
00000000
00100000
00000000
,
00010000
00000000
00000000
00100000
00000000
00000000
10000000
00000000
00010000
00000000
00000000
00100000
00000000
00000000
01000000
00000000
,
10000000
00000000
10000000
01000000
00000000
01000000
00010000
00000000
,
00010000
00001000
00000000
00001000
00000010
00000000
00000110
00000000
,
00000001
00000000
00000001
00000100
00000000
00000100
00001000
00000000
,
00001000
00010000
00000000
00010000
00100000
00000000
01100000
00000000
,
20020000
00000000
00000000
00000000
,
30030000
00000000
00000000
00000000
;

//--------------- dance-double - forcednature ----------------
#NOTEDATA:;
#STEPSTYPE:dance-double;
#DESCRIPTION:forcednature;
#DIFFICULTY:Hard;
#METER:16;
#RADARVALUES:0,0,0,0,0;
#CREDIT:forcednature;
#NOTES:
00000000
00000000
00000000
00000000
,
00000000
00000000
00000000
00000000
,
00000000
00000000
00000000
00000000
,
00000000
00000000
00000000
00000000
,
00000000
00000000
00000000
00000000
,
00000000
00000000
00000000
00000000
,
00010000
00001000
00000010
00000000
00000100
00001000
00000020
00000030
,
00000100
00000000
00001000
00000000
00000100
00000000
00000001
00000000
00000000
00000001
00000000
00000001
00000010
00000000
00000000
00000000
,
00000100
00010000
00001000
00000000
00000000
00000000
00200000
00300000
,
01000000
00000000
10000000
00000000
01000000
00000000
00010000
00000000
00001000
00010000
00000000
00001000
00200000
00000000
00000000
00000000
,
00310000
00000000
00100000
00010000
00100000
00000000
01000000
00000000
00100000
00000000
01000000
10000000
01000000
00000000
00010000
00000000
,
00001000
00000000
00010000
00001000
00010000
00000000
00000010
00000000
00001000
00000000
00000100
00000000
00000010
00000000
00000100
00000010
,
00000001
00000000
00000100
00000000
00000001
00000000
00000010
00000000
00000000
00000000
00000100
00000000
00001000
00000000
00000100
00010000
,
00001000
00000000
01000000
00000000
00010000
00000000
01000000
00000000
00000000
00000000
00100000
10000000
00100000
10000000
00100000
00000000
,
10000000
01000000
00010000
01000000
00000000
00100000
00001000
00010000
,
00000100
00000000
00001000
00000000
00000001
00000000
00000100
00000000
00000000
00000000
00001000
00000000
00010000
00000000
00001000
00010000
,
00001000
00000000
01000000
00000000
00010000
00000000
00100000
00000000
00000000
00000000
01000000
00000000
00010000
00000000
00001000
00010000
,
00001000
00000000
00100000
00000000
00010000
00000000
00100000
00000000
00000000
00000000
00001000
00000000
00010000
00001000
00010000
00000000
,
00000010
00000000
00000000
00001010
00000000
00000000
00001100
00000000
00000100
00000000
00000010
00000000
00000001
00000000
00000100
00000000
,
00001000
00000000
00010000
00000000
01000000
00000000
00100000
00000000
00000000
00000000
01000000
00000000
00100000
00000000
01000000
00100000
,
00010000
00100000
00001000
00010000
00000000
00000010
00000100
00001000
,
00000100
00000000
00000001
00000000
00001000
00000000
00000010
00000000
00000000
00000000
00010000
00000000
00001000
00010000
00001000
00010000
,
00001000
00000000
01000000
00000000
00010000
00000000
00100000
00000000
00000000
00000000
01000000
00100000
01000000
00000000
10000000
00010000
,
00100000
00000000
01000000
00000000
00010000
00000000
01000000
00000000
00000000
00000000
00100000
00010000
00100000
00000000
00010000
00100000
,
00001000
00000000
00010000
00000000
00000010
00000000
00001000
00000000
00000000
00000000
00000100
00001000
00000100
00000000
00001000
00000001
,
00000010
00000000
00000001
00000000
00000100
00000000
00001000
00000000
00010000
00000000
00001000
00000000
01000000
00010000
01000000
00000000
,
00200000
00000000
00000000
00000000
,
10300000
01000000
10000000
01000000
00100000
01000000
00100000
00010000
00100000
00001000
00010000
00001000
,
02000000
00000000
03000000
02000000
00000000
03000000
00002000
00000000
,
00003000
00002000
00000000
00003000
00020000
00000000
00030200
00000000
,
00001300
00000100
00001000
00000000
00000100
00000000
00000010
00000001
00000000
00000001
00000100
00000000
00000010
00001000
00000000
00000010
,
00010000
00001000
00010000
00000000
00001000
00000000
00100000
00010000
00000000
00100000
01000000
00000000
00100000
01000000
10000000
00000000
,
01000000
00100000
00010000
00000000
00100000
00000000
00001000
00010000
00000000
00000010
00001000
00000000
00000010
00000100
00000000
00000001
,
00000100
00000010
00000100
00000000
00000010
00000000
00001000
00000010
00020000
00000000
00000000
00000000
00031000
00010000
00001000
00000000
,
01000000
00010000
00100000
01000000
00010000
01000000
00001000
00000100
,
00000000
00010000
00001000
00000010
00000000
00001000
00010000
00100000
,
01000000
00010000
00000000
00110000
00000000
01100000
00000000
11000000
,
10000000
00000000
00100000
00000000
00010000
00000000
00001000
00000000
00000000
00000000
00010000
00000000
00001000
00010000
00000100
00000000
,
00001000
00000001
00000100
00001000
00010000
00100000
10000000
01000000
,
00010000
00000000
00001000
00000000
00100000
00000000
00010000
00100000
01000000
00000000
00000000
00000000
00010000
00000000
00001000
00000000
,
00010000
00001000
00010000
00000000
00000100
00000000
00001000
00000000
00000000
00000000
00000001
00000000
00000100
00000000
00001000
00000000
,
00010000
00000000
00001000
00000000
00010000
00001000
01000000
00000000
00010000
00000000
01000000
00000000
00100000
00000000
10000000
00100000
,
01000000
00000000
00010000
10000000
00010000
00000000
00100000
00000000
00010000
10000000
00010000
00000000
01000000
00000000
00010000
01000000
,
00001000
00000000
00010000
00000000
00001000
00100000
00010000
00000000
00100000
00000000
01000000
00100000
00010000
00000000
00100000
00000000
,
00001000
00000000
00010000
00000000
00000010
00000000
00000000
00100010
00000000
00100010
00000000
00000000
00000100
00000010
00000100
00000001
,
00001000
00000010
00001000
00000001
00000100
00000000
00001000
00000000
00000000
00000000
00000000
00000000
00020000
00000000
00000000
00000000
,
00031000
00010000
00001000
01000000
00010000
01000000
00001000
00010000
00001000
00100000
00010000
00100000
,
01000000
10000000
01000000
00010000
00001000
00010000
00000100
00001000
00000100
00000010
00000001
00001000
,
00000001
00000100
00001000
00000100
00001000
00010000
00001000
00010000
00100000
00010000
00100000
10000000
,
00100000
10000000
01000000
10000000
01000000
00010000
01000000
00010000
00001000
00010000
00001000
00000010
,
00000002
00000000
00000000
00000000
,
00000000
00000000
00000000
00000000
,
00000003
00000000
00000000
00000000
,
00000000
00000000
00000000
00000000
,
00000001
00000100
00001000
00000100
00000010
00001000
00000000
00010000
,
01000000
00010000
10000000
00100000
00000000
00000000
10000000
01000000
,
00010000
00000000
00001000
00010000
00000000
01000000
00100000
00001000
,
00010000
00000100
00000010
00001000
00000000
00000010
00000001
00000100
,
00001000
00000000
00000100
00000001
00000000
00001000
00000010
00010000
,
00100000
00001000
00000010
00000100
00000000
00000001
00000010
00001000
,
00010000
00000000
01000000
00100000
00000000
01000000
10000000
00100000
,
10000000
00000000
00010000
00000000
10000000
00000000
01000000
00000000
00010000
00000000
00001000
00000000
00100000
00010000
00100000
00001000
,
00010000
00000000
00000010
00001000
00000000
00000010
00000100
00000000
00000001
00000100
00000000
00000010
00000100
00000000
00000010
00000000
,
00001000
00000000
00000100
00001000
00000100
00000000
00010000
00001000
00010000
00000000
00000010
00001000
00000010
00000000
00010000
00001000
,
00010000
00000000
00001000
01000000
00010000
00000000
00100000
00000000
00010000
01000000
00001000
00000000
00010000
00000000
00000100
00000000
,
00001000
00000001
00001000
00000001
00000010
00000100
00000010
00000100
00001000
00000001
00000010
00000100
00001000
00000000
00000000
00000000
,
00000010
00000000
00001000
00000010
00000000
00010000
00001000
00000000
00100000
00000000
00010000
10000000
01000000
00000000
00010000
00000000
,
01000000
00000000
10000000
00100000
00000000
01000000
00100000
00000000
10000000
00000000
00010000
00100000
01000000
00000000
00100000
00000000
,
00001000
00000000
00010000
00001000
00010000
00000000
00000100
00001000
00000100
00000000
00010000
00001000
00010000
00000000
00000010
00001000
,
00000010
00000000
00001000
00000001
00000100
00000000
00000001
00001000
00000010
00000000
00001000
00000100
00010000
00000000
00001000
00000000
,
00100000
00000000
01000000
00010000
00001000
00000000
00100000
00000000
00110000
00000000
00000000
00000000
00001000
00000000
00010000
00000000
,
00000010
00000000
00000100
00001000
00010000
00000000
00000010
00000000
00001010
00000000
00000000
00000000
00020000
00000000
00000000
00000000
,
00031000
00000000
00100000
00010000
00000000
00100000
01000000
00000000
10000000
01000000
00000000
00100000
01000000
00000000
00100000
00000000
,
00010000
00100000
00001000
00010000
00001000
00000000
00010000
00000010
00001000
00000000
00000010
00010000
00001000
00000000
00100000
00000000
,
00110000
00000000
00000000
00010000
00000000
00000000
01000000
00000000
00100000
00000000
00010000
00000000
00100000
00000000
10000000
00000000
,
01000000
00000000
00000000
00010000
00000000
00000000
00001000
00000000
00010000
00000000
00000100
00000000
00001000
00000000
00000100
00000000
,
00000020
00000000
00000000
00002030
00000000
00000000
00023000
00000000
02030000
00000000
00000000
03020000
00000000
00000000
00032000
00000000
,
00003200
00000000
00000000
00002300
00000000
00000000
00023000
00000000
00031000
00010000
00001000
00010000
00000100
00001000
00000100
00000010
,
00000001
00000100
00000001
00000000
00000000
00000000
00000100
00000010
00000100
00000000
00000000
00000000
00000010
00001000
00000010
00000000
,
00000000
00000000
00010000
00001000
00010000
00000000
00000000
00000000
00001000
00010000
00001000
00100000
00020000
00000000
00000000
00000000
,
00130000
01000000
10000000
00000000
00000000
00000000
01000000
00100000
00010000
00000000
00000000
00000000
00100000
00001000
00010000
00000000
,
00000000
00000000
00001000
00010000
00000100
00000000
00000000
00000000
00001000
00000100
00000010
00000001
00002000
00000000
00000000
00000000
,
00003020
00000000
00000000
00000000
,
00000030
00000000
00000000
00000000
;
