#VERSION:0.83;
#TITLE:Sorrows;
#SUBTITLE:;
#ARTIST:Asako Yoshihiro;
#TITLETRANSLIT:;
#SUBTITLETRANSLIT:;
#ARTISTTRANSLIT:;
#GENRE:EMO;
#CREDIT:;
#MUSIC:Sorrows.ogg;
#BANNER:Sorrows.png;
#BACKGROUND:Sorrows-bg.png;
#CDTITLE:./CDTitles/pnm 16 PARTY.png;
#SAMPLESTART:60.578;
#SAMPLELENGTH:15.000;
#SELECTABLE:YES;
#OFFSET:1.590;
#BPMS:0.000=185.000;
#STOPS:;
#TIMESIGNATURES:0.000=4=4;
#BGCHANGES:0.000=../BGAs/17ho.mp4=1.000=0=0=0=StretchNoLoop====,
99999.000=-nosongbg-=1.000=0=0=0=StretchNoLoop====
;
#FGCHANGES:;

//--------------- dance-single - forcednature ----------------
#NOTEDATA:;
#STEPSTYPE:dance-single;
#DESCRIPTION:forcednature;
#DIFFICULTY:Beginner;
#METER:1;
#RADARVALUES:0,0,0,0,0;
#CREDIT:forcednature;
#NOTES:
0000
0000
0000
0000
,
0000
0000
0000
0000
,
0000
0000
0000
0000
,
0000
0000
0000
0000
,
0000
0000
0000
0000
,
0000
0000
0000
0000
,
0000
0000
0000
0000
,
0000
0000
0000
0000
,
0000
0000
0000
0000
,
0000
0000
0000
0000
,
0001
0000
0000
0000
,
0000
0000
0000
0000
,
1000
0000
0000
0000
,
0000
0000
0000
0000
,
0100
0000
0000
0000
,
0000
0000
0000
0000
,
0020
0000
0000
0000
,
0000
0000
0000
0000
,
0000
0000
0000
0000
,
0000
0000
0030
0000
,
1001
0000
0000
0000
,
0000
0000
0000
0000
,
0001
0000
0000
0000
,
0000
0000
0000
0000
,
0100
0000
0000
0000
,
0000
0000
0000
0000
,
0010
0000
0000
0000
,
1000
0000
0000
0000
,
0010
0000
0000
0000
,
0000
0000
0000
0000
,
0100
0000
0000
0000
,
0000
0000
0000
0000
,
0001
0000
0000
0000
,
0000
0000
0000
0000
,
1000
0000
0000
0000
,
0100
0000
0000
0000
,
1000
0000
0000
0000
,
0000
0000
0000
0000
,
0001
0000
0000
0000
,
0000
0000
0000
0000
,
0100
0000
0000
0000
,
0000
0000
0000
0000
,
0010
0000
0000
0000
,
0000
0000
0000
0000
,
1000
0000
0000
0000
,
0000
0000
0000
0000
,
0001
0000
0000
0001
,
0000
0000
0000
0000
,
1001
0000
0000
0000
,
0000
0000
0000
0000
,
0100
0000
0000
0000
,
0000
0000
0000
0000
,
0001
0000
0000
0000
,
0001
0000
0000
0000
,
0010
0000
0000
0000
,
0000
0000
0000
0000
,
0110
0000
0000
0000
,
0000
0000
0000
0000
,
0100
0000
0000
0000
,
1000
0000
0000
0000
,
1000
0000
0000
0000
,
0000
0000
0000
0000
,
0010
0000
0000
0000
,
0000
0000
0000
0000
,
0100
0000
0000
0100
,
0000
0000
0000
0000
,
0001
0000
0000
0001
,
0000
0000
0000
0000
,
1000
0000
0000
1000
,
0000
0000
0000
0000
,
0100
0000
0000
0100
,
0000
0000
0000
0000
,
0110
0000
0000
0000
,
0000
0000
0000
0000
,
0001
0000
0000
0000
,
0000
0000
0000
0000
,
1000
0000
0000
0000
,
0000
0000
0000
0000
,
0010
0000
0000
0000
,
0000
0000
0000
0000
,
0100
0000
0000
0000
,
0000
0000
0000
0000
,
0001
0000
0000
0000
,
0000
0000
0000
0000
,
1000
0000
0000
0000
,
0000
0000
0000
0000
,
0100
0000
0000
0000
,
0010
0000
0000
0000
;

//--------------- dance-single - forcednature ----------------
#NOTEDATA:;
#STEPSTYPE:dance-single;
#DESCRIPTION:forcednature;
#DIFFICULTY:Easy;
#METER:5;
#RADARVALUES:0,0,0,0,0;
#CREDIT:forcednature;
#NOTES:
0000
0000
0000
0000
,
0000
0000
0000
0000
,
0000
0000
0000
0000
,
0000
0000
0000
0000
,
0000
0000
0000
0000
,
0000
0000
0000
0000
,
0000
0000
0000
0000
,
0000
0000
0000
0000
,
0000
0000
0000
0000
,
0000
0000
0000
0000
,
2000
0000
0000
0000
,
0000
0000
3000
0000
,
0002
0000
0000
0000
,
0000
0000
0003
0000
,
0200
0000
0000
0000
,
0000
0000
0300
0000
,
0020
0000
0000
0000
,
0000
0000
0000
0000
,
0030
0000
0000
0000
,
0000
0000
0000
0000
,
1001
0000
1000
0100
,
0000
0010
0001
0000
,
0100
0000
0010
1000
,
0000
0001
0010
0000
,
0100
0000
1000
0001
,
0000
0100
0001
0000
,
1000
0000
0100
0010
,
0000
0001
0010
0000
,
0110
0000
0100
1000
,
0000
0001
0100
0000
,
0010
0000
1000
0001
,
0000
1000
0100
0000
,
0010
0000
0001
1000
,
0000
0001
0100
0000
,
0010
0000
1000
0001
,
0000
1000
0100
0100
,
0020
0000
0000
0030
,
0002
0000
0000
0003
,
0200
0000
0000
0000
,
0000
0000
0300
0000
,
0020
0000
0000
0030
,
2000
0000
0000
3000
,
0200
0000
0000
0000
,
0000
0000
0300
0000
,
0020
0000
0000
0000
,
0000
0030
0000
0000
,
1000
0000
0001
0001
,
0000
0100
0100
0000
,
1001
0000
0001
0100
,
0000
0001
0010
0000
,
0110
0000
0100
1000
,
0000
0010
0010
0010
,
0100
0000
0001
1000
,
0000
0100
0100
0000
,
1000
0001
0100
0000
,
0001
1000
0100
0000
,
0110
0000
0010
0001
,
0000
0001
1000
0000
,
0010
0000
0100
0001
,
0000
1000
0100
0100
,
0010
0000
0001
1000
,
0000
0010
0010
0000
,
0100
0000
0001
0000
,
1000
0100
0010
0010
,
0001
0000
0000
0001
,
0000
0001
0000
0000
0000
0000
0000
0000
,
1000
0000
0000
1000
,
0000
1000
0000
0000
0000
0000
0000
0000
,
0100
0000
0000
0100
,
0000
0100
0000
0000
0000
0000
0000
0000
,
0010
0000
0000
0010
,
0000
0010
0000
0000
0000
0000
0000
0000
,
1001
0000
1000
0000
,
0010
0100
0001
0000
,
0010
0000
0100
0000
,
1000
0001
0100
0000
,
0010
0000
1000
0000
,
0001
0010
0100
0000
,
1000
0000
0001
0000
,
0100
0010
1000
0000
,
0100
0000
0010
0000
,
0001
1000
0010
0100
,
0001
0000
1000
0000
,
0100
1000
0010
0100
,
0001
0000
0010
0000
,
0100
1000
0001
0100
,
0010
0000
1000
0000
,
0100
0010
0001
0100
;

//--------------- dance-single - forcednature ----------------
#NOTEDATA:;
#STEPSTYPE:dance-single;
#DESCRIPTION:forcednature;
#DIFFICULTY:Medium;
#METER:9;
#RADARVALUES:0,0,0,0,0;
#CREDIT:forcednature;
#NOTES:
0000
0000
0000
0000
,
0000
0000
0000
0000
,
0000
0000
0000
0000
,
0000
0000
0000
0000
,
0000
0000
0000
0000
,
0000
0000
0000
0000
,
0000
0000
0000
0000
,
0000
0000
0000
0000
,
0000
0000
0000
0000
,
0000
0000
0000
0000
,
2000
0000
0000
0200
,
0000
0000
3300
0000
,
0002
0000
0000
0020
,
0000
0000
0033
0000
,
2000
0000
0000
0020
,
0000
0000
3030
0000
,
0002
0000
0000
0200
,
0000
0000
0000
0000
,
0003
0000
0000
0000
,
0000
0000
0300
0000
,
1010
0000
0000
0100
0000
0000
0001
0000
,
0000
0010
0000
0000
0110
0000
0000
0000
,
0011
0000
0000
1000
0000
0000
0001
0000
,
0000
0100
0000
0000
1001
0000
0000
0000
,
0110
0000
0000
1000
0000
0000
0001
0000
,
0000
0010
0000
0000
1100
0000
0000
0000
,
0101
0000
0000
1000
0000
0000
0010
0000
,
0000
0100
0000
0000
0011
0000
0000
0000
,
0101
0000
0000
1000
0010
0000
1000
0000
,
0000
0010
1000
0000
0101
0000
0000
0000
,
1100
0000
0000
0001
0010
0000
0001
0000
,
0000
0010
0001
0000
1100
0000
0000
0000
,
0110
0000
0000
1000
0001
0000
0100
0000
,
0000
0001
1000
0000
0110
0000
0000
0000
,
1001
0000
0000
0001
0010
0000
0100
0000
,
0000
1000
0010
0000
0110
0000
0000
0000
,
1002
0000
0000
0000
,
0203
0000
0000
0000
,
0320
0000
0000
0000
,
0000
0000
0030
0000
,
2000
0000
0000
0000
,
3200
0000
0000
0000
,
0320
0000
0000
0000
,
0000
0000
0030
0000
,
0002
0000
0000
0200
,
0000
0303
0000
0000
,
1100
1000
0001
0101
,
0000
1000
0001
0000
0010
0000
0010
0000
,
0110
0000
0100
0000
1000
0001
0000
0101
,
0000
0001
1000
0000
0010
0000
1000
0000
,
0110
0000
0001
0000
0010
0000
0100
1000
,
0000
0001
0000
0100
0000
0010
0000
0000
,
0110
0000
0010
0000
1000
0001
0000
0022
,
0000
0000
0000
0033
,
0100
0000
1000
0000
0001
0200
0000
0320
,
0000
2030
0000
3002
0000
0013
0000
0000
,
0110
0000
0100
0000
1000
0000
0000
0101
,
0000
0000
1000
0000
0010
0100
0010
0000
,
1000
0000
0001
0000
1000
0000
0000
0100
,
0000
0010
0000
0001
0000
0100
0000
2020
,
0000
0000
0000
3030
0000
0100
0000
0022
,
0000
0000
0000
0033
,
1000
0000
0001
0100
0001
0100
0000
0010
,
0000
1000
0000
0001
0000
0010
0000
0000
,
0100
1000
0000
0000
0000
0000
0001
0010
,
0000
0001
0000
0000
0000
0000
0000
0000
,
0100
0001
0000
0000
0000
0000
1000
0010
,
0000
1000
0000
0000
0000
0000
0000
0000
,
0100
0100
0000
0000
0000
0000
0010
0010
,
0000
0010
0000
0000
0000
0000
0000
0000
,
0001
0001
0000
0000
0000
0000
1000
1000
,
0000
1000
0000
0000
0010
0000
0100
0000
,
0001
0000
1000
0100
0000
1000
0000
0100
,
0000
0010
0001
1000
,
0010
0000
0100
0001
0000
1000
0000
0001
,
0000
0010
0100
1000
,
0010
0000
0100
0001
0000
1000
0000
0100
,
0000
0010
0001
1000
,
0010
0000
0100
0001
0000
1000
0000
0100
,
0000
0010
0002
2003
,
3010
0000
0100
0001
0000
1000
0000
0100
,
0000
1000
0010
0000
0100
0000
0001
0000
,
1000
0000
0100
0010
0000
0001
0000
0100
,
0000
0010
1000
0000
0001
0000
0010
0000
,
0100
0000
0010
0001
0000
1000
0000
0010
,
0000
0100
0001
0000
1000
0000
0100
0000
,
1000
0000
0010
0100
0000
0001
0000
1000
,
0000
0001
0010
0000
0100
0000
1000
0000
;

//--------------- dance-single - forcednature ----------------
#NOTEDATA:;
#STEPSTYPE:dance-single;
#DESCRIPTION:forcednature;
#DIFFICULTY:Hard;
#METER:12;
#RADARVALUES:0,0,0,0,0;
#CREDIT:forcednature;
#NOTES:
0000
0000
0000
0000
,
0000
0000
0000
0000
,
0000
0000
0000
0000
,
0000
0000
0000
0000
,
0000
0000
0000
0000
,
0000
0000
0000
0000
,
0000
0000
0000
0000
,
0000
0000
0000
0000
,
0000
0000
0000
0000
,
0000
0000
0000
0000
,
0002
0000
0000
0203
,
0000
0000
0000
0000
,
0320
0000
0000
2030
,
0000
0000
0000
0000
,
3002
0000
0000
0023
,
0000
0000
0000
0000
,
0230
0000
0000
2000
,
0000
0000
0000
0000
,
3000
0000
0000
0000
,
0000
0000
0300
0000
,
0110
0000
1000
0001
0100
0000
0010
1000
,
0000
1000
0001
0000
0011
0000
0100
0000
,
1100
0000
0001
1000
0010
0000
0100
0001
,
0000
0001
1000
0000
1010
0000
0100
0000
,
0101
0000
0001
1000
0100
0000
0010
0001
,
0000
0001
0100
0000
0010
1000
0001
0000
,
0011
0000
0100
0000
1000
0000
0001
0100
,
0000
1000
0100
0000
0020
0000
0130
0000
,
1001
0000
0001
0010
0100
0000
0010
0001
,
0000
0001
0100
0000
1010
0000
0100
0000
,
0011
0000
1000
0001
0100
0000
0010
1000
,
0000
1000
0100
0000
1100
0000
0010
0000
,
0101
0002
0100
1000
,
0010
0000
1003
0001
0010
0000
0100
0000
,
0010
0001
0000
0100
0010
0000
1000
0100
,
0000
1000
0010
0000
0100
0001
0100
0000
,
2001
0000
0000
0000
,
3200
0000
0000
0000
,
0320
0000
0000
0001
0000
0001
0000
0002
,
0000
0000
0033
0000
,
0002
0000
0000
0000
,
0203
0000
0000
0000
,
0320
0000
0000
2030
,
0000
0000
3200
0300
,
0120
0000
0000
0002
,
0000
0033
0000
0000
,
0101
0010
0100
1010
,
0000
0001
1000
0000
0100
0000
0100
0000
,
0110
0000
0010
0001
1000
0001
0100
0010
,
0000
1000
0001
0000
0010
0100
1000
0000
,
0011
0000
0001
1000
0010
0100
0001
0010
,
0000
0010
0100
1000
0010
0100
0010
0100
,
0001
0000
0010
0100
1000
0001
0000
0110
,
0000
1000
0010
0000
0100
0001
0010
0000
,
0100
1000
0010
1000
0001
0200
0000
0320
,
0000
2030
0000
3001
1000
0001
0010
0000
,
0110
0000
0100
1000
0001
0100
0010
1000
,
0000
0001
0010
0000
0100
1000
0010
0000
,
0110
0000
0100
0001
0010
0100
1000
0010
,
0000
0100
0001
1000
0100
0010
0100
0000
,
0110
0000
0010
0001
1000
0010
0000
0110
,
0000
0100
0001
1000
0100
1000
0010
0000
,
0100
0000
0001
0010
0100
2000
0000
3020
,
0000
0130
0001
1000
0001
0000
0010
0000
,
0100
1100
0000
0000
0010
0000
0001
0101
,
0000
1010
0000
0000
1000
0000
0001
0000
,
0010
0110
0000
0000
0001
0000
1000
1010
,
0000
0101
0000
0000
0001
0000
0010
0000
,
0100
0110
0000
0000
1000
0000
0001
0101
,
0000
1010
0000
0000
0001
0000
0010
0000
,
0100
1100
0000
0000
1000
0000
0010
0110
,
0000
0101
0000
0000
0002
0000
2003
0000
,
3010
0100
0001
0100
0000
0010
1000
0010
,
0000
1000
0001
0010
0100
1000
0100
1000
,
0001
0100
0001
0010
0000
0100
1000
0001
,
0000
0100
0010
1000
0001
0010
0001
0010
,
0001
0100
0010
1000
0000
0001
0010
0100
,
0000
1000
0001
1000
0100
0010
0100
1000
,
0001
0010
0001
1000
0000
0010
0100
0001
,
0000
0010
0100
1000
0020
0000
0230
0000
,
0301
0100
0010
1000
0100
0010
0001
0100
,
0010
1000
0100
1000
0001
0010
1000
0010
,
0001
1000
0100
0010
0001
1000
0010
0100
,
0001
0010
0001
1000
0010
0100
1000
0100
,
0001
1000
0001
0010
0100
1000
0001
0100
,
0010
1000
0100
0010
1000
0010
0001
1000
,
0010
0100
0001
1000
0100
1000
0010
0100
,
0001
0010
0100
0001
0100
1000
0010
0100
;

//--------------- dance-double - forcednature ----------------
#NOTEDATA:;
#STEPSTYPE:dance-double;
#DESCRIPTION:forcednature;
#DIFFICULTY:Easy;
#METER:5;
#RADARVALUES:0,0,0,0,0;
#CREDIT:forcednature;
#NOTES:
00000000
00000000
00000000
00000000
,
00000000
00000000
00000000
00000000
,
00000000
00000000
00000000
00000000
,
00000000
00000000
00000000
00000000
,
00000000
00000000
00000000
00000000
,
00000000
00000000
00000000
00000000
,
00000000
00000000
00000000
00000000
,
00000000
00000000
00000000
00000000
,
00000000
00000000
00000000
00000000
,
00000000
00000000
00000000
00000000
,
00002000
00000000
00000000
00000000
,
00000000
00000000
00003000
00000000
,
02000000
00000000
00000000
00000000
,
00000000
00000000
03000000
00000000
,
00020000
00000000
00000000
00000000
,
00000000
00000000
00030000
00000000
,
00200000
00000000
00000000
00000000
,
00000000
00000000
00000000
00000000
,
00300000
00000000
00000000
00000000
,
00000000
00000000
00000000
00000000
,
10010000
00000000
10000000
01000000
,
00000000
00100000
00010000
00000000
,
01000000
00000000
00001000
00010000
,
00000000
00000100
00001000
00000000
,
00000010
00000000
00000100
00000001
,
00000000
00000010
00000100
00000000
,
00010000
00000000
00001000
01000000
,
00000000
00010000
00100000
00000000
,
01100000
00000000
01000000
10000000
,
00000000
00010000
01000000
00000000
,
00001000
00000000
00010000
00000100
,
00000000
00001000
00000010
00000000
,
00000100
00000000
00000001
00000010
,
00000000
00000100
00000010
00000000
,
00000100
00000000
00010000
00001000
,
00000000
01000000
00010000
00010000
,
20000000
00000000
00000000
30000000
,
02000000
00000000
00000000
03000000
,
00200000
00000000
00000000
00000000
,
00000000
00000000
00300000
00000000
,
00002000
00000000
00000000
00003000
,
00020000
00000000
00000000
00030000
,
00000020
00000000
00000000
00000000
,
00000000
00000000
00000030
00000000
,
00000200
00000000
00000000
00000000
,
00000000
00000300
00000000
00000000
,
00000001
00000000
00000010
00000010
,
00000000
00000100
00000100
00000000
,
00000110
00000000
00000010
00000001
,
00000000
00001000
00000010
00000000
,
00011000
00000000
01000000
00010000
,
00000000
00100000
00100000
00100000
,
01000000
00000000
10000000
00010000
,
00000000
01000000
01000000
00000000
,
00001000
00010000
00000100
00000000
,
00001000
00000010
00000100
00000000
,
00000110
00000000
00000010
00001000
,
00000000
00000001
00000010
00000000
,
00000100
00000000
00010000
00001000
,
00000000
01000000
00010000
00010000
,
00100000
00000000
01000000
10000000
,
00000000
00010000
00010000
00000000
,
01000000
00000000
00001000
00000000
,
00010000
00000100
00001000
00001000
,
00000010
00000000
00000000
00000100
,
00000000
00000100
00000000
00000000
00000000
00000000
00000000
00000000
,
00000010
00000000
00000000
00010000
,
00000000
00010000
00000000
00000000
00000000
00000000
00000000
00000000
,
00001000
00000000
00000000
00100000
,
00000000
00100000
00000000
00000000
00000000
00000000
00000000
00000000
,
01000000
00000000
00000000
00100000
,
00000000
00100000
00000000
00000000
00000000
00000000
00000000
00000000
,
10010000
00000000
10000000
00000000
,
00010000
01000000
00001000
00000000
,
00010000
00000000
00000100
00000000
,
00001000
00000010
00000100
00000000
,
00000001
00000000
00000010
00000000
,
00000100
00010000
00001000
00000000
,
01000000
00000000
00010000
00000000
,
00100000
01000000
10000000
00000000
,
00010000
00000000
01000000
00000000
,
00001000
00010000
00000100
00010000
,
00001000
00000000
00000010
00000000
,
00000100
00001000
00000001
00001000
,
00000010
00000000
00010000
00000000
,
00001000
00100000
00010000
00100000
,
01000000
00000000
10000000
00000000
,
00010000
01000000
00001000
00010000
;

//--------------- dance-double - forcednature ----------------
#NOTEDATA:;
#STEPSTYPE:dance-double;
#DESCRIPTION:forcednature;
#DIFFICULTY:Medium;
#METER:9;
#RADARVALUES:0,0,0,0,0;
#CREDIT:forcednature;
#NOTES:
00000000
00000000
00000000
00000000
,
00000000
00000000
00000000
00000000
,
00000000
00000000
00000000
00000000
,
00000000
00000000
00000000
00000000
,
00000000
00000000
00000000
00000000
,
00000000
00000000
00000000
00000000
,
00000000
00000000
00000000
00000000
,
00000000
00000000
00000000
00000000
,
00000000
00000000
00000000
00000000
,
00000000
00000000
00000000
00000000
,
00002000
00000000
00000000
02000000
,
00000000
00000000
03003000
00000000
,
00020000
00000000
00000000
00000200
,
00000000
00000000
00030300
00000000
,
00002000
00000000
00000000
00200000
,
00000000
00000000
00303000
00000000
,
00020000
00000000
00000000
00000020
,
00000000
00000000
00000000
00000000
,
00030000
00000000
00000000
00000000
,
00000000
00000000
00000030
00000000
,
00001001
00000000
00000000
00001000
00000000
00000000
00000100
00000000
,
00000000
00010000
00000000
00000000
00011000
00000000
00000000
00000000
,
01001000
00000000
00000000
01000000
00000000
00000000
00010000
00000000
,
00000000
00100000
00000000
00000000
01100000
00000000
00000000
00000000
,
11000000
00000000
00000000
10000000
00000000
00000000
00010000
00000000
,
00000000
01000000
00000000
00000000
01001000
00000000
00000000
00000000
,
00011000
00000000
00000000
00010000
00000000
00000000
00000100
00000000
,
00000000
00001000
00000000
00000000
00001010
00000000
00000000
00000000
,
00000110
00000000
00000000
00000100
00000001
00000000
00000100
00000000
,
00000000
00000001
00000100
00000000
00001010
00000000
00000000
00000000
,
00011000
00000000
00000000
00100000
00010000
00000000
00100000
00000000
,
00000000
00010000
00100000
00000000
01100000
00000000
00000000
00000000
,
10010000
00000000
00000000
10000000
00010000
00000000
01000000
00000000
,
00000000
00010000
10000000
00000000
01100000
00000000
00000000
00000000
,
00101000
00000000
00000000
00001000
00010000
00000000
00000010
00000000
,
00000000
00001000
00000100
00000000
00000110
00000000
00000000
00000000
,
00001002
00000000
00000000
00000000
,
00000203
00000000
00000000
00000000
,
00002300
00000000
00000000
00000000
,
00000000
00000000
00003000
00000000
,
00020000
00000000
00000000
00000000
,
02030000
00000000
00000000
00000000
,
23000000
00000000
00000000
00000000
,
00000000
00000000
30000000
00000000
,
00020000
00000000
00000000
02000000
,
00000000
03030000
00000000
00000000
,
00011000
00010000
00000100
00001100
,
00000000
00001000
00000001
00000000
00000100
00000000
00000100
00000000
,
00000110
00000000
00000010
00000000
00010000
00001000
00000000
00011000
,
00000000
00001000
00010000
00000000
00100000
00000000
01000000
00000000
,
01100000
00000000
00100000
00000000
10000000
00000000
00010000
00100000
,
00000000
01000000
00000000
00100000
00000000
00001000
00000000
00000000
,
00011000
00000000
00010000
00000000
00000010
00001000
00000000
00002200
,
00000000
00000000
00000000
00003300
,
00000100
00000000
00000010
00000000
00000001
00000200
00000000
00000320
,
00000000
00020030
00000000
00032000
00000000
00103000
00000000
00000000
,
01100000
00000000
01000000
00000000
10000000
00000000
00000000
00110000
,
00000000
00000000
00001000
00000000
00010000
00000010
00010000
00000000
,
00001000
00000000
00000010
00000000
00000100
00000000
00000000
00001000
,
00000000
00000001
00000000
00000100
00000000
00000010
00000000
00002020
,
00000000
00000000
00000000
00003030
00000000
00000100
00000000
00022000
,
00000000
00000000
00000000
00033000
,
01000000
00000000
00010000
00100000
00010000
00100000
00000000
01000000
,
00000000
10000000
00000000
00010000
00000000
01000000
00000000
00000000
,
00001000
00010000
00000000
00000000
00000000
00000000
00000100
00001000
,
00000000
00000100
00000000
00000000
00000000
00000000
00000000
00000000
,
00010000
00001000
00000000
00000000
00000000
00000000
01000000
00010000
,
00000000
01000000
00000000
00000000
00000000
00000000
00000000
00000000
,
00001000
00001000
00000000
00000000
00000000
00000000
00010000
00010000
,
00000000
00000010
00000000
00000000
00000000
00000000
00000000
00000000
,
00010000
00010000
00000000
00000000
00000000
00000000
00001000
00001000
,
00000000
00100000
00000000
00000000
00010000
00000000
10000000
00000000
,
00100000
00000000
01000000
00010000
00000000
01000000
00000000
00010000
,
00000000
00100000
00001000
00010000
,
00000010
00000000
00001000
00000100
00000000
00001000
00000000
00000100
,
00000000
00000010
00000001
00000100
,
00000010
00000000
00010000
00001000
00000000
00010000
00000000
00001000
,
00000000
01000000
00010000
00100000
,
01000000
00000000
10000000
01000000
00000000
10000000
00000000
01000000
,
00000000
00100000
00002000
00023000
,
00030010
00000000
00001000
00000100
00000000
00000010
00000000
00000001
,
00000000
00000100
00000010
00000000
00010000
00000000
00001000
00000000
,
00100000
00000000
00010000
01000000
00000000
00100000
00000000
10000000
,
00000000
00010000
00100000
00000000
01000000
00000000
00100000
00000000
,
00001000
00000000
00010000
00000010
00000000
00001000
00000000
00000100
,
00000000
00000010
00000001
00000000
00000100
00000000
00000010
00000000
,
00000100
00000000
00000001
00000010
00000000
00000100
00000000
00010000
,
00000000
00001000
01000000
00000000
00100000
00000000
10000000
00000000
;

//--------------- dance-double - forcednature ----------------
#NOTEDATA:;
#STEPSTYPE:dance-double;
#DESCRIPTION:forcednature;
#DIFFICULTY:Hard;
#METER:13;
#RADARVALUES:0,0,0,0,0;
#CREDIT:forcednature;
#NOTES:
00000000
00000000
00000000
00000000
,
00000000
00000000
00000000
00000000
,
00000000
00000000
00000000
00000000
,
00000000
00000000
00000000
00000000
,
00000000
00000000
00000000
00000000
,
00000000
00000000
00000000
00000000
,
00000000
00000000
00000000
00000000
,
00000000
00000000
00000000
00000000
,
00000000
00000000
00000000
00000000
,
00000000
00000000
00000000
00000000
,
00002000
00000000
00000000
02003000
,
00000000
00000000
00000000
00000000
,
03020000
00000000
00000000
00230000
,
00000000
00000000
00000000
00000000
,
02300000
00000000
00000000
23000000
,
00000000
00000000
00000000
00000000
,
30020000
00000000
00000000
02000000
,
00000000
00000000
00000000
00000000
,
03000000
00000000
00000000
00000000
,
00000000
00000000
00030000
00000000
,
00101000
00000000
00001000
00010000
00000010
00000000
00001000
00000100
,
00000000
00000100
00000010
00000000
00000011
00000000
00000100
00000000
,
00001100
00000000
00010000
00001000
00100000
00000000
00010000
01000000
,
00000000
01000000
00100000
00000000
10100000
00000000
01000000
00000000
,
01010000
00000000
00010000
00100000
00001000
00000000
00010000
00000010
,
00000000
00000010
00001000
00000000
00000100
00000010
00000001
00000000
,
00001001
00000000
00001000
00000000
00000010
00000000
00000100
00001000
,
00000000
00010000
00001000
00000000
00200000
00000000
01300000
00000000
,
11000000
00000000
10000000
00010000
01000000
00000000
00100000
00010000
,
00000000
00010000
00001000
00000000
00010100
00000000
00001000
00000000
,
00000110
00000000
00000001
00000010
00000100
00000000
00000010
00001000
,
00000000
00001000
00010000
00000000
00010100
00000000
00001000
00000000
,
00010010
00002000
01000000
00010000
,
00100000
00000000
01003000
00001000
00010000
00000000
00100000
00000000
,
10000000
01000000
00000000
00100000
00010000
00000000
00001000
00000100
,
00000000
00000010
00000001
00000000
00000100
00000010
00000100
00000000
,
00002001
00000000
00000000
00000000
,
00003200
00000000
00000000
00000000
,
00020300
00000000
00000000
00001000
00000000
00001000
00000000
00002000
,
00000000
00000000
00033000
00000000
,
02000000
00000000
00000000
00000000
,
03020000
00000000
00000000
00000000
,
00230000
00000000
00000000
02300000
,
00000000
00000000
23000000
30000000
,
10020000
00000000
00000000
00200000
,
00000000
00330000
00000000
00000000
,
00011000
00010000
00000100
00000110
,
00000000
00000010
00000001
00000000
00000100
00000000
00000100
00000000
,
00000110
00000000
00000010
00001000
00000100
00000010
00000100
00001000
,
00000000
00000010
00010000
00000000
00001000
00100000
01000000
00000000
,
01100000
00000000
00100000
00010000
10000000
00100000
01000000
00010000
,
00000000
00010000
00100000
01000000
00010000
00001000
00010000
00001000
,
00000010
00000000
00000100
00001000
00000010
00000100
00000000
00000110
,
00000000
00000010
00001000
00000000
00000001
00000010
00000100
00000000
,
00000001
00000100
00001000
00000100
00010000
00002000
00000000
02003000
,
00000000
03020000
00000000
00130000
01000000
10000000
01000000
00000000
,
01100000
00000000
00100000
00010000
10000000
00010000
01000000
00100000
,
00000000
00010000
00001000
00000000
00000010
00000100
00001000
00000000
,
00001010
00000000
00000010
00000100
00001000
00000100
00000001
00000010
,
00000000
00000100
00010000
00001000
01000000
00010000
00100000
00000000
,
01100000
00000000
01000000
10000000
01000000
00010000
00000000
00011000
,
00000000
00001000
00000100
00000001
00000100
00000010
00001000
00000000
,
00000100
00000000
00000010
00000001
00000100
00002000
00000000
00023000
,
00000000
00130000
01000000
00100000
10000000
00000000
00010000
00000000
,
00100000
01100000
00000000
00000000
01000000
00000000
10000000
10100000
,
00000000
01010000
00000000
00000000
00001000
00000000
00010000
00000000
,
00000100
00001100
00000000
00000000
00000001
00000000
00000100
00000110
,
00000000
00001001
00000000
00000000
00001000
00000000
00000100
00000000
,
00010000
00011000
00000000
00000000
01000000
00000000
00010000
00110000
,
00000000
11000000
00000000
00000000
10000000
00000000
00010000
00000000
,
01000000
01001000
00000000
00000000
00001000
00000000
00010000
00010100
,
00000000
00001010
00000000
00000000
00000002
00000000
00000023
00000000
,
00000130
00000001
00000100
00001000
00000000
00000010
00010000
00000010
,
00000000
00000100
00001000
00010000
00100000
01000000
00100000
01000000
,
00010000
00100000
01000000
10000000
00000000
00010000
01000000
00001000
,
00000000
00100000
00010000
00001000
00000100
00010000
00000100
00010000
,
00001000
00000100
00000001
00000010
00000000
00000100
00000010
00000001
,
00000000
00000100
00001000
00010000
00100000
01000000
00100000
00010000
,
00001000
00100000
00010000
00100000
00000000
01000000
10000000
00010000
,
00000000
01000000
00100000
00010000
00002000
00000000
00003020
00000000
,
00000130
00010000
00001000
00000100
00000010
00001000
00010000
01000000
,
00010000
00100000
01000000
10000000
01000000
00010000
00001000
00010000
,
01000000
00100000
00001000
00010000
00000010
00001000
00000100
00000010
,
00000001
00000100
00000010
00000001
00000010
00001000
00010000
01000000
,
00010000
00100000
01000000
00010000
00001000
00010000
00000010
00001000
,
00000100
00000010
00001000
00000010
00000001
00000100
00001000
00010000
,
00100000
01000000
00010000
10000000
01000000
00010000
00001000
00100000
,
00010000
01000000
10000000
01000000
00100000
00010000
00001000
00000010
;
