#VERSION:0.83;
#TITLE:それは花火のような恋;
#SUBTITLE:;
#ARTIST:夏色バーニングラブ☆Prim;
#TITLETRANSLIT:Sore wa hanabi no youna koi;
#SUBTITLETRANSLIT:;
#ARTISTTRANSLIT:;
#GENRE:Hi-歌謡コア;
#CREDIT:;
#MUSIC:Sore wa hanabi no youna koi.ogg;
#BANNER:Sore wa hanabi no youna koi.png;
#BACKGROUND:Sore wa hanabi no youna koi-bg.png;
#CDTITLE:./CDTitles/BeatStream.png;
#SAMPLESTART:56.692;
#SAMPLELENGTH:15.000;
#SELECTABLE:YES;
#OFFSET:-0.002;
#BPMS:0.000=182.000;
#STOPS:;
#TIMESIGNATURES:0.000=4=4;
#DISPLAYBPM:182.000;
#LASTBEATHINT:0.836894;
#BGCHANGES:0.000=Sore wa hanabi no youna koi.mp4=1.000=0=0=0=StretchNoLoop====,
99999.000=-nosongbg-=1.000=0=0=0=StretchNoLoop====
;
#FGCHANGES:;

//--------------- dance-single - forcednature ----------------
#NOTEDATA:;
#STEPSTYPE:dance-single;
#DESCRIPTION:forcednature;
#CREDIT:forcednature;
#DIFFICULTY:Beginner;
#METER:4;
#RADARVALUES:0.135398,0.259944,0.151327,0,0,119,100,19,0,0,0,0.135398,0.259944,0.151327,0,0,119,100,19,0,0,0;
#NOTES:
0000
0000
0000
0000
,
0000
0000
0000
0000
,
0000
0000
0000
0000
,
0000
0000
0000
0000
,
0000
0000
0000
0000
,
1000
0000
0000
0000
,
0001
0000
0000
0000
,
0100
0000
0000
0000
,
0010
0000
0010
0000
,
1000
0000
0001
0000
,
1000
0001
1000
0000
,
0110
0000
0000
0000
,
0001
0000
0000
0000
,
0010
0000
0000
0000
,
0000
0000
0000
0000
,
0100
0000
0000
0000
,
1000
0000
0000
0000
,
0010
0000
0010
0000
,
0010
0000
0000
0000
,
1001
0000
0000
0000
,
0001
0000
0000
0000
,
0010
0000
0000
0000
,
0100
0000
0100
0000
,
1000
0000
0000
0000
,
0001
0000
0000
0000
,
0100
0000
0000
0000
,
0010
0010
0010
0000
,
1001
0000
0110
0000
,
0001
0000
1000
0000
,
1001
0000
0110
0000
,
1000
0000
0001
0000
,
0110
0000
0000
0000
,
0001
0000
0000
0000
,
1000
0000
0000
0000
,
0100
0100
0100
0000
,
1001
0000
0000
0000
,
0010
0000
0000
0000
,
0100
0000
0000
0000
,
1000
0000
0001
0000
,
0110
0000
0000
0000
,
1001
0000
0000
0000
,
0001
0000
0100
0000
,
0010
0010
0010
0000
,
1001
0000
1000
0000
,
0100
0000
1000
0000
,
0001
0000
0100
0000
,
0010
0000
0000
0000
,
0110
0000
0001
0000
,
1000
0000
0001
0000
,
0010
0000
0100
0000
,
0000
1000
1000
1000
,
1000
0000
0001
0000
,
0100
0000
0001
0000
,
0010
0000
0100
0000
,
0010
0000
0000
0000
,
1001
0000
0001
0001
,
0001
0000
1000
1000
,
1000
0000
0010
0000
,
0100
0100
0100
0000
,
0110
0000
0000
0000
,
0001
0000
0000
0000
,
0010
0000
0100
0000
,
0010
0000
0000
0000
,
1001
0000
0000
0000
,
0110
0000
0000
0000
,
1000
0000
1000
0000
,
0001
0001
0001
0000
,
0220
0000
0000
0000
,
0000
0000
0330
0000
,
2002
0000
3003
0000
,
0100
0000
0010
0000
,
1000
0000
1000
0000
,
0001
0000
0001
0000
,
0010
0010
0100
0100
,
0010
0000
0000
0000
,
1001
0000
1000
0000
,
0001
0000
0100
0000
,
0010
0000
1000
0000
,
0100
0000
0000
0000
,
0110
0000
0010
0000
,
0001
0000
0010
0000
,
0100
0000
1000
0000
,
0000
0010
0010
0010
,
0010
0000
0100
0000
,
0001
0000
1000
0000
,
0100
0000
1000
0000
,
0010
0000
0000
0000
,
0110
0000
0001
0000
,
0001
0000
1000
0000
,
1000
0000
0100
0000
,
0010
0010
0010
0000
,
0000
1001
0000
0100
,
0000
0010
0010
0010
,
0000
2002
0000
3003
;

//--------------- dance-single - forcednature ----------------
#NOTEDATA:;
#STEPSTYPE:dance-single;
#DESCRIPTION:forcednature;
#CREDIT:forcednature;
#DIFFICULTY:Easy;
#METER:7;
#RADARVALUES:0.23211,0.371348,0.167256,0.079646,0,204,183,21,10,0,0,0.23211,0.371348,0.167256,0.079646,0,204,183,21,10,0,0;
#NOTES:
0000
0000
0000
0000
,
0000
0000
0000
0000
,
0000
0000
0000
0000
,
0000
0000
0000
0000
,
0000
0000
0000
0000
,
1001
0000
1000
0100
,
1000
0000
0001
0100
,
0001
0000
0010
0100
,
0000
1000
0000
0001
0000
1000
0000
0000
,
0000
0010
0000
0000
0010
0000
0000
0100
,
0000
0001
1000
0000
,
0110
0000
0001
0010
,
0100
0000
1000
0001
,
0100
0010
1000
0000
,
0200
0000
0320
0000
,
0031
0100
0001
0010
,
0100
0000
1000
0001
,
1000
0010
0200
0000
,
0001
0001
0301
0000
,
1001
0000
1000
0100
,
1000
0000
0010
0100
,
0001
0100
0010
0000
,
2000
0000
3002
0000
,
0013
0000
0100
1000
,
0100
0000
0010
0001
,
1000
0010
1000
0000
,
0001
0100
0001
0000
,
1001
0000
0000
0000
0110
0000
0000
1000
,
0000
0001
0000
1000
0001
0000
0000
0000
,
1001
0000
0000
0000
0110
0000
0000
0001
,
0000
1000
0000
0001
1000
0000
0000
0000
,
0110
0000
0001
0000
,
1000
0000
0100
0000
,
1000
0000
0020
0000
,
0100
0100
0130
0000
,
1001
0000
0001
0000
,
0010
0100
0010
0000
,
0001
0000
1000
0000
,
0010
0100
0010
0000
,
1001
0000
0100
0000
,
1001
0000
0010
0000
,
1000
0001
1000
0001
,
0010
0100
0110
0000
,
1001
0001
0100
0001
,
1000
0010
1000
0001
,
1000
0100
0020
0000
,
0001
0001
0031
0000
,
1001
0000
0001
0100
,
0010
0000
1000
0100
,
0010
0001
1000
0001
,
0000
0100
0010
0010
,
0110
0100
0001
1000
,
0100
1000
0010
0100
,
0001
0010
0100
1000
,
0010
0010
0010
0000
,
0110
0000
1000
0001
,
1000
0000
0001
1000
,
0001
0001
0100
0100
,
0010
1000
0010
1000
,
1001
0000
0001
0010
,
0100
0000
1000
0000
,
0001
0100
0010
1000
,
0002
0000
0003
0000
,
1001
0000
0100
0100
,
0100
0000
0010
0010
,
0010
0010
1000
1000
,
0001
0010
0100
0100
,
2002
0000
0000
0000
,
0000
0000
0000
0000
,
0000
0000
0000
0000
,
3003
0000
0100
0000
,
1001
1000
0001
0100
,
0001
1000
0010
1000
,
0100
0100
0010
0010
,
2002
3003
0000
0000
,
0110
0000
0001
0100
,
0010
1000
0001
1000
,
0100
0010
0002
0000
,
0100
0100
0103
0000
,
1001
0000
1000
0100
,
1000
0000
0001
0100
,
0001
0010
0100
1000
,
0000
0010
0100
0100
,
0110
0010
1000
0001
,
1000
0100
0010
0001
,
0100
0010
0100
0001
,
0010
0000
0100
1000
,
1001
0000
0010
0100
,
1001
0000
0100
0010
,
1001
1000
0001
0001
,
0100
0010
0100
0010
,
0000
1001
0000
0000
0110
0000
0000
1000
,
0000
0000
0001
0000
0010
0000
0000
0100
,
0000
2002
0000
3003
;

//--------------- dance-single - forcednature ----------------
#NOTEDATA:;
#STEPSTYPE:dance-single;
#DESCRIPTION:forcednature;
#CREDIT:forcednature;
#DIFFICULTY:Medium;
#METER:12;
#RADARVALUES:0.387989,0.410126,0.230973,0.119469,0.05177,341,312,29,15,0,0,0.387989,0.410126,0.230973,0.119469,0.05177,341,312,29,15,0,0;
#NOTES:
0000
0000
0000
0000
,
0000
0000
0000
0000
,
0000
0000
0000
0000
,
0000
0000
0000
0000
,
0000
0000
0000
0000
,
1001
0000
1000
0100
0010
0001
0100
0001
,
0010
0000
0001
0100
0010
1000
0100
1000
,
0010
0000
1000
0100
0010
0001
0100
0001
,
0000
0110
0000
1001
0000
0001
0100
0010
,
0000
1000
0100
0001
0100
0100
1000
0001
,
0000
0000
0100
0000
0020
0000
0000
0000
1030
0000
0000
1000
0000
0000
0001
0000
,
0110
0000
0001
0000
1000
0000
0100
0010
,
0001
0000
0100
0000
0010
0000
1000
0001
,
0010
0000
0100
0000
1000
0000
0001
0100
,
0020
0000
1030
0002
0000
1003
0002
0000
,
0013
0000
0100
0000
1000
0001
0100
0000
,
0010
0000
1000
0000
0100
0010
0001
0010
,
0100
1000
0001
1000
0020
0000
0100
0000
,
0100
1000
2030
0000
,
3001
0000
1000
0001
0010
0000
0100
0000
,
1000
0000
0001
0100
0010
0000
1000
0100
,
0010
0000
0001
1000
0001
0000
0100
0000
,
0020
0000
0000
0230
0000
0000
0301
0100
,
0001
0000
1000
0100
1000
0000
0010
0000
,
0100
0000
0001
0000
0010
0100
0010
0001
,
0020
0100
1000
0130
,
0010
0001
0010
0001
1000
0001
1000
0000
,
0110
0000
0000
1000
0001
0000
0000
1010
,
0000
0000
1010
0000
0000
0000
0001
0000
1000
0000
0000
0010
0000
0000
0100
0000
,
0001
0000
0000
1000
0001
0000
0000
0101
,
0000
0000
0101
0000
0000
0000
0001
0000
1000
0000
0000
0100
0000
0000
0010
0000
,
0001
0000
0100
0010
0100
0000
0001
0000
,
1000
0000
0000
0000
0100
0000
0010
0000
0001
0000
0000
1000
0000
0000
0001
0000
,
0100
0000
0010
1000
0020
0000
0230
0000
,
0301
1000
0001
1000
0100
0010
0100
0010
,
0001
0000
0100
0010
0100
0000
0001
0000
,
1100
0000
0001
1000
0010
0000
0100
0000
,
0001
0000
0010
0100
1000
0000
0001
0000
,
0110
0001
1100
0010
,
0102
1000
0010
1003
,
1100
0000
0001
0000
0010
0100
1000
0100
,
1000
0001
1000
0001
1000
0001
1000
0001
,
0100
0000
0000
0100
0000
0000
0100
0000
0020
0000
0000
0000
0030
0000
0000
0000
,
1000
0000
0000
0100
0000
0000
0010
0000
0001
0000
0000
0010
0000
0000
0100
0000
,
2000
0000
0000
0000
3001
0000
0100
0000
0001
0000
0000
1000
0000
0000
0010
0000
,
1000
0000
0000
0100
0000
0000
1000
0000
0002
0000
0000
0000
0100
0000
0000
0000
,
0100
0000
0010
0000
0013
0000
0001
1000
,
0001
0000
0000
0000
0010
0000
0100
0000
1000
0000
0000
0100
0000
0000
0010
0000
,
0001
0000
0000
0000
1000
0000
0010
0000
0100
0000
0000
0001
0000
0000
0100
0000
,
0010
0000
1000
0100
0010
0000
0001
0100
,
0000
0000
0010
0000
0010
0000
1000
0000
0001
0000
0000
1000
0000
0000
0001
0000
,
0010
0000
0100
0000
0010
0000
0100
0000
1000
0000
0000
0001
0000
0000
1000
0000
,
0010
0000
0000
0000
0100
0000
0001
0000
0100
0000
0000
0010
0000
0000
1000
0000
,
0001
0000
0000
0010
0000
0000
0100
0000
0000
0000
1000
0000
0001
0000
1000
0000
,
0010
0000
0010
0000
0100
0001
0100
0010
,
1000
0000
0000
0000
0100
0000
0010
0000
0001
0000
0000
0001
0000
0000
1000
0000
,
0010
0000
0000
0000
0000
0000
0000
0000
0110
0000
0000
1000
0000
0000
0001
0000
,
0220
0330
0001
1000
,
0010
1000
0100
0010
0001
0100
0010
1000
,
0001
0000
0000
0000
0010
0000
0100
0000
1000
0000
0000
0001
0000
0000
2000
0000
,
0000
0000
0000
0000
0000
0000
0000
0000
3010
0000
0000
0100
0000
0000
0001
0000
,
0100
0000
0000
0010
0000
0000
1000
0000
0001
0000
0000
1000
0000
0000
0100
0000
,
0020
0000
0000
0030
,
0011
0000
0000
0000
0000
0000
0000
0000
0001
0000
0000
0100
0000
0000
0010
0000
,
1010
0000
0000
0000
0000
0000
1000
0000
1000
0000
0000
0100
0000
0000
0010
0000
,
0011
0001
1000
1000
,
0000
0000
0001
0000
0100
0000
0001
0000
0100
0000
0000
0010
1000
0000
0000
0010
,
2000
0000
0000
0000
,
0000
0000
0000
0000
3000
0000
0000
0001
,
2002
0000
3003
0000
,
0220
0000
0330
0000
1000
0001
0100
0010
,
2000
0100
0001
3010
,
1001
0000
0001
0100
0001
0000
1000
0100
,
1000
0000
0000
0010
0000
0000
1010
0000
0001
0000
0000
0010
0000
0000
0011
0000
,
0200
0000
0300
0000
0000
1000
0001
1000
,
0001
0000
0000
0000
0100
0000
0001
0000
1000
0000
0000
0010
0000
0000
1000
0000
,
0001
0000
0000
0000
1000
0000
0100
0000
0010
0000
0000
0001
0000
0000
0010
0000
,
0100
0000
0000
1000
0000
0000
0001
0000
0200
0000
0000
0000
0010
0000
0000
0000
,
0010
0000
0001
0000
0301
0000
0100
0010
,
1000
0000
0001
0000
1000
0000
0001
0000
1000
0000
0000
0100
0000
0000
0010
0000
,
0001
0000
0000
0000
1000
0000
0001
0000
0100
0000
0000
0010
0000
0000
1000
0000
,
0001
0000
1000
0100
1000
0000
0001
0100
,
0000
0000
0010
0000
0010
0000
1000
0000
0001
0000
0000
0010
0000
0000
0001
0000
,
0100
0000
0010
0000
0100
0000
0010
0000
1000
0000
0000
0100
0000
0000
0010
0000
,
0001
0000
0000
0000
1000
0000
0010
0000
1000
0000
0000
0001
0000
0000
0010
0000
,
0100
0000
0000
1000
0000
0000
0001
0000
0000
0000
0100
0000
0001
0000
0100
0000
,
0010
0000
0010
0000
1000
0001
1000
0001
,
1000
0000
0100
0000
0010
0000
0001
0000
0100
0000
0000
0100
0000
0000
0010
0000
,
2000
0000
0000
0000
3000
0000
0000
0000
0100
0000
0000
0100
0000
0000
0010
0000
,
0001
0100
0001
0100
0010
1000
0010
1000
,
0000
0100
0010
0001
1000
0010
0100
0001
,
0000
0110
0000
0001
1000
0001
1000
0100
,
0000
0000
0010
0000
0001
0000
1000
0000
0001
0000
0000
0001
0000
0000
0100
0000
,
0000
2002
0000
3003
;

//--------------- dance-single - forcednature ----------------
#NOTEDATA:;
#STEPSTYPE:dance-single;
#DESCRIPTION:forcednature;
#CREDIT:forcednature;
#DIFFICULTY:Hard;
#METER:15;
#RADARVALUES:0.560934,0.633831,0.183185,0.111504,0.127433,493,470,23,14,0,0,0.560934,0.633831,0.183185,0.111504,0.127433,493,470,23,14,0,0;
#NOTES:
0000
0000
0000
0000
,
0000
0000
0000
0000
,
0000
0000
0000
0000
,
0000
0000
0000
0000
,
0000
0000
0000
0000
,
1000
0000
0001
0100
0001
0100
0001
0100
0010
0000
1000
0000
0100
0000
1000
0000
,
0001
0000
1000
0100
1000
0100
1000
0100
0010
0000
0001
0000
0100
0000
0001
0000
,
1000
0000
0001
0010
0001
0010
0001
0010
0100
0000
1000
0000
0010
0000
1000
0000
,
0000
0110
0000
1001
0000
1000
0001
0100
,
0000
0001
0010
1000
0001
0100
1000
1001
,
0000
0000
0001
0000
0100
0010
1000
0000
0100
0000
0000
1100
0000
0000
0011
0000
,
1001
0000
0000
0000
0001
0000
0100
0000
1000
0000
0000
0100
0000
0000
0010
0000
,
1000
0000
0000
0000
0100
0000
0010
0000
0001
0000
0000
0100
0000
0000
0001
0000
,
0010
0000
0000
0100
0000
0000
1000
0000
0000
0000
0002
0000
0203
0000
0320
0000
,
2030
0000
3002
0023
0000
0130
1000
0001
,
1000
0000
0010
0100
0001
0100
0010
1000
,
0001
0010
0000
0100
1000
0100
0010
0001
,
1000
1000
0010
0200
0001
0000
0010
0010
,
0010
0000
0000
0000
1000
0000
0000
0000
0320
0000
0000
0000
0030
0000
1000
0001
,
1000
0000
0100
0000
0010
0000
0001
0000
0100
0000
0000
0001
0000
0000
0010
0000
,
0100
0000
0000
0000
0001
0000
0100
0000
1000
0000
0000
0001
0000
0000
1000
0000
,
0010
0000
0000
0100
0000
0000
0001
0000
0000
0000
0010
0000
0100
0000
1000
0000
,
0001
0000
0100
0010
0000
1000
0100
0100
,
0001
0000
0000
0000
0100
0000
0010
0000
0001
0000
0000
1000
0000
0000
0010
0000
,
0000
0000
1000
0000
0001
0000
0010
0000
0100
0000
0000
1000
0000
0000
0001
0000
,
0100
0001
0100
0000
0010
0000
0000
0000
1000
0000
0000
0000
0010
0000
0000
0000
,
0100
0000
0001
0000
1000
0000
0001
0000
0010
0000
0100
1000
0001
0000
0100
0001
,
1000
0000
0000
1100
0011
0000
0000
0101
,
0000
0000
1010
0000
0000
0000
0001
0000
1000
0000
0000
1100
0000
0000
0011
0000
,
1001
0000
0000
0001
0101
0000
0000
1010
,
0000
0000
0110
0000
0000
0000
0001
0000
1100
0000
0000
0101
0000
0000
1000
0000
,
0001
0100
0001
0010
0001
0100
0001
0010
,
0100
0000
1000
0000
0001
0000
1000
0000
0010
0000
0000
0010
0000
0000
1000
0000
,
0001
0000
0010
0200
1000
0000
0001
0000
,
0310
0000
0010
0000
0100
0000
0100
0000
1000
0000
0001
0000
0100
0001
1000
0010
,
0100
0000
0001
0000
0010
0000
0100
0000
1000
0000
0000
0001
1000
0000
0010
0100
,
0020
0000
0000
0000
1030
0000
0100
0000
0010
0000
0000
0001
0000
0000
0100
0000
,
0010
0000
0000
0010
1000
0000
0100
0000
0010
0000
0000
0010
0001
0000
1000
0010
,
2000
0000
0100
0000
3020
0000
0130
0010
,
0110
0001
1000
0010
0100
0001
1000
0010
,
0110
1000
0001
0010
0100
1000
0001
0010
,
1001
0000
1000
0000
0001
0000
0001
0000
0100
0001
0100
0001
1000
0100
1000
0100
,
0010
0000
0000
0110
0000
0000
0100
0000
2002
0000
0000
0000
3003
0000
0000
0000
,
1000
0100
0001
0100
0010
0001
1000
0010
,
0001
0010
0100
1000
0100
0001
1000
0100
,
0010
0000
0001
0000
1000
0000
0001
0100
0002
0000
0000
0000
1000
0000
0000
0000
,
0010
0000
0100
0000
1003
0001
0010
0010
,
0110
0100
1000
0100
0001
0100
0010
0001
,
1000
0010
0001
1000
0100
0001
1000
0001
,
0010
0100
0001
0100
1000
0010
0100
0110
,
0000
0000
0001
0000
0001
0000
1000
0000
1100
0000
0000
0011
0000
0000
1001
0000
,
1000
0010
0001
0010
0100
1000
0100
0001
,
0010
1000
0010
0001
1000
0100
0001
0100
,
0010
0001
1000
0001
0100
1000
0001
0010
,
1000
0100
0001
0100
0010
0010
0001
0001
,
1001
0000
0000
0000
1000
0000
0010
0000
0100
0000
0000
0101
0000
0000
0001
1000
,
0001
0000
0000
0000
0000
0000
0000
0000
0011
0000
0000
1100
0000
0000
1001
0000
,
1000
0100
1000
0010
0100
0001
0010
0001
,
0100
0000
0010
0000
0010
0000
1000
0000
0001
0100
0001
0100
0010
1000
0010
1000
,
0001
0000
0000
0000
0020
0000
0230
0000
2300
0000
0000
3002
0000
0000
2003
0000
,
0000
0000
0000
0000
3000
0000
0000
0000
0020
0000
0000
0230
0000
0000
0302
0000
,
0023
0000
0000
0230
0000
0000
0320
0000
0032
0000
0000
2003
0000
0000
3002
0000
,
0203
0000
0000
0300
,
1010
0000
0000
0000
0000
0000
0000
0000
1100
0000
0000
0110
0000
0000
0001
0010
,
0001
0000
0000
0000
0000
0000
0100
0000
0101
0000
0000
1010
0000
0000
1001
0000
,
0001
0100
0001
0010
0100
1000
0010
1000
,
0100
0010
0100
0010
0001
1000
0001
1000
0010
0000
0100
0001
1000
0000
0100
1000
,
0002
0000
0000
0000
,
0000
0000
0000
0000
0003
0000
0000
0101
,
2020
0000
0000
0000
0000
3030
0000
0000
,
0220
0000
0000
0000
0330
0000
0000
0000
1000
0000
0001
0000
0100
0000
0010
1000
,
0020
0001
0100
1030
,
0010
0000
0100
0000
0001
0000
1000
0000
1100
0000
0000
0001
0000
0000
0010
0000
,
1001
0000
0000
0101
0000
0000
1010
0000
1001
0000
0000
1100
0000
0000
0011
0000
,
0220
0000
0000
0000
0330
0000
0000
0000
0000
0000
1000
0000
1000
0000
0001
0100
,
0010
1000
0001
1000
0100
0001
0100
0010
,
0001
1000
0001
0100
0010
0001
0010
1000
,
0001
0100
1000
0100
0020
0000
1000
0000
,
0100
0000
0031
0000
0010
0010
0100
0100
,
0001
1000
0001
0000
0010
0000
0100
0000
0001
0000
0100
0000
1000
0000
0001
0000
,
0100
0010
0100
0000
0001
0000
0010
0000
0100
0000
0001
0000
0100
0000
1000
0000
,
0001
0100
0001
0000
1000
0000
0010
0000
1000
0100
1000
0000
0001
0000
0100
0001
,
0000
0000
0010
0000
0010
0000
0010
0000
0110
0000
0000
1001
0000
0000
0110
0000
,
1001
1000
0001
0100
1000
0001
0010
1000
,
0001
1000
0100
0010
1000
0010
0001
1000
,
0001
0100
0001
0000
1000
0000
0010
0000
0001
0000
0010
0000
0100
0000
0001
0000
,
0010
0000
0100
0000
0001
0000
0100
0000
0010
0000
0010
0000
0001
0000
1000
0001
,
1000
0000
0010
0000
1000
0000
0100
0000
0011
0000
0000
1100
0000
0000
0110
0000
,
1001
0000
0000
0000
0000
0000
0000
0000
0101
0000
0000
1010
0000
0000
0110
0000
,
1001
0000
0001
0000
0100
0000
0100
0000
0001
0010
0001
0010
0100
1000
0100
1000
,
0000
0000
0010
0000
0010
0000
0010
0000
0100
0001
0100
0001
1000
0100
0010
0001
,
0000
0000
0110
0000
0000
0000
0001
0100
0001
0000
1000
0000
0010
0000
1000
0000
,
0000
0000
0100
0000
0010
0001
0010
0000
1100
0000
0000
0101
0000
0000
1001
0000
,
0000
0220
0000
0330
;

//--------------- dance-double - forcednature ----------------
#NOTEDATA:;
#STEPSTYPE:dance-double;
#DESCRIPTION:forcednature;
#CREDIT:forcednature;
#DIFFICULTY:Easy;
#METER:8;
#RADARVALUES:0,0,0,0,0;
#NOTES:
00000000
00000000
00000000
00000000
,
00000000
00000000
00000000
00000000
,
00000000
00000000
00000000
00000000
,
00000000
00000000
00000000
00000000
,
00000000
00000000
00000000
00000000
,
00011000
00000000
00010000
00100000
,
10000000
00000000
00010000
00100000
,
01000000
00000000
10000000
00010000
,
00000000
01000000
00000000
01000000
00000000
01000000
00000000
00000000
,
00000000
00001000
00000000
00000000
00010000
00000000
00000000
00011000
,
00000000
00000100
00001000
00000001
,
00001001
00000000
00001000
00000010
,
00010000
00001000
00100000
00010000
,
01000000
00100000
10000000
00000000
,
02000000
00000000
03200000
00000000
,
00310000
01000000
00001000
00010000
,
00000100
00001000
00000001
00000100
,
00000010
00001000
00000020
00000000
,
00000100
00000100
00000130
00000000
,
00001001
00000000
00001000
00000100
,
00010000
00001000
01000000
00010000
,
00100000
01000000
10000000
00000000
,
00200000
00000000
02300000
00000000
,
03010000
00000000
10000000
01000000
,
00010000
00000000
00001000
00000100
,
00000001
00000010
00000100
00001000
,
00000001
00000100
00000010
00000000
,
00000110
00000000
00000000
00000000
00001001
00000000
00000000
00000100
,
00000000
00000100
00000000
00000100
00001000
00000000
00000000
00000000
,
00011000
00000000
00000000
00000000
01100000
00000000
00000000
10000000
,
00000000
10000000
00000000
10000000
01000000
00000000
00000000
00000000
,
01100000
00000000
00100000
00000000
,
00001000
00010000
00000010
00010000
,
00001000
00000010
00000200
00000000
,
00001000
00001000
00001300
00000000
,
00001001
00000000
00000001
00000000
,
00000100
00001000
00010000
00000000
,
00001000
00010000
01000000
00000000
,
10000000
00010000
01000000
00000000
,
01100000
00000000
00100000
10000000
,
10010000
00000000
00010000
00100000
,
00001000
00010000
00001000
00010000
,
00000100
00000000
00000000
00000010
00000000
00000000
00000100
00000000
00000020
00000000
00000000
00000000
00000030
00000000
00000000
00000000
,
00001001
00000001
00000100
00000010
,
00001000
00000010
00010000
00001000
,
00100000
00010000
00200000
00000000
,
01000000
01000000
01300000
00000000
,
01100000
00000000
01000000
10000000
,
00010000
00000000
00001000
00010000
,
00000100
00001000
00000001
00000100
,
00000000
00000010
00010000
00010000
,
00011000
00001000
01000000
00010000
,
10000000
01000000
00100000
00010000
,
00100000
00001000
00010000
00000020
,
00000100
00000100
00000130
00000000
,
00001001
00000000
00000000
00000000
00000000
00000000
00000000
00000000
00001000
00000000
00000000
00000100
00000000
00000000
00000100
00000000
,
00010000
00000000
00000000
00000000
00000000
00000000
00000000
00000000
00001000
00000000
00000000
01000000
00000000
00000000
01000000
00000000
,
00010000
00010000
10000000
10000000
,
01000000
00100000
00010000
10000000
,
10010000
00000000
00010000
01000000
,
00001000
00010000
00000100
00001000
,
00000100
00000010
00000001
00001000
,
00000002
00000000
00000003
00000000
,
00001001
00000000
00000000
00000000
00000000
00000000
00000000
00000000
00001000
00000000
00000000
00000100
00000000
00000000
00001000
00000000
,
00000100
00000000
00000000
00000000
00000000
00000000
00000000
00000000
00010000
00000000
00000000
00001000
00000000
00000000
00010000
00000000
,
00001000
00001000
01000000
01000000
,
00010000
10000000
01000000
01000000
,
20020000
00000000
00000000
00000000
,
00000000
00000000
00000000
00000000
,
00000000
00000000
00000000
00000000
,
30030000
00000000
01100000
00000000
,
00011000
00000000
00001000
00010000
,
00000100
00001000
00000001
00000100
,
00000010
00000000
00000000
00000100
00000000
00000000
00000010
00000000
00000100
00000000
00000000
00000010
00000000
00000000
00000100
00000000
,
00002002
00003003
00000000
00000000
,
00000110
00001000
00000001
00000100
,
00000010
00010000
00001000
00100000
,
01000000
10000000
00020000
00000000
,
01000000
01000000
01030000
00000000
,
10010000
00000000
10000000
01000000
,
00010000
00001000
00010000
00000100
,
00001000
00000001
00000100
00000010
,
00000000
00010000
00001000
00001000
,
00011000
00010000
00100000
01000000
,
00100000
10000000
00010000
10000000
,
01000000
00100000
01000000
00010000
,
00001000
00000000
00010000
00000100
,
00001100
00000000
00000000
00000000
00001000
00000000
00000000
00000000
00000001
00000000
00000000
00000100
00000000
00000000
00000001
00000000
,
00000100
00000000
00000000
00000000
00000000
00000000
00000000
00000000
00000010
00000000
00000000
00001000
00000000
00000000
00000010
00000000
,
00001000
00001000
00010000
00010000
,
01000000
00100000
10000000
00010000
,
00000000
10010000
00000000
00000000
01100000
00000000
00000000
00010000
,
00000000
00000000
00000000
00000000
00001000
00000000
00000000
00000000
00000010
00000000
00000000
00000010
00000000
00000000
00000100
00000000
,
00000000
00002002
00000000
00003003
;

//--------------- dance-double - forcednature ----------------
#NOTEDATA:;
#STEPSTYPE:dance-double;
#DESCRIPTION:forcednature;
#CREDIT:forcednature;
#DIFFICULTY:Medium;
#METER:12;
#RADARVALUES:0,0,0,0,0;
#NOTES:
00000000
00000000
00000000
00000000
,
00000000
00000000
00000000
00000000
,
00000000
00000000
00000000
00000000
,
00000000
00000000
00000000
00000000
,
00000000
00000000
00000000
00000000
,
00011000
00000000
00010000
00100000
01000000
00100000
10000000
00010000
,
10000000
00000000
01000000
00100000
01000000
00010000
00001000
00000100
,
00000010
00000000
00000100
00000001
00001000
00000001
00000010
00000100
,
00000000
00000110
00000000
00001001
00000000
00000001
00000100
00001000
,
00000000
00010000
00100000
10000000
00100000
00100000
01000000
00010000
,
00000000
00000000
10000000
00000000
02000000
00000000
00000000
00000000
03100000
00000000
00000000
00100000
00000000
00000000
01000000
00000000
,
10010000
00000000
10000000
00000000
01000000
00000000
00010000
00001000
,
00010000
00000000
00000010
00000000
00001000
00000000
00000100
00000010
,
00000001
00000000
00000100
00000000
00001000
00000000
00010000
00100000
,
02000000
00000000
03010000
20000000
00000000
31000000
00200000
00000000
,
00310000
00000000
01000000
00000000
00001000
00010000
00001000
00000000
,
00000010
00000000
00000100
00000000
00001000
00000001
00000100
00000001
,
00000010
00000100
00001000
00000100
00020000
00000000
00001000
00000000
,
00001000
00100000
00200000
00330000
,
01100000
00000000
01000000
00010000
10000000
00000000
01000000
00010000
,
00001000
00000000
00010000
00000100
00001000
00000000
00000001
00000100
,
00000010
00000000
00010000
00001000
00010000
00000000
00100000
00000000
,
20000000
00000000
00000000
30020000
00000000
00000000
00130000
01000000
,
00100000
00000000
00001000
00010000
00001000
00000000
00000100
00000000
,
00000001
00000000
00001000
00000000
00000100
00010000
00001000
00100000
,
00020000
01000000
10000000
00100000
,
10030000
00010000
10000000
00010000
00100000
00001000
00100000
00000000
,
00011000
00000000
00000000
00010000
00000010
00000000
00000000
00001100
,
00000000
00000000
00001100
00000000
00000000
00000000
00000100
00000000
00000010
00000000
00000000
00000001
00000000
00000000
00001000
00000000
,
00000001
00000000
00000000
00000100
00001000
00000000
00000000
00011000
,
00000000
00000000
00011000
00000000
00000000
00000000
00010000
00000000
01000000
00000000
00000000
10000000
00000000
00000000
00010000
00000000
,
10000000
00000000
00100000
01000000
00100000
00000000
00010000
00000000
,
00001000
00000000
00000000
00000000
00000010
00000000
00000100
00000000
00000010
00000000
00000000
00000001
00000000
00000000
00001000
00000000
,
00000001
00000000
00000100
00001000
00020000
00000000
00032000
00000000
,
00013000
00100000
00010000
00100000
10000000
01000000
00100000
01000000
,
00010000
00000000
00001000
00010000
00001000
00000000
00000010
00000000
,
00000110
00000000
00000100
00001000
00000001
00000000
00000100
00000000
,
00001000
00000000
00010000
00100000
01000000
00000000
00010000
00000000
,
10020000
10030000
12000000
03100000
,
00120000
10000000
01000000
10030000
,
10010000
00000000
10000000
00000000
01000000
00010000
00001000
00010000
,
00000100
00001000
00000100
00000010
00000001
00001000
00000001
00000100
,
00001000
00000000
00000000
00001000
00000000
00000000
00001000
00000000
00020000
00000000
00000000
00000000
00030000
00000000
00000000
00000000
,
00100000
00000000
00000000
10000000
00000000
00000000
00010000
00000000
10000000
00000000
00000000
01000000
00000000
00000000
00100000
00000000
,
00020000
00000000
00000000
00000000
01030000
00000000
00001000
00000000
00010000
00000000
00000000
00000100
00000000
00000000
00001000
00000000
,
00000001
00000000
00000000
00000100
00000000
00000000
00000010
00000000
00002000
00000000
00000000
00000000
00000100
00000000
00000000
00000000
,
00000100
00000000
00000010
00000000
00003010
00000000
00001000
00000001
,
00001000
00000000
00000000
00000000
00000100
00000000
00010000
00000000
00001000
00000000
00000000
01000000
00000000
00000000
00010000
00000000
,
10000000
00000000
00000000
00000000
01000000
00000000
00100000
00000000
00010000
00000000
00000000
00100000
00000000
00000000
00001000
00000000
,
00010000
00000000
00000010
00001000
00000001
00000000
00000010
00001000
,
00000000
00000000
00010000
00000000
00010000
00000000
00100000
00000000
01000000
00000000
00000000
00010000
00000000
00000000
10000000
00000000
,
01000000
00000000
00100000
00000000
01000000
00000000
00100000
00000000
00010000
00000000
00000000
01000000
00000000
00000000
00001000
00000000
,
00010000
00000000
00000000
00000000
00000100
00000000
00001000
00000000
00000100
00000000
00000000
00000010
00000000
00000000
00000001
00000000
,
00001000
00000000
00000000
00000001
00000000
00000000
00000100
00000000
00000000
00000000
00001000
00000000
00010000
00000000
00002000
00000000
,
00100000
00000000
00100000
00000000
01003000
00001000
01000000
00010000
,
10000000
00000000
00000000
00000000
01000000
00000000
00010000
00000000
00001000
00000000
00000000
00001000
00000000
00000000
00010000
00000000
,
00000100
00000000
00000000
00000000
00000000
00000000
00000000
00000000
00000110
00000000
00000000
00001000
00000000
00000000
00000001
00000000
,
00000220
00000000
00000330
00000000
00000001
00000100
00000010
00001000
,
00010000
01000000
00100000
10000000
00010000
10000000
01000000
00010000
,
00001000
00000000
00000000
00000000
00000010
00000000
00000100
00000000
00001000
00000000
00000000
00000001
00000000
00000000
00000200
00000000
,
00000000
00000000
00000000
00000000
00000000
00000000
00000000
00000000
00001300
00000000
00000000
00010000
00000000
00000000
00100000
00000000
,
01000000
00000000
00000000
00010000
00000000
00000000
10000000
00000000
01000000
00000000
00000000
00010000
00000000
00000000
00001000
00000000
,
00020000
00000000
00000000
00030000
,
00011000
00000000
00000000
00000000
00000000
00000000
00000000
00000000
00000100
00000000
00000000
00010000
00000000
00000000
00001000
00000000
,
00101000
00000000
00000000
00000000
00000000
00000000
01000000
00000000
01000000
00000000
00000000
00001000
00000000
00000000
00010000
00000000
,
00010010
00000010
00001000
00001000
,
00000000
00000000
00000100
00000000
00000010
00000000
00000100
00000000
00000010
00000000
00000000
00000001
00001000
00000000
00000000
00000001
,
00002000
00000000
00000000
00000000
,
00000000
00000000
00000000
00000000
00003000
00000000
00000000
00000100
,
00020000
00000000
00030000
00000000
,
00022000
00000000
00033000
00000000
00001000
01000000
00010000
01000000
,
00200000
00010000
01000000
10300000
,
10010000
00000000
10000000
01000000
00100000
00000000
00010000
00100000
,
00001000
00000000
00000000
00000010
00000000
00000000
00000100
00000000
00001000
00000000
00000000
00000010
00000000
00000000
00000100
00000000
,
00000002
00000000
00000003
00000000
00000000
00000010
00000100
00000010
,
00000100
00000000
00000000
00000000
00010000
00000000
00001000
00000000
01000000
00000000
00000000
00010000
00000000
00000000
10000000
00000000
,
00100000
00000000
00000000
00000000
10000000
00000000
01000000
00000000
00100000
00000000
00000000
00010000
00000000
00000000
00100000
00000000
,
00001000
00000000
00000000
00010000
00000000
00000000
00000010
00000000
00002000
00000000
00000000
00000000
00000100
00000000
00000000
00000000
,
00000100
00000000
00000001
00000000
00003001
00000000
00001000
00000010
,
00010000
00000000
00001000
00000000
00010000
00000000
00001000
00000000
00100000
00000000
00000000
00010000
00000000
00000000
00100000
00000000
,
01000000
00000000
00000000
00000000
10000000
00000000
00010000
00000000
01000000
00000000
00000000
00001000
00000000
00000000
00010000
00000000
,
00000100
00000000
00001000
00000001
00000100
00000000
00001000
00010000
,
00000000
00000000
00100000
00000000
00100000
00000000
10000000
00000000
00010000
00000000
00000000
10000000
00000000
00000000
01000000
00000000
,
00010000
00000000
00001000
00000000
00010000
00000000
00001000
00000000
00000010
00000000
00000000
00000100
00000000
00000000
00001000
00000000
,
00000001
00000000
00000000
00000000
00000100
00000000
00001000
00000000
00010000
00000000
00000000
00100000
00000000
00000000
00010000
00000000
,
00001000
00000000
00000000
00000010
00000000
00000000
00001000
00000000
00000000
00000000
00010000
00000000
01000000
00000000
00200000
00000000
,
10000000
00000000
00010000
00000000
01300000
00100000
01000000
00100000
,
00010000
00000000
00001000
00000000
00000100
00000000
00000010
00000000
00000001
00000000
00000000
00001001
00000000
00000000
00001000
00000000
,
00000020
00000000
00000000
00000000
00000030
00000000
00000000
00000000
00000100
00000000
00000000
00001000
00000000
00000000
00010000
00000000
,
00100000
01000000
00100000
01000000
00010000
10000000
00010000
10000000
,
00000000
01000000
00010000
00001000
00000100
00000001
00000010
00000100
,
00000000
00001001
00000000
00000001
00000100
00001000
00010000
00100000
,
00000000
00000000
10000000
00000000
00010000
00000000
10000000
00000000
01000000
00000000
00000000
00010000
00000000
00000000
00001000
00000000
,
00000000
00000220
00000000
00000330
;

//--------------- dance-double - forcednature ----------------
#NOTEDATA:;
#STEPSTYPE:dance-double;
#DESCRIPTION:forcednature;
#CREDIT:forcednature;
#DIFFICULTY:Hard;
#METER:16;
#RADARVALUES:0,0,0,0,0;
#NOTES:
00000000
00000000
00000000
00000000
,
00000000
00000000
00000000
00000000
,
00000000
00000000
00000000
00000000
,
00000000
00000000
00000000
00000000
,
00000000
00000000
00000000
00000000
,
00001000
00000000
01000000
00010000
01000000
00010000
01000000
00010000
10000000
00000000
01000000
00000000
00100000
00000000
00010000
00000000
,
00100000
00000000
00001000
00010000
00001000
00010000
00001000
00010000
00000010
00000000
00001000
00000000
00000010
00000000
00000100
00000000
,
00000001
00000000
00001000
00000100
00001000
00000100
00001000
00000100
00010000
00000000
00001000
00000000
00010000
00000000
00100000
00000000
,
00000000
01100000
00000000
10010000
00000000
10000000
01000000
00010000
,
00000000
00001000
00000010
00000001
00001000
00000010
00000100
00001000
,
00000000
00000000
00010000
00000000
00100000
01000000
00100000
00000000
10000000
00000000
00000000
11000000
00000000
00000000
00110000
00000000
,
10010000
00000000
00000000
00000000
10000000
00000000
01000000
00000000
00010000
00000000
00000000
00001000
00000000
00000000
00010000
00000000
,
00000010
00000000
00000000
00000000
00000100
00000000
00000001
00000000
00001000
00000000
00000000
00000100
00000000
00000000
00010000
00000000
,
00001000
00000000
00000000
01000000
00000000
00000000
00010000
00000000
00000000
00000000
20000000
00000000
32000000
00000000
03200000
00000000
,
00320000
00000000
02030000
03002000
00000000
00013000
00000100
00001000
,
00000100
00000000
00000010
00000001
00001000
00000001
00000100
00001000
,
00010000
00100000
00000000
00100000
10000000
00010000
10000000
01000000
,
00010000
00010000
00001000
00000020
00000100
00000000
00000001
00000001
,
00000001
00000000
00000000
00000000
00001000
00000000
00000000
00000000
00000200
00000000
00000330
00000000
00000000
00000000
00000001
00001000
,
00000001
00000000
00000100
00000000
00000010
00000000
00000100
00000000
00001000
00000000
00000000
00010000
00000000
00000000
00001000
00000000
,
01000000
00000000
00000000
00000000
00100000
00000000
10000000
00000000
01000000
00000000
00000000
00100000
00000000
00000000
00010000
00000000
,
00100000
00000000
00000000
00001000
00000000
00000000
00010000
00000000
00000000
00000000
00000010
00000000
00000100
00000000
00001000
00000000
,
00000100
00000000
00000001
00001000
00000000
00000100
00010000
00010000
,
00001000
00000000
00000000
00000000
01000000
00000000
00010000
00000000
00100000
00000000
00000000
10000000
00000000
00000000
00100000
00000000
,
00000000
00000000
01000000
00000000
10000000
00000000
00100000
00000000
00010000
00000000
00000000
00001000
00000000
00000000
00010000
00000000
,
00000100
00001000
00000200
00000000
00000001
00000000
00000000
00000000
00000010
00000000
00000000
00000000
00001000
00000000
00000000
00000000
,
00010300
00000000
00000100
00000000
00010000
00000000
00001000
00000000
01000000
00000000
00010000
10000000
00010000
00000000
00100000
01000000
,
10000000
00000000
00000000
00010000
01010000
00000000
00000000
00101000
,
00000000
00000000
00010010
00000000
00000000
00000000
00000010
00000000
00000100
00000000
00000000
00000110
00000000
00000000
00000010
00000000
,
00001001
00000000
00000000
00001000
00001100
00000000
00000000
00011000
,
00000000
00000000
01001000
00000000
00000000
00000000
10000000
00000000
11000000
00000000
00000000
00110000
00000000
00000000
00010000
00000000
,
01000000
10000000
01000000
00100000
01000000
10000000
01000000
00010000
,
00100000
00000000
00001000
00000000
00010000
00000000
00000010
00000000
00001000
00000000
00000000
00001000
00000000
00000000
00000100
00000000
,
00000010
00000000
00000001
00000200
00001000
00000000
00000010
00000000
,
00000301
00000000
00000001
00000000
00000100
00000000
00000100
00000000
00001000
00000000
00010000
00000000
00001000
01000000
00010000
01000000
,
00100000
00000000
10000000
00000000
00010000
00000000
10000000
00000000
01000000
00000000
00000000
01000000
00010000
00000000
00001000
00010000
,
00002000
00000000
00000000
00000000
00003010
00000000
00000100
00000000
00001000
00000000
00000000
00000001
00000000
00000000
00000100
00000000
,
00001000
00000000
00000000
00001000
00010000
00000000
00100000
00000000
10000000
00000000
00000000
10000000
00010000
00000000
10000000
01000000
,
20000000
00000000
01000000
00000000
30020000
00000000
00130000
00010000
,
00110000
00000000
00100000
00001000
00010000
00000010
00001000
00000001
,
00001001
00000000
00000001
00000010
00000100
00001000
00000100
00010000
,
00011000
00000000
00000000
00000000
01000000
00000000
01000000
00000000
00010000
10000000
00010000
10000000
01000000
00100000
01000000
00100000
,
00010000
00000000
00000000
01010000
00000000
00000000
10000000
00000000
20200000
00000000
00000000
00000000
30300000
00000000
00000000
00000000
,
10000000
01000000
00010000
00001000
00000100
00000001
00000010
00000001
,
00000100
00001000
00010000
01000000
00100000
00010000
10000000
00100000
,
00010000
00000000
00001000
00000000
00010000
00000000
00000100
00001000
00000200
00000000
00000000
00000000
00000001
00000000
00000000
00000000
,
00000010
00000000
00001000
00000000
00010300
00000100
00001000
00001000
,
00001001
00000000
00000001
00000100
00001000
00010000
00001000
01000000
,
00100000
00010000
00100000
10000000
01000000
00010000
00001000
00010000
,
00000010
00001000
00000100
00000001
00000100
00000010
00000001
00001001
,
00000000
00000000
00001000
00000000
00001000
00000000
00001000
00000000
00001100
00000000
00000000
00010100
00000000
00000000
00011000
00000000
,
00001000
00100000
00010000
00100000
01000000
10000000
01000000
00010000
,
00001000
00000100
00000010
00000100
00000001
00001000
00000100
00010000
,
00001000
01000000
00010000
01000000
10000000
01000000
00100000
10000000
,
01000000
00010000
00001000
00010000
00000010
00000000
00000100
00000000
,
00001001
00000000
00000000
00000000
00000001
00000000
00000100
00000000
00001000
00000000
00000000
00011000
00000000
00000000
01000000
00010000
,
01000000
00000000
00000000
00000000
00000000
00000000
00000000
00000000
10010000
00000000
00000000
01100000
00000000
00000000
10010000
00000000
,
10000000
01000000
00100000
00010000
00001000
00000100
00000010
00000001
,
00000000
00000000
00000100
00000000
00000100
00000000
00001000
00000000
00010000
00001000
00010000
00001000
01000000
00010000
01000000
00010000
,
10000000
00000000
00000000
00000000
02000000
00000000
03020000
00000000
00032000
00000000
00000000
00003200
00000000
00000000
00000302
00000000
,
00000000
00000000
00000000
00000000
00000003
00000000
00000000
00000000
00000020
00000000
00000000
00000230
00000000
00000000
00020300
00000000
,
00032000
00000000
00000000
02003000
00000000
00000000
03200000
00000000
20300000
00000000
00000000
30020000
00000000
00000000
00230000
00000000
,
02300000
00000000
00000000
03000000
,
01100000
00000000
00000000
00000000
00000000
00000000
00000000
00000000
10000000
00000000
00000000
10010000
00000000
00000000
00010000
00100000
,
00010000
00000000
00000000
00000000
00000000
00000000
01000000
00000000
01001000
00000000
00000000
00011000
00000000
00000000
00000100
00000000
,
00001000
00000100
00000010
00000001
00001000
00000001
00000100
00000010
,
00010000
00001000
00010000
00001000
00100000
00010000
00100000
00010000
10000000
00000000
00010000
01000000
10000000
00000000
01000000
00010000
,
00200000
00000000
00000000
00000000
,
00000000
00000000
00000000
00000000
00300000
00000000
00000000
00001000
,
00022000
00000000
00000000
00000000
00000000
00033000
00000000
00000000
,
00020200
00000000
00000000
00000000
00030300
00000000
00000000
00000000
00000100
00000000
00001000
00000000
00000001
00000000
00001000
00000010
,
00002000
00000100
00000001
00003010
,
00001000
00000000
00000100
00000000
00010000
00000000
00001000
00000000
00011000
00000000
00000000
00001000
00000000
00000000
01000000
00000000
,
01010000
00000000
00000000
01100000
00000000
00000000
01001000
00000000
00011000
00000000
00000000
00010100
00000000
00000000
00001100
00000000
,
00000220
00000000
00000000
00000000
00000330
00000000
00000000
00000000
00000000
00000000
00000001
00000000
00000001
00000000
00001000
00000010
,
00010000
00001000
00010000
00100000
10000000
00010000
10000000
01000000
,
00010000
00001000
00010000
00000100
00001000
00000010
00000001
00000010
,
00000100
00001000
00010000
01000000
00200000
00000000
10000000
00000000
,
01000000
00000000
00310000
00000000
00100000
00100000
00001000
00001000
,
00010000
00000100
00010000
00000000
00001000
00000000
01000000
00000000
00010000
00000000
01000000
00000000
10000000
00000000
01000000
00000000
,
00100000
10000000
00100000
00000000
01000000
00000000
00001000
00000000
00010000
00000000
00000100
00000000
00001000
00000000
00000001
00000000
,
00000100
00000010
00000100
00000000
00000001
00000000
00001000
00000000
00000100
00001000
00000100
00000000
00010000
00000000
00001000
00010000
,
00000000
00000000
00100000
00000000
00100000
00000000
00100000
00000000
01100000
00000000
00000000
10010000
00000000
00000000
01100000
00000000
,
10010000
10000000
01000000
00010000
00001000
00000100
00000001
00000010
,
00000100
00010000
00001000
00000100
00000001
00001000
00000100
00010000
,
00001000
01000000
00001000
00000000
00010000
00000000
00100000
00000000
10000000
00000000
00100000
00000000
01000000
00000000
00010000
00000000
,
10000000
00000000
01000000
00000000
00010000
00000000
00001000
00000000
00000100
00000000
00000100
00000000
00000001
00000000
00001000
00000100
,
00001000
00000000
00000010
00000000
00010000
00000000
00001000
00000000
00011000
00000000
00000000
00101000
00000000
00000000
00100000
00010000
,
10000000
00000000
00000000
00000000
00000000
00000000
00000000
00000000
11000000
00000000
00000000
00110000
00000000
00000000
01000000
00000000
,
00001000
00000000
00010000
00000000
00000100
00000000
00000100
00000000
00001000
00000001
00001000
00000001
00000100
00000010
00000100
00000010
,
00000000
00000000
00001000
00000000
00001000
00000000
00001000
00000000
00000100
00001000
00000100
00001000
00000001
00000100
00000010
00001000
,
00000000
00000000
00010010
00000000
00000000
00000000
00010000
00001000
00010000
00000000
00100000
00000000
10000000
00000000
00100000
00000000
,
00000000
00000000
01000000
00000000
00010000
10000000
00010000
00000000
00110000
00000000
00000000
00011000
00000000
00000000
00001100
00000000
,
00000000
00022000
00000000
00033000
;
