#VERSION:0.83;
#TITLE:即席!脳直★ミュージックシステム;
#SUBTITLE:;
#ARTIST:MOSAIC.WAV;
#TITLETRANSLIT:Sokuseki! Nouchoku music system;
#SUBTITLETRANSLIT:;
#ARTISTTRANSLIT:;
#GENRE:AKIBA-POP;
#CREDIT:;
#MUSIC:Sokuseki! Nouchoku music system.ogg;
#BANNER:Sokuseki! Nouchoku music system.png;
#BACKGROUND:Sokuseki! Nouchoku music system-bg.png;
#CDTITLE:./CDTitles/bm IIDX 20 tricoro.png;
#SAMPLESTART:65.379;
#SAMPLELENGTH:15.000;
#SELECTABLE:YES;
#OFFSET:1.309;
#BPMS:0.000=197.000;
#STOPS:;
#TIMESIGNATURES:64.000=5=4,
79.000=4=4,
151.000=3=4,
175.000=4=4,
347.000=7=4
;
#BGCHANGES:0.000=Sokuseki! Nouchoku music system.mp4=1.000=0=0=0=StretchNoLoop====,
99999.000=-nosongbg-=1.000=0=0=0=StretchNoLoop====
;
#FGCHANGES:;

//--------------- dance-single - forcednature ----------------
#NOTEDATA:;
#STEPSTYPE:dance-single;
#DESCRIPTION:forcednature;
#DIFFICULTY:Beginner;
#METER:4;
#RADARVALUES:0,0,0,0,0;
#CREDIT:forcednature;
#NOTES:
0000
0000
0000
0000
,
0000
0000
0000
0000
,
0000
0000
0000
0000
,
0000
0000
0000
0000
,
0000
0000
0000
0000
,
0000
0000
0000
0000
,
0000
0000
0000
0000
,
0000
0000
0000
0000
,
0000
0000
0000
0000
,
0000
0000
0000
0000
,
1000
0000
0000
0000
,
1000
0000
1000
0000
,
0001
0000
0000
0000
,
0001
0000
0001
0000
,
0100
0000
0000
0000
,
0100
0000
0100
0000
,
0010
0000
0000
0000
0000
0000
0000
0010
,
0000
0000
0000
0000
0000
0000
0000
1000
,
0000
0000
0000
0001
,
0000
0000
0000
0010
,
0000
0000
0000
0000
0000
0100
0000
0000
,
0000
1000
0000
0000
0000
0000
0001
0000
,
0000
0000
0000
0100
,
0000
0000
0000
0001
,
0000
0001
0000
0001
,
0000
0000
0000
1000
,
0000
0000
0000
0100
,
0000
0000
0000
1000
,
0000
1000
0000
1000
,
0000
0000
0000
0001
,
0000
0000
0000
0010
,
0000
0000
0000
0001
,
0000
0001
0000
0001
,
0000
0000
0000
1000
,
0000
0000
0000
0010
,
0000
0000
0000
1000
,
0000
1000
0000
1000
,
0000
0000
0000
0100
,
0000
0000
0000
1000
,
0000
0000
0000
0001
,
0000
0000
0000
0100
,
0000
0001
0000
0100
,
0000
0000
0000
0010
,
0000
1000
0000
0001
,
0000
0000
0010
0000
,
0000
0100
0000
0000
,
1000
0000
0000
0010
,
0000
0000
0000
0100
,
0000
0001
0000
0100
,
0000
0000
0000
0001
,
0000
0010
0000
0001
,
0000
0000
0000
1000
,
0000
0000
0000
0010
,
0000
0000
0000
0100
,
0000
0100
0000
0001
,
0000
0000
0000
1000
,
0000
0100
0000
1000
,
0000
0000
0000
0001
,
0000
0010
0000
0001
,
0000
0000
0000
1000
,
0000
0010
0000
1000
,
0000
0001
0000
0010
,
0000
0000
0000
0100
,
0000
0000
0000
1000
,
0000
0001
0000
0100
,
0000
0000
0000
0010
,
0000
1000
0000
0001
,
0000
1000
0000
0100
,
0000
1000
0000
0001
,
0000
0000
0000
0100
,
0000
0001
0000
0010
,
0000
0000
0000
0100
,
0000
1000
0000
0010
,
0000
0000
0000
0100
,
0000
0001
0000
1000
,
0000
0000
0000
0100
,
0000
0000
0000
0000
,
0000
0010
0000
0010
,
0000
0001
0000
0100
,
0000
0000
0000
0010
,
0000
1000
0000
0001
,
0000
0000
0000
1000
,
0000
0100
0000
0010
,
0000
0000
0000
0001
,
0000
1000
0000
0010
,
0000
0000
0000
0100
,
0000
0001
0000
1000
,
0000
1000
0000
0000
,
0100
0000
0010
0000
,
0010
0000
0000
0001
,
0000
0100
0000
0100
,
0000
0000
0000
0010
0000
0000
0000
1000
,
0000
0000
0000
1000
0000
0000
0000
0000
,
0100
0000
0000
0000
0000
0010
0000
0000
,
0000
0000
0001
0000
0000
0000
0000
0000
0000
0100
0000
0000
0000
0000
0000
0010
,
0000
0000
0000
0010
0000
0000
0000
1000
0000
0000
0000
1000
0000
0000
0000
0000
,
0000
0000
0000
0000
,
0000
0000
0000
1001
0000
0000
0000
0000
0000
0000
0000
0000
0000
0000
0000
0000
;

//--------------- dance-single - forcednature ----------------
#NOTEDATA:;
#STEPSTYPE:dance-single;
#DESCRIPTION:forcednature;
#DIFFICULTY:Easy;
#METER:7;
#RADARVALUES:0,0,0,0,0;
#CREDIT:forcednature;
#NOTES:
0000
0000
0000
0000
,
0000
0000
0000
0000
,
0000
0000
0000
0000
,
0000
0000
0000
0000
,
0000
0000
0000
0000
,
0000
0000
0000
0000
,
0000
0000
0000
0000
,
0000
0000
0000
0000
,
0200
0000
0300
0000
,
0020
0000
0030
0000
,
1000
1000
1000
0000
,
0001
0000
0010
0000
,
0001
0001
0001
0000
,
1000
0000
0010
0000
,
0100
0100
0100
0000
,
0001
0000
1000
0000
,
0100
0000
0000
0000
0010
0000
0000
0010
,
0000
0000
0000
0001
0000
1000
0000
0010
,
0000
0000
0000
0100
0000
0000
0100
0000
,
0000
0001
1000
1001
,
0000
0000
0000
0100
0000
0010
0000
0000
,
0000
0110
0000
0000
0000
0000
1000
0000
,
0100
0010
0100
1000
,
0001
0000
0010
0000
0001
0000
0000
0100
,
0000
0000
0100
0000
0000
0100
0000
0000
,
0100
0000
0000
0100
0000
0000
0001
0000
,
1000
0010
1000
0001
,
0100
0000
0001
0000
1000
0000
0000
0100
,
0000
0000
0100
0000
0000
0100
0000
0000
,
0100
0000
0000
0100
0000
0000
1000
0000
,
0010
0100
0010
1000
,
0100
0000
0010
0000
0100
0000
0000
1000
,
0000
0000
1000
0000
0000
1000
0000
0000
,
1000
0000
0000
1000
0000
0000
0001
0000
,
0100
0010
0100
0001
,
0010
0000
0100
0000
0010
0000
0000
0001
,
0000
0000
0001
0000
0000
1000
0000
0000
,
1000
0000
0000
0001
0000
0000
0100
0000
,
0000
0010
0000
1000
,
0010
1000
0000
0100
,
0000
0010
0000
0001
,
0010
0001
0000
0100
,
0001
0100
0000
0010
,
0000
1001
0000
0110
,
0000
1000
0001
0000
,
0001
0000
1000
0000
0000
0100
0000
0000
,
0010
0000
0000
0001
0000
0000
0200
0000
,
0000
0010
0000
0001
,
0001
0301
0000
1000
,
0000
0001
0000
0001
0000
0000
0001
0000
,
0000
1000
0000
1000
0000
0020
0000
0000
,
0000
0100
0000
1000
,
1000
1030
0000
0002
,
0000
0003
0000
1000
,
0100
0010
0001
0100
,
0001
0100
0010
1000
,
0001
1000
0100
0010
,
0001
0100
0001
1000
,
0010
1000
0000
0001
,
0010
0001
1000
0010
,
0100
0001
1000
0100
,
0010
0001
0100
0010
,
0010
1000
0001
0010
,
0100
0010
0001
1000
,
0010
1000
0001
0010
,
0100
1000
0001
0100
,
0010
1000
0000
0100
,
1000
0001
0100
0010
,
1000
0001
0010
0100
,
0010
0001
1000
0000
,
0010
0100
0001
1000
,
0100
1001
0000
0001
,
0010
0100
1000
0001
,
0100
1001
0000
0100
,
0010
0100
0000
0002
,
2003
3200
0320
0000
,
0032
2003
3020
0000
,
0030
0000
0000
0000
1000
0000
0000
1000
0000
0000
0001
0000
0000
0000
0001
0000
,
0000
1000
0001
0000
0000
0000
1000
0000
,
1000
1000
0100
1000
,
0001
0010
0000
0001
,
0001
0001
0100
0001
,
1000
0010
0000
0100
,
0100
0100
0001
1000
,
0001
0010
0000
0100
,
0100
0100
1000
0001
,
1000
0010
0000
0110
,
0000
1000
0001
0000
,
0001
1000
0100
0000
,
1000
0001
0000
0001
,
1000
0010
0000
0100
,
0001
0000
0000
0001
0000
0010
0000
0100
,
0000
0000
0000
1000
0000
0001
0000
0000
,
0100
0000
0100
0000
0000
0010
0000
0010
,
0000
0000
0000
0000
0000
0000
1000
0000
0000
0100
0000
0000
0010
0000
0000
0001
,
0000
0000
0000
0100
0000
0000
0000
0010
0000
0000
0000
1000
0000
0000
0000
0000
,
0000
0000
0000
0200
0000
0000
0000
0000
0000
0000
0000
0000
0000
0000
0000
0300
,
0000
0000
0000
1000
0000
0001
0000
0000
0000
0000
0000
0000
0000
0000
0000
0000
;

//--------------- dance-single - forcednature ----------------
#NOTEDATA:;
#STEPSTYPE:dance-single;
#DESCRIPTION:forcednature;
#DIFFICULTY:Medium;
#METER:12;
#RADARVALUES:0,0,0,0,0;
#CREDIT:forcednature;
#NOTES:
0000
0000
0000
0000
,
0000
0000
0000
0000
,
0000
0000
0000
0000
,
0000
0000
0000
0000
,
0000
0000
0000
0000
,
0000
0000
0000
0000
,
0000
0000
0000
0000
,
0000
0000
0000
0000
,
0010
0000
0100
0010
0000
0110
0000
2002
,
0000
0000
0000
3003
,
0001
0000
0010
0000
0011
0000
0010
0100
,
0000
1000
0000
0100
0010
0000
1001
0000
,
1000
0000
0010
0000
1010
0000
0010
0100
,
0000
0001
0000
1000
0010
0000
1001
0000
,
0001
0000
0100
0000
0101
0000
0100
0010
,
0000
1000
0000
0010
0100
0000
0110
0000
,
1001
0000
0000
0000
1100
0000
0000
0011
,
0000
0000
0000
1001
0000
0110
0000
1001
,
0000
0000
0000
0101
0000
0000
1010
0000
,
0000
1001
0110
1001
,
0000
0010
0000
0101
0000
1100
0000
0000
,
0000
1001
0000
0000
0000
0000
1000
0000
,
0100
0000
0010
0000
0100
1000
0000
0001
,
0000
0010
0000
0001
0000
0100
0000
0010
,
1000
0000
0100
1000
0000
0010
1000
0000
,
0100
1000
0000
0010
1000
0000
0001
0000
,
0010
0000
0001
0000
0100
0010
0000
1000
,
0000
0001
0000
0010
0000
0100
0000
0010
,
0001
0000
0100
0001
0000
0010
0001
0000
,
0100
0001
0000
0010
0001
0000
1000
0000
,
0010
0000
0100
0000
0001
0010
0000
0001
,
0000
1000
0000
0010
0000
1000
0000
0001
,
0100
0000
1000
0100
0000
0001
0100
0000
,
1000
0100
0000
0001
0100
0000
0010
0000
,
1000
0000
0001
0000
0010
0001
0000
0100
,
0000
0010
0000
1000
0000
0002
0000
0000
,
0013
0001
0020
0000
0031
0100
0002
0000
,
1003
0100
2000
0000
3000
0000
0010
0000
,
0100
0001
1000
0110
,
0010
2002
3003
0220
,
0330
0000
1000
0001
1000
0000
0001
0000
,
0100
0010
1000
0001
,
0010
0000
0000
0100
1000
0200
0000
0000
0000
0310
0000
0000
,
0001
1000
0001
0202
,
0303
0000
1000
0010
2000
0000
3000
0000
,
0001
0000
0010
0000
0002
0000
0000
0003
0000
0000
0202
0000
0000
0303
0000
0000
,
2200
0000
0000
3300
0000
0000
1001
0000
0000
0000
0000
0000
1020
0000
0000
0000
,
1000
0000
1000
0000
0000
0001
0000
0001
,
0000
0000
1000
0000
1030
0000
0010
0100
,
0010
0100
0000
1001
0000
0000
0100
0010
,
0100
0010
0000
0110
0000
1002
0000
0000
,
0100
0000
1000
0000
0013
0000
0001
0100
,
0001
0000
1000
0100
1000
0000
0020
0000
,
0000
0000
0000
0000
0000
0000
0000
0000
0000
0000
0000
0000
0000
0000
0000
0000
0000
0000
0000
0000
0000
0000
0000
0000
0000
0000
0000
0000
0000
0000
0000
0000
0000
0000
0000
0000
0000
0000
0000
0000
0000
0000
0000
0000
0000
0000
0000
0000
0000
0000
0000
0000
0000
0000
0000
0000
0000
0000
0000
0000
0000
0000
0000
0000
0000
0000
0000
0000
0000
0000
0000
0000
0000
0000
0000
0000
0000
0000
0000
0000
0000
0000
0000
0000
0000
0000
0000
0000
0000
0000
0000
0000
0000
0000
0000
0000
0030
0000
0000
0000
0000
0000
0000
0000
0000
0000
0000
0000
0000
0000
0000
0000
0000
0000
0000
0000
0000
0000
0000
0000
0000
0000
0000
0000
0000
0000
0000
0000
0000
0000
0000
0000
0000
0000
0000
0000
0000
0000
0000
0000
0000
0000
0000
0000
1000
0000
0000
0000
0000
0000
0000
0000
0000
0000
0000
0000
0000
0000
0000
0000
0000
0000
0000
0100
0000
0000
0000
0000
0000
0000
0000
0000
0000
0000
0000
0000
0000
0000
0000
0000
0000
0000
1000
0000
0000
0000
0000
0000
0000
0000
0000
0000
,
0000
0000
0000
0000
0000
0000
0000
0000
0000
0000
0100
0000
0000
0000
0000
0000
0000
0000
0000
0000
0000
0000
0000
0000
0000
0000
0000
0000
0000
0000
0000
0000
0000
0000
0000
0000
0000
0000
0000
0000
0000
0000
0000
0000
0000
0000
0000
0000
0010
0000
0000
0000
0000
0000
0000
0000
0000
0000
0000
0000
0000
0000
0000
0000
0000
0000
0000
0001
0000
0000
0000
0000
0000
0000
0000
0000
0000
0000
0000
0000
0000
0000
0000
0000
0000
0000
0010
0000
0000
0000
0000
0000
0000
0000
0000
0000
0000
0000
0000
0000
0000
0000
0000
0000
0000
0000
0001
0000
0000
0000
0000
0000
0000
0000
0000
0000
0000
0000
0000
0000
0000
0000
0000
0000
0000
0000
0000
0000
0000
0000
0000
0000
0000
0000
0000
0000
0000
0000
0000
0000
0000
0000
0000
0000
1000
0000
0000
0000
0000
0000
0000
0000
0000
0000
0000
0000
0000
0000
0000
0000
0000
0000
0000
0000
0000
0000
0000
0000
0000
0000
0000
0000
0000
0000
0000
0000
0000
0000
0000
0000
0000
0000
0000
0000
0000
0000
0000
0000
0000
0000
0000
0000
,
1010
0110
0101
0001
,
0011
0110
1100
2002
,
3003
0000
0000
0000
0220
0000
0000
0330
0000
0000
2002
0000
0000
0000
0000
0000
,
3003
0001
0100
1010
,
1001
0000
1100
0000
0100
0020
0000
0000
,
0031
0101
1100
0010
,
0010
0000
0000
0000
0000
0000
0000
0000
0000
0000
0000
0000
0000
0000
0000
0000
0000
0000
0000
0000
0000
0000
0000
0000
2000
0000
0000
0000
0000
0000
0000
0000
0000
0000
0000
0000
0000
0000
0000
0000
0000
0000
0000
0000
0000
0000
0000
0000
0000
0000
0000
0000
0000
0000
0000
0000
0000
0000
0000
0000
0000
0000
0000
0000
0000
0000
0000
0000
0000
0000
0000
0000
0100
0000
0000
0000
0000
0000
0000
0000
0000
0000
0000
0000
0000
0000
0000
0000
0000
0000
0000
0000
0000
0000
0000
0000
3100
0000
0000
0000
0000
0000
0000
0000
0000
0000
0000
0000
0000
0000
0000
0000
0000
0000
0000
0000
0000
0000
0000
0000
0000
0000
0000
0000
0000
0000
0000
0000
0000
0000
0000
0000
0000
0000
0000
0000
0000
0000
0000
0000
0000
0000
0000
0000
1000
0000
0000
0000
0000
0000
0000
0000
0000
0000
0000
0000
0000
0000
0000
0000
0000
0000
0000
0010
0000
0000
0000
0000
0000
0000
0000
0000
0000
0000
0000
0000
0000
0000
0000
0000
0000
0000
1000
0000
0000
0000
0000
0000
0000
0000
0000
0000
,
0000
0000
0000
0000
0000
0000
0000
0000
0000
0000
0010
0000
0000
0000
0000
0000
0000
0000
0000
0000
0000
0000
0000
0000
0000
0000
0000
0000
0000
0000
0000
0000
0000
0000
0000
0000
0000
0000
0000
0000
0000
0000
0000
0000
0000
0000
0000
0000
0100
0000
0000
0000
0000
0000
0000
0000
0000
0000
0000
0000
0000
0000
0000
0000
0000
0000
0000
0001
0000
0000
0000
0000
0000
0000
0000
0000
0000
0000
0000
0000
0000
0000
0000
0000
0000
0000
0100
0000
0000
0000
0000
0000
0000
0000
0000
0000
0000
0000
0000
0000
0000
0000
0000
0000
0000
0000
0001
0000
0000
0000
0000
0000
0000
0000
0000
0000
0000
0000
0000
0000
0000
0000
0000
0000
0000
0000
0000
0000
0000
0000
0000
0000
0000
0000
0000
0000
0000
0000
0000
0000
0000
0000
0000
0000
0010
0000
0000
0000
0000
0000
0000
0000
0000
0000
0000
0000
0000
0000
0000
0000
0000
0000
0000
0000
0000
0000
0000
0000
0000
0000
0000
0000
0000
0000
0000
0000
0000
0000
0000
0000
0000
0000
0000
0000
0000
0000
0000
0000
0000
0000
0000
0000
,
0011
0110
1100
0001
,
1010
0110
0101
2002
,
3003
0000
0000
0000
0220
0000
0000
0330
0000
0000
2002
0000
0000
0000
0000
0000
,
3003
0001
0100
0110
,
1010
0000
1100
0000
0001
0010
0000
0100
,
0010
0001
1000
1010
,
0100
0002
0000
0010
0000
0010
0000
1003
,
0001
0011
0110
1100
,
1000
1000
1000
0000
0001
0200
0000
0000
,
0300
1010
0110
0101
,
0001
0001
0001
0000
1000
0010
0000
0100
,
0000
0110
0000
1001
0000
0000
2001
0000
,
3200
0000
0320
0000
0031
0100
0000
0100
,
0010
0000
1000
0000
0100
0020
0000
0000
,
0030
0000
0000
0000
0001
0000
0000
0001
0000
0000
0100
0000
0000
0000
0100
0000
,
0000
0010
1001
0000
0000
0000
1100
0000
,
0011
0000
1100
0000
0001
0010
0000
0100
,
0000
0010
0001
0000
1000
0000
0101
0000
,
1010
0000
0101
0000
1000
0010
0000
0100
,
0000
0010
1000
0000
0001
0000
0011
0000
,
1010
0000
0011
0000
1000
0001
0000
0100
,
0000
0010
1000
0000
0001
0000
1100
0000
,
0101
0000
1100
0000
0001
1000
0000
0100
,
0000
0010
0001
0000
1000
0000
1001
0000
,
0000
0000
0000
1000
0000
1000
0100
0000
0000
0000
0000
0000
,
0010
0000
0010
0001
0000
0001
0100
0000
0000
0000
0000
0000
,
0010
0000
0010
1000
0000
0000
0000
0000
0000
0001
0000
0001
,
0100
0000
0100
0010
0000
0000
0000
0000
0000
1000
0000
1000
,
0100
0000
0000
0000
0000
0000
0000
0000
0000
0010
0000
0000
0000
0010
0000
0001
0000
0000
0000
0001
0000
0100
0000
0000
,
0000
0000
0000
0000
0000
0000
0000
0000
0000
0010
0000
0000
0000
0010
0000
1000
0000
0000
0000
0000
0000
0000
0000
0000
,
0001
0000
0000
0000
0001
0000
0010
0000
0000
0000
0000
0000
0000
0000
0000
0100
0000
0000
0000
0100
0000
1000
0000
0000
,
0000
0000
0000
0000
0000
0000
1000
0000
0000
0000
0000
0000
0000
0000
1000
0000
0000
0000
0010
0000
0000
0000
0000
0000
0000
0000
0000
0100
0000
0000
0000
0000
0000
0000
0000
0000
0001
0000
0000
0000
0000
0000
0000
0000
0000
1000
0000
0000
,
0000
0000
0000
0000
0000
1000
0000
0000
0000
0100
0000
0000
0000
0000
0000
0000
0000
0100
0000
0000
0000
0010
0000
0000
0000
0000
0000
0000
0000
0010
0000
0000
0000
0001
0000
0000
0000
0000
0000
0000
0000
0001
0000
0000
0000
0000
0000
0000
,
0000
0000
0000
0200
0000
0000
0000
0000
0000
0000
0000
0000
0000
0000
0000
0300
,
0000
0000
0000
0010
0000
0010
0000
0000
0000
0000
0000
0000
0000
0000
0000
0000
;

//--------------- dance-single - forcednature ----------------
#NOTEDATA:;
#STEPSTYPE:dance-single;
#DESCRIPTION:forcednature;
#DIFFICULTY:Hard;
#METER:15;
#RADARVALUES:0,0,0,0,0;
#CREDIT:forcednature;
#NOTES:
0000
0000
0000
0000
,
0000
0000
0000
0000
,
0000
0000
0000
0000
,
0000
0000
0000
0000
,
0000
0000
0000
0000
,
0000
0000
0000
0000
,
0000
0000
0000
0000
,
0000
0000
0000
0000
,
0000
0000
0000
0000
,
0001
0100
0001
0100
0010
1000
0001
1000
,
0100
0010
0000
0000
0001
0010
0000
0000
0100
0010
0000
0000
0001
0000
0100
0000
,
0000
0110
0000
0010
1000
0000
1001
0000
,
1000
0100
0000
0000
0010
0100
0000
0000
1000
0100
0000
0000
0010
0000
0001
0000
,
0000
0101
0000
1000
0010
0000
1001
0000
,
0001
0100
0000
0000
1000
0100
0000
0000
0001
0100
0000
0000
0010
0000
1000
0000
,
0000
1001
0000
0001
0010
0000
0110
0000
,
1001
0000
0000
0000
1100
0000
0000
0011
,
0000
0000
0000
0000
0000
0000
0000
0000
0000
0001
0000
0100
0000
0001
0000
1000
0000
0100
0000
1000
0000
0010
0000
0000
,
0000
0000
0000
0101
0000
0000
1010
0000
,
0000
0000
0000
1000
0100
1000
0001
0100
0001
0010
0000
0000
,
0000
0100
0100
1000
0000
0110
0000
0010
,
0010
2002
0000
0000
0000
3003
0000
1000
,
0100
0010
0100
1000
0001
0100
0000
0001
,
0010
1000
0000
0001
0100
1000
0000
0010
,
1010
0000
0100
0101
0000
0010
1010
0000
,
0100
0101
0000
0010
1010
0000
0000
0001
,
0100
0010
0100
0001
1000
0100
0000
1000
,
0010
0001
0000
1000
0100
0001
0000
0010
,
0011
0000
0100
1100
0000
0010
0011
0000
,
0100
1100
0000
0010
0011
0000
0000
1000
,
0010
0001
0010
0100
0001
1000
0000
0100
,
0010
1000
0000
0001
0100
0010
0000
0001
,
0101
0000
1000
1100
0000
0001
0011
0000
,
1000
1010
0000
0100
1001
0000
0000
0001
,
0010
1000
0010
0100
1000
0001
0000
0100
,
0010
0001
0000
0010
1000
0001
0100
0100
,
0001
0010
0100
0100
1000
0010
0100
0100
,
0010
2002
3003
2000
,
3020
0032
0023
0230
,
0302
2003
3000
0200
,
0010
0000
1300
1000
2000
0000
3002
0000
,
0203
0320
2030
3002
,
0023
0000
0000
0000
0000
0000
0130
0000
1000
0000
0200
0000
0000
0000
0000
0000
0000
0000
0310
0000
0000
0010
0000
0000
,
0010
2002
3003
0110
,
0001
0100
0010
1000
0001
0000
1000
0100
,
0010
0000
0001
0000
0101
0000
0000
0010
0000
0000
1100
0000
0000
0010
0000
0000
,
1001
0000
0000
0100
0000
0000
1001
0000
0000
0010
0000
0000
0210
0000
0000
0000
,
1000
0000
0301
0000
0100
0010
0000
1001
,
0000
0010
0100
0000
1001
0000
1000
0100
,
0010
0011
0000
1001
0000
1000
0001
0100
,
0010
1010
0000
1001
0000
1200
0000
0000
,
0010
0000
0001
0000
0010
0000
1300
0100
,
1000
0010
0100
0001
0010
0001
0200
0000
,
0000
0000
0000
0000
0000
0000
0000
0000
0000
0000
0000
0000
0000
0000
0000
0000
0000
0000
0000
0000
0000
0000
0000
0000
0000
0000
0000
0000
0000
0000
0000
0000
0000
0000
0000
0000
0000
0000
0000
0000
0000
0000
0000
0000
0000
0000
0000
0000
0300
0000
0000
0000
0000
0000
0000
0000
0000
0000
0000
0000
0000
0000
0000
0000
0000
0000
0000
0000
0000
0000
0000
0000
0000
0000
0000
0000
0000
0000
0000
0000
0000
0000
0000
0000
0000
0000
0000
0000
0000
0000
0000
0000
0000
0000
0000
0000
0000
0000
0000
0000
0000
0000
0000
0000
0000
0000
0000
0000
0000
0000
0000
0000
0000
0000
0000
0000
0000
0000
0000
0000
0000
0000
0000
0000
0000
0000
0000
0000
0000
0000
0000
0000
0000
0000
0000
0000
0000
0000
0000
0000
0000
0000
0000
0000
0001
0000
0000
0000
0000
0000
0000
0000
0000
0000
0000
0000
0000
0000
0000
0000
0000
0000
0000
0010
0000
0000
0000
0000
0000
0000
0000
0000
0000
0000
0000
0000
0000
0000
0000
0000
0000
0000
0001
0000
0000
0000
0000
0000
0000
0000
0000
0000
,
0000
0000
0000
0000
0000
0000
0000
0000
0000
0000
0010
0000
0000
0000
0000
0000
0000
0000
0000
0000
0000
0000
0000
0000
0000
0000
0000
0000
0000
0100
0000
0000
0000
0000
0000
0000
0000
0000
0000
0000
0000
0000
0000
0000
0000
0000
0000
0000
0010
0000
0000
0000
0000
0000
0000
0000
0000
0000
0000
0000
0000
0000
0000
0000
0000
0000
0000
0100
0000
0000
0000
0000
0000
0000
0000
0000
0000
0000
0000
0000
0000
0000
0000
0000
0000
0000
1000
0000
0000
0000
0000
0000
0000
0000
0000
0000
0000
0000
0000
0000
0000
0000
0000
0000
0000
0000
0100
0000
0000
0000
0000
0000
0000
0000
0000
0000
0000
0000
0000
0000
0000
0000
0000
0000
0000
1000
0000
0000
0000
0000
0000
0000
0000
0000
0000
0000
0000
0000
0000
0000
0000
0000
0000
0000
0001
0000
0000
0000
0000
0000
0000
0000
0000
0000
0000
0000
0000
0000
0000
0000
0000
0000
0000
0000
0000
0000
0000
0000
0000
0000
0000
0000
0000
0000
0000
0000
0000
0000
0000
0000
0001
0000
0000
0000
0000
0000
0000
0000
0000
0000
0000
0000
,
0100
0000
0000
0100
0010
0000
0000
0010
1000
0000
0000
1000
0100
0000
0000
0100
,
0010
0000
0000
0010
0001
0000
0000
0001
0100
0000
0000
0100
0020
0000
0000
0000
,
1030
0001
0020
0000
0130
2000
0000
3010
,
0010
0000
0000
0000
0100
0000
0000
0100
0001
0000
0000
0001
0010
0000
0000
0010
,
0100
0000
0000
0100
1000
0000
0000
1000
0010
0000
0200
0000
0000
0000
0301
0000
,
0010
0000
0000
0010
0100
0000
0000
0100
1000
0000
0000
1000
0001
0000
0000
0000
,
0100
0000
0000
0000
0000
0000
0000
0000
0000
0000
0000
0000
0000
0000
0000
0000
0000
0000
0000
0000
0000
0000
0000
0000
0020
0000
0000
0000
0000
0000
0000
0000
0000
0000
0000
0000
0000
0000
0000
0000
0000
0000
0000
0000
0000
0000
0000
0000
1000
0000
0000
0000
0000
0000
0000
0000
0000
0000
0000
0000
0000
0000
0000
0000
0000
0000
0000
0000
0000
0000
0000
0000
1000
0000
0000
0000
0000
0000
0000
0000
0000
0000
0000
0000
0000
0000
0000
0000
0000
0000
0000
0000
0000
0000
0000
0000
1000
0000
0000
0000
0000
0000
0000
0000
0000
0000
0000
0000
0000
0000
0000
0000
0000
0000
0000
0000
0000
0000
0000
0000
0030
0000
0000
0000
0000
0000
0000
0000
0000
0000
0000
0000
0000
0000
0000
0000
0000
0000
0000
0000
0000
0000
0000
0000
1000
0000
0000
0000
0000
0000
0000
0000
0000
0000
0000
0000
0000
0000
0000
0000
0000
0000
0000
0100
0000
0000
0000
0000
0000
0000
0000
0000
0000
0000
0000
0000
0000
0000
0000
0000
0000
0000
0010
0000
0000
0000
0000
0000
0000
0000
0000
0000
,
0000
0000
0000
0000
0000
0000
0000
0000
0000
0000
0001
0000
0000
0000
0000
0000
0000
0000
0000
0000
0000
0000
0000
0000
0000
0000
0000
0000
0000
0010
0000
0000
0000
0000
0000
0000
0000
0000
0000
0000
0000
0000
0000
0000
0000
0000
0000
0000
0100
0000
0000
0000
0000
0000
0000
0000
0000
0000
0000
0000
0000
0000
0000
0000
0000
0000
0000
1000
0000
0000
0000
0000
0000
0000
0000
0000
0000
0000
0000
0000
0000
0000
0000
0000
0000
0000
0010
0000
0000
0000
0000
0000
0000
0000
0000
0000
0000
0000
0000
0000
0000
0000
0000
0000
0000
0000
0100
0000
0000
0000
0000
0000
0000
0000
0000
0000
0000
0000
0000
0000
0000
0000
0000
0000
0000
0001
0000
0000
0000
0000
0000
0000
0000
0000
0000
0000
0000
0000
0000
0000
0000
0000
0000
0000
0010
0000
0000
0000
0000
0000
0000
0000
0000
0000
0000
0000
0000
0000
0000
0000
0000
0000
0000
0000
0000
0000
0000
0000
0000
0000
0000
0000
0000
0000
0000
0000
0000
0000
0000
0000
0010
0000
0000
0000
0000
0000
0000
0000
0000
0000
0000
0000
,
0100
0000
0000
0100
1000
0000
0000
1000
0010
0000
0000
0010
0100
0000
0000
0100
,
0001
0000
0000
0001
0010
0000
0000
0010
0001
0000
0000
0001
0200
0000
0000
0000
,
0310
1000
0002
0000
0013
0200
0000
1000
,
1300
0000
0000
0000
0001
0000
0000
0001
0100
0000
0000
0100
0010
0000
0000
0010
,
1000
0000
0000
1000
0001
0000
0000
0001
0010
0000
0200
0000
0000
0000
1300
0000
,
0010
0000
0000
0010
0100
0000
0000
0100
0001
0000
0000
0001
0010
0000
0000
0000
,
0100
2000
0000
0010
0010
0001
0000
0100
,
3100
1100
0110
0011
,
0001
1000
0100
0010
0001
0000
0000
0000
0100
0000
0010
0000
0000
0000
1000
0000
,
0001
0101
0110
1010
,
1000
0001
0100
0010
1000
0000
0000
0000
0100
0000
0010
0000
0000
0000
0101
0000
,
0000
0000
1100
0000
0000
0000
2002
0000
0000
3003
0000
0000
1000
0000
0100
0000
,
0001
0100
0010
1000
0010
0002
0000
0100
,
0103
0000
1001
0000
0100
0020
0000
0000
,
0030
0000
0000
0000
1001
0000
0000
1001
0000
0000
0110
0000
0000
0000
0110
0000
,
0000
0000
1001
0000
2002
0000
0000
0000
3003
0000
0000
0000
1000
0100
0000
0000
,
0001
0100
0000
0000
1000
0100
0000
0000
0010
0000
0001
0000
0000
0000
0101
0000
,
0000
0000
0100
0000
0010
0000
0000
0000
1001
0000
0000
0000
0001
0100
0000
0000
,
1000
0100
0000
0000
0001
0100
0000
0000
0010
0000
1000
0000
0000
0000
0101
0000
,
0000
0000
1000
0000
0100
0000
0000
0000
1001
0000
0000
0000
1000
0010
0000
0000
,
0001
0100
0000
0000
1000
0010
0000
0000
1000
0000
0100
0000
0000
0000
0110
0000
,
0000
0000
0001
0000
0100
0000
0000
0000
1001
0000
0000
0000
0001
0010
0000
0000
,
1000
0100
0000
0000
0001
0010
0000
0000
0001
0000
0100
0000
0000
0000
0110
0000
,
0000
1000
0100
0000
1001
0000
0110
0000
,
0000
0000
0000
0001
0100
0010
1000
0000
0000
0000
0000
0000
,
0001
0100
0001
1000
0100
1000
0010
0000
0000
0000
0000
0000
,
1000
0100
0010
0001
0000
0000
0000
0000
0000
1000
0100
1000
,
0001
0100
0001
0010
0000
0000
0000
0000
0000
0001
0010
0100
,
1000
0000
0000
1000
0000
0000
1000
0000
0000
0010
0000
0100
0000
0001
0000
0010
0000
0100
0000
1000
0000
0010
0000
0000
,
0000
0000
0000
0000
0000
0000
0000
0000
0000
0100
0000
0001
0000
1000
0000
0100
0000
0000
0100
0000
0000
0100
0000
0000
,
0010
0000
0001
0000
1000
0000
0010
0000
0000
0010
0000
0000
0010
0000
0000
1000
0000
0100
0000
0010
0000
0001
0000
0000
,
0001
0000
0000
0000
0000
0000
0100
0000
0000
0000
0010
0000
0000
0000
1000
0000
0000
0000
0001
0000
0000
0000
0000
0000
0000
0000
0000
0010
0000
0000
0000
0000
0000
0000
0000
0000
0100
0000
0000
0000
0000
0000
0000
0000
0000
1000
0000
0000
,
0000
0010
0000
0000
0000
1000
0000
0000
0000
0001
0000
0000
0000
0010
0000
0000
0000
0001
0000
0000
0000
0100
0000
0000
0000
0001
0000
0000
0000
1000
0000
0000
0000
0100
0000
0000
0000
1000
0000
0000
0000
0010
0000
0000
0000
0000
0000
0000
,
0000
0000
0000
0200
0000
0000
0000
0000
0000
0000
0000
0000
0000
0000
0000
0300
,
0000
0000
0000
1001
0000
1001
0000
0000
0000
0000
0000
0000
0000
0000
0000
0000
;

//--------------- dance-single - forcednature ----------------
#NOTEDATA:;
#STEPSTYPE:dance-single;
#DESCRIPTION:forcednature;
#DIFFICULTY:Challenge;
#METER:17;
#RADARVALUES:0,0,0,0,0;
#CREDIT:forcednature;
#NOTES:
0000
0000
0000
0000
,
0000
0000
0000
0000
,
0000
0000
0000
0000
,
0000
0000
0000
0000
,
0000
0000
0000
0000
,
0000
0000
0000
0000
,
0000
0000
0000
0000
,
0000
0000
0000
0000
,
0110
0000
0100
0010
0000
0110
0000
2002
,
0000
0000
0000
3003
,
1000
0100
0010
0000
1000
0100
0010
0000
1000
0100
0010
0000
0100
0000
1100
0000
,
0000
1010
0000
0100
0101
0000
0011
0000
,
0001
0100
0010
0000
1000
0100
0010
0000
0001
0100
0010
0000
1000
0000
1100
0000
,
0000
0101
0000
0010
0110
0000
1001
0000
,
1000
0010
0100
0000
1000
0010
0100
0000
1000
0010
0100
0000
0001
0000
0011
0000
,
0000
1010
0000
0010
1100
0000
0101
0000
,
1001
0000
0000
0000
0110
0000
0000
1001
,
0000
0000
0000
0000
0000
0000
0000
0000
0000
0001
0000
0100
0000
1000
0000
0001
0000
0010
0000
1000
0000
0001
0000
0000
,
0000
0000
0000
1001
0000
0000
0110
0000
,
0000
0000
0000
1000
0100
0001
1000
0010
0001
0100
0000
0000
,
0000
0000
0010
1000
0001
0000
0011
0000
0000
0000
1100
0000
0000
0000
1000
0010
,
0100
2002
0000
0000
0000
0000
3003
1000
,
0100
0001
0100
1000
0001
0011
0000
1000
,
0010
0000
0110
0000
0000
0000
0001
0000
1000
0000
1100
0000
0000
0000
0010
0001
,
1000
0001
0010
0000
0100
1000
0001
1000
0100
0000
0010
0001
1000
0001
0010
0000
,
0100
1000
0001
1000
0100
0000
0010
0001
2000
0000
0000
0000
3000
0000
0001
0000
,
0100
1000
0001
0010
1000
1010
0000
0001
,
0100
0000
0110
0000
0000
0000
1000
0000
0001
0000
0100
0000
0000
0000
0010
1000
,
0001
1000
0010
0000
0100
0001
1000
0001
0100
0000
0010
1000
0001
1000
0010
0000
,
0100
0001
1000
0001
0100
0000
0010
1000
0002
0000
0000
0000
0003
0000
0010
0000
,
0100
0001
0100
1000
0001
0011
0000
1000
,
0010
0000
0110
0000
0000
0000
0001
0000
0010
0000
1001
0000
0000
0000
1000
0100
,
0010
0100
1000
0000
0001
0100
0010
0100
0001
0000
1000
0100
0010
0100
1000
0000
,
0001
0100
0010
0100
0001
0000
0010
0100
2000
0000
0000
0000
3000
0000
1000
0000
,
0001
0100
0001
1000
0010
0110
0000
0001
,
1000
0000
1100
0000
0000
0000
1000
0000
0001
0000
0011
0000
0000
0000
0001
0010
,
0100
0010
0001
0000
1000
0010
0100
0010
1000
0000
0001
0010
0100
0010
0001
0000
,
1000
0010
0100
0010
1000
0000
0001
0010
0100
0000
0000
0000
1000
0000
0000
1000
,
0010
0000
0000
0010
0100
0000
0000
0100
1000
0000
0000
1000
0100
0000
0001
0100
,
0001
1000
0000
0010
2000
0000
0000
0000
3100
0000
1000
0001
0020
0000
0000
0000
,
0031
0100
0000
0100
0001
1000
0010
0100
0002
0000
0000
0000
0013
0000
0000
0010
,
0100
0000
0000
0100
1000
0000
0100
0010
0001
0000
0000
0001
0100
0000
0000
0100
,
0010
0000
0000
0000
0000
0000
1000
0000
0000
0000
0000
0000
0001
0000
0000
0000
0010
0000
0000
0000
0100
0000
0000
0000
0010
0000
0000
0000
0000
0000
0001
0000
0000
1000
0000
0000
0001
0000
0000
0100
0000
0000
0010
0000
0000
1000
0000
0000
,
0001
0120
0130
2001
,
3100
0001
0100
1000
1020
0000
0130
1000
,
0100
0000
0001
0000
0010
0001
0000
0010
0100
0000
1000
0010
0100
0001
0100
0000
,
0010
1000
0000
0010
0100
0000
0001
0010
0001
1000
0010
1000
0200
0000
0000
0000
,
1000
0001
0000
0000
0001
1000
0000
0000
0000
0000
1000
0001
0000
0000
0001
1000
,
0000
0000
0000
0000
1000
0001
0000
0000
0001
1000
0000
0000
0310
0000
0001
0100
,
0010
0000
0110
0000
0000
0000
1010
0000
0000
1000
0001
0100
0010
0000
1000
0100
,
0010
0000
0110
0000
0000
0000
0010
0001
1000
0001
0010
0001
2000
0000
0000
0000
,
0010
0000
0010
0000
0001
0000
0001
0000
0100
0000
3100
0000
1000
0001
0100
0010
,
1000
0010
0100
0001
1000
0100
0010
0001
1000
0000
0000
0000
0020
0000
0000
0000
,
0000
0000
0000
0000
0000
0000
0000
0000
0000
0000
0000
0000
0000
0000
0000
0000
0000
0000
0000
0000
0000
0000
0000
0000
0000
0000
0000
0000
0000
0000
0000
0000
0000
0000
0000
0000
0000
0000
0000
0000
0000
0000
0000
0000
0000
0000
0000
0000
0200
0000
0000
0000
0000
0000
0000
0000
0000
0000
0000
0000
0000
0000
0000
0000
0000
0000
0000
0000
0000
0000
0000
0000
0000
0000
0000
0000
0000
0000
0000
0000
0000
0000
0000
0000
0000
0000
0000
0000
0000
0000
0000
0000
0000
0000
0000
0000
0330
0000
0000
0000
0000
0000
0000
0000
0000
0000
0000
0000
0000
0000
0000
0000
0000
0000
0000
0000
0000
0000
0000
0000
0000
0000
0000
0000
0000
0000
0000
0000
0000
0000
0000
0000
0000
0000
0000
0000
0000
0000
0000
0000
0000
0000
0000
0000
0010
0000
0000
0000
0000
0000
0000
0000
0000
0000
0000
0000
0000
0000
0000
0000
0000
0000
0000
1000
0000
0000
0000
0000
0000
0000
0000
0000
0000
0000
0000
0000
0000
0000
0000
0000
0000
0000
0100
0000
0000
0000
0000
0000
0000
0000
0000
0000
,
0010
0000
0000
0000
0000
0000
0000
0000
0000
0000
0001
0000
0000
0000
0000
0000
0000
0000
0000
0000
0000
0000
0000
0000
0000
0000
0000
0000
0000
1000
0000
0000
0000
0000
0000
0000
0000
0000
0000
0000
0000
0000
0000
0000
0000
0000
0000
0000
0010
0000
0000
0000
0000
0000
0000
0000
0000
0000
0000
0000
0000
0000
0000
0000
0000
0000
0000
0100
0000
0000
0000
0000
0000
0000
0000
0000
0000
0000
0000
0000
0000
0000
0000
0000
0000
0000
0001
0000
0000
0000
0000
0000
0000
0000
0000
0000
0010
0000
0000
0000
0000
0000
0000
0000
0000
0000
0100
0000
0000
0000
0000
0000
0000
0000
0000
0000
0000
0000
0000
0000
0000
0000
0000
0000
0000
1000
0000
0000
0000
0000
0000
0000
0000
0000
0000
0000
0000
0000
0000
0000
0000
0000
0000
0000
0010
0000
0000
0000
0000
0000
0000
0000
0000
0000
0000
0000
0000
0000
0000
0000
0000
0000
0000
0000
0000
0000
0000
0000
1000
0000
0000
0000
0000
0000
0000
0000
0000
0000
0000
0000
0010
0000
0000
0000
0000
0000
0000
0000
0000
0000
0000
0000
,
0100
0000
0010
0100
0001
0000
1000
0001
0010
0000
0100
1000
0001
0000
0001
1000
,
0010
0000
0100
0001
1000
0000
1000
0001
0010
0000
0100
1000
0001
0000
0100
0000
,
1000
0000
0100
0000
0001
1000
0010
0100
0001
0000
0021
0000
0000
0000
0130
1000
,
0001
0000
0010
0000
0001
1000
0010
0100
0001
0000
0000
0000
0010
0000
0100
0010
,
0001
0000
1000
0001
0100
0000
0010
1000
0001
0000
0021
0000
0000
0000
0130
1000
,
0001
0000
0100
0000
0010
1000
0001
0100
0010
0000
0000
0000
1000
0000
0100
0010
,
0001
0000
0000
0000
0000
0000
0000
0000
0000
0000
0000
0000
0000
0000
0000
0000
0000
0000
0000
0000
0000
0000
0000
0000
1000
0000
0000
0000
0000
0000
0000
0000
0000
0000
0000
0000
0000
0000
0000
0000
0000
0000
0000
0000
0000
0000
0000
0000
0010
0000
0000
0000
0000
0000
0000
0000
0000
0000
0000
0000
0100
0000
0000
0000
0000
0000
0000
0000
0000
0000
0000
0000
0001
0000
0000
0000
0000
0000
0000
0000
0000
0000
0000
0000
0100
0000
0000
0000
0000
0000
0000
0000
0000
0000
0000
0000
0020
0000
0000
0000
0000
0000
0000
0000
0000
0000
0000
0000
0000
0000
0000
0000
0000
0000
0000
0000
0000
0000
0000
0000
0000
0000
0000
0000
0000
0000
0000
0000
0000
0000
0000
0000
0000
0000
0000
0000
0000
0000
0000
0000
0000
0000
0000
0000
1030
0000
0000
0000
0000
0000
0000
0000
0000
0000
0000
0000
0000
0000
0000
0000
0000
0000
0000
0100
0000
0000
0000
0000
0000
0000
0000
0000
0000
0000
0000
0000
0000
0000
0000
0000
0000
0000
0001
0000
0000
0000
0000
0000
0000
0000
0000
0000
,
0000
0000
0000
0000
0000
0000
0000
0000
0000
0000
1000
0000
0000
0000
0000
0000
0000
0000
0000
0000
0000
0000
0000
0000
0000
0000
0000
0000
0000
0010
0000
0000
0000
0000
0000
0000
0000
0000
0000
0000
0000
0000
0000
0000
0000
0000
0000
0000
0001
0000
0000
0000
0000
0000
0000
0000
0000
0000
0000
0000
0000
0000
0000
0000
0000
0000
0000
0100
0000
0000
0000
0000
0000
0000
0000
0000
0000
0000
0000
0000
0000
0000
0000
0000
0000
0000
1000
0000
0000
0000
0000
0000
0000
0000
0000
0000
0000
0000
0000
0000
0000
0000
0000
0000
0000
0000
0001
0000
0000
0000
0000
0000
0000
0000
0000
0000
0000
0000
0000
0000
0000
0000
0000
0000
0000
0010
0000
0000
0000
0000
0000
0000
0000
0000
0000
0000
0000
0000
0000
0000
0000
0000
0000
0000
1000
0000
0000
0000
0000
0000
0000
0000
0000
0000
0000
0000
0000
0000
0000
0000
0000
0000
0000
0000
0000
0000
0000
0000
0010
0000
0000
0000
0000
0000
0000
0000
0000
0000
0000
0000
0100
0000
0000
0000
0000
0000
0000
0000
0000
0000
0000
0000
,
0001
0000
1000
0100
0010
0000
0001
1000
0010
0000
0100
0001
1000
0000
1000
0100
,
0010
0000
0100
0010
0001
0000
0001
0100
0010
0000
1000
0001
0010
0000
0100
0000
,
0001
0000
0100
0000
1000
0001
0010
0100
1000
0000
1020
0000
0000
0000
0130
0001
,
1000
0000
0001
0000
0010
0100
1000
0001
0010
0000
0000
0000
0001
1000
0010
0000
,
0100
0001
1000
0000
0100
0010
0001
0010
0100
0000
2000
0000
0000
0000
3010
0100
,
0001
0000
0100
0000
0010
1000
0001
0100
0010
0000
0000
0000
1000
0000
0001
0010
,
0100
0000
0010
0100
1000
0000
1100
0000
0000
0000
0011
0000
0000
0000
0001
0100
,
0001
1000
0010
1000
0001
0010
0100
1000
0010
0000
0000
0000
0110
0000
0000
0000
,
0100
1000
0100
0001
1000
0000
0010
0000
0100
0000
0101
0000
0000
0000
0001
0000
,
0010
1000
0010
0100
1100
0000
0110
0000
,
0100
0001
0100
1000
0002
0000
0000
0000
0013
0000
0101
0000
0000
0000
1100
0000
,
1000
1010
0000
0011
0001
0000
0200
2300
,
3002
0023
2030
3200
0302
2003
0000
3010
,
1001
0000
0110
0000
0100
2002
0000
0000
,
3003
0000
0000
0000
0110
0000
0000
1001
0000
0000
0110
0000
0000
0000
1001
0000
,
0000
0000
0110
0000
2002
0000
0000
0000
3003
0000
0000
0000
0001
0100
0010
0000
,
0001
0100
0010
0000
0001
0100
0010
0000
1000
0000
1100
0000
0000
0000
0011
0000
,
0000
0000
0001
0100
1000
0000
0000
0000
0110
0000
0000
0000
1000
0100
0010
0000
,
0001
0100
0010
0000
1000
0100
0010
0000
0001
0000
0101
0000
0000
0000
1100
0000
,
0000
0000
1000
0100
0001
0000
0000
0000
0110
0000
0000
0000
0001
0010
0100
0000
,
0001
0010
0100
0000
0001
0010
0100
0000
1000
0000
1010
0000
0000
0000
0101
0000
,
0000
0000
0001
0010
1000
0000
0000
0000
0110
0000
0000
0000
1000
0010
0100
0000
,
0001
0010
0100
0000
1000
0010
0100
0000
0001
0000
0011
0000
0000
0000
1100
0000
,
0000
0000
1000
0010
0100
0001
0100
0010
1000
0000
0000
0000
1001
0000
0000
0000
,
0000
0000
0000
1000
0100
0010
0011
0000
0000
0000
0000
0000
,
0001
0100
1000
0001
0010
1000
0001
0000
0000
0000
0000
0000
,
0001
0100
0010
1010
0000
0000
0000
0000
0000
1000
0100
0001
,
1000
0010
0001
1000
0000
0000
0000
0000
0000
0001
0100
1000
,
0100
0000
0000
0100
0000
0000
0100
0000
0000
0100
0000
0001
0000
1000
0000
0100
0000
0001
0000
1000
0000
0010
0000
0000
,
0000
0000
0000
0000
0000
0000
0000
0000
0000
0100
0000
1000
0000
0001
0000
0100
0000
0000
0100
0000
0000
0100
0000
0000
,
0001
0000
1000
0000
0100
0000
0001
0000
0000
0001
0000
0000
0001
0000
0000
0100
0000
1000
0000
0010
0000
0100
0000
0000
,
0100
0000
0000
0000
0000
0000
1000
0000
0000
0000
0100
0000
0000
0000
0001
0000
0000
0000
1000
0000
0000
0000
0000
0000
0010
0000
0000
0100
0000
0000
0000
0000
0000
0001
0000
0000
0100
0000
0000
0000
0000
0000
0010
0000
0000
1000
0000
0000
,
0000
0001
0000
0000
0000
0010
0000
0000
0000
0100
0000
0000
0000
0001
0000
0000
0000
1000
0000
0000
0000
0010
0000
0000
0000
0001
0000
0000
0000
0100
0000
0000
0000
1000
0000
0000
0000
0001
0000
0000
0000
0010
0000
0000
0000
0000
0000
0000
,
0000
0000
0000
0100
0001
0100
0010
1000
0010
0100
0001
1000
0100
1000
0010
0000
,
0000
0000
0000
0110
0000
0110
0000
0000
0000
0000
0000
0000
0000
0000
0000
0000
;

//--------------- dance-double - forcednature ----------------
#NOTEDATA:;
#STEPSTYPE:dance-double;
#DESCRIPTION:forcednature;
#DIFFICULTY:Easy;
#METER:10;
#RADARVALUES:0,0,0,0,0;
#CREDIT:forcednature;
#NOTES:
00000000
00000000
00000000
00000000
,
00000000
00000000
00000000
00000000
,
00000000
00000000
00000000
00000000
,
00000000
00000000
00000000
00000000
,
00000000
00000000
00000000
00000000
,
00000000
00000000
00000000
00000000
,
00000000
00000000
00000000
00000000
,
00000000
00000000
00000000
00000000
,
00000000
00000000
00000000
00000000
,
00000000
00000000
00000000
00000000
,
00011000
00011000
00011000
00000000
,
00010000
00001000
01000000
00010000
,
10010000
10010000
10010000
00000000
,
10000000
01000000
00100000
00001000
,
00011000
00011000
00011000
00000000
,
00001000
00010000
00000010
00001000
,
00001001
00000000
00000000
00000000
00000110
00000000
00000000
00000110
,
00000000
00000000
00000000
00000001
00000000
00001000
00000000
00000100
,
00000000
00000000
00000000
00011000
00000000
00000000
00011000
00000000
,
00000000
01000000
00010000
00100000
,
00000000
00000000
00000000
01000000
00000000
01000000
00000000
00000000
,
00000000
20020000
00000000
00000000
00000000
00000000
30030000
00000000
,
10000000
01000000
00010000
00001000
,
00100000
00000000
00001000
00000000
00010000
00000000
00000000
00000010
,
00001000
00000000
00000010
00001000
00000000
00000001
00000100
00000000
,
00000001
00000100
00000000
00000010
00001000
00000000
00000000
00000000
,
00000001
00000010
00000100
00000010
,
00000100
00000000
00010000
00000000
00001000
00000000
00000000
00100000
,
00010000
00000000
00100000
00010000
00000000
10000000
01000000
00000000
,
10000000
01000000
00000000
00100000
00010000
00000000
00000000
00000000
,
01000000
00001000
00010000
00000010
,
00010000
00000000
00001000
00000000
01000000
00000000
00000000
00010000
,
10000000
00000000
00010000
10000000
00000000
01000000
00100000
00000000
,
01000000
00100000
00000000
00010000
10000000
00000000
00000000
00000000
,
00010000
01000000
00001000
00010000
,
00000010
00000000
00001000
00000000
00000100
00000000
00000000
00000010
,
00000001
00000000
00000010
00000001
00000000
00001000
00000100
00000000
,
00001000
00000100
00000000
00000010
00000001
00000000
00000100
00000000
,
00001000
00010000
00100000
00010000
,
00001000
00000200
00000000
00000302
,
00000000
00000013
00001000
00010000
,
01000000
00010000
00001000
00100000
,
00010000
00000000
10000000
00100000
20000000
00000000
00000000
00000000
,
30000000
01000000
00100000
10020000
,
00000000
01030000
00002000
00003000
,
00010000
00000000
00010100
00000000
00000000
00001100
00000000
00000000
,
00001001
00000000
00000000
00000011
00000000
00000000
00000210
00000000
,
00001000
00000000
00001000
00000000
00000000
00010000
00000000
00010000
,
00000000
00001000
00001300
00000100
,
00010000
00000000
00000000
00011000
00000000
00000000
01000000
00000000
,
00001000
00000000
00000000
00011000
00000000
00021000
00000000
00000000
,
00000010
00000010
00000010
00000000
,
00001000
00001000
00031000
00000000
,
00000000
00000000
00000000
02000000
,
03002000
00023000
00030020
00001030
,
00000100
00000000
00000010
00000100
00000010
00000000
00000001
00000000
,
00000100
00000000
00000010
00000100
00000010
00000000
00001000
00000000
,
00000100
00010000
00001000
00011000
,
00010000
00001000
01000000
00010000
,
00100000
00000000
01000000
00100000
01000000
00000000
10000000
00000000
,
00100000
00000000
01000000
00100000
01000000
00000000
00010000
00000000
,
00100000
00001000
00010000
00000020
,
00002030
00003002
00000023
00000130
,
00010000
00000000
00001000
00100000
00001000
00000000
00010000
00000000
,
00000100
00000000
00001000
00000010
00001000
00000000
00000100
00000000
,
00010000
00001000
01000000
10010000
,
00010000
00100000
01000000
00100000
,
00001000
00000000
00010000
00000010
00010000
00000000
00001000
00000000
,
01000000
00000000
00010000
10000000
00010000
00000000
00100000
00000000
,
01000000
00010000
00001000
00011000
,
00010000
00000100
00000110
00001001
,
00001000
00000001
00001000
00000000
00000010
00000000
00000100
00000000
,
00001000
00010000
00011000
00101000
,
00100000
00010000
00100000
00000000
01000000
10000000
00000000
10000000
,
00000000
00000000
00100000
00000000
00000000
00000000
20020000
00000000
00000000
30030000
00000000
00000000
10000000
00000000
00000000
00000000
,
01000000
00010000
00002000
00000000
,
00003010
00000110
00002002
00000000
,
00003003
00000000
00000000
00000000
00000001
00000000
00000000
00000001
00000000
00000000
00000100
00000000
00000000
00000000
00000100
00000000
,
00000000
00001000
00010000
00000000
00000000
00000000
00011000
00000000
,
00011000
00011000
00001000
01000000
,
00010000
10000000
01000000
01100000
,
01100000
01100000
00100000
00001000
,
00010000
00000100
00001000
00001001
,
00001001
00001001
00000001
00000100
,
00001000
00010000
00000100
00000110
,
00000110
00000110
00000010
00000001
,
00001000
00000010
00010000
00011000
,
00000000
01000000
00010000
00000000
,
10000000
01000000
00010000
00000000
,
00011000
00011000
00000000
00001000
,
00000010
00000001
00000000
00001001
,
00001001
00000000
00000000
00001000
00000000
00000010
00000000
00010000
,
00000000
00000000
00000000
00011000
00000000
00011000
00000000
00000000
,
00001000
00000000
00100000
00000000
00000000
00010000
00000000
01000000
,
00000000
00000000
00100000
00000000
00000000
00000000
10000000
00000000
00000000
01000000
00000000
00000000
00010000
00000000
00000000
00001000
,
00000000
00000000
00000000
00000010
00000000
00000000
00000000
00000001
00000000
00000000
00000000
00000100
00000000
00000000
00000000
00000000
,
00000000
00000000
00000000
00000020
00000000
00000000
00000000
00000000
00000000
00000000
00000000
00000000
00000000
00000000
00000000
00000030
,
00000000
00000000
00000000
00001000
00000000
00001000
00000000
00000000
00000000
00000000
00000000
00000000
00000000
00000000
00000000
00000000
;

//--------------- dance-double - forcednature ----------------
#NOTEDATA:;
#STEPSTYPE:dance-double;
#DESCRIPTION:forcednature;
#DIFFICULTY:Medium;
#METER:13;
#RADARVALUES:0,0,0,0,0;
#CREDIT:forcednature;
#NOTES:
00000000
00000000
00000000
00000000
,
00000000
00000000
00000000
00000000
,
00000000
00000000
00000000
00000000
,
00000000
00000000
00000000
00000000
,
00000000
00000000
00000000
00000000
,
00000000
00000000
00000000
00000000
,
00000000
00000000
00000000
00000000
,
00000000
00000000
00000000
00000000
,
00001000
00000000
00010000
00001000
00000000
00010000
00000000
00022000
,
00000000
00000000
00000000
00033000
,
01001000
00000000
01010000
00000000
01001000
00000000
00001000
00010000
,
00000000
00000100
00000000
00001000
00000100
00000000
00010000
00000000
,
00010100
00000000
00001100
00000000
00010100
00000000
00000100
00001000
,
00000000
00000010
00000000
00010000
00001000
00000000
00100000
00000000
,
01010000
00000000
01001000
00000000
01010000
00000000
00001000
00010000
,
00000000
00000100
00000000
00001000
00000001
00000000
00000100
00000000
,
00000110
00000000
00000000
00000000
00001001
00000000
00000000
00000110
,
00000000
00000000
00000000
00002000
00000000
00003200
00000000
00010300
,
00000000
00000000
00000000
00011000
00000000
00000000
01001000
00000000
,
00000000
20000000
30020000
00130000
,
00000000
00000000
00000000
01100000
00000000
01100000
00000000
00000000
,
00000000
20020000
00000000
00000000
00000000
30030000
00000000
00010000
,
01000000
00010000
01000000
00000000
00001000
00010000
00000000
00000010
,
00000000
00001010
00000000
00001000
00000000
00001100
00000000
00000100
,
00000100
00000000
00000010
00000010
00000000
00000100
00000100
00000000
,
00000010
00000010
00000000
00000100
00000100
00000000
00000000
00000010
,
00000001
00000000
00000100
00000000
00000001
00000010
00000000
00000100
,
00000000
00001100
00000000
00001000
00000100
00010000
00000000
00001000
,
00001000
00000000
01000000
01000000
00000000
00010000
00010000
00000000
,
01000000
01000000
00000000
00001000
00001000
00000000
00000000
00100000
,
00000000
00010000
00100000
01000000
00100000
00010000
00000000
10000000
,
00000000
10100000
00000000
00010000
00000000
01010000
00000000
00001000
,
00001000
00000000
00010000
00010000
00000000
00000100
00000100
00000000
,
00010000
00010000
00000000
00001000
00001000
00000000
00000000
00000010
,
00000100
00000010
00000001
00000000
00001000
00000010
00000000
00001000
,
00000000
00001100
00000000
00000100
00000000
00010100
00000000
00010000
,
00001000
00000000
01000000
00010000
00000000
01000000
00001000
00000000
,
00010000
00000100
00000000
00001000
00000100
00000000
00010000
00000000
,
00011000
00001000
00101000
00100000
,
00110000
20020000
30030000
11000000
,
00010000
00000000
10000000
01000000
00010000
00000000
00001000
00000000
,
00011000
00000100
00001100
00000001
,
00000101
00000000
00000000
00000000
00000000
00000000
00001000
00000000
00000001
00000000
00002000
00000000
00000000
00000000
00000000
00000000
00000000
00000000
00003010
00000000
00000000
00000010
00000000
00000000
,
00000010
00000220
00000330
00002001
,
00003001
00000000
00000100
00001000
00020000
00000000
00031000
00000000
,
00010000
00000000
00100000
00000000
10000000
00000000
00000000
01000000
00000000
00000000
00010000
00000000
00000000
01000000
00000000
00000000
,
00100000
00000000
00000000
00001000
00000000
00000000
00010000
00000000
00000000
00000100
00000000
00000000
00000010
00000000
00000000
00000000
,
00000110
00000000
00001001
00000000
00000001
00000100
00000000
00000110
,
00000000
00000010
00010000
00000000
00011000
00000000
00001000
00100000
,
00010000
01000000
00000000
01100000
00000000
01000000
00100000
01000000
,
00001000
00010000
00000000
00011000
00000000
00010200
00000000
00000000
,
00001000
00000000
00000010
00000000
00001300
00000000
00000100
00000010
,
00000001
00000000
00000010
00000100
00010000
00000000
00022000
00000000
,
00000000
00000000
00000000
00000000
00000000
00000000
00000000
00000000
00000000
00000000
00000000
00000000
00000000
00000000
00000000
00000000
00000000
00000000
00000000
00000000
00000000
00000000
00000000
00000000
00033000
00000000
00000000
00000000
00000000
00000000
00000000
00000000
00000000
00000000
00000000
00000000
00000000
00000000
00000000
00000000
00000000
00000000
00000000
00000000
00000000
00000000
00000000
00000000
00000000
00000000
00000000
00000000
00000000
00000000
00000000
00000000
00000000
00000000
00000000
00000000
00000000
00000000
00000000
00000000
00000000
00000000
00000000
00000000
00000000
00000000
00000000
00000000
00001000
00000000
00000000
00000000
00000000
00000000
00000000
00000000
00000000
00000000
00000000
00000000
00000000
00000000
00000000
00000000
00000000
00000000
00000000
00010000
00000000
00000000
00000000
00000000
,
00000000
00000000
00000000
00000000
00000000
00000000
00000000
00000000
00000000
00000000
00000000
00000000
00000000
00000000
00000000
00000000
00000000
00000000
00000000
00000000
00000000
00000000
00000000
00000000
00000000
00000000
00000000
00000000
00000000
00001000
00000000
00000000
00000000
00000000
00000000
00000000
00000000
00000000
00000000
00000000
00000000
00000000
00000000
00000000
00000000
00000000
00000000
00000000
00000000
00000000
00000000
00000000
00000000
00000000
00000000
00000000
00000000
00000000
00000000
00000000
00000000
00000000
00000000
00000000
00000000
00000000
00000000
01000000
00000000
00000000
00000000
00000000
00000000
00000000
00000000
00000000
00000000
00000000
00000000
00000000
00000000
00000000
00000000
00000000
00000000
00000000
00000000
00000000
00000000
00000000
00000000
00000000
00000000
00000000
00000000
00000000
00000000
00000000
00000000
00000000
00000000
00000000
00000000
00000000
00000000
00000000
00010000
00000000
00000000
00000000
00000000
00000000
00000000
00000000
00000000
00000000
00000000
00000000
00000000
00000000
00000000
00000000
00000000
00000000
00000000
00000000
00000000
00000000
00000000
00000000
00000000
00000000
00000000
00000000
00000000
00000000
00000000
00000000
00000000
00000000
00000000
00000000
00000000
00000000
01000000
00000000
00000000
00000000
00000000
00000000
00000000
00000000
00000000
00000000
00000000
00000000
00000000
00000000
00000000
00000000
00000000
00000000
00000000
00000000
00000000
00000000
00000000
00000000
00000000
00000000
00000000
00000000
00000000
00000000
00000000
00000000
00000000
00000000
00000000
00000000
00000000
00000000
00000000
00000000
00000000
00000000
00000000
00000000
00000000
00000000
00000000
00000000
,
01100000
10100000
11000000
01100000
,
00101000
00000000
00011000
00000000
00010100
00000000
00000100
00001000
,
00000100
00000000
00000010
00000001
00000010
00000000
00000001
00000100
,
00000010
00001000
00000001
00000000
00000010
00000000
00000110
00000000
,
00010100
00011000
01001000
01010000
,
00110000
00000000
01100000
00000000
11000000
00000000
10000000
01000000
,
00010000
00000000
00000000
00000000
00000000
00000000
00000000
00000000
00000000
00000000
00000000
00000000
00000000
00000000
00000000
00000000
00000000
00000000
00000000
00000000
00000000
00000000
00000000
00000000
01000000
00000000
00000000
00000000
00000000
00000000
00000000
00000000
00000000
00000000
00000000
00000000
00010000
00000000
00000000
00000000
00000000
00000000
00000000
00000000
00000000
00000000
00000000
00000000
00001000
00000000
00000000
00000000
00000000
00000000
00000000
00000000
00000000
00000000
00000000
00000000
00000000
00000000
00000000
00000000
00000000
00000000
00000000
00000000
00000000
00000000
00000000
00000000
00200000
00000000
00000000
00000000
00000000
00000000
00000000
00000000
00000000
00000000
00000000
00000000
00000000
00000000
00000000
00000000
00000000
00000000
00000000
02300000
00000000
00000000
00000000
00000000
,
00000000
00000000
00000000
00000000
00000000
00000000
00000000
00000000
00000000
00000000
00000000
00000000
00000000
00000000
00000000
00000000
00000000
00000000
00000000
00000000
00000000
00000000
00000000
00000000
00000000
00000000
00000000
00000000
00000000
03020000
00000000
00000000
00000000
00000000
00000000
00000000
00000000
00000000
00000000
00000000
00000000
00000000
00000000
00000000
00000000
00000000
00000000
00000000
00000000
00000000
00000000
00000000
00000000
00000000
00000000
00000000
00000000
00000000
00000000
00000000
00000000
00000000
00000000
00000000
00000000
00000000
00000000
00032000
00000000
00000000
00000000
00000000
00000000
00000000
00000000
00000000
00000000
00000000
00000000
00000000
00000000
00000000
00000000
00000000
00000000
00000000
00000000
00000000
00000000
00000000
00000000
00000000
00000000
00000000
00000000
00000000
00000000
00000000
00000000
00000000
00000000
00000000
00000000
00000000
00000000
00000000
00003020
00000000
00000000
00000000
00000000
00000000
00000000
00000000
00000000
00000000
00000000
00000000
00000000
00000000
00000000
00000000
00000000
00000000
00000000
00000000
00000000
00000000
00000000
00000000
00000000
00000000
00000000
00000000
00000000
00000000
00000000
00000000
00000000
00000000
00000000
00000000
00000000
00000000
00000130
00000000
00000000
00000000
00000000
00000000
00000000
00000000
00000000
00000000
00000000
00000000
00000000
00000000
00000000
00000000
00000000
00000000
00000000
00000000
00000000
00000000
00000000
00000000
00000000
00000000
00000000
00000000
00000000
00000000
00000000
00000000
00000000
00000000
00000000
00000000
00000000
00000000
00000000
00000000
00000000
00000000
00000000
00000000
00000000
00000000
00000000
00000000
,
00001100
00001001
00000011
00000110
,
00010100
00000000
00011000
00000000
00101000
00000000
00100000
00010000
,
01000000
00000000
00001000
00010000
00000010
00000000
00001000
00000100
,
00000001
00000100
00001000
00000000
00001010
00000000
00000110
00000000
,
00000101
00000000
00000011
00000000
00000010
00000100
00010000
00000000
,
00011000
00000000
00101000
00000000
00100000
00010000
01000000
00000000
,
00100000
10000000
01000000
00010000
00000000
00011000
00000000
00001000
,
00000010
00000110
00001100
00001001
,
00000001
00000100
00001000
00000000
00010000
00001000
00000000
00000100
,
00000001
00000011
00000110
00001100
,
00000100
00010000
00001000
00000000
00100000
01000000
00000000
11000000
,
00000000
00000000
10010000
00000000
00000000
00000000
20200000
00000000
00000000
30300000
00000000
00000000
10000000
00000000
01000000
00000000
,
00100000
00010000
00001000
00000100
00000010
00000002
00000000
00000100
,
00000100
00000000
00001000
00000000
00000010
00000020
00000000
00000000
,
00000033
00000000
00000000
00000000
00000001
00000000
00000000
00000100
00000000
00000000
00001000
00000000
00000000
00000000
00010000
00000000
,
00000000
00100000
00100000
00000000
00000000
00000000
01100000
00000000
,
10010000
00000000
01100000
00000000
10000000
01000000
00000000
00010000
,
00000000
00001000
00010000
00000000
01000000
00000000
00110000
00000000
,
00101000
00000000
00011000
00000000
00000010
00010000
00000000
00001000
,
00000000
00000010
00001000
00000000
00010000
00000000
00001100
00000000
,
00000011
00000000
00001100
00000000
00000001
00000100
00000000
00001000
,
00000000
00010000
00001000
00000000
00000100
00000000
00000110
00000000
,
00010010
00000000
00011000
00000000
00001000
00100000
00000000
01000000
,
00000000
00010000
01000000
00000000
00100000
00000000
10010000
00000000
,
00000000
00000000
00000000
10000000
01000000
10000000
00010000
00000000
00000000
00000000
00000000
00000000
,
01000000
00010000
01000000
00001000
00010000
00001000
00100000
00000000
00000000
00000000
00000000
00000000
,
00001000
00010000
00000100
00001000
00000000
00000000
00000000
00000000
00000000
00000001
00000100
00000001
,
00001000
00000100
00001000
00000010
00000000
00000000
00000000
00000000
00000000
00001000
00000100
00010000
,
00001000
00000000
00000000
00000000
00000000
00000000
00000000
00000000
00000000
00010000
00000000
00001000
00000000
01000000
00000000
00010000
00000000
01000000
00000000
00001000
00000000
00010000
00000000
00000000
,
00000000
00000000
00000000
00000000
00000000
00000000
00000000
00000000
00000000
00001000
00000000
00100000
00000000
00010000
00000000
00100000
00000000
00000000
00000000
00000000
00000000
00000000
00000000
00000000
,
01000000
00000000
10000000
00000000
01000000
00000000
00100000
00000000
00000000
00000000
00000000
00000000
00000000
00000000
00000000
00010000
00000000
01000000
00000000
00001000
00000000
00010000
00000000
00000000
,
00000000
00000000
00000000
00000000
00000000
00000000
00000100
00000000
00000000
00000000
00001000
00000000
00000000
00000000
00000001
00000000
00000000
00000000
00000010
00000000
00000000
00000000
00000000
00000000
00000000
00000000
00000000
00000100
00000000
00000000
00000000
00000000
00000000
00000000
00000000
00000000
00010000
00000000
00000000
00000000
00000000
00000000
00000000
00000000
00000000
00001000
00000000
00000000
,
00000000
00100000
00000000
00000000
00000000
00010000
00000000
00000000
00000000
00100000
00000000
00000000
00000000
01000000
00000000
00000000
00000000
00100000
00000000
00000000
00000000
01000000
00000000
00000000
00000000
10000000
00000000
00000000
00000000
00010000
00000000
00000000
00000000
01000000
00000000
00000000
00000000
00001000
00000000
00000000
00000000
00010000
00000000
00000000
00000000
00000000
00000000
00000000
,
00000000
00000000
00000000
00000020
00000000
00000000
00000000
00000000
00000000
00000000
00000000
00000000
00000000
00000000
00000000
00000030
,
00000000
00000000
00000000
00000100
00000000
00000100
00000000
00000000
00000000
00000000
00000000
00000000
00000000
00000000
00000000
00000000
;

//--------------- dance-double - forcednature ----------------
#NOTEDATA:;
#STEPSTYPE:dance-double;
#DESCRIPTION:forcednature;
#DIFFICULTY:Hard;
#METER:16;
#RADARVALUES:0,0,0,0,0;
#CREDIT:forcednature;
#NOTES:
00000000
00000000
00000000
00000000
,
00000000
00000000
00000000
00000000
,
00000000
00000000
00000000
00000000
,
00000000
00000000
00000000
00000000
,
00000000
00000000
00000000
00000000
,
00000000
00000000
00000000
00000000
,
00000000
00000000
00000000
00000000
,
00000000
00000000
00000000
00000000
,
00000000
00000000
00000000
00000000
,
00002000
00023000
02030000
23000000
,
30010000
01000000
00000000
00000000
00100000
01000000
00000000
00000000
00010000
01000000
00000000
00000000
00001000
00000000
00010000
00000000
,
00000000
00010100
00000000
00000100
00000010
00000000
00001001
00000000
,
00001000
00000100
00000000
00000000
00000010
00000100
00000000
00000000
00001000
00000100
00000000
00000000
00010000
00000000
00001000
00000000
,
00000000
00011000
00000000
01000000
00010000
00000000
10010000
00000000
,
00010000
01000000
00000000
00000000
10000000
01000000
00000000
00000000
00010000
01000000
00000000
00000000
00010000
00000000
00100000
00000000
,
00000000
01100000
00000000
01000000
00010000
00000000
00011000
00000000
,
00010100
00000000
00000000
00000000
00001100
00000000
00000000
00000011
,
00000000
00000000
00000000
00000000
00000000
00000000
00000000
00000000
00000000
00000001
00000000
00000100
00000000
00000001
00000000
00001000
00000000
00000100
00000000
00001000
00000000
00000010
00000000
00000000
,
00000000
00000000
00000000
00011000
00000000
00000000
00101000
00000000
,
00000000
00000000
00000000
10000000
01000000
10000000
00010000
01000000
00010000
00100000
00000000
00000000
,
00000000
01000000
00010000
00001000
00000000
00011000
00000000
00010000
,
00001000
00000020
00000000
00000000
00000000
00000030
00000000
00000100
,
00010000
00001000
00000010
00000100
00001000
00000002
00000000
00000203
,
00000000
00020300
00000000
02030000
00000000
03100000
00000000
10000000
,
02000000
00000000
03010000
00002000
00000000
01003000
00200000
00000000
,
00310000
00002000
00000000
00003100
00000020
00000000
00000030
00001000
,
00000001
00000010
00001000
00000010
00000100
00010000
00000000
00001000
,
00100000
01000000
00000000
00010000
00001000
00000010
00000000
00000001
,
00000200
00000000
00001300
00020000
00000000
00030100
00000020
00000000
,
00001030
00020000
00000000
01030000
00200000
00000000
00300000
10000000
,
01000000
00010000
01000000
00100000
00001000
00010000
00000000
00100000
,
10000000
01000000
00000000
00010000
00001000
00100000
00000000
00010000
,
02000000
00000000
13000000
02000000
00000000
03010000
00200000
00000000
,
00301000
00000020
00000000
00000130
00002000
00000000
00003000
00000001
,
00000100
00001000
00010000
00000010
00001000
00000100
00000000
00000010
,
00001000
00010000
00000000
00100000
00010000
00001000
00000000
01000000
,
00010000
00100000
00010000
00001000
00000100
00001000
00000010
00010000
,
00001000
00022000
00033000
00020000
,
02030000
23000000
30200000
20300000
,
32000000
03020000
00030000
00002000
,
00000010
00000000
00000000
00000000
00013000
00001000
00010000
00001000
00020000
00000000
00000000
00000000
00030020
00000000
00000000
00000000
,
00002030
00003002
00000203
00002300
,
00023000
00000000
00000000
00000000
00000000
00000000
00000000
00000000
00000000
00000000
00000000
00000000
00130000
00000000
00000000
00000000
01000000
00000000
00000000
00000000
00100000
00000000
00000000
00000000
20000000
00000000
00000000
00000000
00000000
00000000
00000000
00000000
00000000
00000000
00000000
00000000
30010000
00000000
00000000
10000000
00000000
00000000
00010000
00000000
00000000
10000000
00000000
00000000
,
00010000
20020000
30030000
11000000
,
01000000
00010000
00001000
00100000
00010000
00000000
00001000
00000100
,
00010000
00000000
00001000
00000000
00000010
00000000
00000000
00000100
00000000
00000000
00000001
00000000
00000000
00000100
00000000
00000000
,
00010000
00000000
00000000
00001000
00000000
00000000
01000000
00000000
00000000
00010000
00000000
00000000
00210000
00000000
00000000
00000000
,
01000000
00000000
10300000
00100000
00010000
01000000
00000000
01100000
,
00000000
00100000
00010000
00000000
00011000
00000000
00001000
00000010
,
00000100
00001100
00000000
00001010
00000000
00000010
00000100
00000001
,
00000010
00000110
00000000
00010100
00000000
00012000
00000000
00000000
,
01000000
00000000
00010000
00000000
00103000
00000000
00001000
00010000
,
00000010
00001000
00000100
00010000
00001000
01000000
00020000
00000000
,
00000000
00000000
00000000
00000000
00000000
00000000
00000000
00000000
00000000
00000000
00000000
00000000
00000000
00000000
00000000
00000000
00000000
00000000
00000000
00000000
00000000
00000000
00000000
00000000
00000000
00000000
00000000
00000000
00000000
00000000
00000000
00000000
00000000
00000000
00000000
00000000
00000000
00000000
00000000
00000000
00000000
00000000
00000000
00000000
00000000
00000000
00000000
00000000
00030000
00000000
00000000
00000000
00000000
00000000
00000000
00000000
00000000
00000000
00000000
00000000
00000000
00000000
00000000
00000000
00000000
00000000
00000000
00000000
00000000
00000000
00000000
00000000
00000000
00000000
00000000
00000000
00000000
00000000
00000000
00000000
00000000
00000000
00000000
00000000
00000000
00000000
00000000
00000000
00000000
00000000
00000000
00000000
00000000
00000000
00000000
00000000
00000000
00000000
00000000
00000000
00000000
00000000
00000000
00000000
00000000
00000000
00000000
00000000
00000000
00000000
00000000
00000000
00000000
00000000
00000000
00000000
00000000
00000000
00000000
00000000
00000000
00000000
00000000
00000000
00000000
00000000
00000000
00000000
00000000
00000000
00000000
00000000
00000000
00000000
00000000
00000000
00000000
00000000
00000000
00000000
00000000
00000000
00000000
00000000
00100000
00000000
00000000
00000000
00000000
00000000
00000000
00000000
00000000
00000000
00000000
00000000
00000000
00000000
00000000
00000000
00000000
00000000
00000000
01000000
00000000
00000000
00000000
00000000
00000000
00000000
00000000
00000000
00000000
00000000
00000000
00000000
00000000
00000000
00000000
00000000
00000000
00000000
00010000
00000000
00000000
00000000
00000000
00000000
00000000
00000000
00000000
00000000
,
00000000
00000000
00000000
00000000
00000000
00000000
00000000
00000000
00000000
00000000
01000000
00000000
00000000
00000000
00000000
00000000
00000000
00000000
00000000
00000000
00000000
00000000
00000000
00000000
00000000
00000000
00000000
00000000
00000000
00100000
00000000
00000000
00000000
00000000
00000000
00000000
00000000
00000000
00000000
00000000
00000000
00000000
00000000
00000000
00000000
00000000
00000000
00000000
00001000
00000000
00000000
00000000
00000000
00000000
00000000
00000000
00000000
00000000
00000000
00000000
00000000
00000000
00000000
00000000
00000000
00000000
00000000
00010000
00000000
00000000
00000000
00000000
00000000
00000000
00000000
00000000
00000000
00000000
00000000
00000000
00000000
00000000
00000000
00000000
00000000
00000000
00000100
00000000
00000000
00000000
00000000
00000000
00000000
00000000
00000000
00000000
00000000
00000000
00000000
00000000
00000000
00000000
00000000
00000000
00000000
00000000
00010000
00000000
00000000
00000000
00000000
00000000
00000000
00000000
00000000
00000000
00000000
00000000
00000000
00000000
00000000
00000000
00000000
00000000
00000000
00001000
00000000
00000000
00000000
00000000
00000000
00000000
00000000
00000000
00000000
00000000
00000000
00000000
00000000
00000000
00000000
00000000
00000000
00000000
00000010
00000000
00000000
00000000
00000000
00000000
00000000
00000000
00000000
00000000
00000000
00000000
00000000
00000000
00000000
00000000
00000000
00000000
00000000
00000000
00000000
00000000
00000000
00000000
00000000
00000000
00000000
00000000
00000000
00000000
00000000
00000000
00000000
00000000
00000000
00000000
00000010
00000000
00000000
00000000
00000000
00000000
00000000
00000000
00000000
00000000
00000000
00000000
,
00000100
00000000
00000000
00000100
00001000
00000000
00000000
00001000
00000001
00000000
00000000
00000001
00000100
00000000
00000000
00000100
,
00001000
00000000
00000000
00001000
00010000
00000000
00000000
00010000
00100000
00000000
00000000
00100000
20000000
00000000
00000000
00000000
,
30010000
00100000
02000000
00000000
03010000
00002000
00000000
00103000
,
00100000
00000000
00000000
00000000
00001000
00000000
00000000
00001000
00010000
00000000
00000000
00010000
00000010
00000000
00000000
00000010
,
00001000
00000000
00000000
00001000
00000100
00000000
00000000
00000100
00000010
00000000
00000002
00000000
00000000
00000000
00000103
00000000
,
00000010
00000000
00000000
00000010
00010000
00000000
00000000
00010000
00001000
00000000
00000000
00001000
01000000
00000000
00000000
00000000
,
00010000
00000000
00000000
00000000
00000000
00000000
00000000
00000000
00000000
00000000
00000000
00000000
00000000
00000000
00000000
00000000
00000000
00000000
00000000
00000000
00000000
00000000
00000000
00000000
00200000
00000000
00000000
00000000
00000000
00000000
00000000
00000000
00000000
00000000
00000000
00000000
00000000
00000000
00000000
00000000
00000000
00000000
00000000
00000000
00000000
00000000
00000000
00000000
01000000
00000000
00000000
00000000
00000000
00000000
00000000
00000000
00000000
00000000
00000000
00000000
00000000
00000000
00000000
00000000
00000000
00000000
00000000
00000000
00000000
00000000
00000000
00000000
01000000
00000000
00000000
00000000
00000000
00000000
00000000
00000000
00000000
00000000
00000000
00000000
00000000
00000000
00000000
00000000
00000000
00000000
00000000
00000000
00000000
00000000
00000000
00000000
01300000
00000000
00000000
00000000
00000000
00000000
00000000
00000000
00000000
00000000
00000000
00000000
00000000
00000000
00000000
00000000
00000000
00000000
00000000
00000000
00000000
00000000
00000000
00000000
00000000
00000000
00000000
00000000
00000000
00000000
00000000
00000000
00000000
00000000
00000000
00000000
00000000
00000000
00000000
00000000
00000000
00000000
00000000
00000000
00000000
00000000
00000000
00000000
00100000
00000000
00000000
00000000
00000000
00000000
00000000
00000000
00000000
00000000
00000000
00000000
00000000
00000000
00000000
00000000
00000000
00000000
00000000
00001000
00000000
00000000
00000000
00000000
00000000
00000000
00000000
00000000
00000000
00000000
00000000
00000000
00000000
00000000
00000000
00000000
00000000
00000000
00010000
00000000
00000000
00000000
00000000
00000000
00000000
00000000
00000000
00000000
,
00000000
00000000
00000000
00000000
00000000
00000000
00000000
00000000
00000000
00000000
00000010
00000000
00000000
00000000
00000000
00000000
00000000
00000000
00000000
00000000
00000000
00000000
00000000
00000000
00000000
00000000
00000000
00000000
00000000
00001000
00000000
00000000
00000000
00000000
00000000
00000000
00000000
00000000
00000000
00000000
00000000
00000000
00000000
00000000
00000000
00000000
00000000
00000000
00000010
00000000
00000000
00000000
00000000
00000000
00000000
00000000
00000000
00000000
00000000
00000000
00000000
00000000
00000000
00000000
00000000
00000000
00000000
00000100
00000000
00000000
00000000
00000000
00000000
00000000
00000000
00000000
00000000
00000000
00000000
00000000
00000000
00000000
00000000
00000000
00000000
00000000
00001000
00000000
00000000
00000000
00000000
00000000
00000000
00000000
00000000
00000000
00000000
00000000
00000000
00000000
00000000
00000000
00000000
00000000
00000000
00000000
00000100
00000000
00000000
00000000
00000000
00000000
00000000
00000000
00000000
00000000
00000000
00000000
00000000
00000000
00000000
00000000
00000000
00000000
00000000
00000001
00000000
00000000
00000000
00000000
00000000
00000000
00000000
00000000
00000000
00000000
00000000
00000000
00000000
00000000
00000000
00000000
00000000
00000000
00001000
00000000
00000000
00000000
00000000
00000000
00000000
00000000
00000000
00000000
00000000
00000000
00000000
00000000
00000000
00000000
00000000
00000000
00000000
00000000
00000000
00000000
00000000
00000000
00000000
00000000
00000000
00000000
00000000
00000000
00000000
00000000
00000000
00000000
00000000
00000000
00001000
00000000
00000000
00000000
00000000
00000000
00000000
00000000
00000000
00000000
00000000
00000000
,
00000010
00000000
00000000
00000010
00010000
00000000
00000000
00010000
00001000
00000000
00000000
00001000
01000000
00000000
00000000
01000000
,
00010000
00000000
00000000
00010000
00100000
00000000
00000000
00100000
01000000
00000000
00000000
01000000
20000000
00000000
00000000
00000000
,
31000000
00010000
00002000
00000000
00103000
00020000
00000000
01000000
,
01030000
00000000
00000000
00000000
00001000
00000000
00000000
00001000
00010000
00000000
00000000
00010000
00000100
00000000
00000000
00000100
,
00001000
00000000
00000000
00001000
00000001
00000000
00000000
00000001
00000100
00000000
00002000
00000000
00000000
00000000
00013000
00000000
,
00001000
00000000
00000000
00001000
01000000
00000000
00000000
01000000
00010000
00000000
00000000
00010000
00100000
00000000
00000000
00000000
,
01000000
00020000
00000000
00000100
00000100
00001000
00000000
00000010
,
00030010
00010100
00011000
00010010
,
00000010
00001000
00000001
00000100
00000010
00000000
00000000
00000000
00001000
00000000
00000100
00000000
00000000
00000000
00000001
00000000
,
00000100
00001100
00010100
00101000
,
00100000
00010000
10000000
01000000
00100000
00000000
00000000
00000000
01000000
00000000
00010000
00000000
00000000
00000000
00011000
00000000
,
00000000
00000000
00010100
00000000
00000000
00000000
00002200
00000000
00000000
00003300
00000000
00000000
00001000
00000000
00000010
00000000
,
00000001
00000010
00000100
00000001
00000010
00000200
00000000
00010000
,
00010300
00000000
00011000
00000000
00001000
02000000
00000000
00000000
,
03000000
00000000
00000000
00000000
01100000
00000000
00000000
01100000
00000000
00000000
00010000
00000000
00000000
00000000
00001000
00000000
,
00000000
00000000
00000110
00000000
00000220
00000000
00000000
00000000
00000330
00000000
00000000
00000000
00000001
00000100
00000000
00000000
,
00001000
00000100
00000000
00000000
00000001
00000100
00000000
00000000
00000010
00000000
00010000
00000000
00000000
00000000
00011000
00000000
,
00000000
00000000
00001000
00000000
01000000
00000000
00000000
00000000
10010000
00000000
00000000
00000000
10000000
01000000
00000000
00000000
,
00010000
01000000
00000000
00000000
10000000
01000000
00000000
00000000
00100000
00000000
00001000
00000000
00000000
00000000
00011000
00000000
,
00000000
00000000
00010000
00000000
00000100
00000000
00000000
00000000
00001001
00000000
00000000
00000000
00000001
00000010
00000000
00000000
,
00001000
00000010
00000000
00000000
00000001
00000010
00000000
00000000
00000100
00000000
00010000
00000000
00000000
00000000
00011000
00000000
,
00000000
00000000
00001000
00000000
01000000
00000000
00000000
00000000
10010000
00000000
00000000
00000000
10000000
00100000
00000000
00000000
,
00010000
00100000
00000000
00000000
10000000
00100000
00000000
00000000
01000000
00000000
00001000
00000000
00000000
00000000
00011000
00000000
,
00000000
00010000
00000010
00000000
00001001
00000000
00000110
00000000
,
00000000
00000000
00000000
00000001
00000100
00001000
00000100
00000000
00000000
00000000
00000000
00000000
,
00000010
00001000
00000010
00010000
00001000
01000000
00010000
00000000
00000000
00000000
00000000
00000000
,
10000000
01000000
00010000
01000000
00000000
00000000
00000000
00000000
00000000
00100000
00010000
00100000
,
00001000
00010000
00000100
00001000
00000000
00000000
00000000
00000000
00000000
00000001
00000100
00001000
,
00000100
00000000
00000000
00000100
00000000
00000000
00000100
00000000
00000000
00000010
00000000
00001000
00000000
00000010
00000000
00010000
00000000
00001000
00000000
00100000
00000000
00010000
00000000
00000000
,
00000000
00000000
00000000
00000000
00000000
00000000
00000000
00000000
00000000
00100000
00000000
01000000
00000000
10000000
00000000
00100000
00000000
00000000
00100000
00000000
00000000
00100000
00000000
00000000
,
01000000
00000000
00001000
00000000
00010000
00000000
00000010
00000000
00000000
00000010
00000000
00000000
00000010
00000000
00000000
00001000
00000000
00000100
00000000
00000010
00000000
00000001
00000000
00000000
,
00000001
00000000
00000000
00000000
00000000
00000000
00000100
00000000
00000000
00000000
00000010
00000000
00000000
00000000
00001000
00000000
00000000
00000000
00000001
00000000
00000000
00000000
00000000
00000000
00000000
00000000
00000000
00000010
00000000
00000000
00000000
00000000
00000000
00000000
00000000
00000000
00001000
00000000
00000000
00000000
00000000
00000000
00000000
00000000
00000000
00010000
00000000
00000000
,
00000000
00000100
00000000
00000000
00000000
00001000
00000000
00000000
00000000
00000100
00000000
00000000
00000000
00010000
00000000
00000000
00000000
00001000
00000000
00000000
00000000
01000000
00000000
00000000
00000000
00010000
00000000
00000000
00000000
00100000
00000000
00000000
00000000
01000000
00000000
00000000
00000000
10000000
00000000
00000000
00000000
00100000
00000000
00000000
00000000
00000000
00000000
00000000
,
00000000
00000000
00000000
02000000
00000000
00000000
00000000
00000000
00000000
00000000
00000000
00000000
00000000
00000000
00000000
03000000
,
00000000
00000000
00000000
00011000
00000000
00011000
00000000
00000000
00000000
00000000
00000000
00000000
00000000
00000000
00000000
00000000
;

//--------------- dance-double - forcednature ----------------
#NOTEDATA:;
#STEPSTYPE:dance-double;
#DESCRIPTION:forcednature;
#DIFFICULTY:Challenge;
#METER:18;
#RADARVALUES:0,0,0,0,0;
#CREDIT:forcednature;
#NOTES:
00000000
00000000
00000000
00000000
,
00000000
00000000
00000000
00000000
,
00000000
00000000
00000000
00000000
,
00000000
00000000
00000000
00000000
,
00000000
00000000
00000000
00000000
,
00000000
00000000
00000000
00000000
,
00000000
00000000
00000000
00000000
,
00000000
00000000
00000000
00000000
,
00011000
00000000
00001000
00010000
00000000
00011000
00000000
00022000
,
00000000
00000000
00000000
00033000
,
01000000
00001000
00010000
00000000
01000000
00001000
00010000
00000000
01000000
00001000
00010000
00000000
00000010
00000000
00001010
00000000
,
00000000
00011000
00000000
00100000
00110000
00000000
00011000
00000000
,
00000100
00010000
00001000
00000000
00100000
00001000
00010000
00000000
00000100
00010000
00001000
00000000
00100000
00000000
00110000
00000000
,
00000000
00011000
00000000
00000010
00001010
00000000
00011000
00000000
,
00000010
00010000
00001000
00000000
00000010
00010000
00001000
00000000
00000010
00010000
00001000
00000000
01000000
00000000
01010000
00000000
,
00000000
00011000
00000000
00000100
00001100
00000000
00010000
00000000
,
00011000
00000000
00000000
00000000
01010000
00000000
00000000
10100000
,
00000000
00000000
00000000
00000000
00000000
00000000
00000000
00000000
00000000
10000000
00000000
01000000
00000000
00010000
00000000
00001000
00000000
00000100
00000000
00000001
00000000
00000010
00000000
00000000
,
00000000
00000000
00000000
00000101
00000000
00000000
00001010
00000000
,
00000000
00000000
00000000
00000001
00000100
00001000
00010000
01000000
10000000
00100000
00000000
00000000
,
00000000
00000000
10000000
01000000
00100000
00000000
01100000
00000000
00000000
00000000
00110000
00000000
00000000
00000000
00010000
00100000
,
00001000
00022000
00000000
00000000
00000000
00000000
00033000
00001000
,
00000010
00000001
00000100
00000001
00000010
00001000
00000000
00010000
,
01000000
00000000
10000000
00000000
00000000
00000000
00100000
00000000
01000000
00000000
01010000
00000000
00000000
00000000
01000000
00010000
,
01000000
00001000
00010000
00000000
00000100
00001000
00000100
00010000
00001000
00000000
01000000
00010000
01000000
00001000
00010000
00000000
,
00000100
00001000
00000100
00010000
00001000
00000000
01000000
00010000
20000000
00000000
00000000
00000000
30000000
00000000
01000000
00000000
,
00010000
00001000
00000010
00001000
00010000
00000100
00000000
00001000
,
00000001
00000000
00000100
00000000
00000000
00000000
00001000
00000000
00010000
00000000
00010010
00000000
00000000
00000000
00000100
00001000
,
00000100
00010000
00001000
00000000
01000000
00010000
01000000
00001000
00010000
00000000
00000100
00001000
00000100
00010000
00001000
00000000
,
01000000
00010000
01000000
00001000
00010000
00000000
00000100
00001000
00000002
00000000
00000000
00000000
00000003
00000000
00000100
00000000
,
00001000
00010000
00100000
01000000
00010000
10000000
00000000
01000000
,
00010000
00000000
00001000
00000000
00000000
00000000
00000010
00000000
00000100
00000000
00001100
00000000
00000000
00000000
00010000
00001000
,
00100000
00010000
00100000
00000000
00001000
00010000
00000010
00001000
00000010
00000000
00010000
00001000
00100000
00010000
00100000
00000000
,
00001000
00010000
00000010
00001000
00000010
00000000
00010000
00001000
02000000
00000000
00000000
00000000
03000000
00000000
00100000
00000000
,
10000000
01000000
00010000
00001000
00000010
00000100
00000000
00001000
,
00000001
00000000
00000100
00000000
00000000
00000000
00001000
00000000
00010000
00000000
00011000
00000000
00000000
00000000
00001000
00100000
,
00010000
00100000
00001000
00000000
00010000
00000010
00001000
00000010
00010000
00000000
00001000
00100000
00010000
00100000
00001000
00000000
,
00010000
00000010
00001000
00000010
00010000
00000000
00001000
00100000
00010000
00000000
00000000
00000000
10000000
00000000
00000000
10000000
,
01000000
00000000
00000000
01000000
00010000
00000000
00000000
00010000
00001000
00000000
00000000
00001000
00000010
00000000
00000100
00000010
,
00000001
00000010
00000000
00000100
00002000
00000000
00000000
00000000
00003100
00000000
00010000
00001000
00200000
00000000
00000000
00000000
,
00310000
01000000
00000000
01000000
00010000
10000000
00100000
01000000
00020000
00000000
00000000
00000000
00130000
00000000
00000000
00001000
,
00010000
00000000
00000000
00010000
00000010
00000000
00001000
00000001
00000100
00000000
00000000
00000100
00001000
00000000
00000000
00001000
,
00010000
00000000
00000000
00000000
00000000
00000000
00100000
00000000
00000000
00000000
00000000
00000000
01000000
00000000
00000000
00000000
00010000
00000000
00000000
00000000
10000000
00000000
00000000
00000000
00100000
00000000
00000000
00000000
00000000
00000000
10000000
00000000
00000000
01000000
00000000
00000000
10000000
00000000
00000000
00010000
00000000
00000000
00100000
00000000
00000000
00001000
00000000
00000000
,
00010000
00001020
00000130
00001002
,
00000103
00001000
00010000
00100000
20000000
00000000
31000000
00010000
,
00001000
00000000
00000010
00000000
00000100
00001000
00000000
00000100
00010000
00000000
00001000
01000000
00010000
01000000
00001000
00000000
,
00010000
00001000
00000000
00100000
00010000
00000000
10000000
00100000
10000000
00010000
01000000
00010000
00200000
00000000
00000000
00000000
,
01300000
00010000
00001000
00000000
00000100
00001000
00010000
00000000
00000000
00000000
00100000
00010000
00001000
00000000
00000010
00001000
,
00010000
00000000
00000000
00000000
01000000
00010000
00001000
00000000
00000100
00001000
00010000
00000000
00100000
00000000
10000000
00000000
,
01000000
00000000
01100000
00000000
00000000
00000000
00011000
00000000
00000000
00010000
00001000
00010000
00000100
00000000
00001000
00000000
,
00000010
00000000
00000110
00000000
00000000
00000000
00000100
00000001
00001000
00000001
00000200
00000000
00000000
00000000
00000000
00000000
,
00001000
00000000
00000000
00000000
00000010
00000000
00000000
00000000
00000001
00000000
00000300
00000000
00000100
00000010
00001000
00000010
,
00010000
00001000
00010000
00000100
00001000
00000100
00010000
00001000
00100000
00000000
00000000
00000000
02000000
00000000
00000000
00000000
,
00000000
00000000
00000000
00000000
00000000
00000000
00000000
00000000
00000000
00000000
00000000
00000000
00000000
00000000
00000000
00000000
00000000
00000000
00000000
00000000
00000000
00000000
00000000
00000000
00000000
00000000
00000000
00000000
00000000
00000000
00000000
00000000
00000000
00000000
00000000
00000000
00000000
00000000
00000000
00000000
00000000
00000000
00000000
00000000
00000000
00000000
00000000
00000000
20000000
00000000
00000000
00000000
00000000
00000000
00000000
00000000
00000000
00000000
00000000
00000000
00000000
00000000
00000000
00000000
00000000
00000000
00000000
00000000
00000000
00000000
00000000
00000000
00000000
00000000
00000000
00000000
00000000
00000000
00000000
00000000
00000000
00000000
00000000
00000000
00000000
00000000
00000000
00000000
00000000
00000000
00000000
00000000
00000000
00000000
00000000
00000000
33000000
00000000
00000000
00000000
00000000
00000000
00000000
00000000
00000000
00000000
00000000
00000000
00000000
00000000
00000000
00000000
00000000
00000000
00000000
00000000
00000000
00000000
00000000
00000000
00000000
00000000
00000000
00000000
00000000
00000000
00000000
00000000
00000000
00000000
00000000
00000000
00000000
00000000
00000000
00000000
00000000
00000000
00000000
00000000
00000000
00000000
00000000
00000000
10000000
00000000
00000000
00000000
00000000
00000000
00000000
00000000
00000000
00000000
00000000
00000000
00000000
00000000
00000000
00000000
00000000
00000000
00000000
01000000
00000000
00000000
00000000
00000000
00000000
00000000
00000000
00000000
00000000
00000000
00000000
00000000
00000000
00000000
00000000
00000000
00000000
00000000
00010000
00000000
00000000
00000000
00000000
00000000
00000000
00000000
00000000
00000000
,
00000000
00000000
00000000
00000000
00000000
00000000
00000000
00000000
00000000
00000000
00001000
00000000
00000000
00000000
00000000
00000000
00000000
00000000
00000000
00000000
00000000
00000000
00000000
00000000
00000000
00000000
00000000
00000000
00000000
00000010
00000000
00000000
00000000
00000000
00000000
00000000
00000000
00000000
00000000
00000000
00000000
00000000
00000000
00000000
00000000
00000000
00000000
00000000
00000001
00000000
00000000
00000000
00000000
00000000
00000000
00000000
00000000
00000000
00000000
00000000
00000000
00000000
00000000
00000000
00000000
00000000
00000000
00000100
00000000
00000000
00000000
00000000
00000000
00000000
00000000
00000000
00000000
00000000
00000000
00000000
00000000
00000000
00000000
00000000
00000000
00000000
00001000
00000000
00000000
00000000
00000000
00000000
00000000
00000000
00000000
00000000
00000000
00000000
00000000
00000000
00000000
00000000
00000000
00000000
00000000
00000000
00010000
00000000
00000000
00000000
00000000
00000000
00000000
00000000
00000000
00000000
00000000
00000000
00000000
00000000
00000000
00000000
00000000
00000000
00000000
00100000
00000000
00000000
00000000
00000000
00000000
00000000
00000000
00000000
00000000
00000000
00000000
00000000
00000000
00000000
00000000
00000000
00000000
00000000
10000000
00000000
00000000
00000000
00000000
00000000
00000000
00000000
00000000
00000000
00000000
00000000
00000000
00000000
00000000
00000000
00000000
00000000
00000000
00000000
00000000
00000000
00000000
00000000
00010000
00000000
00000000
00000000
00000000
00000000
00000000
00000000
00000000
00000000
00000000
00000000
00100000
00000000
00000000
00000000
00000000
00000000
00000000
00000000
00000000
00000000
00000000
00000000
,
00001000
00000000
00010000
00000100
00001000
00000000
00000100
00010000
00001000
00000000
00010000
00000010
00001000
00000000
00000001
00000100
,
00000010
00000000
00001000
00000001
00000010
00000000
00000100
00001000
00000100
00000000
00010000
00001000
00100000
00000000
01000000
00000000
,
00010000
00000000
01000000
00000000
10000000
00100000
01000000
00010000
10000000
00000000
02000000
00000000
00000000
00000000
03100000
00010000
,
00100000
00000000
00001000
00000000
00010000
00000010
00001000
00000010
00010000
00000000
00000000
00000000
00001000
00000000
00010000
00000100
,
00001000
00000000
00000001
00000010
00000100
00000000
00000010
00000001
00001000
00000000
00000020
00000000
00000000
00000000
00001030
00000100
,
00010000
00000000
00001000
00000000
01000000
00010000
10000000
00100000
01000000
00000000
00000000
00000000
00010000
00000000
10000000
01000000
,
00100000
00000000
00000000
00000000
00000000
00000000
00000000
00000000
00000000
00000000
00000000
00000000
00000000
00000000
00000000
00000000
00000000
00000000
00000000
00000000
00000000
00000000
00000000
00000000
00010000
00000000
00000000
00000000
00000000
00000000
00000000
00000000
00000000
00000000
00000000
00000000
00000000
00000000
00000000
00000000
00000000
00000000
00000000
00000000
00000000
00000000
00000000
00000000
00100000
00000000
00000000
00000000
00000000
00000000
00000000
00000000
00000000
00000000
00000000
00000000
00001000
00000000
00000000
00000000
00000000
00000000
00000000
00000000
00000000
00000000
00000000
00000000
00010000
00000000
00000000
00000000
00000000
00000000
00000000
00000000
00000000
00000000
00000000
00000000
00000100
00000000
00000000
00000000
00000000
00000000
00000000
00000000
00000000
00000000
00000000
00000000
00020000
00000000
00000000
00000000
00000000
00000000
00000000
00000000
00000000
00000000
00000000
00000000
00000000
00000000
00000000
00000000
00000000
00000000
00000000
00000000
00000000
00000000
00000000
00000000
00000000
00000000
00000000
00000000
00000000
00000000
00000000
00000000
00000000
00000000
00000000
00000000
00000000
00000000
00000000
00000000
00000000
00000000
00000000
00000000
00000000
00000000
00000000
00000000
00031000
00000000
00000000
00000000
00000000
00000000
00000000
00000000
00000000
00000000
00000000
00000000
00000000
00000000
00000000
00000000
00000000
00000000
00000000
00000010
00000000
00000000
00000000
00000000
00000000
00000000
00000000
00000000
00000000
00000000
00000000
00000000
00000000
00000000
00000000
00000000
00000000
00000000
00000001
00000000
00000000
00000000
00000000
00000000
00000000
00000000
00000000
00000000
,
00000000
00000000
00000000
00000000
00000000
00000000
00000000
00000000
00000000
00000000
00000100
00000000
00000000
00000000
00000000
00000000
00000000
00000000
00000000
00000000
00000000
00000000
00000000
00000000
00000000
00000000
00000000
00000000
00000000
00001000
00000000
00000000
00000000
00000000
00000000
00000000
00000000
00000000
00000000
00000000
00000000
00000000
00000000
00000000
00000000
00000000
00000000
00000000
00010000
00000000
00000000
00000000
00000000
00000000
00000000
00000000
00000000
00000000
00000000
00000000
00000000
00000000
00000000
00000000
00000000
00000000
00000000
00100000
00000000
00000000
00000000
00000000
00000000
00000000
00000000
00000000
00000000
00000000
00000000
00000000
00000000
00000000
00000000
00000000
00000000
00000000
10000000
00000000
00000000
00000000
00000000
00000000
00000000
00000000
00000000
00000000
00000000
00000000
00000000
00000000
00000000
00000000
00000000
00000000
00000000
00000000
01000000
00000000
00000000
00000000
00000000
00000000
00000000
00000000
00000000
00000000
00000000
00000000
00000000
00000000
00000000
00000000
00000000
00000000
00000000
00010000
00000000
00000000
00000000
00000000
00000000
00000000
00000000
00000000
00000000
00000000
00000000
00000000
00000000
00000000
00000000
00000000
00000000
00000000
00001000
00000000
00000000
00000000
00000000
00000000
00000000
00000000
00000000
00000000
00000000
00000000
00000000
00000000
00000000
00000000
00000000
00000000
00000000
00000000
00000000
00000000
00000000
00000000
00100000
00000000
00000000
00000000
00000000
00000000
00000000
00000000
00000000
00000000
00000000
00000000
00010000
00000000
00000000
00000000
00000000
00000000
00000000
00000000
00000000
00000000
00000000
00000000
,
00100000
00000000
01000000
10000000
00010000
00000000
01000000
00001000
00010000
00000000
00000010
00001000
00000100
00000000
00000010
00000100
,
00001000
00000000
00000100
00010000
00001000
00000000
00010000
00000010
00001000
00000000
00000001
00000010
00000100
00000000
00000001
00000000
,
00000100
00000000
00001000
00000000
00000100
00010000
00001000
00100000
00001000
00000000
00020000
00000000
00000000
00000000
00130000
00000000
,
10000000
00000000
00010000
00000000
01000000
00010000
10000000
00010000
00100000
00000000
00000000
00000000
01000000
10000000
01000000
00000000
,
00100000
00010000
00100000
00000000
00001000
00010000
00000100
00001000
00000100
00000000
00000020
00000000
00000000
00000000
00000031
00001000
,
00000010
00000000
00010000
00000000
00000100
00001000
00000100
00010000
00001000
00000000
00000000
00000000
01000000
00000000
00010000
00100000
,
01000000
00000000
11000000
00000000
00000000
00000000
10000000
00100000
00010000
00000000
00001000
00000000
00010000
00000000
00000100
00001000
,
00000100
00010000
00001000
00010000
00000010
00001000
00000001
00000100
00000010
00000000
00000000
00000000
00001001
00000000
00000000
00000000
,
00000001
00000100
00001000
00010000
00000010
00000000
00000000
00000000
00010000
00000000
00011000
00000000
00000000
00000000
00001000
00000000
,
00100000
00010000
01000000
00000000
01100000
00000000
10010000
00000000
,
10000000
01000000
00010000
00001000
00100000
00000000
00000000
00000000
00010000
00000000
01010000
00000000
00000000
00000000
00011000
00000000
,
00000000
00001100
00000000
00000011
00000000
00000000
00000002
00000203
,
00000320
00002030
00023000
02030000
03200000
20300000
00000000
31000000
,
10010000
00000000
01100000
00000000
00010000
00022000
00000000
00000000
,
00033000
00000000
00000000
00000000
01010000
00000000
00000000
00101000
00000000
00000000
00010010
00000000
00000000
00000000
00001100
00000000
,
00000000
00000000
00000010
00000000
00002002
00000000
00000000
00000000
00003003
00000000
00000000
00000000
00010000
00000100
00001000
00000000
,
00010000
00000100
00001000
00000000
00010000
00000100
00001000
00000000
00000010
00000000
00001010
00000000
00000000
00000000
00011000
00000000
,
00000000
00000000
00010000
00001000
00100000
00000000
00000000
00000000
00110000
00000000
00000000
00000000
00010000
01000000
00001000
00000000
,
00010000
00000100
00001000
00000000
00010000
01000000
00001000
00000000
00010000
00000000
00011000
00000000
00000000
00000000
00110000
00000000
,
00000000
00000000
00010000
01000000
00001000
00000000
00000000
00000000
00011000
00000000
00000000
00000000
00100000
00001000
01000000
00000000
,
00100000
00001000
01000000
00000000
00100000
00001000
01000000
00000000
00010000
00000000
01010000
00000000
00000000
00000000
00011000
00000000
,
00000000
00000000
00001000
00010000
00000010
00000000
00000000
00000000
00011000
00000000
00000000
00000000
00000010
00010000
00000100
00000000
,
00000010
00010000
00000100
00000000
00000010
00010000
00000100
00000000
00001000
00000000
00001010
00000000
00000000
00000000
00000101
00000000
,
00000000
00000000
00000001
00000010
00000001
00001000
00000100
00010000
00001000
00000000
00000000
00000000
00011000
00000000
00000000
00000000
,
00000000
00000000
00000000
01000000
00100000
00010000
00001000
00000000
00000000
00000000
00000000
00000000
,
00100000
01000000
00010000
00001000
00000010
00000100
00001000
00000000
00000000
00000000
00000000
00000000
,
00000100
00000010
00001000
00010000
00000000
00000000
00000000
00000000
00000000
00000010
00000100
00001000
,
00010000
00100000
01000000
00010000
00000000
00000000
00000000
00000000
00000000
10000000
01000000
00010000
,
00001000
00000000
00000000
00001000
00000000
00000000
00001000
00000000
00000000
00001000
00000000
00000010
00000000
00000001
00000000
00000100
00000000
00001000
00000000
00000100
00000000
00000001
00000000
00000000
,
00000000
00000000
00000000
00000000
00000000
00000000
00000000
00000000
00000000
00000010
00000000
00000100
00000000
00010000
00000000
00001000
00000000
00000000
00001000
00000000
00000000
00001000
00000000
00000000
,
01000000
00000000
00010000
00000000
00100000
00000000
01000000
00000000
00000000
01000000
00000000
00000000
01000000
00000000
00000000
10000000
00000000
00100000
00000000
10000000
00000000
01000000
00000000
00000000
,
01000000
00000000
00000000
00000000
00000000
00000000
00010000
00000000
00000000
00000000
00001000
00000000
00000000
00000000
00000010
00000000
00000000
00000000
00000001
00000000
00000000
00000000
00000000
00000000
00001000
00000000
00000000
00000010
00000000
00000000
00000000
00000000
00000000
00000100
00000000
00000000
00000010
00000000
00000000
00000000
00000000
00000000
00000100
00000000
00000000
00000001
00000000
00000000
,
00000000
00000010
00000000
00000000
00000000
00000100
00000000
00000000
00000000
00000010
00000000
00000000
00000000
00000100
00000000
00000000
00000000
00010000
00000000
00000000
00000000
00001000
00000000
00000000
00000000
00010000
00000000
00000000
00000000
01000000
00000000
00000000
00000000
10000000
00000000
00000000
00000000
01000000
00000000
00000000
00000000
00010000
00000000
00000000
00000000
00000000
00000000
00000000
,
00000000
00000000
00000000
00100000
00010000
00100000
00001000
00010000
00000010
00001000
00000010
00010000
00001000
00000010
00000100
00000000
,
00000000
00000000
00000000
00001001
00000000
00001001
00000000
00000000
00000000
00000000
00000000
00000000
00000000
00000000
00000000
00000000
;
