#VERSION:0.83;
#TITLE:So Fabulous !!;
#SUBTITLE:;
#ARTIST:HHH (Ryu☆ & Dai);
#TITLETRANSLIT:;
#SUBTITLETRANSLIT:;
#ARTISTTRANSLIT:;
#GENRE:BUCHIAGE TRANCE;
#CREDIT:;
#MUSIC:So Fabulous !!.ogg;
#BANNER:So Fabulous !!.png;
#BACKGROUND:So Fabulous !!-bg.png;
#CDTITLE:./CDTitles/bm IIDX 13 DistorteD.png;
#SAMPLESTART:42.252;
#SAMPLELENGTH:15.000;
#SELECTABLE:YES;
#OFFSET:1.230;
#BPMS:0.000=149.000;
#STOPS:;
#BGCHANGES:0.000=So Fabulous !!.mp4=1.000=0=0=0=StretchNoLoop====,
99999.000=-nosongbg-=1.000=0=0=0=StretchNoLoop====
;
#FGCHANGES:;

//--------------- dance-single - forcednature ----------------
#NOTEDATA:;
#STEPSTYPE:dance-single;
#DESCRIPTION:forcednature;
#DIFFICULTY:Beginner;
#METER:1;
#RADARVALUES:0,0,0,0,0;
#CREDIT:forcednature;
#NOTES:
0000
0000
0000
0000
,
0000
0000
0000
0000
,
0000
0000
0000
0000
,
0000
0000
0000
0000
,
0000
0000
0000
0000
,
1000
0000
0000
0000
,
0000
0000
0000
0000
,
0001
0000
0000
0000
,
0000
0000
0000
0000
,
0100
0000
0000
0000
,
0000
0000
0000
0000
,
0010
0000
0000
0000
,
0000
0000
0000
0000
,
1001
0000
0000
0000
,
1000
0000
0000
0000
,
0000
0000
0000
0000
,
0100
0000
0000
0000
,
0000
0000
0000
0000
,
0010
0000
0000
0000
,
0000
0000
0000
0000
,
0001
0000
0000
0000
,
0000
0000
0000
0000
,
0100
0000
0000
0000
,
0100
0000
0100
0000
,
0100
0000
0100
0000
,
0010
0000
0000
0000
,
0000
0000
0000
0000
,
1001
0000
0000
0000
,
0001
0000
0000
0000
,
0100
0000
0000
0000
,
0001
0000
0000
0000
,
1000
0000
0000
0000
,
0100
0000
0000
0000
,
1000
0000
0000
0000
,
0010
0000
0000
0000
,
0010
0000
0000
0000
,
0100
0000
0000
0000
,
0001
0000
0000
0000
,
1000
0000
0000
0000
,
0100
0000
0000
0000
,
0010
0000
0000
0000
,
0001
0000
0000
0000
,
1000
0000
0000
0000
,
1001
0000
0000
0000
,
0000
0000
0000
0000
,
0000
0000
0000
0000
,
0000
0000
0000
0000
,
0001
0000
0000
0000
,
0000
0000
0000
0000
,
1000
0000
0000
0000
,
0000
0000
0000
0000
,
0010
0000
0000
0000
,
0000
0000
0000
0000
,
0100
0000
0000
0000
,
0000
0000
0001
0000
,
0000
0000
0001
0000
,
0000
0000
1000
0000
,
1000
0000
0000
0000
,
0001
0000
0000
0000
,
0100
0000
0000
0000
,
0001
0000
0000
0000
,
0010
0000
0000
0000
,
0100
0000
0000
0000
,
1000
0000
0000
0000
,
0100
0000
0000
0000
,
1000
0000
0000
0000
,
0010
0000
0000
0000
,
0100
0000
0000
0000
,
0001
0000
0000
0000
,
0010
0000
0000
0000
,
0001
0000
0000
0000
,
0100
0000
0000
0000
,
0010
0000
0000
0000
;

//--------------- dance-single - forcednature ----------------
#NOTEDATA:;
#STEPSTYPE:dance-single;
#DESCRIPTION:forcednature;
#DIFFICULTY:Easy;
#METER:5;
#RADARVALUES:0,0,0,0,0;
#CREDIT:forcednature;
#NOTES:
0000
0000
0000
0000
,
0000
0000
0000
0000
,
0000
0000
0000
0000
,
0000
0000
0000
0000
,
0000
0000
0000
0000
,
1000
0000
0001
0000
,
1000
0001
1000
0000
,
0010
0000
0100
0000
,
0010
0100
0010
0000
,
0001
0000
1000
0000
,
0001
1000
0001
0000
,
0010
0000
0100
0000
,
0010
0100
0010
0000
,
0110
0000
0000
0000
,
1001
0000
1000
0000
,
0001
0000
0000
0000
,
0100
0000
0001
0000
,
0010
0000
0000
0000
,
0100
0000
1000
0000
,
0001
0000
0000
0000
,
0100
0000
0010
0000
,
1000
0000
0001
0000
,
0010
0000
0001
0000
,
0100
0000
0100
0000
,
0100
0100
0100
0000
,
1001
0000
0000
0000
,
0000
0000
0000
0000
,
0001
0000
0100
0000
,
0001
0100
0001
0000
,
1000
0000
0100
0000
,
1000
0100
1000
0000
,
0001
0000
0010
0000
,
0001
0010
0001
0000
,
1000
0000
0010
0000
,
1000
0010
1000
0000
,
1000
0000
0100
0000
,
1000
0000
0100
0010
,
0001
0000
0010
0000
,
0001
1000
0001
0000
,
0100
0000
0001
0000
,
0100
0010
1000
0000
,
0100
0000
1000
0000
,
0100
0010
0001
0000
,
2002
0000
0000
0000
,
0000
0000
0000
0000
,
0000
0000
0000
0000
,
3003
0000
0000
0000
,
0000
0001
0000
0001
,
0000
1000
0000
1000
,
0000
0100
0000
0010
,
0000
0010
0000
0100
,
0000
1000
0000
1000
,
0000
0001
0000
0001
,
0200
0000
0000
0000
,
0310
0000
0110
0000
,
1001
0000
0110
0000
,
1000
0001
1000
0000
,
0001
0000
0010
0000
,
0100
0010
0001
0000
,
1000
0000
0010
0000
,
0100
0010
1000
0000
,
0001
0000
1000
0000
,
0100
1000
0001
0000
,
1000
0000
0001
0000
,
0100
0001
1000
0000
,
0010
0100
0010
0000
,
1000
0001
0010
0000
,
0010
0100
0010
0000
,
0001
1000
0010
0000
,
0100
0010
0100
0000
,
0001
1000
0100
0000
,
0100
0010
0100
0000
,
1000
0001
0100
0010
;

//--------------- dance-single - forcednature ----------------
#NOTEDATA:;
#STEPSTYPE:dance-single;
#DESCRIPTION:forcednature;
#DIFFICULTY:Medium;
#METER:9;
#RADARVALUES:0,0,0,0,0;
#CREDIT:forcednature;
#NOTES:
0000
0000
0000
0000
,
0000
0000
0000
0000
,
0000
0000
0000
0000
,
0000
0000
0000
0000
,
0000
0000
0000
0000
,
1000
0001
0100
0001
,
0010
0000
0001
2000
0000
0000
3000
0000
,
0001
1000
0001
0100
,
0001
0000
0010
0002
0000
0000
0003
0000
,
1000
0100
1000
0010
,
1000
0000
0001
2000
0000
0000
3000
0000
,
0010
1000
0100
1000
,
0001
0000
0010
0002
0000
0000
0003
0000
,
0110
0000
0000
0000
,
1001
0000
1000
0000
,
0001
0200
0000
0300
,
0010
0000
1000
0000
,
0001
0020
0000
0130
,
1000
0000
0010
0000
,
0100
0001
0100
0000
,
0010
0000
1000
0000
,
0001
0010
0200
0300
,
1000
0010
0200
0300
,
1001
0000
0110
0000
,
1000
0001
0100
0100
,
0010
0000
2000
0000
,
0002
0000
0000
3003
,
1000
0100
0010
0100
,
1000
0001
1000
0000
0020
0000
0000
0030
,
0100
0001
0010
0001
,
0100
0010
0100
0000
0002
0000
0000
0003
,
1000
0001
0010
0100
,
1000
0001
1000
0000
0010
0000
0100
0000
,
0001
1000
0001
0010
,
0100
1000
0100
0000
0020
0000
0000
0030
,
0001
0001
0100
0100
,
0010
0000
0010
0000
1000
0001
1000
0000
,
0100
0100
0010
0010
,
0001
0000
0001
0000
1000
0010
1000
0000
,
0001
0001
0010
0010
,
0100
0000
0100
0000
1000
0001
1000
0000
,
0010
0010
0100
0100
,
0001
0000
0001
0000
0010
0100
0010
0000
,
2002
0000
0000
0000
,
0000
0000
0000
0000
,
0000
0000
0000
0000
,
3003
0000
0000
0000
,
1000
0000
0100
0000
0000
1000
0100
0000
,
1000
0000
0001
0000
0000
1000
0001
0000
,
0100
0000
0001
0000
0000
0100
0001
0000
,
1000
0000
0001
0000
0000
1000
0001
0000
,
0010
0000
0100
0000
0000
0010
0100
0000
,
1000
0000
0001
0000
0000
1000
0001
0000
,
0100
0100
0010
0010
,
1000
1000
1001
0100
,
1001
0010
0110
1000
,
0001
0000
0001
0000
0001
0000
0200
0000
0000
0300
0000
0000
,
0010
1000
0010
0000
1000
0001
1000
0000
,
0100
1000
0100
0000
0010
0000
0001
0000
,
0100
0001
0100
0000
0001
0010
0001
0000
,
1000
0010
1000
0000
1001
0000
0110
0000
,
0001
0010
0001
0000
0010
0100
0010
0000
,
0100
1000
0100
0000
1000
0000
0001
0000
,
0100
0001
0100
0000
0010
0100
0010
0000
,
1000
0010
1000
0000
1001
0000
0110
0000
,
0001
0010
0100
0000
0010
0000
0100
0000
,
1000
0001
0100
0000
0010
1000
0001
0000
,
1000
0100
0010
0000
0001
0000
1000
0000
,
0001
0100
0010
0000
0110
0000
1001
0000
,
1000
0010
0100
0000
0001
0000
1000
0000
,
0001
0010
0100
0000
0010
0100
1000
0000
,
0001
1000
0010
0000
0100
0000
0001
0000
,
1000
0001
0010
0000
0100
0000
2002
0000
,
3003
0000
0000
0000
;

//--------------- dance-single - forcednature ----------------
#NOTEDATA:;
#STEPSTYPE:dance-single;
#DESCRIPTION:forcednature;
#DIFFICULTY:Hard;
#METER:13;
#RADARVALUES:0,0,0,0,0;
#CREDIT:forcednature;
#NOTES:
0000
0000
0000
0000
,
0000
0000
0000
0000
,
0000
0000
0000
0000
,
0000
0000
0000
0000
,
0000
0000
0000
0000
,
1000
0000
0100
0000
1000
0000
0001
0000
0010
0000
0100
0010
0000
0001
0000
1000
,
0000
0001
0100
0020
0000
1000
1030
0000
,
0001
0000
0100
0000
0001
0000
1000
0000
0010
0000
0100
0010
0000
1000
0000
0001
,
0000
1000
0100
0020
0000
0000
0031
0000
,
0001
0100
0000
0010
0000
1000
0010
0000
0100
0000
0001
1000
0000
0001
0000
0010
,
0000
0100
1000
0200
0000
0010
0310
0000
,
1000
0100
0000
0010
0000
0001
0010
0000
0100
0000
1000
0001
0000
1000
0000
0010
,
0100
0000
0000
0001
0000
0000
0100
0000
0000
0010
0000
0000
1000
0000
0001
0000
1000
0000
0001
0000
0000
0000
0000
0000
,
1001
0000
0000
0000
,
1000
0000
0000
1000
0000
0000
0100
0000
1000
0000
0000
0001
0000
0100
0000
0010
,
0000
1000
0001
0020
0000
0000
0000
0030
,
0001
0000
0000
0001
0000
0000
0100
0000
0001
0000
0000
1000
0000
0100
0000
0010
,
0000
0001
1000
0020
0000
0130
0002
0000
,
1003
0000
0000
1000
0000
0000
0100
0000
0010
0000
0000
0001
0000
1000
0000
0010
,
0000
0000
0100
0000
0001
0000
1000
0020
0000
0000
1030
0000
0100
0000
0010
0000
,
0001
0000
0000
0001
0000
0000
0100
0000
0010
0000
0000
1000
0000
0001
0000
0010
,
0000
0000
0000
0100
0000
0000
1000
0000
0000
0001
0000
0000
0010
0000
0100
0000
1000
0000
0001
0000
0000
0000
0000
0000
,
1000
0000
0000
0010
0000
0000
0100
0000
0000
0001
0000
0000
1000
0000
0010
0000
0100
0000
0001
0000
0000
0000
0000
0000
,
0010
1000
0010
0001
0100
1000
0100
0001
,
0110
0000
0000
0000
0000
0000
1001
0000
0000
0000
0000
0000
0010
0000
0100
0000
0010
0000
0100
0000
0000
0010
0000
0000
,
1001
0000
0000
1000
0000
0000
0001
0000
0100
0000
0000
0010
0000
0010
0000
1000
,
0000
0001
0010
0200
0000
0000
0300
0000
,
0010
0001
0000
1000
0000
0001
0100
0000
0010
0000
1000
0001
0000
1000
0000
0100
,
0000
0010
0100
2000
0010
0000
0001
0000
,
3100
1000
0000
0001
0000
0100
0010
0000
1000
0000
0001
0010
0000
0100
0000
0010
,
0000
0001
1000
0020
0000
0130
0002
0000
,
1003
0100
0000
0010
0000
0100
1000
0000
0010
0000
0100
0001
0000
0010
0000
0001
,
0000
0100
0010
0000
1000
0001
0000
0010
0000
0100
0010
0000
0001
0000
1000
0000
,
0001
0100
0000
0010
0000
1000
0100
0000
1000
0000
0001
0100
0000
0010
0000
1000
,
0000
0000
0000
0100
0000
0000
0010
0000
0000
0001
0000
0000
0100
0000
0010
0000
0100
0000
0010
0000
0000
0000
0000
0000
,
1000
0000
1000
0100
0000
0100
0010
0000
0001
0000
0001
0100
0000
0100
0010
0000
,
1000
0000
1000
0001
0000
0001
0010
0000
0100
0000
1000
0000
0001
0000
0100
0000
,
0010
0000
0010
1000
0000
1000
0100
0000
0010
0000
0010
0001
0000
0001
0100
0000
,
0010
0000
0010
1000
0000
1000
0001
0000
0010
0000
0110
0000
1001
0000
0000
0000
,
0001
0000
0001
0100
0000
0100
0010
0000
1000
0000
1000
0100
0000
0100
0010
0000
,
0001
0000
0001
1000
0000
1000
0010
0000
0100
0000
0001
0000
1000
0000
0100
0000
,
0010
0000
0010
0001
0000
0001
0100
0000
0010
0000
0010
1000
0000
1000
0100
0000
,
0010
0000
0000
0000
0000
0000
0010
0000
0000
0001
0000
0000
0000
0000
0000
0001
0000
0000
1000
0000
0000
0000
0000
0000
0010
0000
0000
0000
0100
0000
0000
0000
0010
0000
0000
0000
0100
0000
0000
0000
0000
0000
0000
0000
0000
0000
0000
0000
,
2002
0000
0000
0000
,
0000
0000
0000
0000
,
0000
0000
0000
0000
,
3003
0000
0000
0000
,
1000
0000
0000
1000
0000
0000
0100
0000
0000
0000
1000
0000
0001
0000
0010
0000
,
0001
0000
0000
0001
0000
0000
0100
0000
0000
0000
0001
0000
1000
0000
0010
0000
,
0100
0000
0000
0100
0000
0000
0001
0000
0000
0000
1000
0000
0001
0000
0010
0000
,
0100
0000
0000
0100
0000
0000
1000
0000
0000
0000
0001
0000
0100
0000
0000
0000
,
0010
0000
0000
0010
1000
0000
0001
0000
0000
0000
0001
0000
1000
0000
0100
0000
,
0010
0000
0000
0010
0001
0000
1000
0000
0000
0000
1000
0000
0001
0000
0100
0000
,
0010
0000
0000
0010
0000
0000
1000
0000
0001
0000
0000
0001
0000
0000
0010
0000
,
0100
0000
0000
0000
0000
0000
0000
0000
0000
0100
0000
0000
0000
0000
0000
0000
0000
0000
1000
0000
0000
0000
0000
0000
0001
0000
0000
0000
0100
0000
0000
0000
0010
0000
0000
0000
1000
0000
0000
0000
0000
0000
0000
0000
0000
0000
0000
0000
,
1000
0100
0010
0001
0000
0000
0100
0010
0100
0110
0000
0000
,
0010
0100
0010
0100
0010
0100
1001
0000
0000
0000
0000
0000
,
1000
0000
0100
1000
0000
0010
1000
0000
0001
0000
0100
0001
0000
0010
0001
0000
,
1000
0000
0010
0100
0000
0001
0100
0000
0010
0000
1000
0000
0001
0000
1000
0000
,
0100
0000
0010
0001
0000
1000
0001
0000
0100
0000
0010
1000
0000
0001
1000
0000
,
0100
0000
0010
0001
0000
0100
0001
0000
0010
0000
0110
0000
1001
0000
0000
0000
,
0001
0000
0100
0001
0000
0010
0001
0000
1000
0000
0100
1000
0000
0010
1000
0000
,
0001
0000
0010
0100
0000
1000
0100
0000
0010
0000
0001
0000
1000
0000
0001
0000
,
0100
0000
0010
1000
0000
0001
1000
0000
0100
0000
0010
0001
0000
1000
0001
0000
,
0100
0000
0000
0000
0000
0000
0010
0000
0000
1000
0000
0000
0000
0000
0000
0100
0000
0000
1000
0000
0000
0000
0000
0000
0010
0000
0000
0000
0100
0000
0000
0000
0010
0000
0000
0000
0100
0000
0000
0000
0000
0000
0000
0000
0000
0000
0000
0000
,
0001
0000
1000
0001
0000
0100
0010
0000
1000
0000
0001
1000
0000
0100
0010
0000
,
0001
0000
0100
0010
0000
1000
0001
0000
0010
0000
1000
0000
0010
0000
0001
0000
,
1000
0000
0001
0100
0000
0010
1000
0000
0001
0000
1000
0100
0000
0010
0001
0000
,
0100
0000
0010
1000
0000
0100
0010
0000
0001
0000
0100
0000
1001
0000
0000
0000
,
1000
0000
0100
0010
0000
0001
1000
0000
0010
0000
1000
0001
0000
0010
0100
0000
,
0010
0000
0001
0100
0000
0010
1000
0000
0100
0000
0001
0000
0100
0000
1000
0000
,
0001
0000
0100
0010
0000
0100
0001
0000
1000
0000
0100
0010
0000
0100
1000
0000
,
0010
0000
0000
0000
0000
0000
0100
0000
0000
0001
0000
0000
0000
0000
0000
1000
0000
0000
0100
0000
0000
0000
0000
0000
0010
0000
0000
0000
0100
0000
0000
0000
0010
0000
0000
0000
2002
0000
0000
0000
0000
0000
0000
0000
0000
0000
0000
0000
,
3003
0000
0000
0000
;

//--------------- dance-double - forcednature ----------------
#NOTEDATA:;
#STEPSTYPE:dance-double;
#DESCRIPTION:forcednature;
#DIFFICULTY:Easy;
#METER:5;
#RADARVALUES:0,0,0,0,0;
#CREDIT:forcednature;
#NOTES:
00000000
00000000
00000000
00000000
,
00000000
00000000
00000000
00000000
,
00000000
00000000
00000000
00000000
,
00000000
00000000
00000000
00000000
,
00000000
00000000
00000000
00000000
,
00001000
00000000
00010000
00000000
,
00001000
00000000
00000000
00000000
,
01000000
00000000
00010000
00000000
,
01000000
00000000
00000000
00000000
,
00001000
00000000
00010000
00000000
,
00001000
00000000
00000000
00000000
,
00100000
00000000
00010000
00000000
,
00100000
00000000
00000000
00000000
,
00011000
00000000
00000000
00000000
,
00000010
00000000
00000000
00000000
,
00001000
00000000
00000000
00000000
,
00000001
00000000
00000000
00000000
,
00000010
00000000
00000000
00000000
,
00000100
00000000
00000000
00000000
,
00010000
00000000
00000000
00000000
,
00001000
00000000
00000000
00000000
,
00100000
00000000
01000000
00000000
,
00100000
00000000
01000000
00000000
,
00100000
00000000
00100000
00000000
,
00100000
00100000
00100000
00000000
,
20020000
00000000
00000000
00000000
,
00000000
00000000
30030000
00000000
,
10000000
00000000
00010000
00000000
,
01000000
00000000
00000000
00000000
,
00001000
00000000
00010000
00000000
,
00000010
00000000
00001000
00000000
,
00000010
00000000
00010000
00000000
,
00001000
00000000
00000000
00000000
,
00000010
00000000
00000100
00000000
,
00001000
00000000
00001000
00001000
,
00000001
00000000
00000100
00000000
,
00000001
00000000
00001000
00000000
,
00000010
00000000
00010000
00000000
,
00001000
00000000
00011000
00000000
,
00010000
00000000
00001000
00000000
,
00100000
00000000
00010000
00000000
,
00100000
00000000
01000000
00000000
,
10000000
00000000
10010000
00000000
,
02200000
00000000
00000000
00000000
,
00000000
00000000
00000000
00000000
,
00000000
00000000
00000000
00000000
,
03300000
00000000
00000000
00000000
,
00000000
10000000
00000000
10000000
,
00000000
01000000
00000000
01000000
,
00000000
00010000
00000000
00010000
,
00000000
00001000
00000000
00001000
,
00000000
00000100
00000000
00000100
,
00000000
00000001
00000000
00000001
,
00000000
00000000
00000010
00000000
,
00000100
00000000
00001001
00000000
,
00000110
00000000
00001001
00000000
,
00010000
00001000
00011000
00000000
,
01000000
00010000
01000000
00000000
,
00100000
00000000
10000000
00000000
,
01000000
10000000
01000000
00000000
,
00100000
00000000
00010000
00000000
,
01000000
00010000
01000000
00000000
,
00001000
00000000
00010000
00000000
,
00000100
00001000
00000100
00000000
,
00000110
00000000
00001001
00000000
,
00000001
00000100
00000001
00000000
,
00000100
00000010
00000100
00000000
,
00000010
00001000
00000010
00000000
,
00001000
00000001
00001000
00000000
,
00000100
00001000
00000100
00000000
,
00010000
00001000
00010000
00000000
,
00000010
00001000
00000010
00000000
,
00000110
00000000
00002002
00000000
,
00003003
00000000
00000000
00000000
;

//--------------- dance-double - forcednature ----------------
#NOTEDATA:;
#STEPSTYPE:dance-double;
#DESCRIPTION:forcednature;
#DIFFICULTY:Medium;
#METER:10;
#RADARVALUES:0,0,0,0,0;
#CREDIT:forcednature;
#NOTES:
00000000
00000000
00000000
00000000
,
00000000
00000000
00000000
00000000
,
00000000
00000000
00000000
00000000
,
00000000
00000000
00000000
00000000
,
00000000
00000000
00000000
00000000
,
00001000
00000000
00010000
00000000
00000100
00001000
00000100
00000000
,
00010000
00001000
00101000
00000000
,
00001000
00000000
00010000
00000000
00000010
00001000
00000010
00000000
,
00010000
00001000
01001000
00000000
,
00010000
00000000
00001000
00000000
01000000
00010000
01000000
00000000
,
00001000
00010000
00010010
00000000
,
00010000
00000000
00001000
00000000
00100000
00010000
00100000
00000000
,
00001000
00010000
00010100
00001000
,
00001001
00000000
00000000
00000000
,
00000001
00000100
00001000
00010000
,
00100000
00000000
01000000
00020000
00000000
00000000
00000000
00030000
,
10000000
01000000
00010000
00001000
,
00000010
00000000
00000001
00001000
00000000
00000100
00000010
00000000
,
00000001
00000100
00001000
00010000
,
00100000
00000000
01000000
00010000
00000000
01000000
00100000
00000000
,
10000000
01000000
00010000
00001000
,
00000010
00000001
00000100
00001001
,
00000001
00000010
00001000
00011000
,
01001000
00000000
00010100
00000000
,
00101000
00011000
00010010
00011000
,
00001000
00100000
00010000
20000000
,
00000000
00200000
00000000
30300000
,
10000000
01000000
00100000
00010000
01000000
00001000
00100000
00000000
,
00010000
01000000
00001000
00000000
00011000
00000000
00010100
00000000
,
00000100
00001000
00000001
00000100
00000001
00001000
00000010
00000000
,
00010000
00001000
00100000
00000000
00110000
00000000
01010000
00000000
,
01000000
00100000
10000000
01000000
00100000
00001000
00010000
00000000
,
00000010
00001000
00000100
00000010
00000100
00001000
00000001
00000000
,
00000100
00000010
00001000
00000100
00010000
00001000
01000000
00000000
,
00010000
00100000
01000000
00000000
01100000
00000000
10010000
00000000
,
00010000
01000000
00001000
00000000
00010000
00000010
00001000
00000000
,
00000100
00000010
00000001
00000000
00000100
00001000
00010000
00000000
,
00100000
01000000
00010000
00000000
10000000
01000000
00100000
00000000
,
00010000
01000000
00001000
00000000
00010100
00000000
01001000
00000000
,
00001000
00010000
00000010
00000000
00010000
00001000
00000010
00000000
,
00000100
00001000
00000001
00000000
00000100
00001000
00010000
00000000
,
00100000
01000000
00010000
00000000
10000000
01000000
00010000
00000000
,
00001000
00100000
00010000
00000000
01001000
00000000
00010100
00000000
,
00022000
00000000
00000000
00000000
,
00000000
00000000
00000000
00000000
,
00000000
00000000
00000000
00000000
,
00033000
00000000
00000000
00000000
,
00010000
00000100
00000000
00001000
,
00000100
00010000
00000000
00001000
,
01000000
00010000
00000000
01000000
,
00001000
00010000
00000000
00001000
,
00100000
00010000
00000000
00100000
,
00001000
00010000
00000000
00001000
,
00010000
00000000
00000010
00000000
,
00001000
00000000
00001001
00000100
,
00001001
00000010
00011000
01000000
,
10010000
00000000
10010000
00000000
10010000
00000000
00200000
00000000
00000000
00300000
00000000
00000000
,
10000000
01000000
00010000
00000000
01000000
00100000
00001000
00000000
,
00010000
00000100
00000010
00000000
00000110
00000000
00001100
00000000
,
00000001
00000100
00001000
00000000
00000100
00000010
00010000
00000000
,
00001000
00100000
01000000
00000000
01100000
00000000
10010000
00000000
,
00010000
01000000
00001000
00000000
00010000
00000100
00001000
00000000
,
00000001
00000100
00001000
00000000
00001100
00000000
00000101
00000000
,
00000001
00000010
00000100
00000000
00000010
00001000
00010000
00000000
,
00000100
00001000
00000010
00000000
00010010
00000000
01001000
00000000
,
01000000
00010000
00100000
01000000
00010000
00001000
00100000
00000000
,
00001000
00010000
00000010
00001000
00000100
00000010
00000001
00000000
,
00000100
00000010
00010000
00001000
01000000
00100000
10000000
00000000
,
01000000
00010000
00001000
00000000
00101000
00000000
00010100
00000000
,
00000100
00001000
00000010
00010000
00001000
00000010
00000001
00000000
,
00000100
00000010
00001000
00000100
00010000
00001000
01000000
00000000
,
00010000
00100000
01000000
00010000
01000000
00100000
00001000
00000000
,
00010000
00100000
10000000
00000000
10010000
00000000
02200000
00000000
,
03300000
00000000
00000000
00000000
;

//--------------- dance-double - forcednature ----------------
#NOTEDATA:;
#STEPSTYPE:dance-double;
#DESCRIPTION:forcednature;
#DIFFICULTY:Hard;
#METER:14;
#RADARVALUES:0,0,0,0,0;
#CREDIT:forcednature;
#NOTES:
00000000
00000000
00000000
00000000
,
00000000
00000000
00000000
00000000
,
00000000
00000000
00000000
00000000
,
00000000
00000000
00000000
00000000
,
00000000
00000000
00000000
00000000
,
00010000
00001000
00000100
00000010
00001000
00000001
00000010
00001000
,
00010000
01000000
00100000
00002000
00000000
01000000
01003000
00000000
,
00001000
00010000
01000000
00100000
00010000
10000000
00100000
00010000
,
00001000
00000100
00000010
00020000
00000000
00000000
00130000
00000000
,
00010000
00001000
00000000
00010000
00000000
00000100
00001000
00000000
00000100
00000000
00000010
00000001
00000000
00000010
00000000
00000100
,
00000000
00001000
00000010
00020000
00000000
00000100
00030100
00000000
,
00001000
00010000
00000000
00001000
00000000
01000000
00010000
00000000
01000000
00000000
00100000
10000000
00000000
00100000
00000000
01000000
,
00010000
00000000
00000000
00100000
00000000
00000000
01000000
00000000
00000000
00100000
00000000
00000000
00001000
00000000
00010000
00000000
00001000
00000000
00010000
00000000
00000000
00000000
00000000
00000000
,
00011000
00000000
00000000
00000000
,
00010000
00001000
00000010
00000000
00001000
00000010
00000001
00000000
,
00000100
00000001
00001000
00000020
00000000
00000000
00000000
00000030
,
00000100
00001000
00010000
00000000
00001000
00010000
00100000
00000000
,
01000000
00010000
10000000
00200000
00000000
10300000
02000000
00000000
,
03100000
00010000
01000000
00000000
00010000
00100000
00001000
00000000
,
00010000
00000000
00000010
00000000
00001000
00000000
00000010
00000200
00000000
00000000
00000301
00000000
00000010
00000000
00000100
00000000
,
00001000
00000100
00010000
00000000
00001000
01000000
00010000
00000000
,
00100000
00000000
00000000
01000000
00000000
00000000
10000000
00000000
00000000
01000000
00000000
00000000
00100000
00000000
00010000
00000000
00100000
00000000
00001000
00000000
00000000
00000000
00000000
00000000
,
00010000
00000000
00000000
00000010
00000000
00000000
00001000
00000000
00000000
00000010
00000000
00000000
00000100
00000000
00000001
00000000
00001000
00000000
00000001
00000000
00000000
00000000
00000000
00000000
,
00000010
00000100
00010000
00001000
00000100
00000010
00010000
00001000
,
01001000
00000000
00000000
00000000
00000000
00000000
00010100
00000000
00000000
00000000
00000000
00000000
00010000
00000000
00001000
00000000
00010000
00000000
00001000
00000000
00000000
00010000
00000000
00000000
,
00000020
00000100
00001000
00000100
,
00001000
00000000
00010000
00020000
00000000
00000000
00030030
00000000
,
00010000
00001000
00000000
01000000
00000000
00010000
00100000
00000000
01000000
00000000
00010000
00001000
00000000
00100000
00000000
00010000
,
10000000
00100000
00010000
00001000
00010000
00000100
00001000
00000000
,
00000001
00000010
00000000
00000100
00000000
00000010
00000001
00000000
00001000
00000000
00000010
00010000
00000000
00001000
00000000
00000010
,
00000100
00001000
00000001
00000100
00001000
00010000
00100000
00000000
,
01000000
00001000
00000000
00010000
00000000
00001000
00100000
00000000
01000000
00000000
00010000
01000000
00000000
10000000
00000000
00010000
,
00000000
00100000
00010000
00000000
00100000
00001000
00010000
00001000
00000000
00010000
00000100
00001000
00000100
00000000
00000010
00000000
,
00000001
00001000
00000000
00000010
00000000
00001000
00000001
00000000
00000010
00000000
00000100
00010000
00000000
00001000
00000000
00100000
,
00010000
00000000
00000000
01000000
00000000
00000000
00010000
00000000
00000000
00100000
00000000
00000000
01000000
00000000
00010000
00000000
00001000
00000000
00000020
00000000
00000000
00000030
00000000
00000000
,
00000100
00000000
00001000
00000100
00000000
00010000
00001000
00000000
01000000
00000000
00010000
01000000
00000000
00001000
00010000
00000000
,
00000010
00000000
00001000
00000010
00000000
00010000
00001000
00000000
02000000
00000000
03200000
00000000
00320000
00000000
00032000
00000000
,
00103000
00000000
00010000
01000000
00000000
00001000
00010000
00000000
00000010
00000000
00001000
00000100
00000000
00010000
00001000
00000000
,
01000000
00000000
00010000
00100000
00000000
00001000
00010000
00000000
00011000
00000000
00010100
00000000
00002200
00000000
00003300
00000000
,
00001000
00000000
00000010
00010000
00000000
00001000
00100000
00000000
00010000
00000000
01000000
00001000
00000000
00010000
00000100
00000000
,
00001000
00000000
00000010
00010000
00000000
00001000
00100000
00000000
00020000
00000000
02030000
00000000
03200000
00000000
00320000
00000000
,
00031000
00000000
00100000
00010000
00000000
01000000
00001000
00000000
00010000
00000000
00000010
00001000
00000000
00000100
00010000
00000000
,
00001000
00000000
00000000
00000000
00000000
00000000
01000000
00000000
00000000
00010000
00000000
00000000
00000000
00000000
00000000
00100000
00000000
00000000
01000000
00000000
00000000
00000000
00000000
00000000
00010000
00000000
00000000
00000000
00001000
00000000
00000000
00000000
00010000
00000000
00000000
00000000
00001000
00000000
00000000
00000000
00000000
00000000
00000000
00000000
00000000
00000000
00000000
00000000
,
00000220
00000000
00000000
00000000
,
00000000
00000000
00000000
00000000
,
00000000
00000000
00000000
00000000
,
00000330
00000000
00000000
00000000
,
00000001
00000001
00000100
00000001
00000000
00000100
00001000
00010000
,
00001000
00001000
00010000
00001000
00000000
00010000
01000000
10000000
,
00010000
00010000
00100000
00010000
00000000
10000000
00100000
00010000
,
00001000
00001000
00010000
00001000
00000000
00100000
00010000
00000000
,
00100000
00100000
01000000
00100000
00000000
00001000
00010000
00000100
,
00001000
00001000
00000010
00001000
00000000
00000001
00000010
00000100
,
00001000
00000000
00000000
00001000
00000000
00000000
00000100
00000000
00010000
00000000
00000000
00010000
00000000
00000000
00001000
00000000
,
00100000
00000000
00000000
00000000
00000000
00000000
00000000
00000000
00000000
00100000
00000000
00000000
00000000
00000000
00000000
00000000
00000000
00000000
00010000
00000000
00000000
00000000
00000000
00000000
10000000
00000000
00000000
00000000
00100000
00000000
00000000
00000000
00010000
00000000
00000000
00000000
00001000
00000000
00000000
00000000
00000000
00000000
00000000
00000000
00000000
00000000
00000000
00000000
,
00100000
00000000
00010000
00000000
00001000
00000000
00000200
00000000
00000000
00000300
00000000
00000000
00010000
00000000
00001000
00000000
00000100
00000000
00000002
00000000
00000000
00000003
00000000
00000000
,
00000100
00000001
00000010
00000100
00001000
00000010
00002002
00000000
00000000
00003003
00000000
00000000
,
00000001
00000000
00000100
00000001
00000000
00000100
00000010
00000000
00000100
00000000
00001000
00010000
00000000
00001000
00100000
00000000
,
00010000
00000000
10000000
00100000
00000000
01000000
00100000
00000000
20000000
00000000
32000000
00000000
03020000
00000000
00032000
00000000
,
00103000
00000000
00010000
00100000
00000000
00001000
00010000
00000000
00000010
00000000
00001000
00000100
00000000
00001000
00000001
00000000
,
00000100
00000000
00000001
00000010
00000000
00000100
00000010
00000000
00001100
00000000
00010100
00000000
00011000
00000000
00000000
00000000
,
00001000
00000000
01000000
00010000
00000000
01000000
00100000
00000000
10000000
00000000
01000000
00100000
00000000
01000000
10000000
00000000
,
00010000
00000000
01000000
00001000
00000000
00010000
00001000
00000000
00200000
00000000
02300000
00000000
03020000
00000000
00032000
00000000
,
00003010
00000000
00000100
00001000
00000000
00000001
00000100
00000000
00000010
00000000
00001000
00000010
00000000
00010000
00001000
00000000
,
00100000
00000000
00000000
00000000
00000000
00000000
00010000
00000000
00000000
00100000
00000000
00000000
00000000
00000000
00000000
01000000
00000000
00000000
00100000
00000000
00000000
00000000
00000000
00000000
00001000
00000000
00000000
00000000
00010000
00000000
00000000
00000000
00100000
00000000
00000000
00000000
01000000
00000000
00000000
00000000
00000000
00000000
00000000
00000000
00000000
00000000
00000000
00000000
,
00010000
01000000
00100000
01000000
00000000
00100000
10000000
00000000
01000000
10000000
01000000
00100000
00000000
00010000
00100000
00000000
,
00001000
00010000
00000100
00010000
00000000
00001000
00000010
00000000
00000002
00000000
00000203
00000000
00002300
00000000
00023000
00000000
,
00030010
00001000
00000010
00010000
00000000
00001000
00010000
00000000
00001000
00100000
00010000
00100000
00000000
01000000
00100000
00000000
,
01000000
10000000
00010000
10000000
00000000
00010000
01000000
00000000
00100000
00000000
00010000
00000000
00022000
00000000
00033000
00000000
,
00010000
00000100
00001000
00000100
00000000
00001000
00000001
00000000
00000100
00000001
00000100
00000010
00000000
00001000
00000010
00000000
,
00010000
00001000
00100000
00001000
00000000
00010000
00100000
00000000
20000000
00000000
32000000
00000000
03020000
00000000
00032000
00000000
,
00103000
00010000
00100000
00001000
00000000
00010000
00000010
00000000
00001000
00000100
00010000
00000100
00000000
00010000
00001000
00000000
,
01000000
00000000
00000000
00010000
00000000
00000000
01000000
00000000
00000000
00100000
00000000
00000000
00000000
00000000
00000000
10000000
00000000
00000000
00010000
00000000
00000000
00000000
00000000
00000000
00100000
00000000
00000000
00000000
01000000
00000000
00000000
00000000
00010000
00000000
00000000
00000000
00002000
00000000
00000000
00000000
00000000
00000000
00000000
00000000
00000000
00000000
00000000
00000000
,
00003000
00000000
00000000
00000000
;
