#VERSION:0.83;
#TITLE:Snow Goose;
#SUBTITLE:;
#ARTIST:Mutsuhiko Izumi;
#TITLETRANSLIT:;
#SUBTITLETRANSLIT:;
#ARTISTTRANSLIT:;
#GENRE:ELECTRIC POMP;
#CREDIT:;
#MUSIC:Snow Goose.ogg;
#BANNER:Snow Goose.png;
#BACKGROUND:Snow Goose-bg.png;
#CDTITLE:./CDTitles/jubeat.png;
#SAMPLESTART:21.923;
#SAMPLELENGTH:15.000;
#SELECTABLE:YES;
#OFFSET:0.858;
#BPMS:0.000=200.000;
#STOPS:;
#BGCHANGES:0.000=../BGAs/19po.mp4=1.000=0=0=0=StretchNoLoop====,
99999.000=-nosongbg-=1.000=0=0=0=StretchNoLoop====
;
#FGCHANGES:;

//--------------- dance-single - forcednature ----------------
#NOTEDATA:;
#STEPSTYPE:dance-single;
#DESCRIPTION:forcednature;
#DIFFICULTY:Beginner;
#METER:2;
#RADARVALUES:0,0,0,0,0;
#CREDIT:forcednature;
#NOTES:
0000
0000
0000
0000
,
0000
0000
0000
0000
,
0000
0000
0000
0000
,
0000
0000
0000
0000
,
0000
0000
0000
0000
,
0000
0000
0000
0000
,
1000
0000
0000
0000
,
0000
0000
0000
0000
,
0000
0000
0000
0000
,
0001
0000
0000
0000
,
0000
0000
0000
0000
,
0100
0100
0000
0000
,
0010
0010
0000
0000
,
1000
1000
0000
0000
,
0001
0000
0000
0000
,
1000
1000
0000
0000
,
0100
0100
0000
0000
,
0010
0010
0000
0000
,
0001
0000
0000
0000
,
1000
0000
0000
0000
,
0000
0000
0000
0000
,
0100
0000
0000
0000
,
0000
0000
0000
0000
,
0100
0000
0000
0000
,
0000
0000
0000
0000
,
1000
0000
0000
0000
,
0000
0000
0000
0000
,
0010
0000
0000
0000
,
0000
0000
0000
0000
,
0100
0000
0000
0000
,
0000
0000
0000
0000
,
0001
0000
0000
0000
,
0000
0000
0000
0000
,
0010
0000
0000
0000
,
0000
0000
0000
0000
,
0100
0000
0000
0000
,
0000
0000
0000
0000
,
0010
0000
0000
0000
,
0000
0000
0000
0000
,
0010
0000
0000
0000
,
0000
0000
0000
0000
,
0100
0000
0000
0000
,
0000
0000
0000
0000
,
1000
0000
0000
0000
,
0000
0000
0000
0000
,
0100
0000
0000
0000
,
0000
0000
0000
0000
,
0010
0000
0000
0000
,
0000
0000
0000
0000
,
0001
0000
0000
0000
,
0000
0000
0000
0000
,
1000
0000
0000
0000
,
0000
0000
0000
0000
,
0010
0000
0000
0000
,
0000
0000
0000
0000
,
0100
0000
0000
0000
,
0000
0000
0000
0000
,
0001
0000
0000
0000
,
0000
0000
0000
0000
,
1000
0000
0000
0000
,
1000
0000
0000
0000
,
0100
0000
0000
0000
,
0010
0000
0000
0000
,
0001
0000
0000
0000
,
0001
0000
0000
0000
,
0100
0000
0000
0000
,
0010
0000
0000
0000
,
0000
0000
0000
0000
,
0000
0000
0000
0000
,
1000
0000
0000
0000
,
1000
0000
0000
0000
,
0001
0000
0000
0000
,
0100
0000
0000
0000
,
0000
0000
0000
0000
,
0010
0000
0000
0000
,
1000
0000
0000
0000
,
0001
0000
0000
0000
,
0010
0000
0000
0000
,
0100
0000
0000
0000
,
0000
0000
0010
0000
,
0000
1001
0000
0000
;

//--------------- dance-single - forcednature ----------------
#NOTEDATA:;
#STEPSTYPE:dance-single;
#DESCRIPTION:forcednature;
#DIFFICULTY:Easy;
#METER:7;
#RADARVALUES:0,0,0,0,0;
#CREDIT:forcednature;
#NOTES:
0000
0000
0000
0000
,
0000
0000
0000
0000
,
0000
0000
0000
0000
,
0000
0000
0000
0000
,
0000
0000
0000
0000
,
0000
0000
0000
0000
,
2000
0000
0000
3000
,
0200
0000
0000
0300
,
0020
0000
0000
0030
,
0001
0000
0001
0000
,
0100
0000
0010
0000
,
1000
0000
0000
0200
0000
0000
0300
0000
,
1000
0000
0000
0002
0000
0000
0003
0000
,
1000
0000
0000
0020
0000
0000
0030
0000
,
0100
0000
0001
0000
,
0001
0000
0000
2000
0000
0000
3000
0000
,
0001
0000
0000
0020
0000
0000
0030
0000
,
0001
0000
0000
0200
0000
0000
0300
0000
,
0010
0000
1000
0000
,
0002
0000
0000
0000
,
0023
0000
0000
0000
,
0230
0000
2300
0000
,
3002
0000
0000
0003
,
0200
0000
0320
0000
,
2030
0000
3002
0000
,
0023
0000
0000
0030
,
0200
0000
2300
0000
,
3002
0000
0000
0003
,
0200
0000
0000
0300
,
0020
0000
2030
0000
,
3002
0000
0000
0003
,
0020
0000
0230
0000
,
2300
0000
3002
0000
,
0203
0000
0000
0300
,
0020
0000
2030
0000
,
3001
0001
0001
0000
,
2002
0000
3003
0000
,
1000
1000
1000
0000
,
2002
0000
3003
0000
,
0010
0010
0010
0000
,
2002
0000
3003
0000
,
2000
0000
3200
0000
,
0320
0000
0032
0000
,
1003
0000
0010
1000
,
0010
0000
0100
0000
,
0001
0000
0010
0000
,
0200
0000
2300
0000
,
3001
0000
0100
0001
,
0100
0000
0010
0000
,
1000
0000
0100
0000
,
0020
0000
0032
0000
,
0103
0000
0010
1000
,
0010
0000
0100
0000
,
0001
0000
0010
0100
,
0020
0000
0032
0000
,
0103
0000
0010
1000
,
0010
0000
0100
0000
,
0002
0000
0023
0000
,
0230
0000
2300
0000
,
3020
0000
0100
0100
,
0200
0000
0330
0000
,
0002
0000
1000
1000
,
2000
0000
3003
0000
,
0200
0000
0010
0010
,
0020
0000
0330
0000
,
0002
0000
0023
0000
,
0230
0000
2300
0000
,
3000
0000
0000
0000
,
0000
0000
0000
0000
,
1001
0000
0000
0000
,
0110
0000
0000
0000
,
1001
0000
0000
0000
,
1000
0000
1000
0000
,
0001
0000
0001
0000
,
0100
0010
0100
0000
,
0010
0000
1000
0000
,
0100
0010
0100
0000
,
0010
0000
0010
0000
,
0001
0001
0001
0000
,
0000
0000
0000
0000
0100
0000
0000
0010
,
0000
1001
0000
0000
;

//--------------- dance-single - forcednature ----------------
#NOTEDATA:;
#STEPSTYPE:dance-single;
#DESCRIPTION:forcednature;
#DIFFICULTY:Medium;
#METER:11;
#RADARVALUES:0,0,0,0,0;
#CREDIT:forcednature;
#NOTES:
0000
0000
0000
0000
,
0000
0000
0000
0000
,
0000
0000
0000
0000
,
0000
0000
0000
0000
,
0000
0000
0000
0000
,
0000
0000
0000
0000
,
1000
0100
0010
0010
,
0001
0100
0010
0010
,
1000
0001
0100
0100
,
0010
0000
0000
0010
0000
0000
1000
0000
0000
0001
0000
0000
0100
0000
0000
0000
,
0001
0000
0000
1000
0000
0000
0100
0000
0000
0010
0000
0000
0001
0000
0000
0000
,
0100
0100
0100
0020
0000
0000
0030
0000
,
1000
1000
1000
0002
0000
0000
0003
0000
,
0010
0010
0010
0200
0000
0000
0300
0000
,
1000
1000
1000
0000
0001
0100
0001
0000
,
0010
0010
0010
0002
0000
0000
0003
0000
,
1000
1000
1000
0020
0000
0000
0030
0000
,
0100
0100
0100
0002
0000
0000
0003
0000
,
2000
3200
0320
0032
,
2003
0000
0000
3020
0000
0000
0230
0000
,
0302
0000
0000
0000
0000
0000
0013
0100
,
2000
0000
0000
3002
0000
0000
0203
0000
,
0320
0000
0000
0030
,
2000
0000
0000
3002
0000
0000
0023
0000
,
0032
0000
0000
2003
0000
0000
3200
0000
,
0320
0000
0000
0000
0000
0000
0031
1000
,
0020
0000
0230
0000
,
0302
0000
0000
0023
0000
0000
0230
0000
,
2300
0000
0000
0000
0000
0000
3001
0100
,
0020
0000
0000
2030
0000
0000
3002
0000
,
0023
0000
0000
0000
0000
0000
0130
1000
,
0002
0000
0000
0203
0000
0000
0000
0300
,
0020
0000
0000
2030
0000
0000
0000
3000
,
0002
0000
0000
0000
0000
0000
0000
0003
,
0020
0000
0000
0230
0000
0000
0000
0300
,
1000
0010
0000
0100
0000
0001
0100
0000
,
0020
1000
1000
0030
,
1000
0001
0000
0010
0000
0001
0100
0000
,
0020
0100
0130
0010
,
1000
0100
0000
0010
0000
0100
1000
0000
,
0002
0010
0010
0003
,
0100
0010
0100
0000
0010
1000
0010
0000
,
1000
0100
1000
0000
0001
0000
0000
0000
,
0011
1000
0010
0100
,
1001
0001
0010
0100
,
1100
0010
1000
0001
,
0100
0010
0100
0000
0001
0000
1000
0000
,
1100
0001
0010
0100
,
1001
0001
0100
0010
,
1000
0100
1000
0000
0001
0000
0010
0000
,
0001
0100
0001
0000
1000
0000
0010
0000
,
0110
0001
0010
0100
,
0110
1000
0010
0100
,
1001
0001
0010
0100
,
1000
0010
1000
0000
0001
0000
0100
0000
,
1010
1000
0100
0010
,
0011
0001
0100
0010
,
1000
0001
1000
0000
0100
0000
0010
0000
,
0001
0010
0001
0000
0100
0000
0010
0000
,
2000
0000
0000
3200
0000
0000
0320
0000
,
0032
0000
0100
0100
0100
0000
0003
0000
,
0002
0000
0000
0203
0000
0000
0320
0000
,
2030
0000
0100
0100
0100
0000
3000
0000
,
2000
0000
0000
3002
0000
0000
0023
0000
,
0230
0000
1000
1000
1000
0000
0300
0000
,
2000
3020
0230
0302
,
0023
0230
2300
3020
,
0030
0000
0000
0000
,
0000
0000
0000
0000
,
0110
0000
0001
0000
,
1001
0000
0010
0000
,
0110
0000
1000
0000
,
0010
0000
0000
0010
0000
0000
1000
0000
0000
0001
0000
0000
0100
0000
0000
0000
,
0001
0000
0000
0010
0000
0000
0100
0000
0000
1000
0000
0000
0001
0000
0000
0000
,
0100
0001
0100
0000
0010
0000
1000
0000
,
0100
1000
0100
0000
0010
0000
0001
0000
,
1000
0010
1000
0000
0001
0000
0010
0000
,
0100
0000
0000
1000
0000
0000
0001
0000
0000
1000
0000
0000
0010
0000
0000
0000
,
0100
0000
0000
0001
0000
0000
1000
0000
0000
0010
0000
0000
0100
0000
0000
0000
,
0000
0000
0000
0000
0001
0001
1000
0001
,
0000
1001
0000
0000
;

//--------------- dance-single - forcednature ----------------
#NOTEDATA:;
#STEPSTYPE:dance-single;
#DESCRIPTION:forcednature;
#DIFFICULTY:Hard;
#METER:15;
#RADARVALUES:0,0,0,0,0;
#CREDIT:forcednature;
#NOTES:
0000
0000
0000
0000
,
0000
0000
0000
0000
,
0000
0000
0000
0000
,
0000
0000
0000
0000
,
0000
0000
0000
0000
,
0000
0000
0000
0000
,
1000
0100
1000
0010
0100
0001
1000
0000
,
0001
0100
0001
0010
0100
1000
0001
0000
,
0100
0010
0100
0001
1000
0100
0010
0000
,
0001
0000
0000
0001
0000
0000
0100
0000
0000
0010
0000
0000
1000
0000
0000
0000
,
0100
0000
0000
0010
0000
0000
0001
0000
0000
1000
0000
0000
0010
0000
0000
0000
,
1000
0100
1000
0100
1000
0000
0002
0000
0000
0000
0000
0000
0003
0000
0000
0000
,
0001
0100
0001
0100
0001
0000
2000
0000
0000
0000
0000
0000
3000
0000
0000
0000
,
0010
0100
0010
0100
0010
0000
0200
0000
0000
0000
0000
0000
0300
0000
0000
0000
,
0001
1000
0001
1000
0001
0000
1000
0000
0100
0000
0000
0000
0010
0000
0000
0000
,
0001
0100
0001
0100
0001
0000
0020
0000
0000
0000
0000
0000
0030
0000
0000
0000
,
1000
0100
1000
0100
1000
0000
0020
0000
0000
0000
0000
0000
0030
0000
0000
0000
,
0100
0010
0100
0010
0100
0000
0020
0000
0000
0000
0000
0000
0030
0000
0000
0000
,
1000
0100
0010
1000
0010
0100
1000
0001
,
0100
0010
0100
0001
1000
0010
1000
0000
,
0201
0000
1000
0000
0010
0000
0301
0010
,
0100
1000
0100
0010
0001
1000
0010
0000
,
0201
1000
0001
0310
,
0100
0001
0010
0100
0001
0100
0010
0000
,
0001
1000
0010
0100
1000
0100
0010
0000
,
2010
0000
0001
0000
3100
0000
1000
0001
,
0020
0000
0100
0000
0031
1000
0001
1000
,
0010
0100
1000
0100
0001
1000
0010
0000
,
1020
0000
0001
0000
1000
0000
0130
0010
,
1000
0001
0010
0100
1000
0001
0100
0000
,
0021
0000
0000
0000
1000
0000
0000
0000
0001
0000
0000
0000
0130
0000
0010
0001
,
0010
0100
1000
0001
1000
0010
0100
0000
,
0010
1000
0001
0100
0001
1000
0100
0000
,
0020
1000
0100
0001
,
0130
0010
0100
0010
0001
1000
0010
0000
,
1000
0100
0000
1100
0000
0100
1000
0001
,
0010
0000
0000
0000
0100
0010
0100
0010
0100
0000
0000
0000
0000
0000
0000
0000
,
0010
0001
0000
0011
0000
0001
0100
0010
,
1000
0000
0000
0000
0100
0010
0100
0010
0100
0000
0000
0000
1000
0000
0001
0000
,
0100
0010
0000
1010
0000
1000
0100
0010
,
0001
0000
0000
0000
0100
0010
0100
0010
0100
0000
0000
0000
0000
0000
0000
0000
,
0001
0010
0001
0100
0010
1000
0100
1000
,
0010
0000
0100
0000
0001
1000
0001
1000
0001
0000
0000
0000
0000
0000
0000
0000
,
1200
0000
0310
0001
0100
0001
1000
0010
,
2000
0000
3001
0100
0010
1000
0100
0010
,
0002
0000
0103
0010
0100
0001
1000
0100
,
0010
1000
0010
0001
0100
1000
0100
0001
,
2000
0000
3010
0100
0001
0010
0100
1000
,
0002
0000
0103
0010
0100
0001
1000
0100
,
0010
1000
0010
0100
0010
0001
1000
0001
,
0100
1000
0100
0001
0010
1000
0010
0001
,
0200
0000
0310
1000
0100
0010
0100
1000
,
0002
0000
0103
0010
0100
0001
1000
0100
,
0020
0000
0130
1000
0001
0100
0010
1000
,
0100
0001
0100
1000
0010
0001
0010
1000
,
0002
0000
0013
0100
1000
0001
0100
0010
,
2000
0000
3100
0010
0001
1000
0010
0100
,
0001
0010
0100
0010
1000
0010
0100
0010
,
0001
0100
1000
0100
0001
0010
1000
0010
,
0001
0100
0000
0110
0000
0010
1000
0001
,
0010
0000
0000
0000
0100
0010
0100
0010
0100
0000
0000
0000
0000
0000
0000
0000
,
1000
0001
0000
0101
0000
0001
1000
0100
,
0010
0000
0000
0000
0100
0010
0100
0010
0100
0000
0000
0000
1000
0000
0001
0000
,
0100
0010
0000
1010
0000
1000
0100
0010
,
0001
0000
0000
0000
0100
0010
0100
0010
0100
0000
0000
0000
0000
0000
0000
0000
,
0001
0010
0100
0010
1000
0010
0100
0010
,
0001
0100
1000
0100
0001
0010
1000
0010
,
0000
0000
0000
0000
,
0000
0000
0000
0000
,
0011
0000
0001
0100
1000
0000
0100
0000
,
1010
0000
1000
0100
0001
0000
0100
0000
,
0011
0000
0001
0100
1000
0000
0100
0000
,
0010
1000
0100
1000
0001
1000
0100
0000
,
0010
0001
0100
0001
1000
0001
0100
0000
,
0010
1000
0100
0001
0100
1000
0010
0000
,
0100
1000
0100
0001
0010
0001
1000
0000
,
0100
0001
0100
1000
0010
1000
0001
0000
,
0010
0100
0001
0100
0010
0001
0100
0000
,
0010
0100
1000
0100
0010
1000
0100
0000
,
0000
0000
0000
0000
0000
0000
0000
0000
1000
0001
1000
0001
1000
0000
0001
1000
,
0000
1001
0000
0000
;

//--------------- dance-double - forcednature ----------------
#NOTEDATA:;
#STEPSTYPE:dance-double;
#DESCRIPTION:forcednature;
#DIFFICULTY:Easy;
#METER:7;
#RADARVALUES:0,0,0,0,0;
#CREDIT:forcednature;
#NOTES:
00000000
00000000
00000000
00000000
,
00000000
00000000
00000000
00000000
,
00000000
00000000
00000000
00000000
,
00000000
00000000
00000000
00000000
,
00000000
00000000
00000000
00000000
,
00000000
00000000
00000000
00000000
,
00002000
00000000
00000000
00003000
,
02000000
00000000
00000000
03000000
,
00020000
00000000
00000000
00030000
,
10000000
00000000
10000000
00000000
,
01000000
00000000
10000000
00000000
,
00010000
00000000
00000000
00200000
00000000
00000000
00300000
00000000
,
00001000
00000000
00000000
00020000
00000000
00000000
00030000
00000000
,
00000100
00000000
00000000
00002000
00000000
00000000
00003000
00000000
,
00000001
00000001
00000100
00000001
,
00001000
00000000
00000000
00000020
00000000
00000000
00000030
00000000
,
00010000
00000000
00000000
00002000
00000000
00000000
00003000
00000000
,
01000000
00000000
00000000
00020000
00000000
00000000
00030000
00000000
,
10000000
01000000
00100000
00010000
,
20000000
00000000
00000000
00000000
,
30200000
00000000
00000000
00000000
,
02300000
00000000
03020000
00000000
,
02030000
00000000
00000000
03000000
,
00002000
00000000
00023000
00000000
,
00030200
00000000
00002300
00000000
,
00003002
00000000
00000000
00000003
,
00000020
00000000
00000230
00000000
,
00002300
00000000
00000000
00003000
,
00000200
00000000
00000000
00000300
,
00020000
00000000
00032000
00000000
,
02003000
00000000
00000000
03000000
,
00020000
00000000
20030000
00000000
,
30020000
00000000
00230000
00000000
,
02300000
00000000
00000000
03000000
,
20000000
00000000
30020000
00000000
,
01030000
01000000
01000000
00000000
,
00002000
00000000
00003000
00000000
,
00010000
00010000
00010000
00000000
,
00000020
00000000
00001030
00000000
,
00000001
00000001
00000001
00000000
,
00000200
00000000
00000300
00000000
,
00000020
00000000
00002030
00000000
,
00003020
00000000
00020030
00000000
,
00031000
00010000
00001000
00000000
,
01000000
00010000
01000000
00000000
,
00010000
10000000
00010000
00000000
,
00200000
00000000
02300000
00000000
,
13000000
00010000
10000000
00000000
,
01000000
00100000
01000000
00000000
,
00100000
00000000
00001000
00000000
,
00020000
00000000
00000000
00000000
,
00030100
00000000
00001000
00000001
,
00001000
00000000
00000010
00010000
,
00000010
00000000
00010000
00001000
,
00020000
00000000
00000000
00000000
,
00031000
00000000
01000000
00010000
,
01000000
00000000
00100000
10000000
,
00020000
00000000
00230000
00000000
,
02300000
00000000
23000000
00000000
,
30200000
00000000
01000000
01000000
,
02000000
00000000
03300000
00000000
,
00020000
00000000
10000000
10000000
,
20000000
00000000
30030000
00000000
,
00002000
00000000
00010000
00010000
,
00020000
00000000
00033000
00000000
,
00000200
00000000
00002300
00000000
,
00003002
00000000
00000023
00000000
,
00000030
00000000
00000000
00000000
,
00000000
00000000
00000000
00000000
,
00000001
00000000
00000000
00000000
,
00001000
00000000
00000000
00000000
,
00010000
00000000
00000000
00000000
,
10000000
00000000
10000000
00000000
,
00010000
00000000
00010000
00000000
,
01000000
00100000
01000000
00000000
,
00010000
01000000
00010000
00000000
,
00100000
00001000
00100000
00000000
,
00001000
00001000
00010000
00010000
,
00001000
00001000
00010000
00010000
,
00000000
00000000
00000000
00000000
00000100
00000000
00000000
00000010
,
00000000
00000001
00000000
00000000
;

//--------------- dance-double - forcednature ----------------
#NOTEDATA:;
#STEPSTYPE:dance-double;
#DESCRIPTION:forcednature;
#DIFFICULTY:Medium;
#METER:11;
#RADARVALUES:0,0,0,0,0;
#CREDIT:forcednature;
#NOTES:
00000000
00000000
00000000
00000000
,
00000000
00000000
00000000
00000000
,
00000000
00000000
00000000
00000000
,
00000000
00000000
00000000
00000000
,
00000000
00000000
00000000
00000000
,
00000000
00000000
00000000
00000000
,
00001000
00010000
00000100
00000100
,
00010000
00001000
00100000
00100000
,
00001000
00010000
00000010
00000010
,
00010000
00000000
00000000
00010000
00000000
00000000
00001000
00000000
00000000
01000000
00000000
00000000
00010000
00000000
00000000
00000000
,
00100000
00000000
00000000
00100000
00000000
00000000
00001000
00000000
00000000
00010000
00000000
00000000
00000100
00000000
00000000
00000000
,
00000010
00000010
00000010
00000002
00000000
00000000
00000003
00000000
,
00000001
00000001
00000001
00000200
00000000
00000000
00000300
00000000
,
00000100
00000100
00000100
00002000
00000000
00000000
00003000
00000000
,
00001000
00001000
00001000
00000000
00010000
00100000
00010000
00000000
,
00100000
00100000
00100000
20000000
00000000
00000000
30000000
00000000
,
10000000
10000000
10000000
02000000
00000000
00000000
03000000
00000000
,
01000000
01000000
01000000
00020000
00000000
00000000
00030000
00000000
,
00002000
00003020
00000032
00000203
,
00002300
00000000
00000000
00023000
00000000
00000000
00230000
00000000
,
20300000
00000000
00000000
00000000
00000000
00000000
31000000
00010000
,
00002000
00000000
00000000
00203000
00000000
00000000
00320000
00000000
,
02030000
00000000
00000000
03000000
,
00002000
00000000
00000000
00023000
00000000
00000000
00030020
00000000
,
00002030
00000000
00000000
00003002
00000000
00000000
00000023
00000000
,
00000230
00000000
00000000
00000000
00000000
00000000
00010300
00001000
,
00200000
00000000
02300000
00000000
,
23000000
00000000
00000000
30020000
00000000
00000000
02030000
00000000
,
03002000
00000000
00000000
00000000
00000000
00000000
00013000
00000010
,
00002000
00000000
00000000
00003002
00000000
00000000
00000023
00000000
,
00000230
00000000
00000000
00000000
00000000
00000000
00010300
00001000
,
00200000
00000000
00000000
00320000
00000000
00000000
00000000
00000000
,
02030000
00000000
00000000
03200000
00000000
00000000
00000000
00000000
,
20300000
00000000
00000000
00000000
,
32000000
00000000
00000000
03020000
00000000
00000000
00000000
00030000
,
00001000
00010000
00000000
00001000
00000000
00010000
00000100
00000000
,
00002000
00000001
00000001
00003000
,
00001000
00000100
00000000
00010000
00000000
00001000
01000000
00000000
,
00020000
10000000
10030000
00010000
,
00100000
00001000
00000000
00010000
00000000
00001000
00010000
00000000
,
00000200
00001000
00001000
00000300
,
00010000
00001000
00010000
00000000
00001000
01000000
00001000
00000000
,
01000000
00010000
01000000
00000000
00100000
00000000
00000000
00000000
,
10000000
01000000
00010000
01000000
,
00100000
00001000
00010000
00000100
,
00001000
00000001
00000010
00001000
,
00000010
00000001
00000010
00000000
00000001
00000100
00000001
00000000
,
00000100
00001000
00010000
00100000
,
10000000
00010000
00100000
01000000
,
10000000
01000000
10000000
00000000
01000000
00010000
01000000
00000000
,
00010000
00001000
00010000
00000000
00001000
00000000
00000010
00000000
,
00000001
00000100
00001000
00010000
,
00100000
10000000
01000000
00010000
,
00001000
00000010
00000001
00000100
,
00000010
00001000
00000010
00000000
00000100
00000001
00000100
00000000
,
00000001
00000010
00001000
00010000
,
01000000
10000000
00100000
10000000
,
01000000
10000000
01000000
00000000
00010000
01000000
00010000
00000000
,
00001000
00010000
00001000
00000000
00000010
00000000
00000001
00000000
,
00000200
00000000
00000000
00002300
00000000
00000000
00023000
00000000
,
00230000
00000000
01000000
01000000
01000000
00000000
00300000
00000000
,
20000000
00000000
00000000
30020000
00000000
00000000
00230000
00000000
,
00302000
00000000
00010000
00010000
00010000
00000000
00003000
00000000
,
00020000
00000000
00000000
00030200
00000000
00000000
00002300
00000000
,
00003002
00000000
00000100
00000100
00000100
00000000
00000003
00000000
,
00002000
00003020
00020030
00032000
,
02003000
03020000
00230000
02300000
,
03000000
00000000
00000000
00000000
,
00000000
00000000
00000000
00000000
,
10000000
00000000
00010000
00000000
,
00001000
00000000
00000001
00000000
,
00001000
00000000
00010000
00000000
,
10000000
00000000
00000000
10000000
00000000
00000000
00010000
00000000
00000000
00100000
00000000
00000000
00001000
00000000
00000000
00000000
,
00010000
00000000
00000000
00010000
00000000
00000000
00000100
00000000
00000000
00001000
00000000
00000000
00000001
00000000
00000000
00000000
,
00000100
00001000
00000100
00000000
00001000
00000000
00010000
00000000
,
00100000
00010000
00100000
00000000
10000000
00000000
00100000
00000000
,
10000000
01000000
10000000
00000000
01000000
00000000
00010000
00000000
,
00001000
00000000
00000000
00001000
00000000
00000000
00100000
00000000
00000000
00010000
00000000
00000000
01000000
00000000
00000000
00000000
,
00001000
00000000
00000000
00001000
00000000
00000000
00010000
00000000
00000000
00000100
00000000
00000000
00001000
00000000
00000000
00000000
,
00000000
00000000
00000000
00000000
00000010
00000010
00000100
00000010
,
00000000
00000100
00000000
00000000
;

//--------------- dance-double - forcednature ----------------
#NOTEDATA:;
#STEPSTYPE:dance-double;
#DESCRIPTION:forcednature;
#DIFFICULTY:Hard;
#METER:15;
#RADARVALUES:0,0,0,0,0;
#CREDIT:forcednature;
#NOTES:
00000000
00000000
00000000
00000000
,
00000000
00000000
00000000
00000000
,
00000000
00000000
00000000
00000000
,
00000000
00000000
00000000
00000000
,
00000000
00000000
00000000
00000000
,
00000000
00000000
00000000
00000000
,
00001000
00010000
00000100
00001000
00000001
00000010
00000001
00000000
,
00000100
00001000
00010000
00001000
00010000
00100000
10000000
00000000
,
01000000
10000000
01000000
00010000
00001000
00100000
00010000
00000000
,
10000000
00000000
00000000
10000000
00000000
00000000
00100000
00000000
00000000
00010000
00000000
00000000
00001000
00000000
00000000
00000000
,
00000100
00000000
00000000
00000100
00000000
00000000
00000001
00000000
00000000
00001000
00000000
00000000
00000010
00000000
00000000
00000000
,
00010000
00001000
00010000
00001000
00010000
00000000
00000020
00000000
00000000
00000000
00000000
00000000
00000030
00000000
00000000
00000000
,
00001000
00010000
00001000
00010000
00001000
00000000
02000000
00000000
00000000
00000000
00000000
00000000
03000000
00000000
00000000
00000000
,
00010000
00001000
00010000
00001000
00010000
00000000
00000020
00000000
00000000
00000000
00000000
00000000
00000030
00000000
00000000
00000000
,
00001000
00010000
00001000
00010000
00001000
00000000
01000000
00000000
00010000
00000000
00000000
00000000
00100000
00000000
00000000
00000000
,
00001000
00010000
00001000
00010000
00001000
00000000
00200000
00000000
00000000
00000000
00000000
00000000
00300000
00000000
00000000
00000000
,
00010000
00001000
00010000
00001000
00010000
00000000
00000200
00000000
00000000
00000000
00000000
00000000
00000300
00000000
00000000
00000000
,
00001000
00010000
00001000
00010000
00001000
00000000
00200000
00000000
00000000
00000000
00000000
00000000
00300000
00000000
00000000
00000000
,
10000000
01000000
00100000
00010000
00001000
00000100
00000010
00000001
,
00000100
00001000
00000100
00000001
00001000
00000010
00010000
00000000
,
00002000
00000000
01000000
00000000
00010000
00000000
00103000
00010000
,
10000000
01000000
00010000
01000000
00100000
00001000
00010000
00000000
,
00000200
00001000
00000010
00000301
,
00000100
00001000
00000100
00010000
00001000
01000000
00010000
00000000
,
10000000
00100000
00010000
00100000
10000000
00010000
01000000
00000000
,
00002000
00000000
00100000
00000000
00010000
00000000
01003000
00001000
,
00020000
00000000
00000100
00000000
00031000
00000010
00001000
00000010
,
00000001
00000100
00000001
00000010
00001000
00010000
00000100
00000000
,
00002000
00000000
00000010
00000000
00000001
00000000
00003100
00010000
,
00001000
00100000
00010000
01000000
00001000
00010000
00100000
00000000
,
20000000
00000000
00000000
00000000
01000000
00000000
00000000
00000000
00010000
00000000
00000000
00000000
31000000
00000000
00100000
00010000
,
00100000
00001000
00010000
01000000
10000000
00010000
00100000
00000000
,
00001000
00000010
00000100
00010000
00001000
00000010
00000001
00000000
,
00000200
00001000
00000010
00000301
,
00000010
00001000
00000010
00001000
00010000
01000000
00100000
00000000
,
10000000
01000000
00000000
01100000
00000000
00100000
00001000
00010000
,
00000200
00000000
00000000
00000000
00001300
00000001
00001000
00000001
00000020
00000000
00000000
00000000
00000030
00000000
00000000
00000000
,
00000001
00000100
00000000
00000110
00000000
00000010
00010000
00001000
,
02000000
00000000
00000000
00000000
03010000
10000000
00010000
10000000
00200000
00000000
00000000
00000000
01300000
00000000
00010000
00000000
,
10000000
01000000
00000000
01100000
00000000
00100000
00001000
00010000
,
00000200
00000000
00000000
00000000
00001300
00000001
00001000
00000001
00000020
00000000
00000000
00000000
00000030
00000000
00000000
00000000
,
00000100
00000001
00000100
00001000
00000010
00001000
00010000
01000000
,
00010000
00000000
00100000
00000000
01000000
10000000
01000000
10000000
00020000
00000000
00000000
00000000
00030000
00000000
00000000
00000000
,
12000000
00000000
03010000
00001000
00100000
00010000
00100000
00001000
,
00000020
00000000
00000130
00001000
00000001
00000010
00000001
00000100
,
00002000
00000000
01003000
00010000
01000000
00100000
10000000
00010000
,
00100000
01000000
00010000
00001000
00000010
00000100
00001000
00000001
,
00000200
00000000
00001300
00000100
00000001
00001000
00000010
00010000
,
00002000
00000000
01003000
00010000
00100000
01000000
10000000
00100000
,
10000000
01000000
00100000
01000000
00010000
01000000
00100000
00001000
,
00000010
00000100
00010000
00001000
00000010
00000001
00001000
00000001
,
00000200
00000000
00001300
00010000
00100000
01000000
00100000
10000000
,
02000000
00000000
03010000
00001000
00000010
00000100
00001000
00000001
,
00000200
00000000
00001300
00010000
01000000
00100000
00010000
10000000
,
00100000
01000000
10000000
01000000
00010000
00100000
01000000
00010000
,
00002000
00000000
00003010
00000100
00010000
00001000
00000010
00000001
,
00000200
00000000
00001300
00000100
00000001
00001000
00000010
00010000
,
00001000
00100000
01000000
00100000
10000000
00100000
01000000
00100000
,
00010000
01000000
10000000
01000000
00010000
00100000
00001000
00000010
,
00000100
00010000
00000000
00011000
00000000
00001000
00000010
00000001
,
00000020
00000000
00000000
00000000
00001030
00010000
00001000
00010000
00002000
00000000
00000000
00000000
00003000
00000000
00000000
00000000
,
01000000
00001000
00000000
00011000
00000000
00010000
00100000
10000000
,
00200000
00000000
00000000
00000000
00310000
00001000
00010000
00001000
00010000
00000000
00000100
00000000
00001000
00000000
00000010
00000000
,
00000100
00001000
00000000
00011000
00000000
00010000
00001000
00000010
,
00000002
00000000
00000000
00000000
00001003
00000100
00001000
00000100
00020000
00000000
00000000
00000000
00030000
00000000
00000000
00000000
,
00001000
00000010
00000100
00000010
00000001
00000100
00000010
00000100
,
00001000
00010000
00100000
01000000
00010000
00100000
01000000
10000000
,
00000000
00000000
00000000
00000000
,
00000000
00000000
00000000
00000000
,
10000000
00000000
01000000
00010000
00001000
00000000
00000010
00000000
,
00000001
00000000
00000100
00001000
00010000
00000000
00100000
00000000
,
10000000
00000000
01000000
00010000
00001000
00000000
00000010
00000000
,
00000001
00000100
00000001
00001000
00000001
00000010
00000001
00001000
,
00000100
00010000
00001000
00010000
00100000
01000000
00100000
00000000
,
10000000
01000000
00010000
01000000
00010000
00001000
00000010
00000000
,
00000001
00000100
00001000
00000100
00001000
00010000
00100000
00000000
,
10000000
01000000
00010000
01000000
00010000
00001000
00000010
00000000
,
00000001
00000100
00001000
00010000
00100000
00010000
00001000
00000100
,
00000001
00001000
00000010
00000100
00001000
00010000
00100000
01000000
,
00000000
00000000
00000000
00000000
00000000
00000000
00000000
00000000
00010000
10000000
00010000
10000000
00010000
00000000
10000000
00010000
,
00000000
10010000
00000000
00000000
;
