#VERSION:0.83;
#TITLE:Smashing Wedge;
#SUBTITLE:;
#ARTIST:nora2r;
#TITLETRANSLIT:;
#SUBTITLETRANSLIT:;
#ARTISTTRANSLIT:;
#GENRE:HARDCORE;
#CREDIT:;
#MUSIC:Smashing Wedge.ogg;
#BANNER:Smashing Wedge.png;
#BACKGROUND:Smashing Wedge-bg.png;
#CDTITLE:./CDTitles/bm IIDX 27 HEROIC VERSE.png
#SAMPLESTART:51.490;
#SAMPLELENGTH:15.000;
#SELECTABLE:YES;
#OFFSET:0.405;
#BPMS:0.000=107.500
,23.000=215.000
,223.000=107.500
,239.000=215.000
;
#STOPS:22.000=0.558
,22.500=0.558
;
#TIMESIGNATURES:0.000=4=4,
20.000=3=4,
23.000=4=4
;
#BGCHANGES:0.000=Smashing Wedge.mp4=1.000=0=0=0=StretchNoLoop====,
99999.000=-nosongbg-=1.000=0=0=0=StretchNoLoop====
;
#FGCHANGES:;

//--------------- dance-single - forcednature ----------------
#NOTEDATA:;
#STEPSTYPE:dance-single;
#DESCRIPTION:forcednature;
#CREDIT:forcednature;
#DIFFICULTY:Beginner;
#METER:6;
#RADARVALUES:0,0,0,0,0;
#NOTES:
0000
0000
0000
0000
,
0000
0000
0000
0000
,
0000
0000
0000
0000
,
0000
0000
0000
0000
,
1000
0000
0000
0010
0000
0000
0100
0000
,
0000
0001
0000
0000
0010
0100
1001
0000
,
0000
0000
0000
0110
,
0000
0000
0000
1000
,
1000
0001
0001
0100
,
0000
0000
0000
2002
,
0000
0000
0000
0000
,
0000
0000
3003
0000
,
0001
0100
0001
0000
,
1000
0000
0010
0000
,
1000
0100
1000
0000
,
0001
0001
0010
0000
,
0001
1000
0001
0000
,
0100
0000
0010
0000
,
1000
0001
1000
0100
,
0010
0010
0000
0110
,
0000
1000
0010
0110
,
0000
0001
0010
0001
,
0001
1000
1000
0010
,
0100
0010
0000
2002
,
0000
0000
0000
0000
,
0000
0000
0000
0000
,
0000
0000
0000
3003
,
0000
1000
0001
0000
,
0100
0100
0100
0000
,
0001
0001
0001
0000
,
0100
0100
0100
0000
,
0010
1000
0010
0000
,
1000
1000
1000
0000
,
0100
0100
0100
0000
,
1000
1000
1000
0000
,
0001
0010
0000
1001
,
0000
0100
0000
1001
,
0000
0010
0000
0001
,
0001
1000
1000
0020
,
0000
0000
0030
1000
,
0000
0100
1000
0000
,
0010
0100
0000
0001
,
0000
0010
0001
0000
,
0100
0001
0100
0010
,
0000
1000
0001
0000
,
0010
0001
0000
0100
,
0000
0010
1000
0000
,
0100
1000
0100
0010
,
0000
0001
1000
0000
,
0010
0100
0000
0001
,
0000
0010
0001
0000
,
1000
0010
1000
0001
,
0000
0100
0010
0000
,
1000
0100
0000
1001
,
0000
0110
0000
2002
,
0000
3003
0000
1000
,
0000
0000
0010
0010
0010
0000
0100
0000
,
0001
0010
0001
0100
,
0000
0000
0010
0010
0010
0000
1000
0000
,
0001
0010
0100
1001
,
0000
0100
0100
0100
,
0100
0010
0000
0110
,
0000
0001
0000
1000
,
1000
1000
0000
0100
,
0100
1000
0000
0010
,
0010
1000
0000
0001
,
0100
0001
0100
0020
,
0000
0030
0000
2000
,
0000
0000
0000
0000
,
0000
3000
0000
0200
,
0000
0000
0000
0000
,
0000
0300
0000
0020
,
0000
0000
0000
0000
,
0000
0030
0000
0002
,
0000
0000
0000
0000
,
0000
0003
0000
1001
,
0000
0100
0000
1001
,
0000
0010
0000
0001
,
0001
1000
1000
0020
,
0000
0000
0030
0100
,
0100
0001
0010
0000
,
0001
1000
0000
0100
,
0100
1000
0010
0000
,
1000
0001
0000
0010
,
0010
0001
0100
0000
,
0001
1000
0010
0000
,
1000
0100
0010
0000
,
0001
0100
0001
1001
,
0000
1000
1000
0100
,
0100
1000
0010
0100
,
0000
0001
0001
0010
,
0010
0001
1000
0010
,
0000
0100
0001
0010
,
0010
0001
0000
1001
,
0000
0110
0000
2002
,
0000
3003
0000
0110
;

//--------------- dance-single - forcednature ----------------
#NOTEDATA:;
#STEPSTYPE:dance-single;
#DESCRIPTION:forcednature;
#CREDIT:forcednature;
#DIFFICULTY:Easy;
#METER:11;
#RADARVALUES:0,0,0,0,0;
#NOTES:
0000
0000
0000
0000
,
0000
0000
0000
0000
,
0000
0000
0000
0000
,
0000
0000
0000
0000
,
0001
0000
0100
0100
0000
0001
0010
0000
,
0100
0000
0000
0100
0000
0000
0000
0000
0000
1000
0000
0000
0020
0030
0000
0220
0330
0000
1001
0000
0000
0000
0000
0000
,
0000
1000
0100
1001
,
0000
0001
0100
0110
,
0001
1000
0010
2002
,
0000
0000
3003
2000
,
0100
0100
0100
3100
,
1000
0000
0001
0010
0001
0000
0100
0000
,
1001
0001
0100
0010
,
1000
0001
0010
0000
,
0001
0100
0001
1000
,
0010
0000
1000
0001
1000
0000
0100
0000
,
1000
0010
1000
0001
,
0100
0001
0000
0010
,
0001
1000
0010
0100
,
0100
0000
0010
0100
0000
0000
0010
0000
0000
1001
0000
0000
,
1000
0100
0010
1001
,
0001
0100
0010
1001
,
0100
1001
0010
0110
,
1001
0000
0001
1000
0001
0000
2002
0000
,
0000
0000
0000
0000
,
0000
0000
0000
0000
,
0000
0000
3003
0220
,
0000
0000
0330
0000
0000
0000
0001
0100
,
0001
0100
0010
0100
,
0001
0000
0100
0000
0010
0000
1000
0100
,
1000
0100
0010
0001
,
1000
0000
1001
0000
0000
0000
1000
0010
,
1000
0010
0100
0010
,
1000
0000
0010
0000
0100
0000
0001
0010
,
0001
0010
0100
0220
,
0000
0330
0000
1001
,
0000
0110
0000
1001
,
0100
0110
0010
1001
,
0001
0000
0100
0000
0001
1000
0002
0000
,
0000
0010
0013
1001
,
1000
0000
0100
0010
0100
0000
1000
0000
,
0010
0100
0001
0010
,
0100
0000
0010
0001
0010
0000
0100
0000
,
1000
0001
0100
0110
,
1000
0000
0001
0010
0001
0000
1000
0000
,
0010
0100
0001
1000
,
0100
0000
1000
0010
1000
0000
0001
0000
,
0010
0110
1001
1000
,
0100
0000
1000
0010
1000
0000
0100
0000
,
1000
0000
0010
1000
0010
0000
0100
0000
,
0001
0000
0010
0001
0010
0000
0001
0000
,
0100
0000
0001
0010
0001
0000
0110
0000
,
1000
0000
0001
0100
0001
0000
0110
0000
,
0001
0000
1000
0100
1000
0000
1001
0000
,
0000
0110
0000
2002
,
0000
0000
0000
0000
3003
0000
1000
1000
,
1000
0000
0010
0100
0010
0000
0100
0100
,
0001
0001
0100
0001
0010
0000
0001
0001
,
1000
0000
0100
1000
0100
0000
1000
1000
,
0010
0010
1000
0000
0001
0000
1002
0000
,
1000
0100
0100
1000
,
1000
0013
0100
2001
,
0100
0001
0010
0001
,
0100
0001
3010
0110
,
0001
0010
0100
0110
,
1000
0010
0100
1001
,
0100
1001
0010
0200
,
0000
0000
0310
2001
,
0000
3200
0000
0320
,
0000
0000
0030
0002
,
0000
0203
0000
0320
,
2030
3020
0000
2030
,
0000
3200
0000
0320
,
0000
0000
0030
0002
,
0000
0203
0000
0302
,
2003
3002
0003
0110
,
0000
1000
0100
0110
,
0110
0001
1001
1000
,
0010
0100
0001
2002
,
0000
0000
3003
1000
,
0100
1000
0100
0000
0010
0000
0001
0000
,
0100
0010
1000
0001
,
0010
0001
0010
0000
0100
0000
1000
0010
,
1000
0000
0001
0010
0001
0000
0100
0000
,
0010
1000
0010
0000
0100
0000
0001
0000
,
0010
0000
0100
0000
1000
0001
0000
0001
,
1000
0000
0010
0000
1000
0001
0000
0001
,
1000
0010
0110
0001
,
1000
0100
1000
0000
0010
1000
0010
0000
,
0100
0001
0110
1000
,
0001
0100
0001
0000
1000
0100
1000
0000
,
0010
0000
0100
0100
0001
0000
1001
0000
,
0010
0110
1000
1001
,
0110
1001
0100
1001
,
0000
0110
0000
1002
,
0100
0000
0010
0010
0013
0000
0110
0000
;

//--------------- dance-single - forcednature ----------------
#NOTEDATA:;
#STEPSTYPE:dance-single;
#DESCRIPTION:forcednature;
#CREDIT:forcednature;
#DIFFICULTY:Medium;
#METER:14;
#RADARVALUES:0,0,0,0,0;
#NOTES:
0000
0000
0000
0000
,
0000
0000
0000
0000
,
0000
0000
0000
0000
,
0000
0000
0000
0000
,
1001
0000
0000
0000
0001
0000
0101
0000
0000
0000
1000
0000
0010
0000
0000
0010
,
0100
0000
0000
0001
0000
0000
0000
0000
0000
0010
0000
0000
0220
0330
0000
2002
3003
0000
1000
0000
0000
0000
0000
0000
,
0100
1000
1100
0001
,
0100
0000
0001
0000
0011
0000
1000
0010
,
0100
0010
1000
0001
0100
0001
0020
0000
,
0000
0000
0100
0100
0130
0000
2001
0000
,
0010
0000
0010
0000
0010
0000
3010
0100
,
0010
0100
0100
0001
0010
0000
0110
0000
,
1001
0000
1000
0100
0001
0000
0100
1000
,
0001
0010
0001
1000
0010
0000
0100
0001
,
0010
0000
0100
1000
0010
0000
1000
0001
,
0100
1000
0100
0000
1001
0000
0001
0010
,
1000
0000
0010
0001
1000
0000
0010
0100
,
0001
0010
0100
0000
0110
0000
1000
0010
,
1000
0000
0001
0010
0001
0000
0110
0000
,
0100
0000
1000
0000
0100
0000
1000
0000
0000
0000
0000
0000
0110
0000
0000
0000
0000
0000
0001
0000
0000
0100
0000
0000
,
1000
0100
0001
0010
0001
0000
1000
0100
,
0001
0100
1000
0010
1000
0000
0001
0010
,
0001
0100
0010
1000
0100
1000
0010
0010
,
0100
0100
0001
1000
1001
0000
0220
0000
,
0000
0000
0000
0000
,
0000
0000
0000
0000
,
0000
0000
0330
1001
,
1000
0100
0020
0000
0032
0000
0103
0100
,
0100
0001
0100
1000
0100
0001
0000
1000
,
0010
1000
0001
0010
0001
0000
1000
0100
,
1000
0010
1000
0100
0001
0000
0100
0100
,
1000
0001
0020
0000
0031
1000
0010
0010
,
0100
0001
0100
0010
1000
0010
0100
0001
,
0010
0001
1000
0010
1000
0000
0100
0100
,
1000
0000
0001
0010
0001
0000
0200
0000
,
0310
1000
0001
0010
0100
0000
0110
0000
,
0001
0011
1000
1010
,
0100
0000
0110
0000
1001
0000
1000
0100
,
1000
0010
0100
0001
0010
0001
0200
0000
,
0010
0010
0310
0000
1001
0000
1000
0100
,
0001
0100
1000
0001
0010
0002
0000
1003
,
0010
1000
0001
0000
0011
0000
0001
0100
,
1000
0100
0001
1000
0010
2000
0000
3100
,
0010
0001
0100
0010
1000
0000
0001
0010
,
1000
0010
0001
1000
0100
2000
0000
3010
,
0100
0001
0010
0000
0110
0000
1000
0010
,
0001
0010
1000
0002
0000
0203
0000
0310
,
1000
0100
0010
0010
0001
0000
1001
0000
,
1000
0100
0001
0100
1000
0200
0000
0310
,
0010
0001
1000
0010
1000
0000
0001
0100
,
1000
0100
0001
0100
0010
2000
0000
3001
,
0010
0100
0001
0100
0010
0000
0011
0000
,
0001
0100
1000
0100
0001
0000
1010
0000
,
1000
0100
0001
0100
1000
0000
2002
0000
,
3003
0220
0330
2002
,
0000
0000
0000
0000
0000
0000
0000
0000
3003
0000
0000
0000
0001
0000
0100
0100
,
0100
0000
0001
0000
0010
0001
0200
0000
0320
0000
2030
0000
3100
0100
0010
0010
,
0100
0100
0010
0010
0001
1000
0001
0000
0100
0000
0010
0000
1001
0000
1000
0010
,
0100
0000
0010
0000
1000
1000
0002
0000
0023
0000
0032
0000
0103
0100
0010
0010
,
1000
1000
0001
1000
0010
0100
0100
0000
1000
0000
0010
0000
2001
0000
0000
0000
,
3010
1000
0100
1000
0010
1000
0100
1000
,
0010
1000
0100
0000
0010
0001
0011
0000
,
0001
0100
1000
0100
0001
1000
0010
0100
,
0001
0010
0002
0000
0103
0010
0120
0000
,
1030
0100
1000
0010
0001
0010
2000
0000
,
3001
0100
0001
0010
1000
0010
0002
0000
,
0103
0010
1000
0100
0010
0001
0200
0000
,
0010
0000
0001
0001
0301
0000
1010
0000
,
2000
3002
0000
0023
,
0230
0000
2300
3002
,
0000
0203
0000
0000
0320
0000
2030
0000
,
3200
2300
0000
3002
,
0203
0320
0000
2030
,
3002
0000
0023
0230
,
0000
2300
0000
0000
3020
0000
0230
0000
,
0302
2003
3000
1001
,
0001
0010
0100
0010
0001
0000
1000
0010
,
0100
0010
1000
0001
0101
0000
0001
0010
,
0100
0000
0010
0000
0100
0000
1000
0000
0001
1000
0001
0000
0200
0000
0000
0000
,
0010
0010
0010
0000
0301
0000
1000
0010
,
1000
0100
0001
0100
1000
0001
0010
0001
,
0100
0010
1000
0100
0002
0000
0103
1000
,
0010
0100
0001
0010
1000
0010
0001
1000
,
0010
1000
0001
0100
1000
0000
0100
0001
,
0010
0001
1000
0010
1000
0100
0001
0100
,
1000
0001
0010
0001
0100
0020
0000
0031
,
0010
1000
0001
0000
1000
0020
0000
0031
,
0010
1000
0001
0100
0010
0000
1000
0100
,
1000
0010
1000
0100
0001
0100
0010
0001
,
1000
0010
0100
0001
0020
0000
0031
0100
,
0001
0010
0001
0100
1000
0100
0001
1000
,
0010
0000
1000
0000
0001
0000
0000
0010
0000
0000
0100
0000
1000
0000
0001
0000
,
0200
0000
0310
1000
0100
1000
0001
0000
,
0011
0000
0000
0000
1000
0000
0000
0010
0000
0000
0100
0000
2002
0000
0000
0000
,
3003
0220
0330
1001
,
1000
0100
0010
0010
0001
0100
1001
0000
;

//--------------- dance-single - forcednature ----------------
#NOTEDATA:;
#STEPSTYPE:dance-single;
#DESCRIPTION:forcednature;
#CREDIT:forcednature;
#DIFFICULTY:Hard;
#METER:17;
#RADARVALUES:0,0,0,0,0;
#NOTES:
0000
0000
0000
0000
,
0000
0000
0000
0000
,
0000
0000
0000
0000
,
0000
0000
0000
0000
,
1001
0000
1000
1100
0000
0001
0010
0001
,
0100
0000
0000
0110
0000
0000
0000
0000
0000
0010
0000
0000
2002
3003
0000
0220
0330
0000
1001
0000
0000
0000
0000
0000
,
1000
0100
0010
1001
,
0001
0000
0100
0000
0110
0000
1000
0001
,
0100
0001
1000
0010
0100
0010
2002
0000
,
3000
0000
0100
0100
0103
0000
0120
0000
,
1000
0000
1000
0000
1000
0000
1000
1000
,
1030
0010
0100
0000
0001
1000
1000
0001
,
1001
0000
0000
0000
1000
0000
0100
0000
0001
0000
0100
0000
1000
0000
0000
0001
,
0010
0000
0000
0100
0010
0000
0000
0000
0011
0000
0000
0000
0001
0000
0100
0000
,
1000
0000
0100
0000
0001
0000
1000
0000
0010
0000
1000
0000
0001
0000
0000
0010
,
0001
0000
0000
0010
0100
0010
0100
0000
1000
0000
0000
0000
1001
0000
0000
0000
,
1000
0010
0001
0010
1000
0000
0001
0100
,
0010
0000
0100
0000
0001
0000
1000
0010
1000
0000
0010
0000
0100
0000
0000
0000
,
0001
0000
0010
0000
0100
0000
0010
0000
0001
1000
0000
1000
0001
0000
0000
0000
,
0010
0100
0010
0100
0000
0000
0110
0000
0000
1001
0000
0000
,
1100
0000
1000
0010
0001
0000
0110
0000
,
0101
0000
0001
0010
1000
0000
0110
0000
,
1000
0010
0110
0000
0001
0010
0100
0100
,
1000
0000
0100
0000
1000
0001
1000
0001
0010
0000
0000
0000
2002
0000
0000
0000
,
0000
0000
0000
0000
,
0000
0000
0000
0000
,
0000
0000
0000
0000
0000
0000
0000
0000
3003
0000
0000
0000
0110
0000
0000
0001
,
0010
0100
2000
0010
3010
0000
0100
1000
,
0100
0000
1000
0000
0100
0000
0001
0100
0000
0100
0001
0000
0010
0000
0001
0000
,
0010
0000
0001
0000
0100
0000
0010
0100
0000
0100
0010
0000
1000
0000
0100
0000
,
1000
0100
0001
0100
0001
0100
0010
0010
,
0010
0000
0001
0000
0200
0000
0000
0000
0310
0000
1000
0010
1000
0000
0001
0000
,
0100
0000
1000
0000
0100
0000
0001
1000
0000
1000
0010
0000
1000
0000
0100
0000
,
0001
0000
0100
0000
1000
0000
0001
0010
0000
0100
0010
0000
0001
0000
1000
0000
,
0010
1000
0100
1000
0010
0010
0200
0000
,
0301
0000
0010
0001
0010
0001
0010
0000
0100
0000
1000
0000
1002
0000
0000
0000
,
0013
0100
0110
0000
1000
0010
0110
0000
,
0001
0100
0110
0000
1001
0000
1000
0100
,
0010
0000
0100
0000
1000
0010
1000
0010
0100
0001
0100
0001
2000
0000
0000
0000
,
0010
0010
3010
0000
1001
0000
1000
0100
,
0001
0000
0100
0000
1000
0001
0010
0000
0001
0000
0200
0000
0000
0000
0310
1000
,
0010
0100
0001
0010
0011
0000
1000
0010
,
0001
0000
0010
0000
1000
0001
0100
0000
0010
0000
1000
0000
0001
0010
0001
0000
,
0100
0000
0010
0000
1000
0100
1000
0000
0001
0000
0100
0000
0110
0000
0001
0000
,
0010
0000
1000
0000
0010
0001
1000
0000
0100
0000
2000
0000
0000
0000
3010
0100
,
0010
0000
0100
0000
0001
0000
0010
0100
1000
0000
0010
0100
0001
0000
1000
0000
,
0100
0000
1000
0000
0001
0010
0100
0000
0010
0000
0002
0000
0000
0000
1003
0000
,
1010
0000
0000
0000
0001
0100
0001
0100
0010
0000
0000
0000
1000
0000
0100
0000
,
1000
0100
0010
0000
0100
1000
0001
0000
0100
0000
0010
0000
1000
0000
0001
0000
,
0010
0001
1000
0000
0100
0000
1000
0010
1000
0000
0010
0100
0010
0000
0100
0000
,
0001
0010
0100
0000
0010
0001
0010
0000
0100
0000
1000
0000
0001
0100
0001
0000
,
0100
0010
0100
0000
0001
0000
1000
0010
1000
0000
0100
0000
1001
0000
0000
0000
,
0001
0010
0100
0000
0010
0000
0001
0100
0010
0000
1000
0100
0010
0000
0100
0000
,
1000
0100
1000
0000
0001
0000
0100
0000
0010
0100
0001
0000
2000
0000
0000
0000
,
3010
0100
1002
0000
0013
0100
2001
0000
,
0010
0000
0010
0000
3010
0000
0000
0000
0110
0000
0000
0000
1001
0000
0001
0010
,
0100
0000
0010
0001
0100
0100
0002
0000
2003
0000
3020
0000
1030
0100
0100
1000
,
0001
0001
0001
0010
0001
0100
1000
0100
0001
0000
1000
0010
1001
0000
1000
0010
,
0100
0000
0010
1000
0100
0100
2000
0000
3002
0000
0023
0000
0031
0100
0100
0001
,
1000
1000
1000
0010
1000
0100
0001
0100
1000
0000
0001
0010
1001
0000
0000
0000
,
1000
0100
0000
0000
0001
0100
0000
0000
1000
0100
0000
0000
0001
0100
0000
0000
,
1000
0100
0000
0000
0001
0100
0000
0000
0010
0000
0100
0000
1001
0000
0000
0000
,
0001
0010
1000
0010
0001
1000
0100
1000
,
0010
0100
0002
0000
0013
0100
0110
0000
,
1000
0100
0001
0100
1000
0010
0110
0000
,
0001
0100
1000
0100
0001
0000
0011
1000
,
0100
0000
1000
0000
1010
0000
0001
0000
0100
0000
0001
0000
0010
0000
0000
0100
,
0010
0000
0100
1000
0001
0000
0000
0100
1000
0000
0000
0000
0200
0000
0000
0000
,
0302
0023
0000
0130
,
2100
0000
3020
0230
,
0000
0001
0000
0000
0310
0000
2001
0000
,
0100
0010
0000
3002
,
0023
0230
0000
0320
,
0032
0000
2003
3020
,
0000
0100
0000
0000
0031
0000
2010
0000
,
3100
0202
0303
0011
,
0001
0100
0010
0010
1000
0001
1000
0100
,
0001
0000
0100
0000
1000
0000
0001
0010
0100
0000
0000
0000
0010
0000
0001
0000
,
0100
0000
0001
0000
1000
0100
1000
0100
0010
0100
0010
0100
2000
0000
0000
0000
,
0001
0001
3001
0000
0110
0000
0001
0100
,
0001
0010
0100
0000
0010
0001
0100
0000
0010
1000
0001
0000
1000
0000
0100
0000
,
1000
0001
0010
0000
0100
0000
1000
0000
0002
0000
0000
0000
0103
0000
0010
0000
,
1000
0100
0010
0000
0100
1000
0010
0000
0100
0001
0100
0000
0001
0010
0000
0010
,
0001
0000
0100
0000
0010
0000
1000
0100
0000
1000
0001
1000
0001
0000
0010
0000
,
0001
0100
0010
0000
0100
0001
1000
0000
0100
0010
0001
0000
1000
0000
0010
0000
,
0100
0001
1000
0000
0100
0000
0001
0100
1000
0000
0002
0000
0000
0000
0013
0000
,
0001
0000
0001
0000
0100
0000
1000
0100
0001
0000
2000
0000
0010
0000
0000
0000
,
0001
0000
0000
0000
3100
0000
1000
0001
0010
0000
0000
0000
0100
0000
1000
0000
,
0100
1000
0010
0000
0100
0001
0010
0000
0100
1000
0001
0000
0100
0000
1000
0000
,
0100
0001
0100
0000
0010
0000
1000
0000
0002
0000
0000
0000
0103
0000
0001
0000
,
0100
0001
0010
0000
0100
1000
0010
0000
0100
0001
1000
0000
0100
0000
0001
0000
,
0100
1000
0100
0000
0010
0000
0001
0100
0000
0010
0100
0010
1000
0000
0100
0000
,
0002
0000
0000
0000
0103
1000
0100
0000
1000
0001
0010
0000
0001
0000
0100
0000
,
0010
0100
0010
0000
1000
0000
0100
1000
0000
0100
0010
0000
0120
0000
0000
0000
,
0000
0000
0000
0000
0001
0000
0000
0000
0000
0000
0000
0000
0130
1000
0100
1000
,
0100
0000
0010
0001
1000
0000
0010
0000
0100
0000
0001
0000
1001
0000
0000
0000
;

//--------------- dance-single - forcednature ----------------
#NOTEDATA:;
#STEPSTYPE:dance-single;
#DESCRIPTION:forcednature;
#CREDIT:forcednature;
#DIFFICULTY:Challenge;
#METER:18;
#RADARVALUES:0,0,0,0,0;
#NOTES:
0000
0000
0000
0000
,
0000
0000
0000
0000
,
0000
0000
0000
0000
,
0000
0000
0000
0000
,
1001
0000
0000
0000
0001
0000
0101
0000
0000
0000
1000
0000
1010
0000
0000
0001
,
0010
0000
0000
0110
0000
0000
1000
0000
0000
0001
0000
0000
0202
0303
0000
2020
3030
0000
2001
0000
0000
0000
0000
0000
,
0001
3100
0010
1002
,
1000
0000
0000
0000
0103
0000
0000
0000
0110
0000
0000
0000
0010
0000
1000
0010
,
1000
0000
0100
0000
0010
0000
0001
0010
0001
0000
0010
0100
2000
0000
0000
0000
,
0010
0000
0001
0001
3001
0000
1000
0200
,
0010
0000
0010
0000
0010
0000
0010
0010
,
0310
0000
0010
0100
0010
0000
0001
0000
1000
0000
1000
0000
0010
0000
1000
0000
,
0101
0000
0001
0000
0010
0000
0100
0010
0001
0000
1000
0000
0010
0000
0100
0000
,
1000
0100
0001
1000
0110
0000
0001
0010
,
0001
0000
1000
0000
0100
0000
1000
0100
0010
0000
0001
0010
0001
0000
1000
0000
,
0010
0000
0010
0000
1000
0001
0100
0001
2000
0000
0000
0000
3010
0000
0100
0000
,
0001
0000
0010
0000
0100
0000
0010
0001
1000
0000
0000
0000
0010
0000
0100
0000
,
0001
0000
0100
0000
0010
1000
0000
1000
0001
0000
0100
0000
0010
0000
0000
0000
,
1001
0000
0000
0000
1000
0000
0100
1000
0100
0010
0000
0001
0010
0000
0000
0000
,
0001
0000
0100
0000
0010
0000
1000
0000
0000
1000
0000
0000
1010
0000
0000
0000
0000
0000
0001
0000
0000
0100
0000
0000
,
1000
0000
0100
0000
0001
0000
1000
0010
0100
0010
0000
0100
0001
0000
1000
0100
,
1000
0000
0001
0100
0001
0000
0010
0000
0100
1000
0000
1000
0010
0000
0100
0000
,
0001
0010
0110
1000
0010
0100
0001
0011
,
1000
0000
1010
0000
0001
0100
0001
0100
0010
1000
0010
0100
0002
0000
0000
0000
,
0000
0000
0000
0000
,
0000
0000
0000
0000
0003
0000
0000
0000
0000
0000
0000
0000
0010
0100
0010
0100
,
0010
0100
0010
0100
0010
0100
0010
0100
0010
0100
0010
0100
2000
0000
0000
0000
,
3010
0000
0000
0100
0001
0000
0010
0000
0011
0000
0000
0000
0001
0000
0100
0001
,
1000
0000
0100
0000
0001
0000
0100
1000
0000
1000
0001
0000
0100
0000
1000
0000
,
0100
0000
0001
0000
1000
0000
0100
1000
0000
0001
0100
0000
1000
0000
0100
0000
,
0001
0000
1000
0000
0100
0000
0001
0000
0100
0000
0100
0000
1000
0000
1000
0001
,
0100
0000
0001
0000
0020
0000
0230
0000
0310
0001
1000
0100
1000
0000
0001
1000
,
0020
0030
0100
0000
1000
0000
0100
0001
0020
0031
1000
0000
0001
0000
0100
0000
,
0020
0030
0100
0000
1000
0000
0100
0001
0020
0031
1000
0000
0100
0000
1000
0000
,
0020
0030
0100
0000
0001
0000
1000
0001
0020
0030
0100
1000
0020
0000
0230
0000
,
0310
1000
0001
0100
0010
0100
0001
1000
0010
0000
0100
0000
1001
0000
0000
0000
,
0100
0000
1001
0000
0010
0000
1001
0100
,
0010
0000
0000
0000
1001
0000
0000
0000
0110
0000
0000
0000
1000
0000
0100
1000
,
0010
0000
0100
0001
0010
0001
0010
0001
1000
0100
0010
0001
2000
0000
0000
0000
,
0010
0010
3010
0000
0110
0000
0001
1000
,
0010
0000
1000
0100
0010
0100
0010
0001
1000
0000
0020
0000
0000
0000
0130
0001
,
0100
0000
0010
0000
1000
0001
0010
0001
1000
0000
0100
1000
0001
0000
0100
0000
,
0010
0000
0100
0000
0001
0010
0100
1000
0001
0000
0010
0000
0001
0100
0010
0000
,
1000
0100
0010
0000
0001
1000
0010
1000
0001
0000
0001
0000
1000
0000
0100
0000
,
0010
0000
0001
0100
0010
0100
0010
1000
0001
0000
0020
0000
0000
0000
0130
1000
,
0100
0000
0010
0000
0001
1000
0010
1000
0001
0000
0100
0001
1000
0000
0100
0000
,
0010
0000
0100
0000
1000
0010
0100
0001
1000
0000
0010
0000
0200
0000
0000
0000
,
0001
0000
0000
0000
0310
1000
0001
1000
0200
0000
0000
0000
0310
0000
0001
0000
,
0010
0001
0100
0000
0010
1000
0001
0100
0010
1000
0010
0000
0100
0000
0001
0000
,
1000
0100
0010
0000
0100
0000
1000
0010
0100
0000
0001
0010
0100
0000
0010
0000
,
0001
1000
0010
0000
0100
0001
0100
0010
1000
0001
1000
0000
0100
0010
0001
0000
,
0100
0010
1000
0000
0001
0000
0010
0001
0100
0000
0010
0000
0110
0000
0000
0000
,
1000
0100
1000
0000
0001
0000
1000
0010
0001
0000
0010
1000
0001
0000
0010
0000
,
0001
0100
0001
0000
0010
0000
0100
1000
0010
0000
0100
0001
0020
0000
0000
0000
,
0031
0100
0120
0000
1030
0000
2002
0000
,
0000
0000
0000
0000
0000
0000
0000
0000
3003
0000
0000
0000
0011
0000
0001
0100
,
0010
0000
1000
0100
1000
1000
0010
0000
0110
0000
0001
0000
0010
0001
0001
0100
,
0010
0000
0001
0000
0010
0000
1000
0000
0001
0000
0100
0000
0100
0000
0001
1000
0010
0000
0000
0000
0100
0000
0010
0000
1001
0000
0000
0000
1000
0000
0100
0000
,
0001
0000
0100
1000
0001
0001
0010
0000
0110
0000
1000
0000
0001
0100
0100
0001
,
0010
0000
1000
0000
0010
0000
0001
0000
1000
0000
0010
0000
0010
0000
0100
0001
0100
0000
0000
0000
0010
0000
1000
0000
1002
0000
0000
0000
0000
0000
0000
0000
,
0013
1000
0100
0000
0010
0001
0100
0000
0010
1000
0100
0000
0010
0001
0100
0000
,
0010
1000
0100
0000
0010
0001
0100
0000
0010
0000
1000
0001
0200
0000
0000
0000
,
0310
1000
1100
0001
0010
0001
0100
1000
,
0100
0000
0001
0000
2000
0000
0000
0000
3010
0000
0100
0001
2000
0000
0000
0000
,
3100
0000
0001
0100
1000
0000
0001
0000
0010
0000
0100
0000
1002
0000
0000
0000
,
0203
0000
0000
0000
0310
1000
0001
1000
0010
0000
0010
0000
1001
0000
0000
0000
,
1000
0100
0010
0000
0100
0000
1000
0000
0001
0100
0010
0000
1000
0000
0000
0100
,
1000
0000
0100
0010
0001
0000
0100
0000
1001
0000
0000
0000
2000
0000
0000
0000
,
3020
0230
0000
0302
,
0023
0000
0230
2300
,
0000
0010
0000
0000
3001
0000
0201
0000
,
0010
0302
0000
0023
,
0230
2300
3000
0012
,
2003
0000
3020
0230
,
0000
0001
0001
0000
0310
0000
1001
0000
,
1000
0100
0110
0000
0001
0100
0110
1000
,
0001
0000
0100
0001
0010
0000
0100
0000
0010
0000
0100
1000
0001
0000
0100
0001
,
0100
0000
0010
0100
0010
0000
1000
0000
1001
0000
0000
0000
0001
0000
0010
0001
,
0010
0000
0100
0010
0100
1000
0100
1000
0001
0100
0010
1000
0002
0000
0000
0000
,
0010
0010
0013
0000
1001
0000
1000
0100
,
1000
0010
0100
0000
0001
0010
0100
0010
0001
0000
0100
0000
0010
1000
0001
0000
,
0010
0001
1000
0000
0100
0000
0001
0000
2000
0000
0000
0000
3010
0000
0001
0000
,
0100
0001
0010
0000
0100
1000
0001
0000
0100
0010
1000
0000
0001
0010
0100
0010
,
0001
0000
1000
0000
0010
0000
0100
1000
0000
0100
0001
0100
0001
0000
1000
0000
,
0010
0100
0001
0000
0010
0100
1000
0000
0010
0100
0001
0100
0010
0000
1000
0000
,
0100
0001
0100
0000
1000
0000
0001
0010
0100
0000
0110
0000
0000
0000
0001
1000
,
0010
0000
0100
0010
1000
0000
0001
0000
0010
0000
0100
0000
0120
0000
0000
0000
,
0001
0000
0000
0000
0130
1000
0001
0010
0100
0000
0000
0000
0010
0000
0001
0000
,
0100
0001
0100
0000
0010
1000
0001
0000
1000
0100
0010
0100
1000
0000
0001
0000
,
0100
1000
0100
0000
0001
0000
1000
0000
0020
0000
0000
0000
0130
0000
0001
0000
,
0010
0001
0100
0000
0010
1000
0001
0000
0010
0100
1000
0000
0100
0001
0100
0000
,
1000
0000
0001
0000
0010
0000
0001
0100
0000
0010
0100
0010
1000
0000
0100
0000
,
0002
0000
0000
0000
1003
0010
1000
0000
0010
0001
1000
0000
0001
0000
0100
0000
,
1000
0100
1000
0000
0100
0000
0001
0010
0000
0100
0010
0100
2000
0000
0000
0000
,
0000
0000
0000
0000
0010
0000
0000
0000
3000
0000
0000
0000
1001
0000
0001
0100
,
0010
0000
1000
0100
0010
0000
0001
0000
0100
0000
0010
0000
1001
0000
0000
0000
;

//--------------- dance-double - forcednature ----------------
#NOTEDATA:;
#STEPSTYPE:dance-double;
#DESCRIPTION:forcednature;
#CREDIT:forcednature;
#DIFFICULTY:Easy;
#METER:11;
#RADARVALUES:0,0,0,0,0;
#NOTES:
00000000
00000000
00000000
00000000
,
00000000
00000000
00000000
00000000
,
00000000
00000000
00000000
00000000
,
00000000
00000000
00000000
00000000
,
00010000
00000000
00001000
00001000
00000000
00100000
00010000
00000000
,
01000000
00000000
00000000
00000000
00000000
00000000
00010000
00000000
00000000
00000000
00000000
00000000
20000000
30000000
00000000
00020000
00030000
00000000
10010000
00000000
00000000
00000000
00000000
00000000
,
00000000
10000000
01000000
00010000
,
00000000
00001000
00000010
00000001
,
00001000
00000100
00001000
00002002
,
00000000
00000000
00003003
00000002
,
00000010
00000010
00000010
00000013
,
00000001
00000100
00001000
00010000
,
00011000
00100000
00010000
01000000
,
10000000
01000000
00010000
00000000
,
00100000
00001000
00010000
00000100
,
00010000
00001000
00000010
00000001
,
00001000
00000010
00001000
00000100
,
00010000
00001000
00000000
00100000
,
00010000
01000000
00010000
10000000
,
10000000
00000000
00100000
10000000
00000000
00000000
01000000
00000000
00000000
10010000
00000000
00000000
,
00010000
00100000
00001000
00011000
,
00000010
00001000
00000100
00011000
,
00100000
00011000
01000000
01100000
,
10010000
00000000
00010000
10000000
00010000
00000000
00200000
00000000
,
00000000
00000000
00000000
00000000
,
00000000
00000000
00000000
00000000
,
00000000
00000000
00300000
00022000
,
00000000
00000000
00033000
00000000
00000000
00000000
00000010
00001000
,
00000010
00001000
00000010
00001000
,
00000010
00000000
00001000
00000000
00000010
00000000
00010000
00001000
,
00010000
00001000
00010000
00100000
,
10000000
00000000
10100000
00000000
00000000
00000000
00010000
01000000
,
00010000
01000000
00010000
01000000
,
00001000
00000000
00010000
00000000
00001000
00000000
00010000
00001000
,
00010000
00000100
00001000
00002200
,
00000000
00003300
00000000
00000011
,
00000000
00000101
00000000
00000110
,
00000010
00001001
00001000
00000110
,
00000001
00000000
00000100
00000000
00000010
00001000
00000020
00000000
,
00000000
00010000
00010030
00011000
,
00100000
00000000
00010000
00100000
00010000
00000000
01000000
00000000
,
00010000
01000000
00100000
10000000
,
01000000
00000000
10000000
01000000
10000000
00000000
00010000
00000000
,
00100000
00001000
00010000
00011000
,
00000010
00000000
00001000
00000010
00001000
00000000
00000001
00000000
,
00000100
00000001
00000010
00000100
,
00001000
00000000
00000100
00001000
00000100
00000000
00010000
00000000
,
00001000
00011000
00100000
00010000
,
01000000
00000000
00010000
01000000
00010000
00000000
10000000
00000000
,
01000000
00000000
10000000
00100000
10000000
00000000
00010000
00000000
,
00100000
00000000
00001000
00010000
00001000
00000000
00010000
00000000
,
00000100
00000000
00001000
00000100
00001000
00000000
00000110
00000000
,
00000001
00000000
00000100
00000001
00000100
00000000
00000110
00000000
,
00001000
00000000
00000100
00001000
00000100
00000000
00010000
00000000
,
00000000
00011000
00000000
00022000
,
00000000
00000000
00000000
00000000
00033000
00000000
01000000
01000000
,
01000000
00000000
00010000
00100000
00010000
00000000
10000000
10000000
,
00100000
00100000
10000000
00010000
01000000
00000000
00001000
00001000
,
00010000
00000000
00000100
00001000
00000100
00000000
00000010
00000010
,
00000001
00000001
00000100
00000000
00000010
00000000
00002001
00000000
,
00000001
00000100
00000100
00000001
,
00000001
00003010
00010000
00012000
,
01000000
00010000
00100000
00010000
,
01000000
00010000
00103000
00011000
,
00000100
00001000
00000010
00000110
,
00000100
00000001
00000010
00001001
,
00000100
00011000
00100000
00020000
,
00000000
00000000
01030000
20010000
,
00000000
32000000
00000000
03200000
,
00000000
00000000
00300000
00002000
,
00000000
00023000
00000000
00030200
,
00002300
00003200
00000000
00000320
,
00000000
00000032
00000000
00000203
,
00000000
00000000
00000300
00000020
,
00000000
00002030
00000000
00003200
,
00002300
00003200
00000300
00011000
,
00000000
00100000
00010000
01100000
,
01100000
00000000
10010000
10000000
,
00100000
01000000
00010000
00200000
,
00000000
00000000
00300000
00001000
,
00010000
00001000
00010000
00000000
00000100
00000000
00001000
00000000
,
00000100
00000010
00000000
00000001
,
00000100
00000001
00000100
00000000
00000010
00000000
00001000
00000000
,
00000100
00010000
00000000
00001000
,
00100000
00010000
00100000
00000000
01000000
00000000
10000000
00000000
,
00100000
00000000
01000000
00000000
00010000
00200000
00000000
00300000
,
00001000
00000000
00010000
00000000
00000100
00002000
00000000
00003000
,
00000001
00000100
00000110
00001000
,
00000100
00001000
00000100
00000000
00010000
00000000
00001000
00000000
,
00100000
00010000
01100000
10000000
,
00010000
01000000
00010000
00000000
00100000
00000000
00001000
00000000
,
00010000
00000010
00001000
00000110
,
00000001
00000010
00000100
00001001
,
00010000
00011000
00100000
10010000
,
00000000
01100000
00000000
10020000
,
01000000
00130000
00001000
00011000
;

//--------------- dance-double - forcednature ----------------
#NOTEDATA:;
#STEPSTYPE:dance-double;
#DESCRIPTION:forcednature;
#CREDIT:forcednature;
#DIFFICULTY:Medium;
#METER:14;
#RADARVALUES:0,0,0,0,0;
#NOTES:
00000000
00000000
00000000
00000000
,
00000000
00000000
00000000
00000000
,
00000000
00000000
00000000
00000000
,
00000000
00000000
00000000
00000000
,
00011000
00000000
00000000
00000000
00010000
00000000
00100000
00000000
00000000
00000000
10000000
00000000
01000000
00000000
00000000
01000000
,
00010000
00000000
00000000
00001000
00000000
00000000
00000000
00000000
00000000
00000010
00000000
00000000
00000220
00000330
00000000
00002002
00003003
00000000
00000001
00000000
00000000
00000000
00000000
00000000
,
00000100
00001000
00011000
00010000
,
00100000
00000000
10000000
00000000
10010000
00000000
00010000
00100000
,
00001000
00100000
00010000
01000000
10000000
01000000
00020000
00000000
,
00000000
00000000
00100000
00100000
00130000
00000000
00012000
00000000
,
00100000
00000000
00100000
00000000
00100000
00000000
00103000
00001000
,
00010000
00010000
00000100
00001000
00000100
00000000
00000110
00000000
,
00001001
00000000
00000001
00000100
00001000
00000000
00000100
00000001
,
00001000
00000010
00001000
00010000
01000000
00000000
00010000
00100000
,
00010000
00000000
10000000
00100000
00010000
00000000
00001000
00100000
,
00010000
00100000
00001000
00000000
00011000
00000000
00010000
00001000
,
00000010
00000000
00000001
00000010
00001000
00000000
00010000
00000100
,
00001000
00000100
00010000
00000000
00011000
00000000
00100000
00010000
,
00100000
00000000
01000000
10000000
01000000
00000000
00010000
00000000
,
00010000
00000000
00001000
00000000
00010000
00000000
00001000
00000000
00000000
00000000
00000000
00000000
00011000
00000000
00000000
00000000
00000000
00000000
00000010
00000000
00000000
00001000
00000000
00000000
,
00000001
00000100
00001000
00000100
00000001
00000000
00001000
00000010
,
00010000
00001000
00100000
00001000
00010000
00000000
00100000
01000000
,
00010000
01000000
00100000
10000000
01000000
00010000
00001000
00001000
,
00010000
00010000
00001000
00000010
00000001
00000000
00002002
00000000
,
00000000
00000000
00000000
00000000
,
00000000
00000000
00000000
00000000
,
00000000
00000000
00003003
00000110
,
00000001
00000100
00002000
00000000
00023000
00000000
00130000
00100000
,
00100000
10000000
00100000
00010000
00100000
10000000
00000000
01000000
,
00010000
00001000
00100000
00001000
00010000
00000000
00000100
00001000
,
00000010
00001000
00000001
00000100
00001000
00000000
00010000
00010000
,
00100000
10000000
00020000
00000000
01030000
10000000
01000000
01000000
,
00010000
00100000
00010000
00001000
00000100
00001000
00000010
00000100
,
00000001
00000010
00001000
00010000
00001000
00000000
00100000
00100000
,
00010000
00000000
10000000
01000000
00010000
00000000
00002000
00000000
,
00103000
00010000
00001000
00000100
00010000
00000000
00011000
00000000
,
00000010
00011000
00100000
00011000
,
00000100
00000000
00011000
00000000
01000000
00000000
00100000
01000000
,
00010000
00100000
00001000
00010000
00000100
00001000
00000020
00000000
,
00000100
00000100
00000130
00000000
00001001
00000000
00000001
00000010
,
00001000
00000010
00000001
00001000
00000100
00002000
00000000
00013000
,
00100000
00010000
01000000
00000000
01100000
00000000
10000000
01000000
,
00010000
01000000
10000000
00010000
00100000
00020000
00000000
00031000
,
00000100
00001000
00000010
00000100
00000001
00000000
00000010
00001000
,
00010000
00000100
00010000
00001000
00100000
00002000
00000000
00013000
,
00100000
10000000
00100000
00000000
01100000
00000000
10000000
01000000
,
00010000
00001000
00100000
00002000
00000000
00023000
00000000
00030100
,
00001000
00000001
00000010
00000010
00000001
00000000
00001001
00000000
,
00001000
00000010
00000001
00000010
00001000
00000020
00000000
00000130
,
00000100
00001000
00010000
00100000
10000000
00000000
00010000
00100000
,
10000000
00100000
00010000
00100000
01000000
00020000
00000000
00031000
,
00000010
00000100
00001000
00000001
00001000
00000000
00000110
00000000
,
00000001
00000100
00001000
00000100
00000001
00000000
00000011
00000000
,
00001000
00000100
00010000
00001000
00100000
00000000
00220000
00000000
,
00330000
02020000
03030000
02200000
,
00000000
00000000
00000000
00000000
00000000
00000000
00000000
00000000
03300000
00000000
00000000
00000000
10000000
00000000
00010000
00010000
,
00010000
00000000
00100000
00000000
00010000
01000000
00002000
00000000
00023000
00000000
00030020
00000000
00001030
00001000
00000100
00000100
,
00001000
00001000
00000001
00000001
00000010
00000001
00000010
00000000
00000001
00000000
00000100
00000000
00001001
00000000
00001000
00000010
,
00010000
00000000
00001000
00000000
00100000
00100000
00020000
00000000
02030000
00000000
03020000
00000000
10030000
10000000
01000000
01000000
,
10000000
10000000
00100000
01000000
00010000
00100000
00100000
00000000
00001000
00000000
00000010
00000000
00001002
00000000
00000000
00000000
,
00000103
00001000
00010000
00001000
00000100
00001000
00010000
00100000
,
10000000
00010000
01000000
00000000
00010000
00100000
00110000
00000000
,
10000000
01000000
00010000
01000000
00010000
00001000
00000010
00000001
,
00001000
00000010
00002000
00000000
00003001
00000100
00002000
00000000
,
00013000
00100000
10000000
00010000
01000000
00010000
20000000
00000000
,
31000000
00010000
00001000
00010000
00001000
00000010
00000002
00000000
,
00001003
00000010
00001000
00010000
01000000
00010000
00200000
00000000
,
01000000
00000000
00010000
00010000
00310000
00000000
10010000
00000000
,
20000000
30020000
00000000
00230000
,
00302000
00000000
00023000
00030200
,
00000000
00002300
00000000
00000000
00003020
00000000
00000230
00000000
,
00000302
00000023
00000000
00000032
,
00000203
00002300
00000000
00023000
,
00230000
00000000
20300000
30020000
,
00000000
02030000
00000000
00000000
03020000
00000000
00230000
00000000
,
00302000
00023000
00030000
00011000
,
00001000
00000010
00000001
00000010
00001000
00000000
00010000
01000000
,
10000000
01000000
00010000
00000000
00011000
00000000
00001000
00000100
,
00000001
00000000
00000100
00000000
00001000
00000000
00000000
00000000
00010000
00001000
00010000
00000000
00002000
00000000
00000000
00000000
,
00100000
00100000
00100000
00000000
00013000
00000000
00001000
00000010
,
00000001
00000010
00000100
00001000
00000010
00001000
00010000
01000000
,
00010000
00100000
01000000
10000000
00020000
00000000
00130000
01000000
,
00010000
01000000
00100000
00001000
00010000
00000100
00010000
00001000
,
00000010
00000001
00000010
00001000
00010000
00000000
00000010
00001000
,
00000001
00000100
00001000
00010000
00001000
00010000
00100000
01000000
,
00010000
01000000
00100000
10000000
01000000
00020000
00000000
00031000
,
00100000
00001000
00010000
00000000
00001000
00000020
00000000
00000031
,
00000100
00001000
00000100
00000001
00001000
00000000
00000010
00010000
,
00001000
00010000
00000100
00010000
00001000
00010000
00100000
01000000
,
00010000
00100000
01000000
10000000
00200000
00000000
00310000
00001000
,
00010000
00000100
00010000
00001000
00000010
00000001
00000100
00000001
,
00000010
00000000
00001000
00000000
00010000
00000000
00000000
01000000
00000000
00000000
10000000
00000000
00100000
00000000
10000000
00000000
,
00020000
00000000
00130000
00001000
00010000
00000100
00010000
00000000
,
00011000
00000000
00000000
00000000
00001000
00000000
00000000
00000010
00000000
00000000
00000001
00000000
00000200
00000000
00000000
00000000
,
00000300
00022000
00033000
01100000
,
10000000
00000000
00010000
00100000
01000000
00010000
00001000
00000000
;

//--------------- dance-double - forcednature ----------------
#NOTEDATA:;
#STEPSTYPE:dance-double;
#DESCRIPTION:forcednature;
#CREDIT:forcednature;
#DIFFICULTY:Hard;
#METER:17;
#RADARVALUES:0,0,0,0,0;
#NOTES:
00000000
00000000
00000000
00000000
,
00000000
00000000
00000000
00000000
,
00000000
00000000
00000000
00000000
,
00000000
00000000
00000000
00000000
,
00011000
00000000
00100000
00110000
00000000
10000000
01000000
10000000
,
00100000
00000000
00000000
00010000
00000000
00000000
00000000
00000000
00000000
00001000
00000000
00000000
00022000
00033000
00000000
00000220
00000330
00000000
00001001
00000000
00000000
00000000
00000000
00000000
,
00000001
00000100
00001000
00011000
,
00010000
00000000
01000000
00000000
01100000
00000000
10000000
00010000
,
00100000
00010000
10000000
00100000
01000000
00100000
00020000
00000000
,
00000000
00000000
00001000
00001000
00031000
00000000
00010020
00000000
,
00010000
00000000
00010000
00000000
00010000
00000000
00001000
00001000
,
00001030
00000010
00000100
00000001
00000010
00000010
00000100
00000010
,
00001001
00000000
00000000
00000000
00001000
00000000
00000100
00000000
00000001
00000000
00000000
00000000
00000100
00000000
00000000
00001000
,
00000010
00000000
00000000
00010000
00001000
00000000
00000000
00000000
00011000
00000000
00000000
00000000
00100000
00000000
00010000
00000000
,
01000000
00000000
10000000
00000000
01000000
00000000
00010000
00000000
00100000
00000000
00000000
00000000
00001000
00000000
00000000
00010000
,
00000010
00000000
00000000
00001000
00000100
00000000
00000100
00000000
00000010
00000000
00000000
00000000
00000110
00000000
00000000
00000000
,
00001000
00000100
00000001
00000100
00001000
00000000
00000010
00010000
,
00001000
00000000
00000000
00000000
00100000
00000000
00010000
00100000
00010000
00000000
10000000
00000000
01000000
00000000
00000000
00000000
,
00010000
00000000
00001000
00000000
00100000
00000000
00001000
00000000
00010000
00000100
00000000
00000100
00010000
00000000
00000000
00000000
,
00001000
00000010
00000001
00000010
00000000
00000000
00000110
00000000
00000000
00001001
00000000
00000000
,
00001001
00000000
00000001
00000100
00001000
00000000
00011000
00000000
,
00011000
00000000
00010000
00100000
10000000
00000000
10010000
00000000
,
10000000
01000000
00010000
00000000
00001000
00000010
00000001
00000001
,
00000100
00000000
00000001
00000000
00001000
00000010
00001000
00000010
00000100
00000000
00000000
00000000
00002002
00000000
00000000
00000000
,
00000000
00000000
00000000
00000000
,
00000000
00000000
00000000
00000000
,
00000000
00000000
00000000
00000000
00000000
00000000
00000000
00000000
00003003
00000000
00000000
00000000
00010000
00000000
00000000
00010000
,
00001000
00100000
00020000
00000000
01030000
00000000
00010000
10000000
,
00010000
00000000
10000000
00000000
01000000
00000000
00010000
00001000
00000000
00001000
00010000
00000000
00001000
00000000
00000010
00000000
,
00001000
00000000
00000010
00000000
00000001
00000000
00000100
00000001
00000000
00000001
00000100
00000000
00001000
00000000
00010000
00000000
,
00001000
00010000
00100000
10000000
00100000
10000000
01000000
01000000
,
01000000
00000000
10000000
00000000
00020000
00000000
00000000
00000000
00130000
00000000
00010000
00100000
00001000
00000000
00010000
00000000
,
00001000
00000000
00000010
00000000
00001000
00000000
00010000
00000100
00000000
00000100
00001000
00000000
00000010
00000000
00000100
00000000
,
00000001
00000000
00000100
00000000
00001000
00000000
00010000
00001000
00000000
00100000
00010000
00000000
00100000
00000000
01000000
00000000
,
00010000
01000000
10000000
00010000
00100000
00100000
00002000
00000000
,
00013000
00000000
00000100
00001000
00000100
00001000
00000100
00000000
00000010
00000000
00000001
00000000
00000201
00000000
00000000
00000000
,
00000310
00012000
00103000
10010000
,
10000000
01000000
00010000
00000000
00011000
00000000
00001000
00000010
,
00000001
00000000
00000010
00000000
00000100
00001000
00000100
00001000
00000001
00000010
00000001
00000010
00000002
00000000
00000000
00000000
,
00000100
00000100
00000103
00000000
00001001
00000000
00001000
00000100
,
00000001
00000000
00000100
00000000
00001000
00000100
00010000
00000000
00001000
00000000
00200000
00000000
00000000
00000000
00310000
10000000
,
00010000
01000000
00100000
10000000
11000000
00000000
00010000
01000000
,
10000000
00000000
01000000
00000000
00010000
00100000
00001000
00000000
00010000
00000000
00000100
00000000
00010000
00001000
00010000
00000000
,
00000010
00000000
00001000
00000000
00000001
00000010
00000001
00000000
00000010
00000000
00000000
00000000
00000110
00000000
00001000
00000000
,
00000100
00000000
00001000
00000000
00000010
00010000
00001000
00000000
00100000
00000000
00002000
00000000
00000000
00000000
00103000
00010000
,
00100000
00000000
01000000
00000000
10000000
00000000
00100000
01000000
00010000
00000000
00100000
01000000
10000000
00000000
01000000
00000000
,
00010000
00000000
00001000
00000000
00100000
00010000
00100000
00000000
00001000
00000000
00020000
00000000
00000000
00000000
00030010
00000000
,
00001010
00000000
00000000
00000000
00000001
00001000
00000001
00001000
00000100
00000000
00000000
00000000
00010000
00000000
00001000
00000000
,
00100000
00010000
00100000
00000000
01000000
10000000
00010000
00000000
00100000
00000000
00001000
00000000
00010000
00000000
00000010
00000000
,
00001000
00000010
00001000
00000000
00000001
00000000
00000010
00000001
00000010
00000000
00000100
00000010
00000100
00000000
00001000
00000000
,
00000100
00010000
00001000
00000000
00010000
00001000
00010000
00000000
00001000
00000000
00100000
00000000
00010000
01000000
00010000
00000000
,
01000000
00100000
10000000
00000000
00010000
00000000
00100000
00010000
00100000
00000000
00001000
00000000
00011000
00000000
00000000
00000000
,
00000010
00001000
00000010
00000000
00000100
00000000
00000001
00001000
00000010
00000000
00001000
00000100
00001000
00000000
00000100
00000000
,
00010000
00001000
00010000
00000000
00001000
00000000
00100000
00000000
00010000
10000000
01000000
00000000
20000000
00000000
00000000
00000000
,
30100000
01000000
10020000
00000000
00130000
00001000
00021000
00000000
,
00000010
00000000
00000010
00000000
00000010
00000000
00000000
00000000
00030100
00000000
00000000
00000000
00011000
00000000
00010000
00100000
,
10000000
00000000
00100000
00010000
00001000
00001000
00002000
00000000
00003020
00000000
00000032
00000000
00001003
00000100
00000100
00001000
,
00000010
00000010
00000010
00010000
00001000
00100000
01000000
00100000
00001000
00000000
00010000
00100000
10000000
00000000
10000000
01000000
,
00010000
00000000
00001000
00000010
00000001
00000001
00002000
00000000
00003020
00000000
00020030
00000000
00031000
01000000
01000000
00010000
,
00100000
00100000
00100000
00001000
00010000
01000000
10000000
01000000
00010000
00000000
00001000
00000010
00000001
00000000
00000000
00000000
,
00000001
00000100
00000000
00000000
00000100
00001000
00000000
00000000
00001000
00010000
00000000
00000000
00010000
00100000
00000000
00000000
,
00100000
10000000
00000000
00000000
10000000
01000000
00000000
00000000
00100000
00000000
01000000
00000000
10010000
00000000
00000000
00000000
,
00010000
00100000
10000000
00100000
00010000
00001000
00000100
00000001
,
00000100
00010000
00002000
00000000
00003010
00000001
00000011
00000000
,
00000001
00000100
00001000
00010000
01000000
10000000
00200000
00000000
,
10300000
01000000
00010000
00001000
00000020
00000000
00000130
00001000
,
00000010
00000000
00001000
00000000
00000001
00000000
00000100
00000000
00000001
00000000
00000010
00000000
00001000
00000000
00000000
00010000
,
00001000
00000000
00100000
00010000
00100000
00000000
00000000
01000000
10000000
00000000
00000000
00000000
02000000
00000000
00000000
00000000
,
03020000
00032000
00000000
00003020
,
00000230
00000000
00020300
00030020
,
00000000
00001000
00000000
00000000
00000130
00000000
00002001
00000000
,
00000100
00000010
00000000
00003002
,
00000203
00002300
00000000
00023000
,
00230000
00000000
20300000
32000000
,
00000000
00100000
00000000
00000000
13000000
00000000
00120000
00000000
,
01030000
00022000
00033000
00000110
,
00001000
00000001
00000100
00000100
00000001
00000010
00001000
00010000
,
00001000
00000000
00010000
00000000
01000000
00000000
10000000
01000000
10000000
00000000
00000000
00000000
00010000
00000000
00100000
00000000
,
01000000
00000000
00100000
00000000
00010000
01000000
00010000
01000000
00001000
00010000
00001000
00010000
00002000
00000000
00000000
00000000
,
00100000
00100000
00103000
00000000
00011000
00000000
00000010
00001000
,
00000010
00000100
00000001
00000000
00000010
00000001
00000010
00000000
00000100
00001000
00000001
00000000
00000100
00000000
00001000
00000000
,
00010000
00001000
00010000
00000000
00100000
00000000
10000000
00000000
00020000
00000000
00000000
00000000
00130000
00000000
01000000
00000000
,
10000000
01000000
00100000
00000000
00010000
00100000
00010000
00000000
00100000
00001000
00010000
00000000
00000100
00001000
00000000
00001000
,
00000100
00000000
00000010
00000000
00000001
00000000
00000100
00000010
00000000
00001000
00000100
00001000
00000100
00000000
00010000
00000000
,
00001000
00010000
00001000
00000000
00100000
00010000
00100000
00000000
01000000
10000000
00010000
00000000
01000000
00000000
00100000
00000000
,
01000000
00010000
10000000
00000000
01000000
00000000
00010000
00001000
00010000
00000000
00002000
00000000
00000000
00000000
00003010
00000000
,
00000001
00000000
00000001
00000000
00001000
00000000
00000001
00000010
00001000
00000000
00020000
00000000
00000010
00000000
00000000
00000000
,
00001000
00000000
00000000
00000000
00030100
00000000
00010000
00001000
00100000
00000000
00000000
00000000
00010000
00000000
01000000
00000000
,
00100000
10000000
00100000
00000000
10000000
00010000
00100000
00000000
00001000
00010000
00001000
00000000
00100000
00000000
00001000
00000000
,
00010000
00000100
00010000
00000000
00001000
00000000
00000010
00000000
00000002
00000000
00000000
00000000
00000103
00000000
00000001
00000000
,
00000100
00000010
00001000
00000000
00000100
00001000
00000100
00000000
00010000
00001000
00010000
00000000
00100000
00000000
10000000
00000000
,
00010000
01000000
00010000
00000000
00100000
00000000
00001000
00010000
00000000
00000100
00001000
00000100
00001000
00000000
00000010
00000000
,
00000200
00000000
00000000
00000000
00000301
00000010
00000001
00000000
00000100
00000010
00001000
00000000
00000100
00000000
00010000
00000000
,
00001000
00010000
00001000
00000000
00100000
00000000
00010000
10000000
00000000
01000000
10000000
00000000
00200000
00000000
00000000
00000000
,
00000000
00000000
00000000
00000000
00010000
00000000
00000000
00000000
00000000
00000000
00000000
00000000
01300000
00010000
01000000
00010000
,
01000000
00000000
00001000
00010000
00001000
00000000
00000010
00000000
00000001
00000000
00000100
00000000
00001000
00000000
00000000
00000000
;

//--------------- dance-double - forcednature ----------------
#NOTEDATA:;
#STEPSTYPE:dance-double;
#DESCRIPTION:forcednature;
#CREDIT:forcednature;
#DIFFICULTY:Challenge;
#METER:18;
#RADARVALUES:0,0,0,0,0;
#NOTES:
00000000
00000000
00000000
00000000
,
00000000
00000000
00000000
00000000
,
00000000
00000000
00000000
00000000
,
00000000
00000000
00000000
00000000
,
00011000
00000000
00000000
00000000
00010000
00000000
00100000
00000000
00000000
00000000
10000000
00000000
01000000
00000000
00000000
00010000
,
00001000
00000000
00000000
00000010
00000000
00000000
00000000
00000000
00000000
00000100
00000000
00000000
00000220
00000330
00000000
00022000
00033000
00000000
02100000
00000000
00000000
00000000
00000000
00000000
,
00100000
03100000
00010000
10020000
,
10000000
00000000
00000000
00000000
10030000
00000000
00000000
00000000
01100000
00000000
00000000
00000000
00010000
00000000
00100000
00010000
,
00100000
00000000
00001000
00000000
00010000
00000000
00000100
00001000
00000100
00000000
00001000
00000001
00000020
00000000
00000000
00000000
,
00000100
00000000
00000001
00000001
00000031
00000000
00000001
00000100
,
00002000
00000000
00010000
00000000
00010000
00000000
00010000
00010000
,
00013000
00000000
00010000
00001000
00100000
00000000
00010000
00000000
01000000
00000000
01000000
00000000
00100000
00000000
01000000
00000000
,
10010000
00000000
00000000
00000000
00010000
00000000
00100000
01000000
10000000
00000000
01000000
00000000
00010000
00000000
00001000
00000000
,
00100000
00010000
00100000
00001000
00000010
00000000
00000100
00001000
,
00000001
00000000
00000100
00000000
00001000
00000000
00010000
00001000
00010000
00000000
00100000
00000000
01000000
00000000
00010000
00000000
,
01000000
00000000
01000000
00000000
00100000
10000000
00010000
10000000
00200000
00000000
00000000
00000000
01300000
00000000
00010000
00000000
,
00100000
00000000
00001000
00000000
00000010
00000000
00000100
00000010
00000001
00000000
00000000
00000000
00000100
00000000
00001000
00000000
,
00000100
00000000
00000001
00000000
00001000
00000010
00000000
00010000
00001000
00000000
00010000
00000000
00100000
00000000
00000000
00000000
,
01100000
00000000
00000000
00000000
10000000
00000000
01000000
10000000
01000000
10000000
00000000
01000000
00010000
00000000
00000000
00000000
,
00010000
00000000
00001000
00000000
00010000
00000000
00001000
00000000
00000000
00000010
00000000
00000000
00000001
00000000
00000000
00000000
00000000
00000000
00000100
00000000
00000000
00001000
00000000
00000000
,
00010000
00000000
00001000
00000000
00000100
00000000
00001000
00010000
00001000
00010000
00000000
00100000
00010000
00000000
00100000
10000000
,
00100000
00000000
10000000
01000000
10000000
00000000
01000000
00000000
00010000
00001000
00000000
00001000
00010000
00000000
00000010
00000000
,
00001000
00000100
00000110
00001000
00000001
00000010
00000001
00000101
,
00001000
00000000
00001100
00000000
00010000
00001000
00010000
00001000
00100000
00010000
00100000
01000000
20000000
00000000
00000000
00000000
,
00000000
00000000
00000000
00000000
,
00000000
00000000
30000000
00000000
00000000
00000000
00000000
00000000
00000000
00000000
00000000
00000000
00100000
01000000
00100000
01000000
,
00100000
01000000
00100000
01000000
00100000
01000000
00100000
01000000
00100000
01000000
00100000
01000000
00020000
00000000
00000000
00000000
,
00130000
00000000
00000000
00001000
00010000
00000000
00000100
00000000
00001100
00000000
00000000
00000000
00001000
00000000
00000001
00000100
,
00001000
00000000
00000100
00000000
00001000
00000000
00010000
00001000
00000000
00001000
00010000
00000000
01000000
00000000
10000000
00000000
,
01000000
00000000
00010000
00000000
00001000
00000000
00010000
00000100
00000000
00000100
00001000
00000000
00000001
00000000
00000100
00000000
,
00001000
00000000
00010000
00000000
00001000
00000000
00010000
00000000
01000000
00000000
01000000
00000000
10000000
00000000
10000000
00010000
,
01000000
00000000
00010000
00000000
00200000
00000000
00302000
00000000
00103000
00010000
10000000
01000000
10000000
00000000
01000000
00010000
,
00002000
00003000
00010000
00000000
00001000
00000000
00000100
00000001
00000020
00000031
00001000
00000000
00000100
00000000
00000001
00000000
,
00000200
00000300
00010000
00000000
00001000
00000000
01000000
00010000
00200000
00310000
10000000
00000000
01000000
00000000
00010000
00000000
,
00002000
00003000
00100000
00000000
00010000
00000000
00100000
00001000
00020000
00030000
00000010
00010000
00002000
00000000
00003020
00000000
,
00000031
00001000
00000100
00001000
00000001
00000010
00000100
00000010
00000001
00000000
00000100
00000000
00001000
00000000
00000000
00000000
,
00010000
00001000
00011000
00000000
00100000
00000000
00011000
00000010
,
00001000
00000000
00000000
00000000
00011000
00000000
00000000
00000000
01100000
00000000
00000000
00000000
10000000
00000000
01000000
10000000
,
01000000
00000000
00010000
00001000
00010000
00001000
00100000
00010000
00100000
00000000
00001000
00000000
00000020
00000000
00000000
00000000
,
00000100
00000100
00000130
00000000
00001001
00000000
00000001
00000100
,
00001000
00000000
00000100
00000001
00000100
00000001
00001000
00000010
00000100
00000000
00002000
00000000
00000000
00000000
00013000
00001000
,
00010000
00000000
00100000
00000000
10000000
00010000
01000000
00010000
10000000
00000000
01000000
00010000
00001000
00000000
00100000
00000000
,
00010000
00000000
00100000
00000000
00001000
00010000
00000100
00001000
00000100
00000000
00000010
00000000
00001000
00000010
00000001
00000000
,
00001000
00000100
00000010
00000000
00000100
00010000
00001000
00010000
00000100
00000000
00000100
00000000
00001000
00000000
00000010
00000000
,
00010000
00000000
00100000
01000000
00010000
01000000
00010000
10000000
00100000
00000000
02000000
00000000
00000000
00000000
13000000
01000000
,
00010000
00000000
00100000
00000000
00001000
00010000
00000100
00010000
00001000
00000000
00000010
00000100
00001000
00000000
00000100
00000000
,
00000001
00000000
00000100
00000000
00001000
00000001
00000010
00000001
00001000
00000000
00000010
00000000
00020000
00000000
00000000
00000000
,
00100000
00000000
00000000
00000000
00031000
00010000
00001000
01000000
00020000
00000000
00000000
00000000
00130000
00000000
00010000
00000000
,
00100000
01000000
10000000
00000000
01000000
00010000
01000000
00010000
00001000
00100000
00001000
00000000
00010000
00000000
00000100
00000000
,
00001000
00000010
00000100
00000000
00000001
00000000
00000010
00000001
00000100
00000000
00001000
00000100
00000001
00000000
00001000
00000000
,
00000010
00010000
00001000
00000000
00100000
00010000
00100000
01000000
10000000
01000000
00100000
00000000
00010000
01000000
00001000
00000000
,
00010000
00000010
00001000
00000000
00000100
00000000
00000010
00000001
00000100
00000000
00000010
00000000
00001001
00000000
00000000
00000000
,
00000001
00000100
00001000
00000000
00010000
00000000
00001000
00010000
00100000
00000000
00010000
00001000
01000000
00000000
00010000
00000000
,
10000000
01000000
00010000
00000000
01000000
00000000
10000000
00010000
00100000
00000000
00001000
00010000
00000200
00000000
00000000
00000000
,
00001300
00000010
00000210
00000000
00000301
00000000
00002020
00000000
,
00000000
00000000
00000000
00000000
00000000
00000000
00000000
00000000
00003030
00000000
00000000
00000000
00011000
00000000
00010000
01000000
,
10000000
00000000
00100000
10000000
01000000
01000000
00010000
00000000
00011000
00000000
00000010
00000000
00001000
00000001
00000001
00000100
,
00001000
00000000
00010000
00000000
00001000
00000000
00010000
00000000
00100000
00000000
01000000
00000000
01000000
00000000
00010000
10000000
00100000
00000000
00000000
00000000
01000000
00000000
00100000
00000000
10010000
00000000
00000000
00000000
10000000
00000000
01000000
00000000
,
00010000
00000000
00001000
00010000
00001000
00001000
00000010
00000000
00000110
00000000
00001000
00000000
00000001
00000100
00000100
00000001
,
00000010
00000000
00001000
00000000
00000010
00000000
00001000
00000000
00010000
00000000
01000000
00000000
01000000
00000000
10000000
01000000
10000000
00000000
00000000
00000000
00100000
00000000
01000000
00000000
20000000
00000000
00000000
00000000
00000000
00000000
00000000
00000000
,
31000000
00010000
00001000
00000000
00100000
00001000
00010000
00000000
01000000
00010000
00001000
00000000
00100000
00001000
00010000
00000000
,
01000000
00010000
00001000
00000000
00100000
00001000
00010000
00000000
00000100
00000000
00000010
00000000
00001002
00000000
00000000
00000000
,
00000103
00001000
00011000
00100000
00010000
01000000
10000000
01000000
,
00010000
00000000
10000000
00000000
00200000
00000000
00000000
00000000
00310000
00000000
00001000
00010000
00002000
00000000
00000000
00000000
,
00003010
00000000
00001000
00000010
00000001
00000000
00001000
00000000
00000100
00000000
00001000
00000000
00001020
00000000
00000000
00000000
,
00000032
00000000
00000000
00000000
00000013
00001000
00000000
00001001
00000010
00000000
00000010
00000000
00001001
00000000
00000000
00000000
,
00000001
00000100
00001000
00000000
00010000
00000000
00001000
00000000
00010000
00100000
10000000
00000000
00010000
00000000
00000000
00100000
,
01000000
00000000
00100000
01000000
10000000
00000000
00100000
00000000
10010000
00000000
00000000
00000000
20000000
00000000
00000000
00000000
,
32000000
03020000
00000000
00032000
,
00003020
00000000
00000230
00002300
,
00000000
00000010
00000000
00000000
00003001
00000000
00000102
00000000
,
00000010
00002003
00000000
00003200
,
00020300
00032000
00003000
00210000
,
02300000
00000000
23000000
30200000
,
00000000
01000000
01000000
00000000
00310000
00000000
01100000
00000000
,
10000000
01000000
00010000
00000000
00001000
00010000
00011000
00000010
,
00001000
00000000
00000100
00001000
00000010
00000000
00000100
00000000
00000001
00000000
00000010
00001000
00010000
00000000
00000010
00010000
,
00001000
00000000
00100000
00010000
00100000
00000000
01000000
00000000
10010000
00000000
00000000
00000000
00010000
00000000
00100000
00010000
,
00100000
00000000
00001000
00010000
00000010
00001000
00000010
00001000
00000001
00000100
00000010
00001000
00000002
00000000
00000000
00000000
,
00000010
00000010
00000013
00000000
00001001
00000000
00000001
00000100
,
00001000
00000100
00000001
00000000
00001000
00000010
00010000
00000010
00001000
00000000
00010000
00000000
01000000
00010000
00100000
00000000
,
01000000
10000000
00100000
00000000
10000000
00000000
01000000
00000000
00020000
00000000
00000000
00000000
00031000
00000000
00000010
00000000
,
00000001
00000010
00001000
00000000
00010000
00000100
00001000
00000000
00000010
00000100
00000001
00000000
00000010
00001000
00010000
00001000
,
00000010
00000000
00000100
00000000
00001000
00000000
00000001
00000100
00000000
00001000
00010000
00001000
00010000
00000000
00100000
00000000
,
01000000
00010000
00100000
00000000
01000000
10000000
00100000
00000000
10000000
01000000
00010000
01000000
10000000
00000000
00010000
00000000
,
00100000
00001000
00010000
00000000
00000010
00000000
00001000
00000100
00000010
00000000
00000110
00000000
00000000
00000000
00000100
00001000
,
00000001
00000000
00000001
00000100
00001000
00000000
00010000
00000000
01000000
00000000
00100000
00000000
01200000
00000000
00000000
00000000
,
00010000
00000000
00000000
00000000
01300000
10000000
00010000
00100000
01000000
00000000
00000000
00000000
00100000
00000000
00010000
00000000
,
00100000
00001000
00010000
00000000
00000010
00001000
00000010
00000000
00000100
00000001
00001000
00000001
00000100
00000000
00001000
00000000
,
00010000
00100000
00010000
00000000
00001000
00000000
01000000
00000000
00020000
00000000
00000000
00000000
10030000
00000000
01000000
00000000
,
10000000
00010000
00100000
00000000
01000000
00010000
00001000
00000000
00100000
00001000
00010000
00000000
00000010
00001000
00000010
00000000
,
00000100
00000000
00001000
00000000
00000100
00000000
00000001
00000010
00000000
00000100
00000010
00000100
00001000
00000000
00000010
00000000
,
00020000
00000000
00000000
00000000
00130000
01000000
00100000
00000000
01000000
00010000
10000000
00000000
01000000
00000000
00010000
00000000
,
00001000
00010000
00001000
00000000
00000010
00000000
00000001
00000100
00000000
00000010
00000100
00000010
00002000
00000000
00000000
00000000
,
00000000
00000000
00000000
00000000
00000100
00000000
00000000
00000000
00003000
00000000
00000000
00000000
00001001
00000000
00000001
00000100
,
00001000
00000000
00010000
00100000
10000000
00000000
01000000
00000000
10000000
00000000
00100000
00000000
10010000
00000000
00000000
00000000
;
