#VERSION:0.83;
#TITLE:Sing a Song Sign;
#SUBTITLE:;
#ARTIST:HuΣeR feat.NU-KO;
#TITLETRANSLIT:;
#SUBTITLETRANSLIT:;
#ARTISTTRANSLIT:;
#GENRE:;
#CREDIT:;
#MUSIC:Sing a Song Sign.ogg;
#BANNER:Sing a Song Sign.png;
#BACKGROUND:Sing a Song Sign-bg.png;
#CDTITLE:./CDTitles/pnm 24 Usagi to neko to shounen no yume.png;
#SAMPLESTART:55.325;
#SAMPLELENGTH:15.000;
#SELECTABLE:YES;
#OFFSET:0.777;
#BPMS:0.000=186.000;
#STOPS:;
#BGCHANGES:0.000=../BGAs/24vi.mp4=1.000=0=0=0=StretchNoLoop====,
99999.000=-nosongbg-=1.000=0=0=0=StretchNoLoop====
;
#FGCHANGES:;

//--------------- dance-single - forcednature ----------------
#NOTEDATA:;
#STEPSTYPE:dance-single;
#DESCRIPTION:forcednature;
#DIFFICULTY:Beginner;
#METER:2;
#RADARVALUES:0,0,0,0,0;
#CREDIT:forcednature;
#NOTES:
0000
0000
0000
0000
,
0000
0000
0000
0000
,
0000
0000
0000
0000
,
0000
0000
0000
0000
,
0000
0000
0000
0000
,
0001
0000
0000
0000
,
0000
0000
0000
0000
,
1000
0000
0000
0000
,
0000
0000
0000
0000
,
0010
0000
0000
0000
,
0000
0000
0000
0000
,
0100
0000
0000
0000
,
0000
0000
0000
0000
,
0001
0000
0000
0000
,
0000
0000
0000
0000
,
1000
0000
0000
0000
,
0000
0000
0000
0000
,
0100
0000
0000
0000
,
0000
0000
0000
0000
,
0000
0000
0000
0000
,
0000
0000
0000
0000
,
0010
0000
0000
0000
,
0000
0000
0000
0000
,
0000
0000
0000
0000
,
0000
0000
0000
0000
,
0001
0000
0000
0000
,
0000
0000
0000
0000
,
1000
0000
0000
0000
,
0000
0000
0000
0000
,
0010
0000
0000
0000
,
0000
0000
0000
0000
,
0100
0000
0000
0000
,
0000
0000
0000
0000
,
0001
0000
0000
0000
,
0000
0000
0000
0000
,
0001
0000
0000
0000
,
0000
0000
0000
0000
,
0010
0000
0000
0000
,
0000
0000
0000
0000
,
0000
0000
0000
0000
,
0000
0000
0000
0000
,
0100
0000
0000
0000
,
0000
0000
0000
0000
,
0000
0000
0000
0000
,
1001
0000
0000
0000
,
0000
0000
0000
0000
,
1000
0000
0000
0000
,
0000
0000
0000
0000
,
0010
0000
0000
0000
,
0000
0000
0000
0000
,
0100
0000
0000
0000
,
0000
0000
0000
0000
,
0001
0000
0000
0000
,
0000
0000
0000
0000
,
0010
0000
0000
0000
,
0000
0000
0000
0000
,
0100
0000
0000
0100
,
0000
0000
0000
0000
,
1000
0000
0000
1000
,
0000
0000
0000
0000
,
0001
0000
0000
0000
,
0000
0000
0000
0000
,
0100
0000
0000
0000
,
0000
0000
0000
0000
,
0010
0000
0000
0000
,
0000
0000
0000
0000
,
1000
0000
0000
0000
,
1000
0000
0000
0000
,
0001
0000
0000
0000
,
0000
0000
0000
0000
,
0000
0000
0000
0000
,
0000
0000
0000
0000
,
0010
0000
0000
0000
,
0000
0000
0000
0000
,
0100
0000
0000
0000
,
0000
0000
0000
0000
,
1000
0000
0000
0000
,
0000
0000
0000
0000
,
0001
0000
0000
0000
,
0000
0000
0000
0000
,
0100
0000
0000
0000
,
0000
0000
0000
0000
,
0010
0000
0000
0000
,
0000
0000
0000
0000
,
1000
0000
0000
0000
,
0000
0000
0000
0000
,
0001
0000
0000
0000
,
0000
0000
0000
0000
,
0010
0000
0000
0000
,
0000
0000
0000
0000
,
0001
0000
0000
0000
,
0000
0000
0000
0000
,
0000
1001
0000
0000
;

//--------------- dance-single - forcednature ----------------
#NOTEDATA:;
#STEPSTYPE:dance-single;
#DESCRIPTION:forcednature;
#DIFFICULTY:Easy;
#METER:5;
#RADARVALUES:0,0,0,0,0;
#CREDIT:forcednature;
#NOTES:
0000
0000
0000
0000
,
0000
0000
0000
0000
,
0000
0000
0000
0000
,
0000
0000
0000
0000
,
0000
0000
0000
0000
,
0001
0000
0000
0000
,
1000
0000
0000
0000
,
0010
0000
0010
0000
,
0010
0000
0000
0000
,
0100
0000
0000
0000
,
0001
0000
0000
0000
,
1000
0000
0000
0000
,
0010
0000
0000
0000
,
1000
0000
0000
0000
,
0001
0000
0000
0000
,
0010
0000
0010
0000
,
0010
0000
0000
0000
,
0100
0000
0000
0000
,
0000
0000
0000
0000
,
1000
0000
0000
0000
,
0000
0000
0000
0000
,
0001
0000
0000
0000
,
0000
0000
0000
0000
,
0100
0000
0000
0000
,
0010
0000
0000
0000
,
1000
0000
0000
0000
,
1000
0000
0000
0000
,
0001
0000
0000
0000
,
0010
0000
0000
0000
,
0001
0000
0000
0000
,
0100
0000
0001
0000
,
0100
0000
0000
0000
,
0010
0000
0000
0000
,
1001
0000
0000
0000
,
1000
0000
1000
0000
,
0100
0000
0000
0000
,
0100
0000
0100
0000
,
0010
0000
0000
0000
,
0010
0000
0010
0000
,
0001
0000
0000
0000
,
0100
0000
0010
0000
,
1001
0000
0000
0000
,
0001
0000
1000
0000
,
0200
0000
0300
0000
,
1001
0000
0000
0000
,
0001
0000
0010
0000
,
0001
0000
0000
0000
,
0010
0000
0100
0000
,
0010
0000
0000
0000
,
0100
0000
1000
0000
,
0001
0000
0000
0000
,
1000
0000
0010
0000
,
1000
0000
0000
0000
,
0010
0000
0100
0000
,
0010
0000
0000
0000
,
0100
0000
0001
0000
,
0100
0000
0000
0001
,
0000
0000
0001
0000
,
0010
0000
0000
0100
,
0000
0000
1000
0000
,
0001
0000
0000
0000
,
0100
0000
0001
0000
,
0100
0000
0010
0000
,
1000
0000
0000
0000
,
0001
0000
0001
0000
,
0010
0000
0010
0000
,
0100
0000
1000
1000
,
1000
0000
0001
0000
,
1001
0000
0000
0000
,
0000
0000
1000
0000
,
0010
0000
0000
0000
,
0100
0000
0001
0000
,
1001
0000
0000
0000
,
1000
0000
0100
0000
,
0110
0000
0000
0000
,
0010
0000
0001
0000
,
1001
0000
0000
0000
,
1000
0000
0010
0000
,
0100
0000
0001
0000
,
1000
0000
0000
0000
,
0001
0000
0001
0000
,
0010
0000
0100
0000
,
1000
0000
1000
0000
,
0010
0000
0100
0000
,
1001
0000
0000
0000
,
1000
0000
0100
0000
,
0010
0000
0100
0000
,
0010
0000
0001
0000
,
1001
0000
0000
0000
,
0001
0000
0100
0000
,
0010
0000
0010
0000
,
1000
0000
0001
0000
,
0000
2002
0000
0000
,
0000
0000
0000
0000
,
0000
0000
0000
0000
,
0000
0000
0000
0000
,
3003
0000
0000
0000
;

//--------------- dance-single - forcednature ----------------
#NOTEDATA:;
#STEPSTYPE:dance-single;
#DESCRIPTION:forcednature;
#DIFFICULTY:Medium;
#METER:10;
#RADARVALUES:0,0,0,0,0;
#CREDIT:forcednature;
#NOTES:
0000
0000
0000
0000
,
0000
0000
0000
0000
,
0000
0000
0000
0000
,
0000
0000
0000
0000
,
0000
0000
0000
0000
,
1000
0000
0000
1100
0000
0000
0001
0000
,
0000
0011
0000
0000
1000
0000
0001
0000
,
0200
0000
0010
0000
0010
0000
0010
0300
,
0010
0100
0010
1000
0000
0000
0000
0000
,
0001
0000
0100
0010
0000
0100
0001
0000
,
1000
0100
0010
0100
,
1000
0000
0010
0100
0000
0001
0100
0000
,
0010
1000
0001
0010
,
0100
0000
1000
0010
0000
1000
0100
0000
,
0010
0001
1000
0010
,
0200
0302
2003
3020
,
1030
0001
1000
0001
0000
0010
0100
0000
,
0000
0000
1000
0000
0010
0000
0000
0100
,
0000
0002
0000
0000
0000
0000
0000
0000
,
0003
0000
1000
0000
0200
0000
0000
0320
,
0000
0031
0100
0010
,
1000
0000
0000
0001
0000
0000
0020
0000
,
0000
0000
0000
0000
,
0030
0000
0000
0100
,
1000
0001
0100
0010
,
1001
0000
1000
0100
,
0010
0100
1000
0001
,
0010
0000
0001
0100
,
0010
0100
0001
1000
,
1001
0000
0000
0000
0001
0010
0001
0000
,
0010
0000
0100
0000
1000
0100
1000
0000
,
0020
0000
1000
0000
1030
0000
0010
0100
,
0000
0001
0000
1000
0000
0020
0000
0030
,
1000
0100
0000
0110
0000
0100
1000
0000
,
0001
0010
0001
1000
,
0001
0100
0000
0110
0000
0100
0001
0000
,
1000
0010
0100
0001
,
1000
0100
0000
0110
0000
0100
1000
0000
,
0001
0000
0100
0000
0010
2000
0000
3000
,
0001
0010
0001
0000
0010
0000
0100
0000
,
1000
0010
1000
0000
0010
0000
0100
0000
,
1001
0000
1000
0100
0000
0010
0000
0210
,
0000
1000
1000
0310
,
2002
0000
0000
3003
,
1001
0000
0001
0100
0001
0000
1000
0000
,
0010
0100
0001
1000
,
1001
0000
0001
0010
0001
0000
0100
0000
,
0010
1000
0001
0010
,
0110
0000
0100
1000
,
0001
0010
0001
1000
,
0010
0100
0010
0000
0100
0000
0001
0000
,
1000
0001
1000
0000
0100
0000
0010
0000
,
0110
0000
0100
1000
,
0001
0000
0010
0000
0001
1000
0001
0000
,
0200
0000
0310
1000
,
0001
0010
0001
0000
1000
0000
0010
0000
,
0100
0000
0100
0001
0000
0001
1000
0000
,
1000
0010
0000
0000
1000
0000
0001
0000
,
0010
0000
0010
0100
0000
0100
2000
0001
,
0000
0001
0000
3100
0000
1000
0001
0000
,
0200
0010
0010
0310
,
1000
0001
1000
0000
0100
0000
0010
0000
,
0001
1000
0001
0000
0100
0000
0010
0000
,
1000
0000
0100
0020
0000
0032
0000
0003
,
1000
0000
0010
1000
0010
0000
0100
0010
,
0100
0000
0001
0100
0001
0000
1000
0000
,
1001
0000
0001
0010
,
0100
0010
0100
0010
0100
0000
1000
0000
,
2002
0000
0000
0000
,
0000
0000
3003
0000
,
0220
0000
0000
0000
,
0000
0000
0330
0000
,
1001
0000
1000
0000
0100
0000
1000
0001
,
0010
0000
0001
0000
1000
0000
0010
0100
,
0001
0000
1000
0000
0010
0000
1000
0100
,
0000
0010
0100
0000
0010
0000
0110
0000
,
1001
0000
0001
0100
0001
0000
1000
0010
,
1000
0001
0010
0100
,
0220
0330
0010
0001
,
1000
0000
0010
0100
0010
0000
1000
0000
,
1001
0000
0000
0110
0000
0000
1001
0000
,
0000
2000
3200
0320
,
0031
0000
0000
1000
0000
0010
0000
0200
,
0000
0001
0300
0001
0100
0001
0100
0000
,
0010
0000
1000
0010
1000
0000
0001
0000
,
0010
0100
0010
0001
,
1000
0000
0010
0100
0010
0000
1000
0000
,
0001
0010
0100
1001
,
0001
0000
0100
0010
0100
0000
0001
0000
,
1000
0000
0100
0010
0100
0000
1000
0000
,
0010
0000
1000
0001
1000
0000
0100
1000
,
0100
0000
0010
0000
0001
1000
0001
0000
,
0000
2002
0000
0000
,
0000
0000
0000
0000
,
0000
0000
0000
0000
,
0000
0000
0000
0000
,
3003
0000
0000
0000
;

//--------------- dance-single - forcednature ----------------
#NOTEDATA:;
#STEPSTYPE:dance-single;
#DESCRIPTION:forcednature;
#DIFFICULTY:Hard;
#METER:13;
#RADARVALUES:0,0,0,0,0;
#CREDIT:forcednature;
#NOTES:
0000
0000
0000
0000
,
0000
0000
0000
0000
,
0000
0000
0000
0000
,
0000
0000
0000
0000
,
0000
0000
0000
0000
,
0001
0000
0001
0100
0000
0100
0010
0000
,
0010
1000
0000
1000
0100
0000
0110
0000
,
1001
0000
0001
0100
0010
0100
0010
0100
,
0010
1000
0001
0020
0000
0000
0030
0000
,
0100
1000
0010
2000
0000
3001
0100
2000
,
0000
3100
0001
0020
0000
0130
1000
0001
,
0010
0001
1000
0200
0000
1300
0010
0002
,
0000
0013
1000
0002
0000
0103
0010
0000
,
1000
0100
0001
0200
0000
1300
0001
0020
,
0000
0031
1000
0020
0000
0130
0001
0100
,
0020
2030
3002
0023
,
0130
0100
0100
0100
0000
1000
0001
0000
,
1001
1000
0100
0100
,
1000
0000
0002
0000
0000
0003
0010
0001
,
0010
0001
0001
2000
,
0000
0010
3001
1000
,
0020
0000
0030
0200
0000
0300
0002
0000
,
0000
0000
1000
0000
1000
0000
1003
0001
,
0010
0000
0100
0000
0010
0100
1000
0000
,
0010
0100
0000
0100
0001
1000
0100
0000
,
0110
0000
0010
0001
0010
0000
0100
0010
,
0100
0000
1000
0001
0020
0000
0001
0000
,
0130
0011
1001
1010
,
0010
0100
0001
0000
0010
0000
1001
0000
,
1100
0000
0001
0010
0100
0010
0001
0010
,
0100
0000
1000
0010
0100
0010
1000
0000
,
1002
0000
0010
0000
0103
0001
1000
0010
,
0000
0100
0001
2000
0000
3200
0000
0300
,
0010
0001
0000
0101
0000
0100
1000
0000
,
0100
0001
0010
0002
0000
2003
0000
3000
,
0010
0100
0001
0002
0000
0013
0020
0000
,
0130
1000
0000
0110
0000
0001
0010
0000
,
0100
1000
0001
0200
0000
0301
1000
0010
,
0100
0000
0001
0000
1000
0000
0001
0000
0100
0000
0020
0000
0000
0030
0000
0000
,
1002
0000
0100
0000
2003
0000
3010
0100
,
0001
1000
0010
0000
0110
0000
0100
0001
,
2000
0000
3100
0002
0000
0103
1000
0002
,
0000
0013
0010
0001
1000
0100
0010
0000
,
0220
0330
1000
0001
,
1001
0000
1000
0010
0100
0001
0100
1000
,
0000
0100
0001
1000
0010
0000
0110
0000
,
1001
0000
0001
0010
0100
1000
0100
0001
,
0000
0100
1000
0001
0010
0000
0110
0000
,
1002
0000
0103
1000
0200
0000
0301
1000
,
0010
0010
0100
0001
0000
1000
0100
0010
,
0100
0000
0010
0001
1000
0010
0100
0101
,
0000
0001
0010
0100
1000
0000
0001
0000
,
1001
0000
1000
0010
0100
0001
0100
2000
,
0000
3100
0001
0000
1010
0000
0110
0000
,
2001
0000
3100
0001
0100
1000
0001
0020
,
0000
0032
0000
0203
0000
0310
0010
0000
,
1001
0000
1000
1100
0000
0001
0101
0000
,
0010
0110
0000
1000
0100
0001
0100
0000
,
0110
0000
0010
0001
0100
0001
1000
2000
,
0000
0010
3010
0010
0100
0001
1000
0001
,
0020
0000
0100
0000
0001
0000
0130
1000
,
0001
0010
1000
0010
0001
0010
1000
0010
,
0001
0000
1000
1000
0001
0100
0010
0000
,
1000
0100
1000
0002
0000
0023
0000
0030
,
0001
0100
1000
0100
0001
0010
1000
0010
,
0001
0100
1000
0100
0001
1000
0010
0000
,
0110
0000
0100
0001
1000
0010
1000
0010
,
0100
0100
0100
0100
0001
0000
1001
0000
,
0220
0000
0330
0000
1000
0000
0001
0020
,
0000
0030
0001
1000
,
0020
0000
0030
0100
0001
0000
1000
0020
,
0000
0230
0000
0300
0001
0000
1000
0000
,
1001
0000
0001
0010
1000
0000
0010
0001
,
0200
0000
0310
1000
0000
0001
0100
0001
,
2000
0000
3100
0010
0100
0000
0010
0001
,
0000
0001
0100
0000
0110
0000
1001
0000
,
1100
0000
0001
0010
1000
0010
0001
2000
,
0000
3100
1000
0001
0010
0000
0110
0000
,
1002
0000
0103
1000
0100
0001
1000
0010
,
0000
0100
0001
0020
0000
0130
0100
0000
,
1001
0000
0001
0101
0000
1000
1100
0000
,
0010
0110
0000
1000
0010
0001
0010
0000
,
1000
1000
0100
0010
0001
0010
0100
0010
,
0001
1000
0010
0100
0001
1000
1001
0000
,
0001
0100
1000
0200
0000
0301
1000
0020
,
0000
1030
0001
0020
0000
0130
1000
0010
,
1000
0100
0001
0200
0000
1300
0001
0020
,
0000
0031
1000
0020
0000
0130
0001
0000
,
1000
0100
0001
0100
1000
0010
0001
0010
,
1000
0100
0001
1000
0010
0001
1000
0000
,
0001
0100
0010
0100
1000
0100
0001
1000
,
0010
0010
0010
0020
0000
0130
0002
0000
,
0013
2002
0000
0000
,
0000
0000
0000
0000
,
0000
0000
0000
0000
,
0000
0000
0000
0000
,
3003
0000
0000
0000
;

//--------------- dance-double - forcednature ----------------
#NOTEDATA:;
#STEPSTYPE:dance-double;
#DESCRIPTION:forcednature;
#DIFFICULTY:Easy;
#METER:4;
#RADARVALUES:0,0,0,0,0;
#CREDIT:forcednature;
#NOTES:
00000000
00000000
00000000
00000000
,
00000000
00000000
00000000
00000000
,
00000000
00000000
00000000
00000000
,
00000000
00000000
00000000
00000000
,
00000000
00000000
00000000
00000000
,
00010000
00000000
00000000
00000000
,
00001000
00000000
00000000
00000000
,
00100000
00000000
00100000
00000000
,
00100000
00000000
00000000
00000000
,
00010000
00000000
00000000
00000000
,
01000000
00000000
00000000
00000000
,
00001000
00000000
00000000
00000000
,
00010000
00000000
00000000
00000000
,
00000100
00000000
00000000
00000000
,
00001000
00000000
00000000
00000000
,
00000100
00000000
00000100
00000000
,
00000010
00000000
00000000
00000000
,
00000001
00000000
00000000
00000000
,
00000000
00000000
00000000
00000000
,
00000100
00000000
00000000
00000000
,
00000000
00000000
00000000
00000000
,
00000010
00000000
00000000
00000000
,
00000000
00000000
00000000
00000000
,
00001000
00000000
00000000
00000000
,
00000100
00000000
00000000
00000000
,
00001000
00000000
00000000
00000000
,
00001000
00000000
00000000
00000000
,
00000100
00000000
00000000
00000000
,
00010000
00000000
00000000
00000000
,
00001000
00000000
00000000
00000000
,
00001000
00000000
00001000
00000000
,
00010000
00000000
00000000
00000000
,
00001000
00000000
00000000
00000000
,
00011000
00000000
00000000
00000000
,
01000000
00000000
00000000
00000000
,
00010000
00000000
00000000
00000000
,
00100000
00000000
00100000
00000000
,
00010000
00000000
00000000
00000000
,
10000000
00000000
10000000
00000000
,
00010000
00000000
00000000
00000000
,
01000000
00000000
00000000
00000000
,
00100000
00000000
00100000
00000000
,
10000000
00000000
00000000
00000000
,
02000000
00000000
03000000
00000000
,
10010000
00000000
00000000
00000000
,
00010000
00000000
00000000
00000000
,
00100000
00000000
00000000
00000000
,
00001000
00000000
00010000
00000000
,
00001000
00000000
00000000
00000000
,
00010000
00000000
00000000
00000000
,
00000100
00000000
00000000
00000000
,
00001000
00000000
00000001
00000000
,
00001000
00000000
00000000
00000000
,
00000010
00000000
00000000
00000000
,
00000100
00000000
00000000
00000000
,
00000001
00000000
00001000
00000000
,
00000001
00000000
00000000
00000010
,
00000000
00000000
00000000
00000000
,
00000100
00000000
00000000
00001000
,
00000000
00000000
00000100
00000000
,
00010000
00000000
00000000
00000000
,
00001000
00000000
00000000
00000000
,
01000000
00000000
00000000
00000000
,
00010000
00000000
00000000
00000000
,
00100000
00000000
00100000
00000000
,
01000000
00000000
01000000
00000000
,
00100000
00000000
01000000
01000000
,
01000000
00000000
00000000
00000000
,
10010000
00000000
00000000
00000000
,
00000000
00000000
10000000
00000000
,
00100000
00000000
00000000
00000000
,
01000000
00000000
00010000
00000000
,
00100000
00000000
00000000
00000000
,
00001000
00000000
00001000
00000000
,
00010000
00000000
00001000
00000000
,
00010000
00000000
00000000
00000000
,
00011000
00000000
00000000
00000000
,
00000100
00000000
00000000
00000000
,
00001000
00000000
00000100
00000000
,
00001000
00000000
00000000
00000000
,
00000010
00000000
00000010
00000000
,
00000010
00000000
00000000
00000000
,
00000100
00000000
00000100
00000000
,
00000010
00000000
00000100
00000000
,
00001001
00000000
00000000
00000000
,
00001000
00000000
00000000
00000000
,
00000100
00000000
00000000
00000000
,
00010000
00000000
00001000
00000000
,
00011000
00000000
00000000
00000000
,
01000000
00000000
00000000
00000000
,
00010000
00000000
00010000
00000000
,
00100000
00000000
01000000
00000000
,
00000000
20020000
00000000
00000000
,
00000000
00000000
00000000
00000000
,
00000000
00000000
00000000
00000000
,
00000000
00000000
00000000
00000000
,
30030000
00000000
00000000
00000000
;

//--------------- dance-double - forcednature ----------------
#NOTEDATA:;
#STEPSTYPE:dance-double;
#DESCRIPTION:forcednature;
#DIFFICULTY:Medium;
#METER:10;
#RADARVALUES:0,0,0,0,0;
#CREDIT:forcednature;
#NOTES:
00000000
00000000
00000000
00000000
,
00000000
00000000
00000000
00000000
,
00000000
00000000
00000000
00000000
,
00000000
00000000
00000000
00000000
,
00000000
00000000
00000000
00000000
,
00001000
00000000
00000000
00010000
00000000
00000000
01000000
00000000
,
00000000
10000000
00000000
00000000
00100000
00000000
00000000
00000000
,
02000000
00000000
00010000
00000000
00010000
00000000
00010000
03000000
,
01000000
00100000
01000000
00100000
00000000
00000000
00000000
00000000
,
10000000
00000000
01000000
00100000
00000000
00010000
00100000
00000000
,
00001000
00010000
00000010
00001000
,
00000100
00000000
00000010
00000001
00000000
00000100
00000001
00000000
,
00000010
00000100
00010000
00001000
,
00100000
00000000
00010000
01000000
00000000
00100000
01000000
00000000
,
00010000
10000000
00100000
10000000
,
02000000
03020000
00032000
00003020
,
00000031
00000000
00001000
00000001
00000000
00000001
00000100
00000000
,
00000000
00000000
00001000
00000000
00010000
00000000
00000000
00001000
,
00000000
00020000
00000000
00000000
00000000
00000000
00000000
00000000
,
00030000
00000000
00100000
00000000
02000000
00000000
00000000
03020000
,
00000000
10030000
00010000
00100000
,
01000000
00000000
00000000
00010000
00000000
00000000
00002000
00000000
,
00000000
00000000
00000000
00000000
,
00003000
00000000
00000000
00010000
,
00000100
00001000
00000100
00000000
,
00001001
00000000
00001000
00000100
,
00010000
00001000
00100000
00010000
,
10000000
00000000
00010000
01000000
,
00001000
00010000
00000010
00001000
,
00001001
00000000
00000000
00000000
00001000
00000100
00001000
00000000
,
00000100
00000000
00010000
00000000
00001000
00010000
00001000
00000000
,
00200000
00000000
00010000
00000000
00310000
00000000
00100000
01000000
,
00000000
10000000
00000000
00010000
00000000
02000000
00000000
03000000
,
00010000
10000000
00000000
10010000
00000000
10000000
00010000
00000000
,
00100000
00001000
00010000
00000100
,
00001000
00000001
00000000
00001001
00000000
00000001
00001000
00000000
,
00000010
00010000
00001000
01000000
,
00010000
10000000
00000000
10010000
00000000
10000000
00010000
00000000
,
01000000
00000000
00001000
00000000
00010000
00000020
00000000
00000030
,
00001000
00000001
00001000
00000000
00000100
00000000
00010000
00000000
,
00001000
00010000
00001000
00000000
01000000
00000000
00010000
00000000
,
10010000
00000000
10000000
01000000
00000000
10000000
00000000
10200000
,
00000000
01000000
01300000
00010000
,
20020000
00000000
00000000
30030000
,
10010000
00000000
00010000
01000000
00010000
00000000
00100000
00000000
,
00001000
00010000
00000010
00001000
,
00001001
00000000
00000001
00000010
00000001
00000000
00000100
00000000
,
00000010
00001000
00000100
00010000
,
00011000
00000000
00001000
01000000
,
00010000
00100000
00010000
10000000
,
00100000
01000000
00100000
00000000
01000000
00000000
00010000
00000000
,
00100000
00010000
00100000
00000000
00001000
00000000
00010000
00000000
,
00011000
00000000
00000100
00001000
,
00000010
00000000
00000100
00000000
00000001
00000010
00000001
00000000
,
00002000
00000000
00003100
00010000
,
00001000
00010000
00001000
00000000
01000000
00000000
00010000
00000000
,
00100000
00000000
00100000
00001000
00000000
00001000
00010000
00000000
,
00010000
00000100
00000000
00000000
00001000
00000000
00000001
00000000
,
00000100
00000000
00000100
00001000
00000000
00010000
00000000
00012000
,
00000000
00010000
00000000
01003000
00000000
00001000
00010000
00000000
,
00200000
10000000
10000000
10300000
,
00100000
01000000
00010000
00000000
10000000
00000000
01000000
00000000
,
00100000
00010000
00100000
00000000
00001000
00000000
00010000
00000000
,
00000010
00000000
00001000
00000002
00000000
00000203
00000000
00000300
,
00000010
00000000
00001000
00000010
00001000
00000000
00000100
00001000
,
00000100
00000000
00010000
00001000
00010000
00000000
00100000
00000000
,
10010000
00000000
10000000
01000000
,
00010000
00001000
00010000
00001000
00010000
00000000
00000100
00000000
,
00002002
00000000
00000000
00000000
,
00000000
00000000
00003003
00000000
,
00000220
00000000
00000000
00000000
,
00000000
00000000
00000330
00000000
,
00001001
00000000
00000000
00000000
00001000
00000000
00000100
00001000
,
00000100
00000000
00010000
00000000
00001000
00000000
00100000
00010000
,
00100000
00000000
01000000
00000000
10000000
00000000
00100000
01000000
,
00000000
00010000
01000000
00000000
00001000
00000000
00011000
00000000
,
00010100
00000000
00000100
00001000
00000100
00000000
00000010
00000001
,
00000010
00000100
00010000
00001000
,
00022000
00033000
00100000
00010000
,
10000000
00000000
00100000
01000000
00100000
00000000
00010000
00000000
,
00011000
00000000
00000000
00010100
00000000
00000000
00001100
00000000
,
00000000
00000002
00000203
00002300
,
00013000
00000000
00000000
00001000
00000000
00100000
00000000
00020000
,
00000000
01000000
00030000
01000000
00010000
01000000
00100000
00000000
,
10000000
00000000
01000000
10000000
01000000
00000000
00100000
00000000
,
00010000
00100000
00001000
00010000
,
00000100
00000000
00001000
00000100
00001000
00000000
00000001
00000000
,
00000100
00000010
00001000
00001001
,
00000001
00000000
00000010
00000100
00000010
00000000
00001000
00000000
,
00010000
00000000
00001000
00010000
00001000
00000000
01000000
00000000
,
00010000
00000000
00100000
00010000
00100000
00000000
01000000
10000000
,
01000000
00000000
00010000
00001000
00000000
00001000
00010000
00000000
,
00000000
00022000
00000000
00000000
,
00000000
00000000
00000000
00000000
,
00000000
00000000
00000000
00000000
,
00000000
00000000
00000000
00000000
,
00033000
00000000
00000000
00000000
;

//--------------- dance-double - forcednature ----------------
#NOTEDATA:;
#STEPSTYPE:dance-double;
#DESCRIPTION:forcednature;
#DIFFICULTY:Hard;
#METER:13;
#RADARVALUES:0,0,0,0,0;
#CREDIT:forcednature;
#NOTES:
00000000
00000000
00000000
00000000
,
00000000
00000000
00000000
00000000
,
00000000
00000000
00000000
00000000
,
00000000
00000000
00000000
00000000
,
00000000
00000000
00000000
00000000
,
00001000
00000000
00001000
00010000
00000000
00010000
00100000
00000000
,
00100000
10000000
00000000
10000000
01000000
00000000
01100000
00000000
,
10010000
00000000
00010000
00100000
00001000
00010000
00001000
00010000
,
00001000
00010000
00000100
00002000
00000000
00000000
00003000
00000000
,
00000001
00000100
00000010
00000200
00000000
00000310
00001000
00000002
,
00000000
00000013
00000100
00000020
00000000
00000130
00001000
00000100
,
00010000
00001000
00100000
00020000
00000000
01030000
00100000
20000000
,
00000000
31000000
00010000
00002000
00000000
00103000
00010000
00000000
,
10000000
00100000
01000000
00200000
00000000
01300000
00010000
20000000
,
00000000
31000000
00100000
00002000
00000000
00013000
00000100
00010000
,
00002000
00003020
00000032
00000203
,
00001300
00001000
00001000
00010000
00000000
00010000
00100000
00000000
,
10010000
10000000
01000000
01000000
,
00010000
00000000
00002000
00000000
00000000
00003000
00010000
00001000
,
00010000
00000000
00000100
00000000
00001000
00000000
00000001
00000020
,
00000000
00000001
00000130
00001000
,
00000200
00000000
00000300
00020000
00000000
00030000
00002000
00000000
,
00000000
00000000
00100000
00000000
00100000
00000000
00103000
00001000
,
00010000
00000000
00100000
00000000
10000000
00010000
01000000
00000000
,
00100000
10000000
00000000
10000000
01000000
00010000
00001000
00000000
,
00011000
00000000
00010000
00000100
00001000
00000000
00001000
00000100
,
00010000
00000000
00010000
00001000
00200000
00000000
00010000
00000000
,
01300000
00110000
10010000
10100000
,
00100000
01000000
00010000
00000000
00100000
00000000
00011000
00000000
,
00010100
00000000
00000100
00001000
00000010
00001000
00000100
00000010
,
00000001
00000000
00000100
00000010
00001000
00000100
00010000
00000000
,
00021000
00000000
00000010
00000000
00031000
00010000
00001000
01000000
,
00000000
00010000
00100000
02000000
00000000
23000000
00000000
30000000
,
00100000
10000000
00000000
11000000
00000000
01000000
00010000
00000000
,
00001000
00010000
00001000
00200000
00000000
00320000
00000000
00030000
,
00100000
00001000
00010000
00020000
00000000
00030100
00000200
00000000
,
00001300
00000010
00000000
00000110
00000000
00000001
00000010
00000000
,
00000001
00000100
00001000
00000200
00000000
00001300
00010000
00000000
,
00001000
00000000
01000000
00000000
00010000
00000000
01000000
00000000
00001000
00000000
00200000
00000000
00000000
00300000
00000000
00000000
,
10020000
00000000
01000000
00000000
20030000
00000000
31000000
00010000
,
00001000
00100000
00010000
00000000
01100000
00000000
10000000
01000000
,
00020000
00000000
00031000
00200000
00000000
00301000
00010000
00000200
,
00000000
00001300
00001000
00000001
00000010
00000001
00000100
00000000
,
00000220
00000330
00000001
00001000
,
00001001
00000000
00000001
00000010
00000100
00000010
00000001
00001000
,
00000000
00000010
00010000
00001000
01000000
00000000
01100000
00000000
,
10010000
00000000
10000000
00100000
01000000
00100000
10000000
01000000
,
00000000
00010000
00001000
00100000
00001000
00000000
00011000
00000000
,
00000200
00000000
00001300
00000001
00000020
00000000
00000031
00001000
,
00000100
00000100
00010000
00001000
00000000
01000000
00010000
00100000
,
01000000
00000000
00100000
00010000
10000000
00100000
01000000
10010000
,
00000000
10000000
01000000
00010000
00001000
00000000
00010000
00000000
,
00011000
00000000
00001000
00000010
00000100
00001000
00000001
00000020
,
00000000
00000031
00000100
00000000
00000110
00000000
00001010
00000000
,
00001200
00000000
00010300
00001000
00100000
00010000
00100000
00002000
,
00000000
00023000
00000000
02030000
00000000
03100000
00100000
00000000
,
10010000
00000000
10000000
01000000
00000000
00010000
01000000
00000000
,
00010000
00001000
00000000
00000010
00000100
00001000
00000010
00000000
,
00000110
00000000
00000100
00000001
00000010
00000001
00000100
00002000
,
00000000
00010000
00013000
00001000
00010000
00100000
10000000
00000000
,
00020000
00000000
01000000
00000000
10000000
00000000
00130000
00010000
,
00001000
00000100
00001000
00000001
00001000
00000010
00000100
00001000
,
00010000
00000000
00100000
00100000
10000000
00010000
01000000
00000000
,
00100000
10000000
01000000
20000000
00000000
30020000
00000000
00030000
,
00100000
01000000
00010000
01000000
00100000
00001000
00010000
00000100
,
00010000
00001000
00000010
00000001
00000010
00001000
00010000
00000000
,
00011000
00000000
00001000
01000000
00010000
10000000
00010000
00100000
,
00001000
00001000
00001000
00001000
00010000
00000000
00011000
00000000
,
00020200
00000000
00030300
00000000
00000100
00000000
00001000
00000002
,
00000000
00000003
00000100
00001000
,
00020000
00000000
00030000
00001000
00010000
00000000
00100000
20000000
,
00000000
32000000
00000000
03000000
10000000
00000000
00010000
00000000
,
10010000
00000000
10000000
01000000
00010000
00000000
00001000
00010000
,
02000000
00000000
03100000
00010000
00000000
00100000
00001000
00010000
,
00002000
00000000
00003010
00000100
00000010
00000000
00000001
00000100
,
00000000
00000100
00001000
00000000
00011000
00000000
01001000
00000000
,
01010000
00000000
00010000
00100000
01000000
10000000
00100000
02000000
,
00000000
03100000
10000000
00010000
00100000
00000000
01100000
00000000
,
00102000
00000000
00013000
00000100
00001000
00000100
00010000
00001000
,
00000000
00000010
00000001
00000200
00000000
00000310
00000010
00000000
,
00001001
00000000
00000001
00000100
00000000
00001000
00010000
00000000
,
00100000
10000000
00000000
01000000
00010000
01000000
10000000
00000000
,
00010000
00010000
00100000
00001000
00010000
00000100
00001000
00000100
,
00010000
00001000
00000010
00000001
00000100
00000000
00000110
00000000
,
00000010
00000100
00001000
00020000
00000000
00031000
00100000
00020000
,
00000000
01030000
00001000
00020000
00000000
00130000
10000000
00010000
,
10000000
01000000
00100000
00020000
00000000
01030000
00001000
00020000
,
00000000
00030100
00001000
00000020
00000000
00000130
00000001
00000000
,
00000010
00000100
00001000
00000100
00000010
00001000
00010000
00001000
,
01000000
00010000
00100000
00010000
10000000
00100000
00010000
00000000
,
00001000
00010000
00001000
00000010
00000100
00001000
00000100
00010000
,
00001000
00001000
00001000
00200000
00000000
00310000
02000000
00000000
,
03100000
20020000
00000000
00000000
,
00000000
00000000
00000000
00000000
,
00000000
00000000
00000000
00000000
,
00000000
00000000
00000000
00000000
,
30030000
00000000
00000000
00000000
;
