#VERSION:0.83;
#TITLE:終末を追う者;
#SUBTITLE:;
#ARTIST:S-C-U×PON;
#TITLETRANSLIT:Shuumatsu wo ou mono;
#SUBTITLETRANSLIT:;
#ARTISTTRANSLIT:;
#GENRE:JUDGMENT;
#CREDIT:;
#MUSIC:Shuumatsu wo ou mono.ogg;
#BANNER:Shuumatsu wo ou mono.png;
#BACKGROUND:Shuumatsu wo ou mono-bg.png;
#CDTITLE:./CDTitles/pnm 21 Sunny Park.png;
#SAMPLESTART:53.740;
#SAMPLELENGTH:15.000;
#SELECTABLE:YES;
#OFFSET:2.030;
#BPMS:0.000=185.000;
#STOPS:;
#BGCHANGES:0.000=../BGAs/22bk.mp4=1.000=0=0=0=StretchNoLoop====,
99999.000=-nosongbg-=1.000=0=0=0=StretchNoLoop====
;
#FGCHANGES:;

//--------------- dance-single - forcednature ----------------
#NOTEDATA:;
#STEPSTYPE:dance-single;
#DESCRIPTION:forcednature;
#DIFFICULTY:Beginner;
#METER:5;
#RADARVALUES:0,0,0,0,0;
#CREDIT:forcednature;
#NOTES:
0000
0000
0000
0000
,
0000
0000
0000
0000
,
0000
0000
0000
0000
,
0000
0000
0000
0000
,
0000
0000
0000
0000
,
0000
0000
0000
0000
,
2000
0000
0000
0000
,
3000
0000
0000
0000
,
0002
0000
0000
0000
,
0003
0000
0000
0000
,
0100
0000
0100
0000
,
0100
0000
0000
0000
,
0010
0000
0010
0000
,
0010
0000
0000
0000
,
1000
0000
1000
0000
,
1000
0000
0001
0000
,
0010
0000
0010
0000
,
0100
0000
0000
0000
,
1001
0000
0000
0000
,
0110
0000
0000
0000
,
1001
0000
0000
0000
,
0001
0000
1000
0000
,
1001
0000
0000
0000
,
0110
0000
0000
0000
,
1001
0000
0000
0000
,
1000
0000
0001
0000
,
0010
0000
0000
0000
,
0110
0000
0000
0000
,
0000
0000
0000
0000
,
0100
0000
0000
0000
,
1000
0000
0000
0000
,
0001
0000
0001
0000
,
0100
0000
0000
0000
,
0010
0000
1000
0000
,
0010
0000
0000
0000
,
1000
0000
0100
0000
,
0010
0000
0000
0000
,
0100
0000
0010
0000
,
0001
0000
0000
0000
,
1000
0000
0001
0000
,
1000
0000
0010
0000
,
0100
0000
0100
0000
,
0001
0001
0001
0000
,
1001
0000
0000
0110
,
0000
0000
0001
0000
,
1000
0000
0100
0000
,
1000
0000
0000
0000
,
1001
0000
0000
0110
,
0000
0000
0001
0000
,
1000
0000
0001
0000
,
0100
0000
0000
0000
,
0110
0000
0000
1001
,
0000
0000
1000
0000
,
0100
0000
0010
0000
,
0001
0000
0000
0000
,
0110
0000
0000
1001
,
0000
0000
0001
0000
,
0100
0000
0100
0000
,
0010
0010
0010
0000
,
1001
0000
0000
0110
,
0000
0000
0000
1001
,
0000
0000
0110
0000
,
0000
0000
0110
0000
,
0000
1001
0000
0000
,
0000
0110
0000
0000
,
1001
0000
0000
0000
,
1000
0000
1000
0000
,
0100
0000
1000
0000
,
0001
0000
0001
0000
,
0100
0000
0001
0000
,
0010
0000
0010
0000
,
0100
0000
1000
0000
,
0010
0000
0010
0000
,
0100
0100
0100
0000
,
1001
0000
0000
0000
,
0110
0000
0000
0000
,
1001
0000
0000
0000
,
1000
0000
0001
0000
,
1001
0000
0000
0000
,
0110
0000
0000
0000
,
1001
0000
0000
0000
,
0001
0000
1000
0000
,
0000
2002
0000
0000
,
0000
0000
0000
0000
,
3003
0000
0000
0000
;

//--------------- dance-single - forcednature ----------------
#NOTEDATA:;
#STEPSTYPE:dance-single;
#DESCRIPTION:forcednature;
#DIFFICULTY:Easy;
#METER:9;
#RADARVALUES:0,0,0,0,0;
#CREDIT:forcednature;
#NOTES:
0000
0000
0000
0000
,
0000
0000
0000
0000
,
0000
0000
0000
0000
,
0000
0000
0000
0000
,
0000
0000
0000
0000
,
0000
0000
0000
0000
,
2000
0000
0000
3200
0000
0000
0320
0000
,
0000
0032
2003
3000
,
0020
0000
0000
0200
0000
0000
0000
0000
,
0000
0000
0330
0000
,
2001
0001
0100
0100
,
0001
0001
3010
1000
,
0002
1000
0100
0100
,
1000
1000
0013
0001
,
1000
1000
0010
0010
,
0100
0100
0001
0001
,
1000
0100
1000
0000
0100
0010
0100
0000
,
0010
0001
0010
0000
0002
0000
0000
0000
,
0103
0000
0000
0100
0000
0000
0100
0000
0000
0000
1001
0000
0000
0000
0000
0000
,
0010
0000
0000
0010
0000
0000
0010
0000
0000
0000
1001
0000
0000
0000
0000
0000
,
1000
0000
0000
1000
0000
0000
1000
0000
0000
0000
0110
0000
0000
0000
0000
0000
,
0001
0100
0001
0000
1000
0100
1000
0000
,
0010
0000
0000
0100
0000
0000
0010
0000
0000
0000
1001
0000
0000
0000
0000
0000
,
0100
0000
0000
0010
0000
0000
0100
0000
0000
0000
1001
0000
0000
0000
0000
0000
,
0001
0000
0000
1000
0000
0000
0001
0000
0000
0000
0110
0000
0000
0000
0000
0000
,
1000
0100
1000
0000
0001
0100
0001
0000
,
0010
0000
0000
0110
0000
0000
0100
0000
,
1001
0000
1000
0100
,
1000
0000
0001
0000
,
0010
0000
0001
0100
,
0001
0000
1000
0000
,
1001
0001
0010
0001
,
0100
0001
0100
0000
0010
1000
0010
0000
,
1000
0100
0010
0100
,
1000
0010
1000
0000
0001
0100
0001
0000
,
1000
0000
0100
0010
0000
0100
1000
0000
,
0001
0010
0001
1000
,
0010
0000
0100
0001
0000
0100
0010
0000
,
1000
0001
0010
0001
,
1000
0000
0010
0000
0100
0010
0100
0000
,
0001
0000
0010
0000
0100
0010
0100
0000
,
1000
0000
0010
1000
0001
0000
0010
0001
,
1000
0000
0000
1000
0000
0000
0010
0000
0000
0000
0110
0000
0000
0000
0000
0000
,
0001
1000
0001
2000
0000
3001
0200
0000
,
0300
0000
0000
0000
0001
0000
0000
0000
0010
0000
0000
0010
0000
0000
0010
0000
,
0001
1000
0010
0100
,
0010
1000
0001
0000
,
1000
0001
1000
0002
0000
1003
0200
0000
,
0300
0000
0000
0000
1000
0000
0000
0000
0010
0000
0000
0010
0000
0000
0010
0000
,
1000
0001
0010
0100
,
0010
0001
1000
0000
,
0010
0100
0010
0200
0000
0310
2000
0000
,
3000
0000
0000
0000
0001
0000
0000
0000
0010
0000
0000
0010
0000
0000
0010
0000
,
0100
1000
0001
0100
,
0001
1000
0100
0000
,
0010
0100
0010
0200
0000
0310
0002
0000
,
0003
0000
0000
0000
1000
0000
0000
0000
0010
0000
0000
0010
0000
0000
0010
0000
,
0100
0001
1000
0100
,
1000
0001
1000
0001
0000
0000
0000
0000
,
0110
0010
0100
0110
,
0010
0100
0001
1001
,
1000
0001
1001
1000
,
0001
0010
0110
0100
,
0010
0110
0100
0010
,
0001
1001
1000
0001
,
1001
1000
0001
0100
,
0010
0100
0010
0000
1000
0000
0010
0100
,
0010
1000
0001
0001
,
0010
0100
0010
0000
0001
0000
0010
0100
,
0010
0001
1000
1000
,
0100
0010
0100
0000
1000
0000
0100
0010
,
0100
1000
0001
0001
,
0100
0010
0100
0000
0001
1000
0001
0000
,
0010
0100
0010
0000
0002
0000
2003
0000
,
3010
0000
0000
0100
0000
0000
0010
0000
0000
0000
1001
0000
0000
0000
0000
0000
,
0100
0000
0000
0010
0000
0000
0100
0000
0000
0000
1001
0000
0000
0000
0000
0000
,
0010
0000
0000
0100
0000
0000
0010
0000
0000
0000
1001
0000
0000
0000
0000
0000
,
2000
3200
0320
0032
,
1003
0000
0000
0001
0000
0000
1000
0000
0000
0000
0110
0000
0000
0000
0000
0000
,
0001
0000
0000
1000
0000
0000
0001
0000
0000
0000
0110
0000
0000
0000
0000
0000
,
1000
0000
0000
0001
0000
0000
1000
0000
0000
0000
0110
0000
0000
0000
0000
0000
,
0002
0203
0320
2030
,
3000
2002
0000
0000
,
0000
0000
0000
0000
,
3003
0000
0000
0000
;

//--------------- dance-single - forcednature ----------------
#NOTEDATA:;
#STEPSTYPE:dance-single;
#DESCRIPTION:forcednature;
#DIFFICULTY:Medium;
#METER:13;
#RADARVALUES:0,0,0,0,0;
#CREDIT:forcednature;
#NOTES:
0000
0000
0000
0000
,
0000
0000
0000
0000
,
0000
0000
0000
0000
,
0000
0000
0000
0000
,
0000
0000
0000
0000
,
0000
0000
0000
0000
0000
0000
0000
1000
,
0100
1000
0001
0020
0000
0031
0200
0000
,
0000
0000
0310
0000
1000
0000
0001
0000
0100
0000
0000
0100
0000
0000
0010
0000
,
2000
0000
0000
3002
0000
0000
0000
0000
,
0000
0000
0000
0000
0000
0003
0000
0010
,
0100
1000
0100
0020
0000
0031
2000
0000
,
0000
0000
3010
0000
0100
0000
0001
0000
0010
0000
0000
0010
0000
0000
0001
0000
,
2000
0000
0000
3020
0000
0000
0000
0000
,
0000
0000
0000
0000
0000
0030
0000
0100
,
0001
1000
0001
0200
0000
0310
2000
0000
,
3001
0000
0010
0000
0100
0000
0010
0000
0001
0000
0000
0001
0000
0000
1000
0000
,
0100
0010
0100
0010
0001
1000
0001
1000
,
0010
0100
0001
1000
0020
0000
0000
0030
,
1000
0000
0100
1000
0000
0100
0010
0000
0000
0000
0011
0000
0000
0000
0000
0000
,
0001
0000
0100
0001
0000
0100
0010
0000
0000
0000
1010
0000
0000
0000
0000
0000
,
1000
0000
0001
1000
0000
0001
0010
0000
0000
0000
0110
0000
0000
0000
0000
0000
,
0001
0001
1000
1000
0010
0100
0001
0000
,
1000
0000
0100
1000
0000
0001
0010
0000
0000
0000
0110
0000
0000
0000
0000
0000
,
0001
0000
0100
0001
0000
1000
0010
0000
0000
0000
0110
0000
0000
0000
0000
0000
,
1000
0000
0001
1000
0000
0010
0100
0000
0000
0000
1001
0000
0000
0000
0000
0000
,
0001
0001
1000
1000
0010
0100
0001
0000
,
2002
0000
0000
3003
,
1000
0001
0010
0002
0000
1003
0001
0010
,
0002
0000
0000
0003
,
0001
1000
0010
2000
0000
3001
1000
0010
,
2000
0000
0000
3000
,
1000
0001
0100
0000
0001
1000
0100
0000
,
0110
0000
1001
0000
0001
0010
0100
0000
,
1000
0010
0100
0000
0001
1000
0100
0000
,
0110
0000
1001
0000
0001
0100
0010
0000
,
1000
0000
0100
1000
0100
0000
0010
0000
0000
0000
0001
0000
0100
0000
0001
0000
,
0000
1000
0010
1000
0001
0010
0000
0100
,
0010
0001
0100
0010
0000
1000
0001
0010
,
0000
0100
1000
0001
0100
0001
1000
0000
,
0010
0000
0100
0000
0001
0000
0010
0001
0000
0010
0100
0000
1000
0000
0000
0000
,
0010
0000
0100
0010
0000
0100
0001
0000
1000
0000
0010
0000
0100
0000
0001
0000
,
2000
0000
0100
0100
0100
0000
0001
0001
,
3001
0000
0000
1001
0000
0000
0110
0000
0000
0000
0001
0000
0100
0000
0000
0000
,
0001
1000
0001
1000
0001
0000
0200
0000
0000
0000
0310
0000
2000
0000
0000
0000
,
3000
0000
0001
0000
0010
0000
0100
0000
0110
0000
0000
0110
0000
0000
0001
0000
,
1000
0000
0001
0100
1000
0100
0001
0000
,
1000
0010
0001
0010
0100
0100
0001
0000
,
1000
0001
1000
0001
1000
0000
0200
0000
0000
0000
0310
0000
0002
0000
0000
0000
,
0003
0000
1000
0000
0010
0000
0100
0000
0110
0000
0000
0110
0000
0000
1000
0000
,
0001
0000
1000
0100
0001
0100
1000
0000
,
0001
0010
1000
0010
0100
0100
1000
0000
,
0010
0100
0010
0100
0010
0000
2000
0000
0000
0000
3001
0000
0020
0000
0000
0000
,
0030
0000
0001
0000
0100
0000
0010
0000
0110
0000
0000
0110
0000
0000
0001
0000
,
1000
0000
0001
0100
1000
0100
0001
0000
,
1000
0010
0001
0010
0100
0100
0001
0000
,
0010
0100
0010
0100
0010
0000
0002
0000
0000
0000
1003
0000
0020
0000
0000
0000
,
0030
0000
1000
0000
0100
0000
0010
0000
0110
0000
0000
0110
0000
0000
1000
0000
,
0001
0000
0001
0100
1000
0000
1000
0100
,
0001
0001
0010
0010
0000
0001
1000
0000
,
0010
0100
0010
0000
0100
0000
0001
0000
0000
0000
0001
0000
0010
0100
0010
0000
,
0100
0000
1000
0000
0000
0000
1000
0000
0001
1000
0001
0000
0100
0010
0100
0000
,
0001
0000
1000
0000
0000
0000
1000
0000
0100
0010
0100
0000
1000
0000
0001
0000
,
0000
0000
0001
0000
1000
0001
1000
0000
0010
0100
0010
0000
1000
0000
0001
0000
,
0000
0000
0001
0000
0010
0100
0010
0000
0001
0000
1000
0000
0000
0000
1000
0000
,
0100
0010
0100
0000
1000
0001
1000
0000
0010
0000
0100
0000
0000
0000
0100
0000
,
0001
1000
0001
0000
0010
0000
0100
0000
0000
0000
0100
0000
1000
0001
1000
0000
,
0010
0100
0001
0010
0100
1000
0010
0100
,
0001
0010
0100
1000
0010
0100
0110
0000
,
1000
0100
0010
0001
0100
0010
1000
0100
,
0010
0001
0100
0010
1000
0100
0110
0000
,
0001
0100
1000
0100
0001
0010
0001
0100
,
1000
0100
0001
0010
0001
0100
0110
0000
,
1000
0100
0001
0100
1000
0010
0001
0010
,
1000
0000
1000
0000
0001
0000
0001
0000
0100
0000
0010
0100
0020
0000
0000
0000
,
1030
0000
0001
0100
0000
0010
0100
0000
0000
0000
1001
0000
0000
0000
0000
0000
,
0001
0000
1000
0100
0000
0010
0100
0000
0000
0000
1001
0000
0000
0000
0000
0000
,
1000
0000
0010
0100
0000
0001
0100
0000
0000
0000
1001
0000
0000
0000
0000
0000
,
0001
0010
1000
0010
0001
0100
1000
0000
,
0100
0000
0001
0010
0000
0001
1000
0000
0000
0000
1100
0000
0000
0000
1000
0000
,
0100
0000
1000
0010
0000
1000
0001
0000
0000
0000
0101
0000
0000
0000
0001
0000
,
0010
0000
0001
1000
0000
0100
1000
0000
0000
0000
1010
0000
0000
0000
0010
0000
,
0100
0000
0100
0000
0001
0000
0001
0000
1000
0000
0010
0100
0000
0010
0100
0010
,
0000
2002
0000
0000
,
0000
0000
0000
0000
,
3003
0000
0000
0000
;

//--------------- dance-single - forcednature ----------------
#NOTEDATA:;
#STEPSTYPE:dance-single;
#DESCRIPTION:forcednature;
#DIFFICULTY:Hard;
#METER:17;
#RADARVALUES:0,0,0,0,0;
#CREDIT:forcednature;
#NOTES:
0000
0000
0000
0000
,
0000
0000
0000
0000
,
0000
0000
0000
0000
,
0000
0000
0000
0000
,
0000
0000
0000
0000
,
0000
0000
0000
0000
0000
0000
0000
0001
,
0100
0010
1000
0002
0000
0013
0200
0000
,
0000
0000
1300
0000
0001
0000
1000
0000
0200
0000
0000
0320
0000
0000
0032
0000
,
2003
0000
0000
3020
0000
0000
0000
0000
,
0000
0000
0000
0000
0000
0000
0000
0000
0000
0000
0000
0000
0030
0000
1000
0001
,
1000
0001
0010
0200
0000
1300
0020
0000
,
0000
0030
0100
0001
0100
0000
0010
0000
2000
0000
0000
3002
0000
0000
0023
0000
,
0230
0000
0000
2300
0000
0000
0000
0000
,
0000
0000
0000
0000
0000
0000
0000
0000
0000
0000
0000
0000
3000
0000
0001
1000
,
0001
0100
0001
0100
0010
1000
0010
1000
,
0001
0001
0010
0010
0100
0100
1000
1000
,
0001
0100
0001
0100
0010
0100
0010
0100
0001
1000
0001
1000
0010
1000
0010
1000
,
0001
1000
0001
1000
0001
1000
0001
1000
0020
0000
0000
0000
0000
0000
0000
0000
,
1030
0000
0100
0010
0000
0001
0010
0000
0000
0000
2100
0000
0000
0000
3001
0000
,
0001
0000
0100
0010
0000
1000
0010
0000
0000
0000
0102
0000
0000
0000
1003
0000
,
1000
0000
0100
0010
0000
0001
0100
0000
0000
0000
2010
0000
0000
0000
3001
0000
,
0010
0001
0010
0000
0100
0010
0100
0000
1000
0100
1000
0001
0010
0001
1000
0000
,
0100
0000
1000
0001
0000
0010
0001
0000
0000
0000
1200
0000
0000
0000
0310
0000
,
0010
0000
0001
1000
0000
0010
0100
0000
0000
0000
0201
0000
0000
0000
0310
0000
,
0010
0000
1000
0001
0000
0010
0100
0000
0000
0000
1200
0000
0000
0000
0310
0000
,
0100
0010
0100
0000
1000
0100
1000
0000
0001
0100
0010
0100
0001
1000
0010
0000
,
0100
0000
0000
0000
0000
0000
1001
0000
0000
0000
0000
0000
0001
0000
1000
0001
,
1000
0010
0100
0002
0000
1003
0010
0100
,
0002
0000
0000
0003
,
0001
0010
0100
2000
0000
3001
0010
0100
,
2000
0000
0000
3000
,
1001
0000
1000
0100
1000
0010
0100
0001
,
0010
0000
0200
0302
0203
2300
3002
0023
,
0031
0000
1000
0010
0100
0001
1000
0010
,
1000
0000
0002
0203
2300
3200
0302
0013
,
0001
0000
1000
0010
1000
0001
0200
0000
0000
0000
0301
0000
0010
0000
0002
0000
,
0000
0000
1003
0100
1000
0100
1000
0100
0010
0000
0001
0000
0100
0000
0001
0000
,
0010
0100
1000
0020
0000
0031
0010
2000
,
0000
0000
3001
0100
0001
0000
1000
0000
0010
0000
1000
0000
0100
0000
0010
0000
,
0110
0000
0000
0000
1000
0000
0001
0010
0000
0100
0010
0000
0001
0000
0100
0000
,
0110
0000
0000
0000
0010
1000
0010
0000
0100
0000
0001
0000
1000
0000
0001
0000
,
1000
0100
1000
0100
0010
0100
0010
0100
1000
0001
1000
0001
0010
0001
0010
0001
,
1000
0010
1000
0001
0100
0001
1000
0000
0000
0000
0110
0000
0000
0000
1000
0000
,
0001
0100
0010
1000
0010
0100
0002
0000
0000
0000
0013
0000
2001
0000
0000
0000
,
0000
0000
3100
0010
0001
0000
0010
0100
1000
0000
0000
1010
0000
0000
0101
0000
,
0001
1000
0100
1000
0001
0000
0100
0000
0001
0000
1000
0100
0010
0100
1000
0000
,
0001
0100
0010
0100
0001
0000
1000
0100
0010
0100
1000
0001
0010
0000
0001
1000
,
0100
0010
0001
1000
0001
0010
0200
0000
0000
0000
0310
0000
1002
0000
0000
0000
,
0000
0000
0103
0010
1000
0000
0010
0100
0001
0000
0000
0011
0000
0000
0101
0000
,
0100
0000
0010
1000
0001
0000
0021
0000
0000
0000
0130
1000
0100
0010
0001
0000
,
0100
0001
0100
0010
1000
0000
0100
1000
0100
0010
0001
1000
0001
0000
0100
0000
,
0010
0100
0001
1000
0001
0100
0020
0000
0000
0000
0130
0000
2001
0000
0000
0000
,
0000
0000
3001
0100
1000
0000
0100
0010
1000
0000
0010
0100
0000
0100
0001
0000
,
0100
0010
0100
0001
1000
0000
0001
0000
0100
0000
0001
0010
0100
0010
0001
0000
,
1000
0010
0100
0010
1000
0000
0001
0010
0100
0010
0001
1000
0010
0000
0100
0001
,
1000
0100
0010
0001
0010
0100
2000
0000
0000
0000
3010
0000
1002
0000
0000
0000
,
0003
0000
1000
0100
1000
0000
0001
0100
0001
0000
0000
0110
0000
0000
1001
0000
,
0001
0010
0100
1000
0001
0000
0200
0000
0010
0000
0010
0000
0001
0300
0001
0100
,
0010
0100
0010
1000
0001
0010
0100
1000
0000
0000
0000
0000
0000
0000
0000
0000
,
1001
1001
0001
0100
0000
0010
1001
1001
,
1000
0000
0100
0000
0000
0000
0010
0000
0100
0010
0100
1000
0001
0000
1001
0000
,
1000
0010
0000
0100
1001
1001
0001
0010
,
0000
0000
0100
0010
0100
1000
0001
0010
0001
0000
0101
0000
1000
0000
0010
0000
,
0000
0000
1000
0000
1100
0000
1100
0000
0001
0000
0010
0000
0000
0000
0001
0100
,
0001
1000
0010
1000
0001
0000
1001
0000
1000
0000
0100
0000
0000
0000
0010
0000
,
0110
0000
0110
0000
0001
0000
1000
0000
0000
0000
0010
0100
0001
0100
0010
1000
,
0001
0000
0010
0100
0010
0000
1000
0000
0010
0000
0001
0000
1000
0000
0010
0100
,
0010
0000
0001
0000
0010
0000
1000
0000
0001
0100
0010
1000
0010
0100
0001
0000
,
1000
0000
0100
0010
0100
0000
0001
0000
0100
0000
1000
0000
0001
0000
0100
0010
,
0100
0000
1000
0000
0100
0000
0001
0000
1000
0100
0010
0001
0010
0100
1000
0000
,
0001
0000
0100
0010
0100
0000
0001
0000
0000
0000
0001
0000
1000
0000
0100
0010
,
0100
0000
1000
0000
0000
0000
1000
0000
0001
0100
0010
0000
1000
0001
0010
0000
,
0100
1000
0100
1000
0001
0010
0001
0010
0100
1000
0100
1000
0001
0010
0001
0010
,
0001
1000
0001
1000
0001
1000
0001
1000
0010
0100
0010
0100
0001
1000
0010
0000
,
1000
0000
0001
0100
0000
1000
0100
0000
0000
0000
2010
0000
0000
0000
3001
0000
,
0001
0000
1000
0100
0000
0001
0100
0000
0000
0000
0012
0000
0000
0000
1003
0000
,
1000
0000
0001
0010
0000
1000
0010
0000
0000
0000
2100
0000
0000
0000
3001
0000
,
0100
0001
0100
0000
0010
0100
0010
0000
1000
0010
0100
0010
1000
0001
0100
0000
,
0010
0000
1000
0001
0000
0100
0010
0000
1000
0000
1020
0000
0100
0000
0130
0000
,
0100
0000
0010
1000
0000
0001
0010
0000
0001
0000
0021
0000
0100
0000
0130
0000
,
0100
0000
0010
0001
0000
0100
0010
0000
1000
0000
1020
0000
0100
0000
0130
0010
,
1000
0001
0100
0000
0001
1000
0100
0000
0010
0001
1000
0100
1000
0001
0010
0100
,
0000
2002
0000
0000
,
0000
0000
0000
0000
,
3003
0000
0000
0000
;

//--------------- dance-double - forcednature ----------------
#NOTEDATA:;
#STEPSTYPE:dance-double;
#DESCRIPTION:forcednature;
#DIFFICULTY:Easy;
#METER:10;
#RADARVALUES:0,0,0,0,0;
#CREDIT:forcednature;
#NOTES:
00000000
00000000
00000000
00000000
,
00000000
00000000
00000000
00000000
,
00000000
00000000
00000000
00000000
,
00000000
00000000
00000000
00000000
,
00000000
00000000
00000000
00000000
,
00000000
00000000
00000000
00000000
,
00002000
00000000
00000000
00023000
00000000
00000000
00030200
00000000
,
00000000
00002300
00003002
00000003
,
00000200
00000000
00000000
00000020
00000000
00000000
00000000
00000000
,
00000000
00000000
00000330
00000000
,
00002001
00000001
00000100
00000100
,
00000001
00000001
00003010
00010000
,
00002000
00010000
01000000
01000000
,
00010000
00010000
00103000
00010000
,
10000000
10000000
00100000
00100000
,
01000000
01000000
00010000
00010000
,
00100000
00010000
00100000
00000000
00001000
00010000
00001000
00000000
,
00010000
00000000
00001000
00010000
00002000
00000000
00000000
00000000
,
00013000
00000000
00000000
00010000
00000000
00000000
00001000
00000000
00000000
00000000
00011000
00000000
00000000
00000000
00000000
00000000
,
00100000
00000000
00000000
00100000
00000000
00000000
00010000
00000000
00000000
00000000
00110000
00000000
00000000
00000000
00000000
00000000
,
01000000
00000000
00000000
01000000
00000000
00000000
10000000
00000000
00000000
00000000
11000000
00000000
00000000
00000000
00000000
00000000
,
00010000
00100000
00010000
00000000
00100000
00001000
00010000
00000000
,
00001000
00000000
00000000
00010000
00000000
00000000
00001000
00000000
00000000
00000000
00010100
00000000
00000000
00000000
00000000
00000000
,
00010000
00000000
00000000
00001000
00000000
00000000
00010000
00000000
00000000
00000000
01001000
00000000
00000000
00000000
00000000
00000000
,
00001000
00000000
00000000
00010000
00000000
00000000
00001000
00000000
00000000
00000000
00010010
00000000
00000000
00000000
00000000
00000000
,
00000010
00001000
00000010
00000000
00000100
00000001
00000100
00000000
,
00000010
00000000
00000000
00000110
00000000
00000000
00000100
00000000
,
00001001
00000000
00001000
00000100
,
00010000
00000000
00001000
00000000
,
00100000
00000000
00010000
01000000
,
00001000
00000000
00010000
00000000
,
00011000
00000000
00001000
00100000
,
00010000
00100000
00010000
00000000
10000000
00100000
10000000
00000000
,
01000000
00010000
00001000
00010000
,
00001000
00010000
00001000
00000000
00010000
00000100
00010000
00000000
,
00000100
00000000
00001000
00000001
00000000
00000010
00000001
00000000
,
00001000
00000010
00010000
00001000
,
01000000
00000000
00010000
10000000
00000000
00010000
00100000
00000000
,
01000000
10000000
01000000
00010000
,
00001000
00000000
00100000
00000000
00010000
00100000
00010000
00000000
,
00100000
00000000
00001000
00000000
00010000
00001000
00010000
00000000
,
00000010
00000000
00001000
00000010
00001000
00000000
00000001
00000000
,
00000100
00000000
00000000
00000100
00000000
00000000
00000010
00000000
00000000
00000000
00000110
00000000
00000000
00000000
00000000
00000000
,
00001000
00000001
00001000
00000002
00000000
00001003
00000200
00000000
,
00000300
00000000
00000000
00000000
00010000
00000000
00000000
00000000
00001000
00000000
00000000
00001000
00000000
00000000
00001000
00000000
,
00100000
00010000
01000000
00010000
,
00100000
01000000
10000000
00000000
,
00010000
10000000
00010000
20000000
00000000
30010000
02000000
00000000
,
03000000
00000000
00000000
00000000
00001000
00000000
00000000
00000000
00010000
00000000
00000000
00010000
00000000
00000000
00010000
00000000
,
00000010
00001000
00000100
00001000
,
00000001
00000010
00000100
00000000
,
00001000
00000001
00001000
00000002
00000000
00000103
00000020
00000000
,
00000030
00000000
00000000
00000000
00001000
00000000
00000000
00000000
00000100
00000000
00000000
00000100
00000000
00000000
00000100
00000000
,
00010000
00001000
00100000
00010000
,
01000000
00100000
10000000
00000000
,
00010000
10000000
00010000
20000000
00000000
31000000
00200000
00000000
,
00300000
00000000
00000000
00000000
00010000
00000000
00000000
00000000
01000000
00000000
00000000
01000000
00000000
00000000
01000000
00000000
,
00001000
00010000
00000100
00001000
,
00000001
00000010
00000001
00000010
00000000
00000000
00000000
00000000
,
00000110
00000100
00010000
00011000
,
00001000
00100000
00010000
10010000
,
10000000
00100000
01100000
01000000
,
00001000
00010000
00011000
00001000
,
00010000
00010100
00000100
00001000
,
00000001
00000011
00000010
00000001
,
00000101
00000100
00000010
00001000
,
00000001
00000010
00000001
00000000
00000010
00000000
00000100
00001000
,
00000100
00010000
00001000
00001000
,
00100000
00010000
00100000
00000000
00010000
00000000
10000000
01000000
,
10000000
00010000
01000000
01000000
,
00100000
10000000
00100000
00000000
01000000
00000000
00100000
10000000
,
00100000
01000000
00001000
00001000
,
00010000
00001000
00010000
00000000
00000100
00001000
00000100
00000000
,
00000010
00000001
00000010
00000000
00000200
00000000
00002300
00000000
,
00003100
00000000
00000000
00010000
00000000
00000000
00001000
00000000
00000000
00000000
00011000
00000000
00000000
00000000
00000000
00000000
,
01000000
00000000
00000000
00001000
00000000
00000000
00010000
00000000
00000000
00000000
00011000
00000000
00000000
00000000
00000000
00000000
,
00000010
00000000
00000000
00010000
00000000
00000000
00001000
00000000
00000000
00000000
00011000
00000000
00000000
00000000
00000000
00000000
,
02000000
03020000
20030000
30200000
,
10300000
00000000
00000000
00010000
00000000
00000000
10000000
00000000
00000000
00000000
01100000
00000000
00000000
00000000
00000000
00000000
,
00010000
00000000
00000000
01000000
00000000
00000000
00001000
00000000
00000000
00000000
00011000
00000000
00000000
00000000
00000000
00000000
,
00010000
00000000
00000000
00000100
00000000
00000000
00001000
00000000
00000000
00000000
00001001
00000000
00000000
00000000
00000000
00000000
,
00000002
00000203
00002300
00023000
,
00030000
00022000
00000000
00000000
,
00000000
00000000
00000000
00000000
,
00033000
00000000
00000000
00000000
;

//--------------- dance-double - forcednature ----------------
#NOTEDATA:;
#STEPSTYPE:dance-double;
#DESCRIPTION:forcednature;
#DIFFICULTY:Medium;
#METER:14;
#RADARVALUES:0,0,0,0,0;
#CREDIT:forcednature;
#NOTES:
00000000
00000000
00000000
00000000
,
00000000
00000000
00000000
00000000
,
00000000
00000000
00000000
00000000
,
00000000
00000000
00000000
00000000
,
00000000
00000000
00000000
00000000
,
00000000
00000000
00000000
00000000
00000000
00000000
00000000
00001000
,
00010000
00001000
01000000
00020000
00000000
10030000
00200000
00000000
,
00000000
00000000
10300000
00000000
01000000
00000000
00010000
00000000
00001000
00000000
00000000
00001000
00000000
00000000
00010000
00000000
,
00002000
00000000
00000000
00003020
00000000
00000000
00000000
00000000
,
00000000
00000000
00000000
00000000
00000000
00000030
00000000
00000001
,
00001000
00000100
00001000
00000002
00000000
00000103
00002000
00000000
,
00000000
00000000
00013000
00000000
00001000
00000000
00010000
00000000
00100000
00000000
00000000
00100000
00000000
00000000
10000000
00000000
,
00020000
00000000
00000000
02030000
00000000
00000000
00000000
00000000
,
00000000
00000000
00000000
00000000
00000000
03000000
00000000
00100000
,
10000000
00010000
10000000
02000000
00000000
03010000
00002000
00000000
,
00103000
00000000
00010000
00000000
00100000
00000000
00001000
00000000
00010000
00000000
00000000
00010000
00000000
00000000
00000100
00000000
,
00001000
00000010
00001000
00000010
00000100
00000001
00000100
00000001
,
00000010
00000100
00010000
00001000
00000020
00000000
00000000
00000030
,
00000100
00000000
00001000
00000100
00000000
00010000
00001000
00000000
00000000
00000000
00110000
00000000
00000000
00000000
00000000
00000000
,
01000000
00000000
00010000
01000000
00000000
00001000
00010000
00000000
00000000
00000000
00001010
00000000
00000000
00000000
00000000
00000000
,
00000100
00000000
00001000
00000100
00000000
00010000
00001000
00000000
00000000
00000000
00110000
00000000
00000000
00000000
00000000
00000000
,
10000000
01000000
00010000
01000000
00100000
00001000
00010000
00000000
,
00000010
00000000
00001000
00000010
00000000
00010000
00001000
00000000
00000000
00000000
01010000
00000000
00000000
00000000
00000000
00000000
,
00100000
00000000
00010000
00100000
00000000
00001000
00010000
00000000
00000000
00000000
00001100
00000000
00000000
00000000
00000000
00000000
,
00000010
00000000
00001000
00000010
00000000
00010000
00001000
00000000
00000000
00000000
01010000
00000000
00000000
00000000
00000000
00000000
,
00001000
00010000
00000100
00010000
00001000
00000010
00000001
00000000
,
00002002
00000000
00000000
00003003
,
00001000
00000010
00000100
00000002
00000000
00001003
00000010
00000100
,
00000002
00000000
00000000
00000003
,
00000100
00001000
00010000
00002000
00000000
00003100
00001000
00010000
,
00002000
00000000
00000000
00003000
,
01000000
00010000
00100000
00000000
01000000
10000000
00100000
00000000
,
01100000
00000000
10010000
00000000
10000000
01000000
00010000
00000000
,
00001000
00010000
01000000
00000000
00010000
00001000
00000010
00000000
,
00000110
00000000
00001001
00000000
00000001
00000100
00001000
00000000
,
00010000
00000000
00001000
00010000
00001000
00000000
00200000
00000000
00000000
00000000
00310000
00000000
01000000
00000000
00020000
00000000
,
00000000
10030000
00100000
10000000
00010000
00100000
00000000
01000000
,
00010000
00001000
00000010
00000200
00000000
00001300
00000001
00000020
,
00000000
00000031
00000100
00000001
00001000
00000010
00001000
00000000
,
00000100
00000000
00001000
00000000
00000100
00000000
00010000
00001000
00000000
00100000
00010000
00000000
00100000
00000000
00000000
00000000
,
00001000
00000000
00010000
00001000
00000000
01000000
00010000
00000000
10000000
00000000
00100000
00000000
10000000
00000000
01000000
00000000
,
00020000
00000000
00001000
00001000
00001000
00000000
00000010
00000010
,
00030010
00000000
00000000
00001010
00000000
00000000
00000101
00000000
00000000
00000000
00000001
00000000
00000010
00000000
00000100
00000000
,
00001000
00000001
00001000
00000001
00001000
00000000
00000020
00000000
00000000
00000000
00010030
00000000
00002000
00000000
00000000
00000000
,
00003000
00000000
01000000
00000000
00010000
00000000
00100000
00000000
01100000
00000000
00000000
01100000
00000000
00000000
01000000
00000000
,
10000000
00000000
00010000
00100000
00001000
00010000
00100000
00000000
,
00010000
00001000
01000000
00010000
00100000
01000000
10000000
00000000
,
00010000
10000000
00010000
10000000
00010000
00000000
00200000
00000000
00000000
00000000
00301000
00000000
00020000
00000000
00000000
00000000
,
00030000
00000000
00000100
00000000
00001000
00000000
00000010
00000000
00000110
00000000
00000000
00000110
00000000
00000000
00000100
00000000
,
00000001
00000000
00001000
00000010
00010000
00001000
00000010
00000000
,
00001000
00010000
00000100
00001000
00000010
00000100
00000001
00000000
,
00001000
00000001
00001000
00000001
00001000
00000000
00000200
00000000
00000000
00000000
00010300
00000000
00002000
00000000
00000000
00000000
,
00003000
00000000
00100000
00000000
00010000
00000000
01000000
00000000
01100000
00000000
00000000
01100000
00000000
00000000
00100000
00000000
,
10000000
00000000
00010000
01000000
00001000
00010000
01000000
00000000
,
00010000
00001000
00100000
00010000
01000000
00100000
10000000
00000000
,
00010000
10000000
00010000
10000000
00010000
00000000
02000000
00000000
00000000
00000000
03001000
00000000
00020000
00000000
00000000
00000000
,
00030000
00000000
00000010
00000000
00001000
00000000
00000100
00000000
00000110
00000000
00000000
00000110
00000000
00000000
00000010
00000000
,
00000001
00000000
00001000
00000100
00010000
00001000
00000100
00000000
,
00001000
00010000
00100000
01000000
00000000
00010000
20000000
00000000
,
31000000
00100000
01000000
00000000
00100000
00000000
00010000
00000000
00000000
00000000
00100000
00000000
00010000
00100000
00001000
00000000
,
00010000
00000000
00000100
00000000
00000000
00000000
00001000
00000000
00000001
00001000
00000001
00000000
00000100
00000010
00000100
00000000
,
00000010
00000000
00001000
00000000
00000000
00000000
00000010
00000000
00001000
00000010
00010000
00000000
00001000
00000000
01000000
00000000
,
00000000
00000000
00010000
00000000
10000000
00010000
10000000
00000000
01000000
00100000
01000000
00000000
00100000
00000000
00010000
00000000
,
00000000
00000000
00100000
00000000
00010000
00100000
00001000
00000000
00010000
00000000
00000100
00000000
00000000
00000000
00001000
00000000
,
00000001
00001000
00000001
00000000
00000100
00000010
00000100
00000000
00000010
00000000
00001000
00000000
00000000
00000000
00000010
00000000
,
00001000
00000010
00010000
00000000
00001000
00000000
01000000
00000000
00000000
00000000
00010000
00000000
10000000
00010000
10000000
00000000
,
00100000
01000000
00010000
00100000
01000000
00010000
00001000
00000010
,
00000100
00010000
00001000
00000010
00000001
00000100
00000110
00000000
,
00000001
00000100
00001000
00010000
00000010
00001000
00000010
00010000
,
00100000
00010000
00001000
01000000
00010000
00100000
01100000
00000000
,
01000000
10000000
01000000
00010000
00001000
00100000
00010000
00100000
,
00001000
00000010
00000100
00010000
00001000
00000010
00000110
00000000
,
00000001
00000100
00001000
00010000
01000000
10000000
00100000
10000000
,
01000000
00000000
01000000
00000000
00010000
00000000
00010000
00000000
00001000
00000000
00010000
00001000
00020000
00000000
00000000
00000000
,
00030100
00000000
00001000
00000010
00000000
00010000
00001000
00000000
00000000
00000000
00110000
00000000
00000000
00000000
00000000
00000000
,
01000000
00000000
00010000
00100000
00000000
00001000
00010000
00000000
00000000
00000000
00001010
00000000
00000000
00000000
00000000
00000000
,
00000100
00000000
00001000
00000010
00000000
00010000
00001000
00000000
00000000
00000000
00110000
00000000
00000000
00000000
00000000
00000000
,
10000000
01000000
00010000
01000000
00010000
00001000
00000010
00000000
,
00000100
00000000
00001000
00000010
00000000
00010000
00001000
00000000
00000000
00000000
00110000
00000000
00000000
00000000
00010000
00000000
,
01000000
00000000
00010000
00100000
00000000
00001000
00010000
00000000
00000000
00000000
00001010
00000000
00000000
00000000
00001000
00000000
,
00000100
00000000
00001000
00000010
00000000
00010000
00001000
00000000
00000000
00000000
00110000
00000000
00000000
00000000
00010000
00000000
,
01000000
00000000
01000000
00000000
00010000
00000000
00010000
00000000
10000000
00000000
01000000
00100000
00000000
00010000
00100000
00010000
,
00000000
00202000
00000000
00000000
,
00000000
00000000
00000000
00000000
,
00303000
00000000
00000000
00000000
;

//--------------- dance-double - forcednature ----------------
#NOTEDATA:;
#STEPSTYPE:dance-double;
#DESCRIPTION:forcednature;
#DIFFICULTY:Hard;
#METER:17;
#RADARVALUES:0,0,0,0,0;
#CREDIT:forcednature;
#NOTES:
00000000
00000000
00000000
00000000
,
00000000
00000000
00000000
00000000
,
00000000
00000000
00000000
00000000
,
00000000
00000000
00000000
00000000
,
00000000
00000000
00000000
00000000
,
00000000
00000000
00000000
00000000
00000000
00000000
00000000
00001000
,
00010000
00001000
01000000
00020000
00000000
00130000
02000000
00000000
,
00000000
00000000
13000000
00000000
00100000
00000000
10000000
00000000
02000000
00000000
00000000
03020000
00000000
00000000
00032000
00000000
,
00003020
00000000
00000000
00000032
00000000
00000000
00000000
00000000
,
00000000
00000000
00000000
00000000
00000000
00000000
00000000
00000000
00000000
00000000
00000000
00000000
00000003
00000000
00001000
00000001
,
00001000
00000010
00000100
00000002
00000000
00001003
00000200
00000000
,
00000000
00000300
00010000
00001000
00010000
00000000
00001000
00000000
00200000
00000000
00000000
00320000
00000000
00000000
20030000
00000000
,
30200000
00000000
00000000
02300000
00000000
00000000
00000000
00000000
,
00000000
00000000
00000000
00000000
00000000
00000000
00000000
00000000
00000000
00000000
00000000
00000000
03000000
00000000
00010000
10000000
,
00010000
00100000
00010000
00100000
01000000
00010000
01000000
00010000
,
00001000
00000010
00001000
00000010
00000001
00000100
00000001
00000100
,
00000010
00001000
00000010
00001000
00000001
00000100
00000001
00000100
00000010
00001000
00000010
00001000
00000100
00010000
00000100
00010000
,
00001000
00010000
00001000
00010000
00001000
00010000
00001000
00010000
00002000
00000000
00000000
00000000
00000000
00000000
00000000
00000000
,
01003000
00000000
00010000
10000000
00000000
00010000
00100000
00000000
00000000
00000000
00012000
00000000
00000000
00000000
00013000
00000000
,
00000100
00000000
00001000
00000001
00000000
00001000
00000010
00000000
00000000
00000000
00021000
00000000
00000000
00000000
00031000
00000000
,
01000000
00000000
00010000
10000000
00000000
00010000
00100000
00000000
00000000
00000000
00012000
00000000
00000000
00000000
00013000
00000000
,
00000100
00001000
00000100
00000000
00000010
00000001
00000010
00000000
00000100
00001000
00000100
00010000
00001000
00100000
00010000
00000000
,
01000000
00000000
00010000
10000000
00000000
00010000
00100000
00000000
00000000
00000000
00012000
00000000
00000000
00000000
00013000
00000000
,
00000100
00000000
00001000
00000001
00000000
00001000
00000010
00000000
00000000
00000000
00021000
00000000
00000000
00000000
00031000
00000000
,
01000000
00000000
00010000
10000000
00000000
00010000
00100000
00000000
00000000
00000000
00012000
00000000
00000000
00000000
00013000
00000000
,
00000010
00001000
00000010
00000000
00000100
00000001
00000100
00000000
00000001
00000010
00000001
00000010
00000100
00001000
00000100
00000000
,
00010000
00000000
00000000
00000000
00000000
00000000
00011000
00000000
00000000
00000000
00000000
00000000
00001000
00000000
00010000
00001000
,
00010000
00001000
01000000
00020000
00000000
00130000
00001000
01000000
,
00020000
00000000
00000000
00030000
,
00100000
01000000
10000000
02000000
00000000
03010000
00001000
00010000
,
00000020
00000000
00000000
00000030
,
00001001
00000000
00000001
00000100
00000001
00000010
00000100
00010000
,
00000010
00000000
00000200
00002300
00023000
00230000
02300000
03020000
,
10030000
00000000
00100000
01000000
00010000
00100000
01000000
00010000
,
00001000
00000000
00200000
00320000
00032000
00003200
00000320
00000031
,
00001000
00000000
00000010
00001000
00000001
00000100
00000002
00000000
00000000
00000000
00000013
00000000
00000100
00000000
00020000
00000000
,
00000000
00000000
00031000
00100000
00001000
00100000
00001000
00100000
00010000
00000000
01000000
00000000
00100000
00000000
01000000
00000000
,
00010000
10000000
00100000
20000000
00000000
31000000
00010000
00002000
,
00000000
00000000
00103000
00010000
00100000
00000000
00001000
00000000
00010000
00000000
00000100
00000000
00001000
00000000
00000010
00000000
,
00000100
00000000
00000001
00000010
00000001
00000000
00000010
00000100
00000000
00001000
00000100
00000000
00010000
00000000
00001000
00000000
,
00011000
00000000
00010000
00001000
00000000
01000000
00010000
00000000
00100000
00000000
01000000
00000000
10000000
00000000
00100000
00000000
,
10000000
01000000
10000000
01000000
00100000
01000000
00100000
01000000
00100000
00010000
00100000
00010000
00100000
00001000
00100000
00001000
,
00010000
00000000
00000100
00001000
00000100
00000010
00000001
00000010
00000000
00000000
00000110
00000000
00000000
00000000
00001000
00000000
,
00000001
00000100
00000010
00001000
00000010
00000100
00000002
00000000
00000000
00000000
00000013
00000000
00002000
00000000
00000000
00000000
,
00000000
00003000
00010000
00001000
00010000
00000000
00001000
00100000
00010000
00000000
00000000
00110000
00000000
00000000
01100000
00000000
,
01000000
10000000
00010000
10000000
01000000
00000000
00010000
00000000
00001000
00000000
00100000
00010000
00100000
00001000
00010000
00000000
,
00000010
00001000
00000010
00010000
00001000
00000000
00100000
00010000
00100000
00001000
00010000
00001000
01000000
00000000
00010000
10000000
,
00100000
01000000
00010000
10000000
00010000
01000000
00200000
00000000
00000000
00000000
00310000
00000000
00002000
00000000
00000000
00000000
,
00000000
00003000
00010000
00001000
00010000
00000000
00000100
00001000
00000100
00000000
00000000
00000110
00000000
00000000
00000011
00000000
,
00000001
00000000
00000100
00000010
00001000
00000000
00002100
00000000
00000000
00003000
00000100
00001000
00000100
00010000
00001000
00000000
,
01000000
00010000
01000000
00001000
00010000
00000000
00000100
00001000
00000100
00010000
00001000
00010000
00000010
00000000
00001000
00000000
,
00000001
00000010
00000100
00001000
00000100
00000010
00000002
00000000
00000000
00000000
00000103
00000000
00002000
00000000
00000000
00000000
,
00000000
00003000
00010000
00001000
00100000
00000000
00010000
00100000
00001000
00000000
00010000
00001000
00000000
01000000
00010000
00000000
,
10000000
00100000
10000000
00010000
01000000
00000000
00010000
00000000
00100000
00000000
00010000
01000000
00001000
00010000
00000010
00000000
,
00001000
00000100
00010000
00001000
00100000
00000000
00010000
01000000
00001000
00010000
00000010
00001000
00000010
00000000
00000100
00000001
,
00001000
00000100
00000010
00000001
00000010
00000100
00002000
00000000
00000000
00000000
00003000
00000000
00020010
00000000
00000000
00000000
,
00030000
00000000
00100000
01000000
00010000
00000000
01000000
00100000
10000000
00000000
00000000
11000000
00000000
00000000
01100000
00000000
,
00100000
00010000
00100000
00001000
00010000
00000000
00000200
00000000
00001000
00000000
00001000
00000000
00000010
00000300
00000010
00000100
,
00000010
00000100
00001000
00000100
00010000
00001000
00100000
00010000
00000000
00000000
00000000
00000000
00000000
00000000
00000000
00000000
,
10010000
10000000
01000000
00010000
00000000
00010000
00011000
00001000
,
00000010
00000000
00000001
00000000
00000000
00000000
00000100
00000000
00000001
00001000
00000010
00000100
00000001
00000000
00000100
00000000
,
00001000
00000000
00010000
00000000
00000000
00000000
00001000
00000000
00011000
00000000
00010000
00000000
00100000
00000000
10000000
00010000
,
00000000
00010000
10000000
00100000
01000000
00010000
01000000
00100000
10000000
00000000
01000000
00000000
00010000
00000000
00001000
00000000
,
00000000
00000000
00010000
00000000
00011000
00000000
00001000
00000000
00000010
00000000
00000001
00001000
00000000
00000000
00000001
00000010
,
00000001
00001000
00000100
00001000
00000001
00000000
00000100
00000000
00001000
00000000
00010000
00000000
00000000
00000000
00001000
00000000
,
00011000
00000000
00010000
00000000
00100000
00000000
10000000
00010000
00000000
00000000
10000000
01000000
10000000
00010000
00100000
00010000
,
10000000
00000000
01000000
00100000
01000000
00000000
00010000
00000000
00001000
00000000
00100000
00000000
00001000
00000000
00010000
00000100
,
00010000
00000000
00001000
00000000
00000010
00000000
00000001
00000000
00001000
00000010
00000100
00000001
00000100
00000010
00001000
00000000
,
00000001
00000000
00000100
00000010
00000100
00000000
00001000
00000000
00010000
00000000
00000010
00000000
00001000
00000000
00000100
00001000
,
00000100
00000000
00010000
00000000
00001000
00000000
00100000
00000000
00010000
01000000
00100000
10000000
00100000
01000000
00010000
00000000
,
10000000
00000000
01000000
00100000
01000000
00000000
00010000
00000000
00000000
00000000
00010000
00000000
00001000
00000000
00000010
00000100
,
00000010
00000000
00000001
00000000
00000000
00000000
00000001
00000000
00000100
00000010
00001000
00000000
00000100
00000010
00000001
00000000
,
00001000
00000010
00001000
00000010
00010000
00001000
00010000
00001000
01000000
00010000
01000000
00010000
10000000
01000000
10000000
01000000
,
00100000
01000000
00100000
01000000
00100000
00010000
00100000
00010000
00100000
00001000
00010000
00000100
00001000
00000100
00010000
00000000
,
00001000
00000000
00000010
00000001
00000000
00000100
00000001
00000000
00000000
00000000
00020010
00000000
00000000
00000000
00031000
00000000
,
00010000
00000000
00100000
10000000
00000000
01000000
10000000
00000000
00000000
00000000
00102000
00000000
00000000
00000000
00013000
00000000
,
00001000
00000000
00000010
00000001
00000000
00000100
00000001
00000000
00000000
00000000
00020010
00000000
00000000
00000000
00031000
00000000
,
00010000
00100000
00010000
00000000
00100000
10000000
00100000
00000000
10000000
01000000
00100000
01000000
00100000
00010000
00100000
00001000
,
00010000
00000000
00100000
10000000
00000000
01000000
10000000
00000000
00010000
00000000
00102000
00000000
00100000
00000000
00013000
00000000
,
00001000
00000000
00000010
00000001
00000000
00000100
00000001
00000000
00001000
00000000
00020010
00000000
00000010
00000000
00031000
00000000
,
00010000
00000000
00100000
10000000
00000000
01000000
10000000
00000000
00010000
00000000
00102000
00000000
00100000
00000000
00013000
00000000
,
00001000
00010000
00000100
00000000
00010000
00001000
00100000
00000000
00001000
00010000
00000010
00001000
00000010
00010000
00001000
01000000
,
00000000
20020000
00000000
00000000
,
00000000
00000000
00000000
00000000
,
30030000
00000000
00000000
00000000
;
