#VERSION:0.83;
#TITLE:少年は空を辿る;
#SUBTITLE:;
#ARTIST:Power Of Nature;
#TITLETRANSLIT:Shounen wa sora wo tadoru;
#SUBTITLETRANSLIT:;
#ARTISTTRANSLIT:;
#GENRE:MURAKUMO;
#CREDIT:;
#MUSIC:Shounen wa sora wo tadoru.ogg;
#BANNER:Shounen wa sora wo tadoru.png;
#BACKGROUND:Shounen wa sora wo tadoru-bg.png;
#CDTITLE:./CDTitles/pnm 20 fantasia.png;
#SAMPLESTART:77.704;
#SAMPLELENGTH:15.000;
#SELECTABLE:YES;
#OFFSET:1.359;
#BPMS:0.000=140.000;
#STOPS:;
#TIMESIGNATURES:67.000=3=4,
71.000=4=4,
91.000=7=4,
119.000=4=4,
123.000=3=4,
126.000=4=4,
170.000=7=4,
177.000=4=4
;
#BGCHANGES:0.000=../BGAs/22wh.mp4=1.000=0=0=0=StretchNoLoop====,
99999.000=-nosongbg-=1.000=0=0=0=StretchNoLoop====
;
#FGCHANGES:;

//--------------- dance-single - forcednature ----------------
#NOTEDATA:;
#STEPSTYPE:dance-single;
#DESCRIPTION:forcednature;
#DIFFICULTY:Beginner;
#METER:5;
#RADARVALUES:0,0,0,0,0;
#CREDIT:forcednature;
#NOTES:
0000
0000
0000
0000
,
0000
0000
0000
0000
,
0000
0000
0000
0000
,
0000
0000
0000
0000
,
0000
0000
0000
0000
,
0000
0000
0000
0000
,
0001
0000
0000
0000
0000
0000
0000
0000
0000
0000
0000
0001
0000
0000
0000
0000
,
0000
0000
0000
0000
0000
0001
0000
0000
0000
0000
0000
0000
0000
0000
0000
0000
,
1000
0000
0000
0000
0000
0000
0000
0100
,
0000
0000
0000
0110
,
0000
0000
0000
0000
,
0001
0000
0100
0000
,
0001
0000
1000
0000
,
0010
0000
0000
0000
,
0100
0000
0000
0001
,
0000
0000
0000
1000
,
0000
0000
0000
0000
0000
0000
0000
0100
,
0000
0000
0000
0000
0000
0000
0000
0010
,
0000
0000
0000
0000
0000
0001
0000
0000
,
0000
0000
0000
0000
0000
1000
0000
0000
,
0000
0000
0000
0010
,
0000
0010
0000
0100
,
0000
0001
0000
1001
,
0000
0000
0000
1000
,
0000
0100
0000
0000
,
0000
0000
0010
0000
,
0001
0000
0100
0000
0000
0100
0000
0000
,
0000
0010
0000
0000
0000
0010
0000
0000
,
0100
0000
0000
0000
0100
0000
0000
0010
,
0000
0000
0000
0010
0000
0000
0000
1000
,
0000
1000
0000
1000
0000
0000
0000
0001
,
0000
0001
0000
1001
0000
0000
0000
0000
,
0000
0000
0000
0000
,
0000
0000
0000
0000
,
0000
0000
0000
1000
0000
0000
0000
0100
,
0000
0000
0000
0010
0000
0000
0000
0001
,
0000
1000
0000
0001
0000
0000
0000
0100
,
0000
0000
0000
0010
0000
0000
0000
1000
,
0000
0001
0000
1000
0000
0000
0000
0000
,
0000
0100
0000
0110
0000
0000
0000
0010
,
0000
0001
0000
1000
0000
0000
0000
0010
,
0000
0100
0000
0001
0000
0000
0000
1000
,
0000
1000
0000
0001
0000
0000
0000
0010
,
0000
0100
0000
1000
,
0000
1001
0000
0000
0000
0000
0000
0000
,
0220
0000
0000
0330
0000
0000
0000
0000
,
0000
1000
0000
0000
0000
0100
0000
1000
,
0000
0001
0000
0000
0000
0010
0000
0000
,
0000
0001
0000
0000
0000
0100
0000
0001
,
0000
1000
0000
0000
0000
0010
0000
0000
,
0000
1000
0000
1000
0000
1000
0000
0000
,
0000
0100
0000
0100
0000
0100
0000
0000
,
0000
0010
0000
0010
0000
0010
0000
0000
,
0000
0001
0000
0001
0000
0001
0000
0000
,
0000
1000
0000
0010
0000
1000
0000
0000
,
0000
0010
0000
0100
0000
0010
0000
0000
,
0000
0100
0000
0001
0000
0100
0000
0000
,
0000
0001
0000
1000
0000
0001
0000
0000
,
0000
0010
0000
0100
0000
1000
0000
0000
,
0000
0100
0000
0010
0000
0001
0000
0000
,
0000
1000
0000
0010
0000
0100
0000
0000
,
0000
0001
0000
0010
0000
0001
0000
0010
,
0000
0100
0000
0010
0000
0100
0000
0000
,
0000
1000
0000
0010
0000
1000
0000
0010
,
0000
0100
0000
0010
0000
0100
0000
0000
,
0000
0001
0000
1000
0000
0001
0000
1000
,
0000
0100
0000
0010
0000
0100
0000
0000
,
0000
1000
0000
0001
0000
1000
0000
0001
,
0000
0100
0000
0010
0000
0100
0000
0000
,
0000
1001
0000
0000
0000
0000
0000
1000
,
0000
0100
0000
0000
0000
0010
0000
0000
,
0000
0001
0000
0000
0000
0000
0000
0100
,
0000
0100
0000
0000
0000
0010
0000
0000
,
0000
1001
0000
0000
0000
0000
0000
0001
,
0000
0100
0000
0000
0000
0010
0000
0000
,
0000
1000
0000
0000
0000
0000
0000
0100
,
0000
0100
0000
0000
0000
0010
0000
0000
;

//--------------- dance-single - forcednature ----------------
#NOTEDATA:;
#STEPSTYPE:dance-single;
#DESCRIPTION:forcednature;
#DIFFICULTY:Easy;
#METER:9;
#RADARVALUES:0,0,0,0,0;
#CREDIT:forcednature;
#NOTES:
0000
0000
0000
0000
,
0000
0000
0000
0000
,
0000
0000
0000
0000
,
0000
0000
0000
0000
,
0000
0000
0000
0000
,
0000
0000
0000
0000
,
0001
0000
0000
0000
0000
0000
1000
0000
0000
0000
0000
0001
0000
0000
0000
0000
,
0000
1000
0000
0000
0000
0001
0000
0000
0000
0000
0000
1000
0000
0000
0000
0000
,
0010
0000
0100
0000
0001
0000
0000
0010
,
0000
0100
0000
1000
0000
0000
2002
0000
,
0000
3003
0000
0001
,
1000
0010
1000
0001
,
0010
0001
0100
0010
,
2000
0000
3200
0000
,
0320
0000
0032
0103
,
0010
1000
0010
0100
,
0001
0000
1000
0000
0001
0000
0000
0020
,
0000
0000
0000
0230
0000
0000
0000
2300
,
0000
0000
0000
3002
0000
0103
0000
0010
,
0000
1000
0000
0010
0000
0100
0000
0001
,
0000
1000
0000
0001
0000
0000
1000
0001
,
0000
1000
0000
0001
0000
1000
0000
0000
0001
0000
0000
0000
0100
0000
0010
0000
,
0000
0100
0000
0010
0000
0000
0100
0000
0010
0000
0000
0000
1001
0000
0000
0000
,
1000
0100
0010
0000
0100
0000
1000
0000
,
0001
0000
0010
0001
1000
0000
0001
0100
,
0010
1000
0001
1000
,
0100
0000
0100
0000
0010
0000
0000
0000
0001
0000
0000
0001
0000
0000
0000
0000
,
1000
0000
0010
0000
0000
0000
0100
0000
0000
0100
0000
0000
0000
0000
0001
0000
,
0010
0000
0000
0000
0001
0000
0000
0001
0000
0000
1000
0000
0010
0000
1000
0000
,
0000
0000
0100
0000
0000
0100
0000
0000
0010
0000
0001
0000
0000
0000
1000
0000
,
0000
1001
0000
0110
0000
0001
1000
0001
,
0000
0110
0000
2002
0000
0000
0000
0000
,
0000
0000
0000
3003
0000
0000
0000
0000
,
0000
0000
0000
0000
,
0000
0000
0000
1000
0100
1000
0000
0100
,
0010
0100
0000
0010
0001
0010
0000
0100
,
0000
1001
0000
0001
0100
0001
0000
0100
,
0010
0100
0000
0010
1000
0010
0000
0100
,
0000
1001
0000
0000
0000
0000
0000
0000
,
0000
0000
0000
0110
0000
1000
0001
1000
,
0000
0110
0000
0000
0001
0100
0001
0000
,
1000
0100
1000
0000
0010
0100
0100
0010
,
0000
0000
0110
0000
0000
0000
1000
0000
0001
0000
0000
1000
0000
0001
0000
1000
,
0000
0000
0001
0000
0100
0000
0010
0000
0000
0100
0000
0010
0000
0100
0000
0000
,
0010
2002
0000
0000
0000
0000
0000
0000
,
3003
0000
0000
0000
,
0000
1000
0100
1000
0000
0001
0010
0001
,
0000
1000
0100
1000
0000
0001
0010
0001
,
0000
1000
0010
1000
0000
0001
0100
0001
,
0000
1000
0010
1000
0000
0001
0100
0001
,
0000
0010
0100
1000
0000
0010
0100
0001
,
0000
0100
0010
1000
0000
0100
0010
0001
,
0000
1000
0100
0001
0000
0001
0100
1000
,
0000
0010
0000
0100
0000
0110
0000
1001
,
0000
0000
0000
0001
0000
0000
0000
0000
0000
0000
0000
0001
0000
0000
0000
0100
0000
0000
0000
0000
0000
0000
0000
0100
,
0000
0000
0000
0010
0000
0000
0000
0000
0000
0000
0000
0010
0000
0000
0000
1000
0000
0000
0000
0000
0000
0000
0000
1000
,
0000
0000
0000
0100
0000
0000
0000
0000
0000
0000
0000
0100
0000
0000
0000
0010
0000
0000
0000
0000
0000
0000
0000
0010
,
0000
0000
0000
0001
0000
0000
0000
0000
0000
0000
0000
0001
0000
0000
0000
0100
0000
0000
0000
0000
0000
0000
0000
0100
,
0000
0000
0000
0010
0000
0000
0000
1000
0000
0000
0000
0010
0000
0000
0000
0100
0000
0000
0000
0001
0000
0000
0000
0100
,
0000
0000
0000
0001
0000
0000
0000
0010
0000
0000
0000
0001
0000
0000
0000
1000
0000
0000
0000
0100
0000
0000
0000
1000
,
0000
0000
0000
0010
0000
0000
0000
0100
0000
0000
0000
0010
0000
0000
0000
1000
0000
0000
0000
0001
0000
0000
0000
1000
,
0000
0100
0010
0100
0000
0010
0001
0010
,
0000
0100
1000
0100
0000
0010
0001
1000
,
0000
0001
0100
0001
0000
1000
0010
1000
,
0000
0001
0010
0001
0000
1000
0100
1000
,
0000
0010
0100
0010
0000
1000
0001
1000
,
0000
0100
1000
0001
0000
0100
0001
1000
,
0000
0000
0010
0000
0000
0100
0000
0000
0001
0000
0000
1000
0000
0000
0010
0000
,
0000
0000
1001
0000
0000
0100
0000
0000
0110
0000
0000
0010
0000
0000
1001
0000
,
0000
0220
0000
0000
0330
0000
0000
1000
,
0001
1000
0000
0000
0000
0100
0000
0000
,
0000
0010
0000
0000
0000
0000
0000
0001
,
0000
0001
0000
0000
0000
0100
0000
0000
,
0000
1001
0000
0000
0000
0000
0000
0001
,
1000
0001
0000
0000
0000
0100
0000
0000
,
0000
0010
0000
0000
0000
0000
0000
1000
,
0000
1000
0000
0000
0000
0100
0000
0000
;

//--------------- dance-single - forcednature ----------------
#NOTEDATA:;
#STEPSTYPE:dance-single;
#DESCRIPTION:forcednature;
#DIFFICULTY:Medium;
#METER:12;
#RADARVALUES:0,0,0,0,0;
#CREDIT:forcednature;
#NOTES:
0000
0000
0000
0000
,
0000
0000
0000
0000
,
0000
0000
0000
0000
,
0000
0000
0000
0000
,
0000
0000
0000
0000
,
0000
0000
0000
0000
,
1001
0000
0000
0000
0000
0000
0101
0000
0000
0000
0000
1001
0000
0000
0000
0000
,
0000
1100
0000
0000
0000
1001
0000
0000
0000
0000
0000
0110
0000
0000
0000
0000
,
1000
0000
0001
0000
0000
0100
0000
0001
0000
0100
0000
0000
0001
0000
1000
0000
,
0100
0000
0000
1000
0000
0001
0000
0010
0000
0000
0001
0000
0200
0000
0000
0000
,
0000
0000
0000
0300
,
0010
1000
0010
0100
0001
0100
0010
0000
,
1000
0001
0010
0001
1000
0100
0010
0000
,
0002
0100
0203
0010
,
0320
1000
2030
3002
,
0010
0000
1000
1000
1000
0000
0100
0000
,
1000
1000
1000
0000
0013
0000
0001
2000
,
0000
0010
0000
3020
0000
0100
0000
0230
,
0000
0001
0000
0302
0000
2003
0000
0001
,
0000
0100
0100
0100
0000
0001
0000
0010
,
0010
0010
0000
3001
1000
0000
0001
0001
,
0000
0100
0000
0001
0000
1000
0000
0000
0010
0000
1000
0000
0100
0000
1000
0000
,
0000
0001
0000
0010
0000
0000
0001
0000
1000
0000
0010
0000
0100
0000
0000
0000
,
0001
0010
0001
0010
0100
0000
1000
0001
,
0100
0000
0001
1000
0010
0000
1000
0001
,
0010
0001
1000
0000
0100
0010
0001
0000
,
1000
0000
0010
0000
0110
0000
0000
0000
0001
0000
0000
0011
0000
0000
1000
0000
,
0100
0000
1000
0000
0000
0000
0010
0000
0000
0110
0000
0000
0001
0000
1000
0000
,
0100
0000
0000
0000
1000
0000
0000
0011
0000
0000
0001
0000
1000
0000
0010
0000
,
0000
0000
0100
0000
0000
1010
0000
0000
0001
0000
0010
0000
0100
0000
2000
0000
,
0000
3020
0000
0230
0000
0301
1000
0001
,
0010
0001
0000
2002
0000
0000
0000
0000
,
0000
0000
0000
3003
0000
0000
0000
0000
,
0000
0000
0000
0000
,
0001
0000
0000
1000
0000
0000
0001
0000
1000
0000
0000
0000
0010
0000
0000
0000
0100
0000
0000
0000
0001
0000
0000
0000
0100
0000
0000
0000
0000
0000
0000
0000
,
0010
1000
0001
0000
0010
0100
1000
0000
,
0100
0000
0000
1000
0000
0000
0100
0000
1000
0000
0100
0000
0000
0000
0000
0000
0010
0000
0000
0000
0001
0000
0000
0000
1000
0000
0000
0000
0000
0000
0000
0000
,
0010
0100
0001
0000
0010
0001
1000
0000
,
0001
0000
0000
0100
0000
0000
0001
0000
0100
0000
0001
0000
0000
0000
0000
0000
0000
0000
0000
0000
0000
0000
0000
0000
0000
0000
0000
0000
0000
0000
0000
0000
,
0000
0010
0010
1001
0000
0001
0100
0010
,
0100
0000
0000
0001
0000
0000
0100
0000
0001
0000
0100
0000
0000
0000
0000
0000
0010
0000
0000
0000
1000
0000
0000
0000
0001
0000
0000
0000
0000
0000
0000
0000
,
0010
0100
1000
0000
0001
0100
0001
0000
,
1000
0000
0000
0010
0000
0000
1000
0000
0010
0000
1000
0000
0000
0000
0000
0000
0001
0000
0000
0000
0000
0000
0001
0000
0000
0000
0010
0000
0000
0000
0100
0000
,
0000
0000
1000
0000
0001
0000
1000
0000
0000
1000
0000
0010
0000
0100
0000
0000
,
0001
1001
0000
0000
0000
0000
0000
0000
,
0220
0000
0000
0330
0000
0000
0000
0000
,
0000
0001
0100
0001
1000
0010
1000
0001
,
0000
0010
0100
1000
0000
0100
0010
0001
,
0000
1000
0100
1000
0001
0010
0001
1000
,
0000
0010
0100
0001
0000
0100
0010
1000
,
0000
0001
0010
0100
0010
0001
1000
1100
,
0000
1000
0010
0100
0001
0100
0010
1010
,
0000
0001
0010
0001
1000
0010
1000
1100
,
0000
2000
0000
3020
0000
0230
0000
0302
,
0000
0000
0000
1003
0000
0000
0000
0100
0000
0000
0000
0020
0000
0000
0000
0031
0000
0000
0000
0100
0000
0000
0000
0020
,
0000
0000
0000
1030
0000
0000
0000
0001
0000
0000
0000
0020
0000
0000
0000
0130
0000
0000
0000
1000
0000
0000
0000
0002
,
0000
0000
0000
0103
0000
0000
0000
0010
0000
0000
0000
2000
0000
0000
0000
3100
0000
0000
0000
0010
0000
0000
0000
0002
,
0000
0000
0000
1003
0000
0000
0000
0010
0000
0000
0000
0200
0000
0000
0000
0301
0000
0000
0000
0010
0000
0000
0000
0200
,
0000
0000
0000
1300
0000
0100
0000
1000
0000
0001
0000
0010
0000
0000
0000
0001
0000
0100
0000
0001
0000
1000
0000
0010
,
0000
0000
0000
0100
0000
0001
0000
1000
0000
0001
0000
0010
0000
0000
0000
0100
0000
1000
0000
0001
0000
1000
0000
0010
,
0000
0000
0000
0100
0000
0001
0000
1000
0000
0100
0000
1000
0000
0000
0000
0010
0000
1000
0000
0001
0000
0010
0000
0001
,
0000
1000
0010
0100
0001
0100
0010
1000
,
0001
0000
0010
0001
0010
0000
0100
0000
1000
0000
0010
1000
0010
0000
0100
0000
,
0100
0001
0010
0001
0100
0010
1000
0100
,
0010
0000
0100
1000
0100
0000
0010
0000
0001
0000
0100
0001
0100
0000
0010
0000
,
0010
1000
0001
0100
0010
0100
0001
0010
,
0100
0000
1000
0100
1000
0000
0001
0000
0010
0000
0001
0100
0001
0000
0010
0000
,
0010
0000
1001
0000
0000
0100
0000
0000
0110
0000
0000
0010
0000
0000
1001
0000
,
0000
0000
1100
0000
0000
0011
0000
0000
0101
0000
0000
1010
0000
0000
1000
0001
,
1000
0001
0020
0000
0000
0000
0000
0000
0030
0000
0000
0000
0000
0000
0001
0000
,
0010
0100
0000
0000
0000
1000
0000
0000
,
0000
0010
0000
0000
0000
0000
0000
0100
,
0000
0100
0000
0000
0000
0001
0000
0000
,
0000
1001
0000
0000
0000
0000
0000
1000
,
0010
0100
0000
0000
0000
0001
0000
0000
,
0000
0010
0000
0000
0000
0000
0000
0001
,
0000
0001
0000
0000
0000
0100
0000
0000
;

//--------------- dance-single - forcednature ----------------
#NOTEDATA:;
#STEPSTYPE:dance-single;
#DESCRIPTION:forcednature;
#DIFFICULTY:Hard;
#METER:15;
#RADARVALUES:0,0,0,0,0;
#CREDIT:forcednature;
#NOTES:
0000
0000
0000
0000
,
0000
0000
0000
0000
,
0000
0000
0000
0000
,
0000
0000
0000
0000
,
0000
0000
0000
0000
,
0000
0000
0000
0000
,
1000
0001
0000
0000
0000
0000
1000
0001
0000
0000
0000
1000
0001
0000
0000
0000
,
0000
1000
0001
0000
0000
1000
0001
0000
0000
0000
0000
1000
0001
0000
0000
0000
,
1000
0000
0100
0000
0010
0100
0000
1000
0000
0001
0000
0000
0010
0001
1000
0000
,
0001
0000
0100
0010
0000
1000
0000
0010
0000
0000
0100
0001
2000
0000
0000
0000
,
0000
0000
0001
0001
3001
0000
1001
0000
,
1000
0100
0010
0100
1000
0001
0010
0001
,
1000
0000
0010
0000
0001
0000
0010
0000
0100
0000
0001
0000
1000
0010
1000
0000
,
0002
0000
0013
0100
2000
0000
0010
0000
,
3200
0000
0000
0000
0310
0000
0001
0000
1000
0000
0000
0001
0200
0000
0000
0000
,
1000
1000
1000
0000
0010
0000
0301
0100
,
0010
0000
0000
0010
1000
0000
0001
0000
0010
0000
0010
0000
0000
0000
0002
0000
,
0000
0103
0010
2000
0000
3100
0010
0002
,
0000
1003
0010
0200
0000
0302
0000
0010
,
0000
1000
1000
1000
0000
0103
0001
0010
,
0000
0000
0100
0000
0000
0100
1000
0000
0001
0000
0100
0000
0010
0000
0110
0000
,
0000
0100
0000
0001
0000
0011
0000
0000
0001
0000
0100
0001
0010
0000
0110
0000
,
0000
0100
0000
1100
0000
0000
1010
0000
1010
0000
0010
0100
0001
0000
0010
0001
,
0010
0000
0100
0010
0100
0000
1000
0100
1000
0000
0001
0000
0100
0010
1000
0000
,
0010
0100
0001
0000
1000
0100
1000
0001
0000
0000
0010
0100
0010
0000
0001
0010
,
0001
0000
1000
0100
1000
0000
0010
0000
1000
0001
0100
0000
0001
1000
0100
0000
,
1000
0001
0010
0001
1000
0000
0010
0100
0001
0000
0100
1000
0000
0000
0100
0000
,
0001
0000
1000
0000
0100
0010
0100
1000
0100
0001
0000
0000
0100
0000
1000
0000
,
0001
0100
0001
1000
0100
1000
0010
0100
0000
0000
0001
0000
1001
0000
1000
0100
,
1000
0001
0100
0001
0010
0100
0000
0000
1000
0001
1000
0010
0100
0000
0002
0000
,
0010
0000
0023
0000
0100
0000
0230
0000
1000
0000
1300
0001
0010
0100
2000
0000
,
3020
0032
0003
2002
0000
0000
0000
0000
,
0000
0000
0000
3003
0000
0000
0000
0000
,
0000
0000
0000
0000
0000
0000
0000
0000
0000
0000
0000
0000
0000
0000
0001
1000
,
0001
0000
0000
1000
0000
0000
0001
0000
1000
0000
0000
0000
0001
0000
1000
0000
0100
0000
0010
0000
0000
0000
0001
0000
0010
0000
0001
0000
0000
0000
0100
0000
,
0001
0000
0100
0010
1000
0010
0000
1000
0100
0000
1000
0001
0010
0001
0000
0000
,
1000
0000
0000
0010
0000
0000
0100
0000
0001
0000
1000
0000
0000
0000
0001
0000
0100
0000
0010
0000
0000
0000
1000
0000
0010
0000
1000
0000
0000
0000
0100
0000
,
1000
0000
0100
0010
0001
0010
0000
0001
0100
0000
0001
1000
0010
1000
0000
0000
,
0001
0000
0000
0010
0000
0000
0100
0000
1000
0000
0001
0000
2000
0000
0000
0000
0000
0000
3020
0000
0000
0000
0000
0000
0230
0000
0000
0000
0000
0000
0000
0000
,
0001
0000
0301
0100
0001
1000
0000
0001
0010
0000
0001
1000
0100
1000
0000
0000
,
0001
0000
0000
0100
0000
0000
0010
0000
1000
0000
0001
0000
0000
0000
1000
0000
0010
0000
0100
0000
0000
0000
0001
0000
0100
0000
0001
0000
0000
0000
0010
0000
,
0001
0000
0010
0100
1000
0100
0000
1000
0010
0000
1000
0001
0100
0001
0000
0000
,
1000
0000
0000
0100
0000
0000
0010
0000
0001
0000
1000
0000
0001
0000
0000
0000
0101
0000
0000
0000
0000
0000
0100
0000
0000
0000
0010
0000
0000
0000
1010
0000
,
0000
0000
1000
0001
0010
0000
0110
0000
0000
0100
0000
1000
0000
1010
0000
0000
,
0010
0100
0002
0000
0000
0000
0010
0000
0010
0000
0000
0000
1003
0000
1000
0000
,
2002
0000
0000
3003
0000
0000
0001
0000
0100
0000
0010
0000
1000
0000
0001
0000
,
0010
0001
0100
0010
1000
0001
0100
0010
,
1000
0001
0100
0010
1000
0001
0100
0010
,
1000
0001
0010
0100
1000
0001
0010
0100
,
1000
0001
0010
0100
1000
0001
0010
0100
,
1000
0000
0001
0100
0000
0001
0010
0000
0100
1000
0000
0100
0010
0000
0001
0000
,
1000
0000
0010
0100
0000
0001
0010
0000
0100
0010
0000
0001
1000
0000
0010
0000
,
0100
0000
0001
1000
0000
0100
1000
0000
0010
0100
0000
0001
0010
0000
0001
1000
,
0001
0000
1000
0000
0100
0000
0001
0000
0100
0000
0020
0000
0000
0000
0000
0030
,
0000
0000
0000
0001
0000
1000
0000
0010
0000
0100
0000
0002
0000
0000
0000
1003
0000
0100
0000
0010
0000
0001
0000
2000
,
0000
0000
0000
3010
0000
0100
0000
0001
0000
0010
0000
0200
0000
0000
0000
0310
0000
0001
0000
1000
0000
0010
0000
0200
,
0000
0000
0000
0301
0000
1000
0000
0100
0000
1000
0000
0020
0000
0000
0000
0130
0000
0001
0000
1000
0000
0100
0000
0020
,
0000
0000
0000
0130
0000
1000
0000
0001
0000
0100
0000
2000
0000
0000
0000
3100
0000
0001
0000
1000
0000
0010
0000
0200
,
0000
0000
0000
0301
0000
0010
0000
0001
0000
1000
0000
0100
1000
0100
0000
1000
0000
0010
0000
1000
0000
0001
0000
0100
,
0001
0100
0000
0010
0000
1000
0000
0001
0000
0010
0000
0100
1000
0100
0000
0010
0000
0001
0000
1000
0000
0010
0000
0100
,
0001
0100
0000
0010
0000
1000
0000
0100
0000
1000
0000
0001
0100
0001
0000
0010
0000
0001
0000
0100
0000
0001
0000
1000
,
0100
0000
1000
0000
0000
0000
0010
0000
0000
0000
0000
0000
0100
0000
0000
0010
0000
0000
0100
0000
0000
0000
0000
0000
0001
0000
0000
0010
0000
0000
0001
0000
0000
0000
0000
0000
0010
0000
0000
0100
0000
0000
1000
0000
0000
0000
0000
0000
,
0001
0010
0001
0000
1000
0000
0010
0100
0010
1000
0001
0000
0010
0000
0100
1000
,
0100
0010
0001
0000
1000
0010
1000
0000
0100
1000
0001
0000
0100
0001
1000
0000
,
0010
0100
0001
0000
1000
0000
0100
0010
0001
0010
0100
0000
1000
0000
0001
0100
,
0010
1000
0001
0000
0010
0001
0010
0000
0100
0010
0100
0000
1000
0010
1000
0000
,
0001
0010
0001
0000
0100
0000
0010
1000
0001
0100
0010
0000
1000
0000
0001
0010
,
0100
0010
0001
0000
0000
0101
0000
0000
1100
0000
0000
1010
0000
0000
0010
0100
,
0001
1000
0010
0000
0000
1100
0000
0000
0101
0000
0000
0011
0000
0000
0010
0100
,
1000
0001
0020
0000
0000
0000
0000
0000
0030
0000
0000
0000
0000
0000
0002
0000
,
0203
0320
0030
0000
0000
2000
3000
0000
,
0000
0200
0300
0000
0000
0000
0000
2000
,
3000
2000
3000
0000
0000
0020
0030
0000
,
0000
2002
0000
0000
3003
0000
0000
0001
,
0010
0100
0000
0000
0000
1000
0000
0000
,
0000
0010
0000
0000
0000
0000
0000
0100
,
0000
0100
0000
0000
0000
0001
0000
0000
;

//--------------- dance-single - forcednature ----------------
#NOTEDATA:;
#STEPSTYPE:dance-single;
#DESCRIPTION:forcednature;
#DIFFICULTY:Challenge;
#METER:17;
#RADARVALUES:0,0,0,0,0;
#CREDIT:forcednature;
#NOTES:
0000
0000
0000
0000
,
0000
0000
0000
0000
,
0000
0000
0000
0000
,
0000
0000
0000
0000
,
0000
0000
0000
0000
,
0000
0000
0000
0000
,
1000
1000
0000
0000
0000
0000
0001
0001
0000
0000
0000
1000
1000
0000
0000
0000
,
0000
0001
0001
0000
0000
1000
1000
0000
0000
0000
0000
0001
0001
0000
0000
0000
,
0101
0000
0100
0000
0010
1000
0000
0010
0100
0001
0000
0010
0100
1000
0001
0000
,
0010
0000
0001
1000
0000
0010
0100
0001
0000
1000
0100
0010
0002
0000
0000
0000
,
0000
0000
0000
0000
1003
0010
0100
0010
1000
0001
0100
0010
1000
0000
0000
0000
,
0001
0000
0010
0001
1000
0000
0010
0100
0001
0000
0001
0010
1000
0000
0010
0001
,
1000
0000
0010
0100
0001
0000
0010
0100
1000
0000
1000
0010
0001
0000
0010
1000
,
0002
0100
0023
0100
,
0032
0100
2003
3200
,
0010
0000
0000
0000
1000
0000
0000
0000
0310
0000
0000
0000
0100
0000
1000
0001
,
0100
0000
0010
0000
1000
0000
0100
1000
0100
0000
0100
0010
0001
0000
2000
0000
,
0000
0010
0000
3002
0000
0010
0000
0203
,
0000
0010
0000
0302
0000
0023
0000
0100
,
0000
0000
0001
0000
0000
0000
0130
0000
0010
0001
1000
0000
0010
0000
0100
0000
,
0001
0000
1000
0100
0010
0000
0100
0010
0001
0000
1000
0000
1010
0000
1010
0000
,
0000
1100
0000
1100
0000
0101
0000
0000
1001
0000
1000
0100
0010
0000
0011
0000
,
0000
0101
0000
0101
0000
0000
1100
0000
1010
0000
0010
0100
0001
0000
0010
0100
,
1000
0100
0010
0001
0000
1000
0010
0100
0001
0100
0010
1000
0001
0010
0100
0000
,
0010
0100
1000
0000
0001
0010
0001
1000
0000
0010
0100
0001
0100
0010
1000
0001
,
0000
1000
0100
1000
0001
0010
0001
1000
0010
0100
0001
0010
0001
0100
0010
0000
,
1000
0100
0010
0001
1000
0010
0100
0010
1000
0001
0100
1000
0000
0000
0100
0000
,
0101
0000
0001
0010
0100
0010
0001
1000
0100
0001
0000
0000
0100
1000
0100
0000
,
1000
0010
0100
1000
0100
0010
1000
0001
0000
0000
0011
0000
0101
0000
0001
0010
,
0100
0000
0000
0001
0000
0000
0100
0000
0000
0010
0000
0000
0001
0000
0000
1000
0000
0000
0000
0000
0000
0000
0000
0000
0010
0000
0100
0000
0001
0000
0100
0000
0000
0010
0000
0000
1000
0000
0000
0001
0000
0000
0010
0000
0000
0000
0000
0000
,
0011
0000
0100
0000
1100
0000
0001
0000
0101
0000
1000
0010
0100
0010
1000
0000
,
1100
0102
0003
0022
0000
0000
0000
0000
,
0000
0000
0000
0000
0033
0000
0000
0100
1000
0000
0100
0010
0000
0100
1000
0000
,
1000
0000
0001
0100
0010
0000
1000
0100
0000
0001
0100
0000
1000
0010
0000
0010
,
0100
0000
0000
0001
0000
0000
0010
0000
0001
0000
0000
0000
1000
0000
0001
0000
1000
0000
0000
0000
0010
0000
0100
0000
0001
0000
0100
0000
0000
0000
0010
0000
,
1000
0000
0001
0010
0100
0010
0000
0001
1000
0100
1000
0001
0010
0001
0000
0000
,
0101
0000
0000
0110
0000
0000
0010
0000
1000
0000
1000
0000
0001
0000
1000
0000
0001
0000
0000
0000
0010
0000
0100
0000
1000
0000
0100
0000
0000
0000
0010
0000
,
0001
0000
1000
0010
0100
0010
0000
1000
0001
0100
0001
1000
0010
1000
0000
0000
,
1100
0000
0000
0110
0000
0000
0010
0000
0001
0000
0001
0000
2000
0000
0000
0000
0000
0000
0010
0000
0000
0000
0000
0000
3002
0000
0000
0000
0000
0000
0000
0000
,
0013
0000
0000
0000
0000
0000
0001
0000
0100
0000
0001
0000
0100
0000
0000
0001
0000
0000
1000
0000
0000
0100
0000
0000
1000
0000
0000
0001
0000
0000
0100
0000
0000
0010
0000
0000
0100
0000
0000
0001
0000
0000
0000
0000
0000
1000
0000
0000
,
1100
0000
0000
0110
0000
0000
0010
0000
0001
0000
0001
0000
0000
0000
0100
0000
1000
0000
0100
0000
0001
0000
1000
0000
0010
0000
1000
0000
0000
0000
0100
0000
,
0001
0100
1000
0001
0010
0001
0000
1000
0010
0100
0001
0010
0100
1000
0000
0001
,
0101
0000
0000
0110
0000
0000
0010
0000
1000
0000
1000
0000
0001
0000
0000
0000
0011
0000
0000
0000
0000
0000
1000
0000
0000
0000
1100
0000
0000
0000
1010
0000
,
0000
0000
1000
0100
0001
0000
0101
0000
0000
1100
0000
1010
0000
0101
0000
0000
,
0001
0100
1000
0000
0100
0000
0001
0000
1000
0000
0010
0000
1000
0000
0001
0000
,
0102
0000
0010
0010
1000
1000
0100
0103
,
0001
1001
0000
1000
0000
0100
0000
2000
,
3002
0203
0300
0000
0000
0020
0030
0000
,
0000
2020
3030
0001
0000
0010
0000
0200
,
0300
2200
3300
0000
0000
0022
0033
0000
,
0000
0000
0001
0100
0000
0010
0100
0000
0001
1000
0000
0010
1000
0001
0010
0001
,
1000
0000
0100
0010
0000
0100
1000
0000
0001
0010
0000
0001
1000
0100
1000
0001
,
0100
0000
0010
1000
0000
0100
0010
0000
0100
1000
0000
0001
0010
0001
1000
0010
,
0100
0001
0001
0001
0001
1000
0100
0010
,
0001
0000
0000
1000
0000
0001
0000
0100
0000
0001
0000
1000
0010
1000
0010
1000
0000
0001
0000
0010
0000
0001
0000
1000
,
0100
1000
0100
1000
0000
0010
0000
0100
0000
0001
0000
0010
0001
0010
0001
0010
0000
0100
0000
1000
0000
0001
0000
0100
,
0010
0100
0010
0100
0000
0001
0000
1000
0000
0100
0000
0010
0001
0010
0001
0010
0000
0100
0000
1000
0000
0010
0000
0100
,
0001
0100
0001
0100
0000
0010
0000
1000
0000
0001
0000
0010
0100
0010
0100
0010
0000
0001
0000
1000
0000
0010
0000
0100
,
0001
0100
0001
0100
0000
0010
0000
1000
0000
0001
0000
0010
0100
1000
0100
0010
0000
0001
0000
1000
0000
0010
0000
0100
,
0001
1000
0001
0100
0000
0010
0000
1000
0000
0100
0000
0010
0001
0100
0001
0010
0000
0100
0000
1000
0000
0001
0000
0100
,
0010
1000
0010
0100
0000
0001
0000
1000
0001
1000
0000
0001
0010
0100
0010
0001
0000
1000
0000
0010
1000
0010
0000
0100
,
0001
0000
1000
0000
0001
0000
0100
0000
0000
0010
0000
0000
1000
0000
0000
0001
0000
0000
0100
0000
0000
0010
0000
0000
1000
0000
0000
0001
0000
0000
0010
0000
0000
0100
0000
0000
1000
0000
0000
0001
0000
0000
0010
0000
0000
0100
0000
0000
,
1000
0001
1000
0010
0100
0010
1000
0001
0100
0001
1000
0100
0010
0001
1000
0001
,
0010
0100
1000
0001
0100
0010
1000
0001
0100
0010
1000
0001
0010
0100
1000
0001
,
0010
0100
0010
0001
0100
0001
1000
0100
1000
0010
0100
0001
0010
0001
1000
0010
,
1000
0100
0010
0001
1000
0010
0100
0001
1000
0100
0010
0001
1000
0010
1000
0001
,
0010
0001
1000
0010
0100
0001
1000
0100
0010
0001
1000
0100
1000
0001
0100
0001
,
0010
0100
1000
0010
0100
0010
1000
0100
0010
0100
1000
0010
0100
0010
1000
0100
,
0010
0001
0100
0010
0100
0001
0010
0100
0010
0001
0100
0010
0100
0001
1000
0100
,
0001
0100
0020
0000
0000
0000
0000
0000
0030
0000
0000
0000
0000
0000
0002
0000
,
2003
3020
0030
0000
0000
0200
0300
0000
,
0000
0202
0303
0000
0000
0000
0000
0022
,
0033
0022
0033
0000
0000
2000
3000
0000
,
0000
2002
0000
0000
3003
0000
0000
0001
,
0100
1000
0000
0000
0000
0100
0000
0000
,
0000
0101
0000
0000
0000
0000
0000
1010
,
0000
1010
0000
0000
0000
1100
0000
0000
;

//--------------- dance-double - forcednature ----------------
#NOTEDATA:;
#STEPSTYPE:dance-double;
#DESCRIPTION:forcednature;
#DIFFICULTY:Easy;
#METER:10;
#RADARVALUES:0,0,0,0,0;
#CREDIT:forcednature;
#NOTES:
00000000
00000000
00000000
00000000
,
00000000
00000000
00000000
00000000
,
00000000
00000000
00000000
00000000
,
00000000
00000000
00000000
00000000
,
00000000
00000000
00000000
00000000
,
00000000
00000000
00000000
00000000
,
00011000
00000000
00000000
00000000
00000000
00000000
00011000
00000000
00000000
00000000
00000000
00011000
00000000
00000000
00000000
00000000
,
00000000
00011000
00000000
00000000
00000000
00011000
00000000
00000000
00000000
00000000
00000000
00011000
00000000
00000000
00000000
00000000
,
01000000
00000000
00010000
00000000
00100000
00000000
00000000
01000000
,
00000000
10000000
00000000
00100000
00000000
00000000
20020000
00000000
,
00000000
30030000
00000000
10000000
,
01000000
00010000
00001000
00000100
,
00000001
00000010
00000001
00000100
,
00002000
00000000
00023000
00000000
,
00230000
00000000
20300000
31000000
,
00010000
00001000
00010000
00001000
,
00000010
00000000
00000001
00000000
00000010
00000000
00000000
00000002
,
00000000
00000000
00000000
00000203
00000000
00000000
00000000
00002300
,
00000000
00000000
00000000
00023000
00000000
00130000
00000000
10000000
,
00000000
01000000
00000000
10000000
00000000
00100000
00000000
00010000
,
00000000
00001000
00000000
00010000
00000000
00000000
00001000
00010000
,
00000000
00001000
00000000
00010000
00000000
00001000
00000000
00000000
00010000
00000000
00000000
00000000
00000100
00000000
00001000
00000000
,
00000000
00000100
00000000
00001000
00000000
00000000
00000100
00000000
00000010
00000000
00000000
00000000
00001001
00000000
00000000
00000000
,
00000001
00000100
00001000
00000000
00010000
00000000
00100000
00000000
,
10000000
00000000
00010000
10000000
01000000
00000000
00010000
00001000
,
00100000
00001000
00010000
00000010
,
00001000
00000000
00001000
00000000
00000001
00000000
00000000
00000000
00000010
00000000
00000000
00001000
00000000
00000000
00000000
00000000
,
00010000
00000000
01000000
00000000
00000000
00000000
10000000
00000000
00000000
00100000
00000000
00000000
00000000
00000000
00010000
00000000
,
00100000
00000000
00000000
00000000
10000000
00000000
00000000
01000000
00000000
00000000
00010000
00000000
00001000
00000000
00010000
00000000
,
00000000
00000000
00001000
00000000
00000000
00000010
00000000
00000000
00000001
00000000
00000100
00000000
00000000
00000000
00001000
00000000
,
00000000
00011000
00000000
00010000
00000000
00100000
01000000
00100000
,
00000000
01100000
00000000
20020000
00000000
00000000
00000000
00000000
,
00000000
00000000
00000000
30030000
00000000
00000000
00000000
00000000
,
00000000
00000000
00000000
00000000
,
00000000
00000000
00000000
10000000
01000000
00010000
00000000
01000000
,
00010000
00001000
00000000
00010000
00001000
00000010
00000000
00000100
,
00000000
00001001
00000000
00000001
00000100
00001000
00000000
00000100
,
00001000
00010000
00000000
00001000
00010000
00100000
00000000
01000000
,
00000000
10010000
00000000
00000000
00000000
00000000
00000000
00000000
,
00000000
00000000
00000000
01100000
00000000
10000000
01000000
00010000
,
00000000
00011000
00000000
00001000
00010000
00000100
00010000
00000000
,
00001000
01000000
00001000
00000000
00010000
00000010
00001000
00000000
,
00000001
00000000
00000000
00000000
00001001
00000000
00000000
00000000
00001000
00000000
00000000
00000100
00000000
00010000
00000000
00001000
,
00000000
00000000
00100000
00000000
00001000
00000000
00010000
00000000
00000000
00001000
00000000
01000000
00000000
00010000
00000000
00000000
,
00100000
02000000
00000000
00000000
00000000
00000000
00000000
00000000
,
03000000
00000000
00000000
00000000
,
00000000
10000000
01000000
10000000
00000000
01000000
00010000
01000000
,
00000000
00010000
00001000
00010000
00000000
00001000
00000010
00001000
,
00000000
00000010
00000001
00000010
00000000
00000001
00000100
00000001
,
00000000
00000100
00001000
00000100
00000000
00001000
00010000
00001000
,
00000000
00010000
00100000
10000000
00000000
00100000
10000000
01000000
,
00000000
10000000
01000000
00010000
00000000
01000000
00010000
00001000
,
00000000
00000010
00000100
00010000
00000000
00010000
00000010
00000100
,
00000000
00001000
00000000
00010000
00000000
00011000
00000000
00001000
,
00000000
00000000
00000000
00010000
00000000
00000000
00000000
01000000
00000000
00000000
00000000
00010000
00000000
00000000
00000000
01000000
00000000
00000000
00000000
10000000
00000000
00000000
00000000
01000000
,
00000000
00000000
00000000
10000000
00000000
00000000
00000000
00100000
00000000
00000000
00000000
10000000
00000000
00000000
00000000
00100000
00000000
00000000
00000000
00010000
00000000
00000000
00000000
00100000
,
00000000
00000000
00000000
00010000
00000000
00000000
00000000
00001000
00000000
00000000
00000000
00010000
00000000
00000000
00000000
00001000
00000000
00000000
00000000
00000100
00000000
00000000
00000000
00001000
,
00000000
00000000
00000000
00000100
00000000
00000000
00000000
00000001
00000000
00000000
00000000
00000100
00000000
00000000
00000000
00000001
00000000
00000000
00000000
00000010
00000000
00000000
00000000
00000001
,
00000000
00000000
00000000
00000010
00000000
00000000
00000000
00001000
00000000
00000000
00000000
00010000
00000000
00000000
00000000
00001000
00000000
00000000
00000000
00010000
00000000
00000000
00000000
01000000
,
00000000
00000000
00000000
10000000
00000000
00000000
00000000
00100000
00000000
00000000
00000000
10000000
00000000
00000000
00000000
00100000
00000000
00000000
00000000
00010000
00000000
00000000
00000000
00001000
,
00000000
00000000
00000000
00010000
00000000
00000000
00000000
00001000
00000000
00000000
00000000
00000100
00000000
00000000
00000000
00000001
00000000
00000000
00000000
00001000
00000000
00000000
00000000
00000010
,
00000000
00000100
00000001
00000100
00000000
00000001
00000010
00000001
,
00000000
00000010
00001000
00000010
00000000
00001000
00000000
00010000
,
00000000
00100000
10000000
00100000
00000000
10000000
01000000
10000000
,
00000000
01000000
00010000
01000000
00000000
00010000
00000000
00001000
,
00000000
00000010
00000100
00001000
00000000
00000100
00000010
00000001
,
00000000
00000100
00001000
00010000
00000000
00001000
00000000
00010000
,
00000000
00000000
00100000
00000000
00000000
10000000
00000000
00000000
00010000
00000000
00000000
10000000
00000000
00000000
01000000
00000000
,
00000000
00000000
00010000
00000000
00000000
00011000
00000000
00000000
00001000
00000000
00000000
00011000
00000000
00000000
00000010
00000000
,
00000000
00002002
00000000
00000000
00003003
00000000
00000000
00000001
,
00000100
00001000
00000000
00000000
00000000
00010000
00000000
00000000
,
00000000
00100000
00000000
00000000
00000000
00000000
00000000
10000000
,
00000000
10000000
00000000
00000000
00000000
01000000
00000000
00000000
,
00000000
10010000
00000000
00000000
00000000
00000000
00000000
10000000
,
01000000
00010000
00000000
00000000
00000000
00001000
00000000
00000000
,
00000000
00000010
00000000
00000000
00000000
00000000
00000000
00000001
,
00000000
00000001
00000000
00000000
00000000
00000100
00000000
00000000
;

//--------------- dance-double - forcednature ----------------
#NOTEDATA:;
#STEPSTYPE:dance-double;
#DESCRIPTION:forcednature;
#DIFFICULTY:Medium;
#METER:13;
#RADARVALUES:0,0,0,0,0;
#CREDIT:forcednature;
#NOTES:
00000000
00000000
00000000
00000000
,
00000000
00000000
00000000
00000000
,
00000000
00000000
00000000
00000000
,
00000000
00000000
00000000
00000000
,
00000000
00000000
00000000
00000000
,
00000000
00000000
00000000
00000000
,
00011000
00000000
00000000
00000000
00000000
00000000
00011000
00000000
00000000
00000000
00000000
00011000
00000000
00000000
00000000
00000000
,
00000000
00011000
00000000
00000000
00000000
00011000
00000000
00000000
00000000
00000000
00000000
00011000
00000000
00000000
00000000
00000000
,
00010000
00000000
00001000
00000000
00000000
01000000
00000000
00010000
00000000
01000000
00000000
00000000
00001000
00000000
00010000
00000000
,
00000100
00000000
00000000
00001000
00000000
00000100
00000000
00010000
00000000
00000000
00001000
00000000
00200000
00000000
00000000
00000000
,
00000000
00000000
00000000
00300000
,
01000000
10000000
01000000
00010000
00001000
00100000
00001000
00000000
,
00010000
00000010
00001000
00000010
00000100
00000001
00001000
00000000
,
00000200
00001000
00020300
00001000
,
00030020
00001000
00020030
00032000
,
00010000
00000000
00100000
00100000
00100000
00000000
00010000
00000000
,
01000000
01000000
01000000
00000000
00013000
00000000
00010000
00002000
,
00000000
00010000
00000000
00203000
00000000
00010000
00000000
00302000
,
00000000
00010000
00000000
02003000
00000000
03020000
00000000
10000000
,
00000000
00100000
00100000
00100000
00000000
10000000
00000000
01000000
,
01000000
01000000
00000000
10030000
00010000
00000000
10000000
00010000
,
00000000
10000000
00000000
01000000
00000000
00010000
00000000
00000000
00001000
00000000
00000010
00000000
00000001
00000000
00001000
00000000
,
00000000
00000001
00000000
00000100
00000000
00000000
00001000
00000000
00010000
00000000
00100000
00000000
10000000
00000000
00000000
00000000
,
01000000
00010000
00001000
00010000
01000000
00000000
00100000
00001000
,
00010000
00000000
00000010
00010000
00001000
00000000
00000010
00000100
,
00010000
00001000
00000010
00000000
00000001
00000100
00001000
00000000
,
00010000
00000000
01000000
00000000
10000000
00000000
00000000
00000000
00100000
00000000
00000000
10010000
00000000
00000000
10000000
00000000
,
01000000
00000000
00010000
00000000
00000000
00000000
00001000
00000000
00000000
00011000
00000000
00000000
00010000
00000000
00001000
00000000
,
00000010
00000000
00000000
00000000
00000100
00000000
00000000
00001001
00000000
00000000
00000001
00000000
00000100
00000000
00001000
00000000
,
00000000
00000000
00010000
00000000
00000000
00011000
00000000
00000000
00001000
00000000
00010000
00000000
01000000
00000000
20000000
00000000
,
00000000
30200000
00000000
00320000
00000000
00031000
00010000
00001000
,
00000100
00000001
00000000
00002002
00000000
00000000
00000000
00000000
,
00000000
00000000
00000000
00003003
00000000
00000000
00000000
00000000
,
00000000
00000000
00000000
00000000
,
00001000
00000000
00000000
00001000
00000000
00000000
00001000
00000000
00000001
00000000
00000000
00000000
00000010
00000000
00000000
00000000
00000100
00000000
00000000
00000000
00001000
00000000
00000000
00000000
00000100
00000000
00000000
00000000
00000000
00000000
00000000
00000000
,
00010000
00001000
01000000
00000000
00010000
00100000
01000000
00000000
,
10000000
00000000
00000000
01000000
00000000
00000000
10000000
00000000
01000000
00000000
10000000
00000000
00000000
00000000
00000000
00000000
00010000
00000000
00000000
00000000
01000000
00000000
00000000
00000000
00001000
00000000
00000000
00000000
00000000
00000000
00000000
00000000
,
00100000
00001000
00010000
00000000
00000010
00000010
00001000
00000000
,
00000001
00000000
00000000
00000100
00000000
00000000
00000001
00000000
00000100
00000000
00000001
00000000
00000000
00000000
00000000
00000000
00000000
00000000
00000000
00000000
00000000
00000000
00000000
00000000
00000000
00000000
00000000
00000000
00000000
00000000
00000000
00000000
,
00000000
00000010
00000010
00001000
00010000
00001000
00010000
01000000
,
10000000
00000000
00000000
01000000
00000000
00000000
10000000
00000000
01000000
00000000
10000000
00000000
00000000
00000000
00000000
00000000
00010000
00000000
00000000
00000000
01000000
00000000
00000000
00000000
00001000
00000000
00000000
00000000
00000000
00000000
00000000
00000000
,
00010000
00000010
00001000
00000000
00001000
00000100
00000010
00000000
,
00000001
00000000
00000000
00000100
00000000
00000000
00000001
00000000
00000100
00000000
00000001
00000000
00000000
00000000
00000000
00000000
00000010
00000000
00000000
00000000
00000000
00000000
00000010
00000000
00000000
00000000
00001000
00000000
00000000
00000000
00010000
00000000
,
00000000
00000000
01000000
00000000
10000000
00000000
00100000
00000000
00000000
00100000
00000000
00010000
00000000
00001000
00000000
00000000
,
00000100
00000001
00000000
00000000
00000000
00000000
00000000
00000000
,
00002002
00000000
00000000
00003003
00000000
00000000
00000000
00000000
,
00000000
00000001
00000100
00000001
00001000
00000010
00001000
00000001
,
00000000
00000010
00001000
00010000
00000000
01000000
00010000
00001000
,
00000000
00100000
00010000
10000000
01000000
10000000
00010000
00100000
,
00000000
00001000
00010000
00100000
00000000
00010000
00001000
00000100
,
00000000
00000001
00001000
00000010
00010000
00001000
01000000
01010000
,
00000000
10000000
00010000
00100000
00001000
00010000
00000100
00001100
,
00000000
00000001
00000100
00001000
00010000
01000000
10000000
10100000
,
00000000
20000000
00000000
32000000
00000000
03020000
00000000
00032000
,
00000000
00000000
00000000
00103000
00000000
00000000
00000000
00001000
00000000
00000000
00000000
00020000
00000000
00000000
00000000
00030010
00000000
00000000
00000000
00010000
00000000
00000000
00000000
00002000
,
00000000
00000000
00000000
01003000
00000000
00000000
00000000
00001000
00000000
00000000
00000000
00020000
00000000
00000000
00000000
00030100
00000000
00000000
00000000
00010000
00000000
00000000
00000000
00002000
,
00000000
00000000
00000000
00103000
00000000
00000000
00000000
01000000
00000000
00000000
00000000
00020000
00000000
00000000
00000000
00031000
00000000
00000000
00000000
00000010
00000000
00000000
00000000
00000200
,
00000000
00000000
00000000
00001300
00000000
00000000
00000000
00000001
00000000
00000000
00000000
00000200
00000000
00000000
00000000
00001300
00000000
00000000
00000000
00010000
00000000
00000000
00000000
00200000
,
00000000
00000000
00000000
10300000
00000000
00010000
00000000
01000000
00000000
00010000
00000000
00200000
00000000
00000000
00000000
00301000
00000000
00010000
00000000
00000100
00000000
00001000
00000000
00000020
,
00000000
00000000
00000000
00000130
00000000
00000001
00000000
00001000
00000000
00000001
00000000
00000020
00000000
00000000
00000000
00000130
00000000
00001000
00000000
00000100
00000000
00010000
00000000
00002000
,
00000000
00000000
00000000
01003000
00000000
00010000
00000000
00100000
00000000
01000000
00000000
20000000
00000000
00000000
00000000
30100000
00000000
01000000
00000000
00010000
00000000
00100000
00000000
00002000
,
00000000
00013000
00100000
10000000
01000000
00010000
01000000
10000000
,
00100000
00000000
00010000
00000000
00001000
00010000
00001000
00000000
00010000
00000100
00001000
00000000
00000100
00010000
00001000
00000000
,
00010000
00001000
00000010
00000001
00000100
00000001
00000010
00001000
,
00010000
00000000
01000000
00000000
10000000
01000000
00100000
00000000
01000000
00100000
00010000
00000000
00100000
00010000
00100000
00000000
,
00001000
00010000
00100000
10000000
01000000
10000000
00100000
00010000
,
00001000
00000000
00010000
00000000
00000010
00001000
00000010
00000000
00010000
00001000
00010000
00000000
00001000
00010000
00000010
00000000
,
00001000
00000000
00001001
00000000
00000000
00000100
00000000
00000000
00011000
00000000
00000000
00100000
00000000
00000000
10010000
00000000
,
00000000
00000000
01100000
00000000
00000000
00010000
00000000
00000000
00011000
00000000
00000000
00001000
00000000
00000000
00010000
00000100
,
00001000
00000100
00000020
00000000
00000000
00000000
00000000
00000000
00000030
00000000
00000000
00000000
00000000
00000000
00000001
00000000
,
00000100
00001000
00000000
00000000
00000000
00010000
00000000
00000000
,
00000000
00100000
00000000
00000000
00000000
00000000
00000000
10000000
,
00000000
10000000
00000000
00000000
00000000
01000000
00000000
00000000
,
00000000
10010000
00000000
00000000
00000000
00000000
00000000
10000000
,
01000000
00010000
00000000
00000000
00000000
00001000
00000000
00000000
,
00000000
00000010
00000000
00000000
00000000
00000000
00000000
00000001
,
00000000
00000001
00000000
00000000
00000000
00000100
00000000
00000000
;

//--------------- dance-double - forcednature ----------------
#NOTEDATA:;
#STEPSTYPE:dance-double;
#DESCRIPTION:forcednature;
#DIFFICULTY:Hard;
#METER:16;
#RADARVALUES:0,0,0,0,0;
#CREDIT:forcednature;
#NOTES:
00000000
00000000
00000000
00000000
,
00000000
00000000
00000000
00000000
,
00000000
00000000
00000000
00000000
,
00000000
00000000
00000000
00000000
,
00000000
00000000
00000000
00000000
,
00000000
00000000
00000000
00000000
,
00001000
00010000
00000000
00000000
00000000
00000000
00001000
00010000
00000000
00000000
00000000
00001000
00010000
00000000
00000000
00000000
,
00000000
00001000
00010000
00000000
00000000
00001000
00010000
00000000
00000000
00000000
00000000
00001000
00010000
00000000
00000000
00000000
,
00001000
00000000
01000000
00000000
00010000
01000000
00000000
00100000
00000000
10000000
00100000
00000000
10000000
01000000
00100000
00000000
,
00010000
00000000
00100000
00001000
00000000
00010000
00000000
00000100
00001000
00000000
00000100
00000010
00000002
00000000
00000000
00000000
,
00000000
00000000
00000000
00000000
00000100
00000000
00000100
00000000
00000100
00000003
00000000
00000000
00001001
00000000
00000000
00000000
,
00001000
00000010
00000100
00001000
01000000
00010000
00100000
01000000
,
00010000
00000000
00000100
00000000
00001000
00000000
00000010
00000000
00010000
00000000
00001000
00000000
01000000
00010000
00100000
00000000
,
02000000
00000000
03010000
00001000
00000020
00000000
00000001
00000000
,
00000230
00000000
00000000
00000000
00010300
00000000
00001000
00000000
01000000
00000000
00000000
00010000
20000000
00000000
00000000
00000000
,
00100000
00100000
00100000
00000000
00010000
00000000
31000000
00010000
,
00001000
00000000
00000000
00001000
00000010
00000000
00000001
00000000
00001000
00000000
00001000
00000000
00000000
00000000
00000002
00000000
,
00000000
00000103
00001000
00020000
00000000
00130000
00010000
00002000
,
00000000
00013000
01000000
20000000
00000000
30200000
00000000
10000000
,
00000000
01000000
01000000
01000000
00000000
00310000
00100000
10000000
,
00000000
00000000
01000000
00000000
00000000
01000000
00010000
00000000
00010000
00000000
00001000
00000000
00000010
00000000
00000110
00000000
,
00000000
00000100
00000000
00010000
00000000
00011000
00000000
00000000
00001000
00000000
01000000
00010000
00100000
00000000
01100000
00000000
,
00000000
01000000
00000000
11000000
00000000
00000000
10100000
00000000
10100000
00000000
00100000
01000000
00010000
00000000
00100000
00001000
,
00010000
00000000
00001000
00010000
00000100
00000000
00001000
00000100
00001000
00000000
00000010
00000000
00000100
00000001
00001000
00000000
,
00000100
00010000
00001000
00000000
00100000
00010000
00100000
01000000
00000000
00000000
10000000
00100000
10000000
00000000
00100000
01000000
,
00010000
00000000
01000000
00001000
00010000
00000000
00000100
00000000
00001000
00000100
00010000
00000000
00001000
00100000
00010000
00000000
,
00100000
00001000
00010000
00001000
00010000
00000000
00000010
00001000
00000001
00000000
00000010
00001000
00000000
00000000
00010000
00000000
,
01000000
00000000
10000000
00000000
00010000
00100000
00010000
00000000
10000000
00100000
00000000
00000000
00010000
00000000
00001000
00000000
,
00000100
00000000
00000001
00001000
00000100
00000000
00000001
00000100
00000000
00000000
00001000
00000000
00000010
00000000
00010000
00000000
,
00001000
01000000
00010000
00000000
00100000
10000000
00000000
00000000
00100000
00010000
00100000
00001000
00010000
00000000
00000010
00000000
,
00000100
00000000
00001000
00000000
01000000
00000000
00010000
00000000
00100000
00000000
01000000
10000000
00010000
10000000
01000000
00000000
,
00010000
00000100
00000000
00022000
00000000
00000000
00000000
00000000
,
00000000
00000000
00000000
00033000
00000000
00000000
00000000
00000000
,
00000000
00000000
00000000
00000000
00000000
00000000
00000000
00000000
00000000
00000000
00000000
00000000
00000000
00000000
00010000
00001000
,
00010000
00000000
00000000
00001000
00000000
00000000
00010000
00000000
00001000
00000000
00000000
00000000
00010000
00000000
00000100
00000000
00001000
00000000
00000100
00000000
00000000
00000000
00000010
00000000
00000100
00000000
00000010
00000000
00000000
00000000
00000001
00000000
,
00000010
00000000
00000001
00000100
00000010
00000100
00000000
00000010
00001000
00000000
00000010
00010000
00001000
00010000
00000000
00000000
,
00001000
00000000
00000000
01000000
00000000
00000000
00010000
00000000
00100000
00000000
00010000
00000000
00000000
00000000
01000000
00000000
00010000
00000000
01000000
00000000
00000000
00000000
00100000
00000000
01000000
00000000
00100000
00000000
00000000
00000000
10000000
00000000
,
00100000
00000000
10000000
01000000
00100000
01000000
00000000
00100000
00010000
00000000
00100000
00001000
00010000
00001000
00000000
00000000
,
00010000
00000000
00000000
00000100
00000000
00000000
00001000
00000000
00000010
00000000
00001000
00000000
00000001
00000000
00000000
00000000
00000000
00000000
00000000
00000000
00000000
00000000
00000000
00000000
00000000
00000000
00000000
00000000
00000000
00000000
00000000
00000000
,
00000000
00000000
00010000
00001000
00010000
00001000
00000000
01000000
00010000
00000000
00100000
00001000
00010000
00001000
00000000
00000000
,
00100000
00000000
00000000
01000000
00000000
00000000
00010000
00000000
00001000
00000000
00010000
00000000
00000000
00000000
00000100
00000000
00001000
00000000
00000100
00000000
00000000
00000000
00010000
00000000
00001000
00000000
00010000
00000000
00000000
00000000
00000010
00000000
,
00001000
00000000
00000001
00000010
00000100
00000010
00000000
00000100
00010000
00000000
00001000
00010000
00001000
00100000
00000000
00000000
,
00001000
00000000
00000000
00010000
00000000
00000000
00100000
00000000
01000000
00000000
00100000
00000000
10000000
00000000
00000000
00000000
11000000
00000000
00000000
00000000
00000000
00000000
01000000
00000000
00000000
00000000
00010000
00000000
00000000
00000000
00011000
00000000
,
00000000
00000000
00001000
00010000
00000100
00000000
00001100
00000000
00000000
00001000
00000000
00000001
00000000
00000011
00000000
00000000
,
00000001
00000100
00002000
00000000
00000000
00000000
00000000
00000000
00000000
00000000
00000000
00000000
00000000
00000000
00000000
00000000
,
00020000
00000000
00000000
00000000
00000000
00000000
00000000
00033000
,
00000000
01000000
00001000
00100000
00010000
01000000
00001000
00100000
,
00010000
01000000
00001000
00100000
00010000
01000000
00001000
00100000
,
00010000
00001000
00000100
00010000
00000010
00001000
00000100
00010000
,
00000010
00001000
00000100
00010000
00000010
00001000
00000100
00010000
,
00000010
00000000
00001000
00000100
00000000
00000010
00000100
00000000
00000010
00000001
00000000
00001000
00000100
00000000
00010000
00000000
,
00001000
00000000
01000000
00010000
00000000
00100000
00010000
00000000
00100000
01000000
00000000
10000000
01000000
00000000
00010000
00000000
,
00001000
00000000
00100000
00010000
00000000
01000000
00001000
00000000
00010000
00000100
00000000
00001000
00000010
00000000
00010000
00001000
,
00010000
00000000
00001000
00000000
00000010
00000000
00000001
00000000
00000100
00000000
00002000
00000000
00000000
00000000
00000000
00003000
,
00000000
00000000
00000000
00010000
00000000
00100000
00000000
01000000
00000000
00100000
00000000
20000000
00000000
00000000
00000000
31000000
00000000
00100000
00000000
01000000
00000000
00010000
00000000
00002000
,
00000000
00000000
00000000
00003010
00000000
00000100
00000000
00001000
00000000
00000001
00000000
00000020
00000000
00000000
00000000
00000031
00000000
00000100
00000000
00001000
00000000
00010000
00000000
00002000
,
00000000
00000000
00000000
00013000
00000000
00100000
00000000
10000000
00000000
00100000
00000000
20000000
00000000
00000000
00000000
31000000
00000000
00010000
00000000
00001000
00000000
00010000
00000000
00002000
,
00000000
00000000
00000000
00003010
00000000
00000100
00000000
00001000
00000000
00000100
00000000
00000020
00000000
00000000
00000000
00000031
00000000
00001000
00000000
00000010
00000000
00010000
00000000
00002000
,
00000000
00000000
00000000
01003000
00000000
00010000
00000000
00100000
00000000
01000000
00000000
10000000
01000000
10000000
00000000
00010000
00000000
00100000
00000000
00001000
00000000
00010000
00000000
00001000
,
00010000
00001000
00000000
00010000
00000000
00000010
00000000
00001000
00000000
00000010
00000000
00000100
00000001
00000100
00000000
00000010
00000000
00001000
00000000
00000100
00000000
00010000
00000000
00001000
,
00010000
00001000
00000000
01000000
00000000
00010000
00000000
00100000
00000000
01000000
00000000
10000000
01000000
10000000
00000000
01000000
00000000
00010000
00000000
00001000
00000000
00000010
00000000
00000100
,
00000010
00000000
00000100
00000000
00000000
00000000
00000010
00000000
00000000
00000000
00000000
00000000
00000001
00000000
00000000
00000010
00000000
00000000
00000001
00000000
00000000
00000010
00000000
00000000
00000100
00000000
00000000
00000010
00000000
00000000
00000100
00000000
00000000
00000000
00000000
00000000
00001000
00000000
00000000
00000100
00000000
00000000
00001000
00000000
00000000
00000100
00000000
00000000
,
00010000
00001000
00010000
00000000
00001000
01000000
00001000
01000000
00010000
10000000
00010000
00000000
00100000
01000000
10000000
00000000
,
01000000
00100000
00010000
00000000
00100000
00010000
00100000
00010000
00100000
00001000
00010000
00000000
00000010
00001000
00000010
00001000
,
00000010
00000100
00000001
00000000
00001000
00000100
00001000
00000100
00010000
00001000
00010000
00000000
00001000
01000000
00010000
00000000
,
01000000
00001000
00010000
00000000
00000100
00001000
00000100
00000010
00000001
00000010
00000100
00000000
00001000
00000100
00010000
00001000
,
00100000
00010000
00100000
00000000
00010000
01000000
00100000
10000000
00100000
01000000
00010000
00000000
10000000
01000000
00100000
00000000
,
01000000
00100000
00010000
00000000
00100000
00010000
00100000
00001000
00010000
00000000
00000010
00001000
00000010
00010000
00001000
00000000
,
00100000
00010000
01000000
00000000
00001000
00010000
00000100
00001000
00000100
00000000
00010000
00001000
01000000
00010000
01000000
00100000
,
10000000
00100000
02000000
00000000
00000000
00000000
00000000
00000000
03000000
00000000
00000000
00000000
00000000
00000000
00020000
00000000
,
20030000
32000000
03000000
00000000
00000000
00020000
00030000
00000000
,
00000000
00002000
00003000
00000000
00000000
00000000
00000000
00000020
,
00000030
00000020
00000030
00000000
00000000
00000002
00000003
00000000
,
00000000
00002200
00000000
00000000
00003300
00000000
00000000
00000001
,
00000100
00001000
00000000
00000000
00000000
00010000
00000000
00000000
,
00000000
00100000
00000000
00000000
00000000
00000000
00000000
10000000
,
00000000
10000000
00000000
00000000
00000000
00010000
00000000
00000000
;

//--------------- dance-double - forcednature ----------------
#NOTEDATA:;
#STEPSTYPE:dance-double;
#DESCRIPTION:forcednature;
#DIFFICULTY:Challenge;
#METER:17;
#RADARVALUES:0,0,0,0,0;
#CREDIT:forcednature;
#NOTES:
00000000
00000000
00000000
00000000
,
00000000
00000000
00000000
00000000
,
00000000
00000000
00000000
00000000
,
00000000
00000000
00000000
00000000
,
00000000
00000000
00000000
00000000
,
00000000
00000000
00000000
00000000
,
00001000
00001000
00000000
00000000
00000000
00000000
00010000
00010000
00000000
00000000
00000000
00001000
00001000
00000000
00000000
00000000
,
00000000
00010000
00010000
00000000
00000000
00001000
00001000
00000000
00000000
00000000
00000000
00010000
00010000
00000000
00000000
00000000
,
00011000
00000000
00001000
00000000
01000000
00010000
00000000
10000000
00100000
10000000
00000000
01000000
00100000
00010000
00100000
00000000
,
00001000
00000000
00010000
00000010
00000000
00001000
00000100
00001000
00000000
00000001
00000100
00000010
00002000
00000000
00000000
00000000
,
00000000
00000000
00000000
00000000
00003001
00000010
00000100
00000010
00000001
00001000
00000100
00010000
00001000
00000000
00000000
00000000
,
01000000
00000000
00010000
00100000
01000000
00000000
00100000
00001000
00010000
00000000
00010000
00001000
00000010
00000000
00000100
00001000
,
00000001
00000000
00000100
00000001
00001000
00000000
00000010
00010000
00001000
00000000
00001000
00010000
00100000
00000000
01000000
00010000
,
20000000
01000000
30020000
00100000
,
00032000
00000100
00003002
00000203
,
00001000
00000000
00000000
00000000
00000010
00000000
00000000
00000000
00000301
00000000
00000000
00000000
00000100
00000000
00000010
00010000
,
00001000
00000000
01000000
00000000
00010000
00000000
00100000
01000000
10000000
01000000
00010000
00001000
00100000
00000000
00002000
00000000
,
00000000
01000000
00000000
00023000
00000000
00000100
00000000
00032000
,
00000000
00100000
00000000
00023000
00000000
00030020
00000000
00001000
,
00000000
00000000
00000100
00000000
00000000
00000000
00001030
00000000
00000010
00000100
00000001
00000000
00000010
00000000
00001000
00000000
,
00010000
00000000
01000000
10000000
00100000
00000000
10000000
01000000
00010000
00000000
00001000
00000000
00011000
00000000
00011000
00000000
,
00000000
00001100
00000000
00001100
00000000
00000110
00000000
00000000
00001001
00000000
00000001
00000100
00001000
00000000
00011000
00000000
,
00000000
01010000
00000000
01010000
00000000
00000000
01100000
00000000
10010000
00000000
10000000
01000000
00010000
00000000
00001000
00100000
,
00010000
00100000
00001000
00010000
00000000
00100000
01000000
00010000
00100000
01000000
10000000
00100000
01000000
00010000
00100000
00000000
,
00001000
00010000
00000010
00000000
00010000
00001000
00000010
00000001
00000000
00000100
00000010
00001000
00000100
00000010
00000100
00010000
,
00000000
00001000
00100000
00010000
00100000
00001000
00010000
00001000
01000000
00010000
00100000
01000000
10000000
00100000
01000000
00000000
,
00010000
00100000
00010000
10000000
01000000
00010000
00001000
00100000
00001000
00000010
00000001
00001000
00000000
00000000
00000010
00000000
,
00000110
00000000
00000100
00001000
00010000
00000010
00010000
00100000
10000000
00010000
00000000
00000000
00100000
00000000
01100000
00000000
,
10000000
01000000
00010000
00001000
00100000
00001000
00000010
00000100
00000000
00000000
00001000
00000001
00000000
00000000
00000001
00000100
,
00001000
00000000
00000000
00010000
00000000
00000000
00000010
00000000
00000000
00010000
00000000
00000000
00100000
00000000
00000000
01000000
00000000
00000000
00000000
00000000
00000000
00000000
00000000
00000000
00010000
00000000
10000000
00000000
00100000
00000000
10000000
00000000
00000000
00010000
00000000
00000000
00100000
00000000
00000000
01000000
00000000
00000000
10000000
00000000
00000000
00000000
00000000
00000000
,
01000000
00000000
00010000
00000000
00000100
00000000
00001000
00000000
00000010
00000000
00000100
00000001
00001000
00000010
00000100
00000000
,
00001000
02000000
03000000
20020000
00000000
00000000
00000000
00000000
,
00000000
30030000
00000000
00000000
,
00000000
00000000
00000000
00000000
00000000
00000000
00000000
00000000
00000000
00000000
00000000
00000000
00000000
00000000
10000000
00010000
,
10000000
00000000
00000000
01000000
00000000
00000000
00010000
00000000
00001000
00000000
00000000
00000000
00100000
00000000
00010000
00000000
00100000
00000000
00001000
00000000
00010000
00000000
00000100
00000000
00001000
00000000
00000100
00000000
00000000
00000000
00010000
00000000
,
00001000
00010000
00000010
00001000
00000010
00000100
00000000
00000001
00000010
00000100
00001000
00000100
00010000
00001000
00000000
00000000
,
00100000
00000000
00000000
01000000
00000000
00000000
00010000
00000000
00000100
00000000
00001000
00000000
00000010
00000000
00000100
00000000
00000010
00000000
00010000
00000000
00001000
00000000
01000000
00000000
00010000
00000000
01000000
00000000
00000000
00000000
00001000
00000000
,
00010000
00001000
00100000
00010000
00100000
01000000
00000000
10000000
00100000
01000000
00010000
01000000
00001000
00010000
00000000
00000000
,
00000010
00000000
00000000
00000100
00000000
00000000
00001000
00000000
01000000
00000000
00010000
00000000
20000000
00000000
00000000
00000000
00000000
00000000
00000000
00000000
00000000
00000000
00000000
00000000
00000000
00000000
00000000
00000000
00000000
00000000
00000000
00000000
,
30000000
00000000
00000000
00000000
00000000
00000000
01000000
00000000
00100000
00000000
00010000
00000000
00100000
00000000
00000000
01000000
00000000
00000000
00100000
00000000
00000000
00001000
00000000
00000000
00010000
00000000
00000000
00000100
00000000
00000000
00001000
00000000
00000000
00000010
00000000
00000000
00010000
00000000
00000000
00001000
00000000
00000000
00000000
00000000
00000000
00100000
00000000
00000000
,
01000000
00000000
00000000
00010000
00000000
00000000
00000100
00000000
00001000
00000000
00001000
00000000
00000000
00000000
00000001
00000000
00000100
00000000
00001000
00000000
00000100
00000000
00000001
00000000
00001000
00000000
00000010
00000000
00000000
00000000
00010000
00000000
,
00001000
00100000
00010000
01000000
00001000
00010000
00000000
00100000
10000000
01000000
00100000
00001000
00010000
00001000
00000000
00100000
,
01000000
00000000
00000000
00010000
00000000
00000000
00000100
00000000
00001000
00000000
00001000
00000000
00000001
00000000
00000000
00000000
00000011
00000000
00000000
00000000
00000000
00000000
00000001
00000000
00000000
00000000
00000100
00000000
00000000
00000000
00001000
00000000
,
00000000
00000000
00010000
00100000
10000000
00000000
11000000
00000000
00000000
10000000
00000000
01000000
00000000
00010000
00000000
00000000
,
00001000
00000010
00000002
00000000
00000000
00000000
00000000
00000000
00000000
00000000
00000000
00000000
00000000
00000000
00000000
00000000
,
00002000
00000000
00000000
00000000
,
00003003
00000001
00000100
00001000
00010000
00001000
00000010
00000001
,
00000100
00001000
00010000
00001000
00000010
00000001
00000100
00001000
,
00010000
00100000
10000000
01000000
00010000
00001000
00010000
00100000
,
10000000
01000000
00010000
00001000
00010000
00100000
10000000
01000000
,
00010000
00000000
00001000
00100000
00000000
00010000
00100000
00000000
00001000
00010000
00000000
00000010
00001000
00000010
00010000
00001000
,
00000010
00000000
00000100
00010000
00000000
00001000
00010000
00000000
00001000
00000010
00000000
00000001
00000100
00000001
00001000
00000100
,
00000010
00000000
00001000
00010000
00000000
00001000
01000000
00000000
00010000
00100000
00000000
01000000
00010000
01000000
00100000
00010000
,
10000000
00200000
00000000
00320000
00000000
00032000
00000000
00003200
,
00000000
00000000
00000000
00000301
00000000
00000010
00000000
00000100
00000000
00001000
00000000
00000100
00001000
00000100
00010000
00001000
00000000
00100000
00000000
00010000
00000000
10000000
00000000
00100000
,
01000000
00010000
01000000
00100000
00000000
10000000
00000000
01000000
00000000
00010000
00000000
00001000
00100000
00010000
00100000
00001000
00000000
00010000
00000000
00000100
00000000
00001000
00000000
00000001
,
00000100
00000010
00000100
00000001
00000000
00001000
00000000
00000100
00000000
00010000
00000000
00001000
00100000
00010000
00100000
00001000
00000000
00010000
00000000
00100000
00000000
10000000
00000000
00010000
,
01000000
00100000
01000000
00010000
00000000
10000000
00000000
01000000
00000000
00010000
00000000
00001000
01000000
00010000
01000000
00001000
00000000
00010000
00000000
00000100
00000000
00001000
00000000
00000001
,
00000100
00000010
00000100
00000001
00000000
00001000
00000000
00000100
00000000
00010000
00000000
00001000
00100000
00010000
00100000
00001000
00000000
00010000
00000000
00100000
00000000
10000000
00000000
00010000
,
01000000
00100000
10000000
00010000
00000000
00100000
00000000
00001000
00000000
00010000
00000000
00000100
00001000
00000001
00000010
00000100
00000000
00010000
00000000
00001000
00000000
01000000
00000000
00010000
,
10000000
00100000
01000000
00010000
00000000
10000000
00000000
01000000
00100000
00010000
00000000
00100000
00001000
00010000
00001000
01000000
00010000
01000000
00001000
00010000
00000100
00001000
00000100
00000010
,
00000001
00000000
00001000
00000000
00000100
00000000
00000010
00000000
00000000
00000001
00000000
00000000
00001000
00000000
00000000
00000100
00000000
00000000
00010000
00000000
00000000
00001000
00000000
00000000
00010000
00000000
00000000
00000010
00000000
00000000
00001000
00000000
00000000
00000010
00000000
00000000
00010000
00000000
00000000
00001000
00000000
00000000
01000000
00000000
00000000
00010000
00000000
00000000
,
00100000
01000000
00100000
00010000
01000000
00001000
00010000
00000010
00001000
00000100
00000010
00000100
00001000
00000001
00000010
00000100
,
00000010
00000001
00001000
00000010
00001000
00000100
00010000
00000100
00001000
00000010
00010000
00001000
01000000
00010000
01000000
00001000
,
00010000
00001000
00100000
00010000
01000000
00100000
10000000
01000000
00100000
00010000
01000000
00001000
00010000
00000010
00001000
00000100
,
00000010
00000001
00000100
00000010
00000100
00000001
00000010
00000100
00010000
00001000
00100000
01000000
00100000
00001000
00010000
00001000
,
01000000
00010000
01000000
00100000
10000000
00010000
00100000
00001000
00010000
00001000
01000000
00010000
00100000
00001000
00010000
00000010
,
00001000
00000100
00010000
00001000
00000010
00000001
00000010
00001000
00010000
00001000
00000100
00000001
00000100
00001000
00010000
00100000
,
10000000
00100000
00010000
00001000
00010000
01000000
10000000
01000000
00010000
00001000
00000010
00000001
00001000
00000010
00000100
00001000
,
01000000
00010000
00200000
00000000
00000000
00000000
00000000
00000000
00300000
00000000
00000000
00000000
00000000
00000000
02000000
00000000
,
03020000
00032000
00003000
00000000
00000000
00000020
00000030
00000000
,
00000000
00000220
00000330
00000000
00000000
00000000
00000000
00022000
,
00033000
00022000
00033000
00000000
00000000
00200000
00300000
00000000
,
00000000
20020000
00000000
00000000
30030000
00000000
00000000
10000000
,
01000000
00010000
00000000
00000000
00000000
00000100
00000000
00000000
,
00000000
00001000
00000000
00000000
00000000
00000000
00000000
00000001
,
00000000
00000001
00000000
00000000
00000000
00000010
00000000
00000000
;
