#VERSION:0.83;
#TITLE:少年リップルズ;
#SUBTITLE:;
#ARTIST:常盤ゆう;
#TITLETRANSLIT:Shounen ripples;
#SUBTITLETRANSLIT:;
#ARTISTTRANSLIT:Yu Tokiwa;
#GENRE:EMOCTRO;
#CREDIT:;
#MUSIC:Shounen ripples.ogg;
#BANNER:Shounen ripples.png;
#BACKGROUND:Shounen ripples-bg.png;
#CDTITLE:./CDTitles/jubeat ripples APPEND.png;
#SAMPLESTART:66.771;
#SAMPLELENGTH:15.000;
#SELECTABLE:YES;
#OFFSET:0.634;
#BPMS:0.000=210.000;
#STOPS:;
#TIMESIGNATURES:0.000=4=4;
#BGCHANGES:1.000=Shounen ripples.mp4=1.000=0=0=0=StretchNoLoop====,
99999.000=-nosongbg-=1.000=0=0=0=StretchNoLoop====
;
#FGCHANGES:;

//--------------- dance-single - forcednature ----------------
#NOTEDATA:;
#STEPSTYPE:dance-single;
#DESCRIPTION:forcednature;
#DIFFICULTY:Beginner;
#METER:1;
#RADARVALUES:0,0,0,0,0;
#CREDIT:forcednature;
#NOTES:
0000
0000
0000
0000
,
0000
0000
0000
0000
,
0000
0000
0000
0000
,
0000
0000
0000
0000
,
0000
0000
0000
0000
,
0001
0000
0000
0000
,
0000
0000
0000
0000
,
0000
0000
0000
0000
,
0000
0000
0000
0000
,
1000
0000
0000
0000
,
0000
0000
0000
0000
,
0000
0000
0000
0000
,
0000
0000
0000
0000
,
0010
0000
0000
0000
,
0000
0000
0000
0000
,
0000
0000
0000
0000
,
0000
0000
0000
0000
,
0100
0000
0000
0000
,
0000
0000
0000
0000
,
0000
0000
0000
0000
,
0000
0000
0000
0000
,
0001
0000
0000
0000
,
0000
0000
0000
0000
,
0000
0000
0000
0000
,
0000
0000
0000
0000
,
1000
0000
0000
0000
,
0000
0000
0000
0000
,
0000
0000
0000
0000
,
0000
0000
0000
0000
,
0100
0000
0000
0000
,
0000
0000
0000
0000
,
0000
0000
0000
0000
,
0000
0000
0000
0000
,
0010
0000
0000
0000
,
0000
0000
0000
0000
,
0000
0000
0000
0000
,
0000
0000
0000
0000
,
0001
0000
0000
0000
,
0000
0000
0000
0000
,
0001
0000
0000
0000
,
0000
0000
0000
0000
,
1000
0000
0000
0000
,
0000
0000
0000
0000
,
1000
0000
0000
0000
,
0000
0000
0000
0000
,
0010
0000
0000
0000
,
0000
0000
0000
0000
,
0000
0000
0000
0000
,
0000
0000
0000
0000
,
0100
0000
0000
0000
,
0000
0000
0000
0000
,
0000
0000
0000
0000
,
0000
0000
0000
0000
,
1001
0000
0000
0000
,
0000
0000
0000
0000
,
0000
0000
0000
0000
,
0000
0000
0000
0000
,
1000
0000
0000
0000
,
0000
0000
0000
0000
,
0001
0000
0000
0000
,
0000
0000
0000
0000
,
0100
0000
0000
0000
,
0000
0000
0000
0000
,
0010
0000
0000
0000
,
0000
0000
0000
0000
,
1000
0000
0000
0000
,
0000
0000
0000
0000
,
0001
0000
0000
0000
,
0000
0000
0000
0000
,
0010
0000
0000
0000
,
0000
0000
0000
0000
,
0100
0000
0000
0000
,
0000
0000
0000
0000
,
1000
0000
0000
0000
,
0000
0000
0000
0000
,
0010
0000
0000
0000
,
0000
0000
0000
0000
,
0100
0000
0000
0000
,
0000
0000
0000
0000
,
0001
0000
0000
0000
,
0000
0000
0000
0000
,
1000
0000
0000
0000
,
0000
0000
0000
0000
,
0100
0000
0000
0000
,
0000
0000
0000
0000
,
0010
0000
0000
0000
,
0000
0000
0000
0000
,
0001
0000
0000
0000
,
0000
0000
0000
0000
,
1000
0000
0000
0000
,
0000
0000
0000
0000
,
0010
0000
0000
0000
,
0000
0000
0000
0000
,
0100
0000
0000
0000
,
0000
0000
0000
0000
,
1001
0000
0000
0000
;

//--------------- dance-single - forcednature ----------------
#NOTEDATA:;
#STEPSTYPE:dance-single;
#DESCRIPTION:forcednature;
#DIFFICULTY:Easy;
#METER:8;
#RADARVALUES:0,0,0,0,0;
#CREDIT:forcednature;
#NOTES:
0000
0000
0000
0000
,
0000
0000
0000
0000
,
0000
0000
0000
0000
,
0000
0000
0000
0000
,
0000
0000
0000
0000
,
1001
0000
0000
0001
,
0000
0000
0001
0000
,
1000
0000
1000
0000
,
1000
0000
1000
0000
,
0010
0000
0100
0010
,
0000
0010
0100
0000
,
0001
0000
1000
0001
,
0000
0001
1000
0000
,
1001
0000
0001
0000
,
0020
0000
0000
0000
,
0130
0000
1000
0000
,
0020
0000
0000
0000
,
0130
0000
0001
0000
,
2000
0000
0000
0000
,
3100
0000
0010
0000
,
0002
0000
0000
0000
,
0003
0100
0001
0000
,
0100
0000
0010
0000
,
1000
0000
0001
1000
,
0001
0000
0010
0000
,
0100
0000
1000
0001
,
1000
0000
0010
0000
,
0100
0000
0001
0010
,
0001
0000
1000
0000
,
1001
0000
0001
0000
,
0100
0010
0100
0000
,
0001
0000
0010
0000
,
0100
1000
0001
0000
,
0100
0000
0010
0000
,
1000
0001
0010
0000
,
0100
0000
1000
0000
,
0001
0100
0010
0000
,
1000
0000
1000
0000
,
1000
1000
1000
0000
,
0100
0000
0100
0000
,
0100
0100
0100
0000
,
0010
0000
0010
0000
,
0010
0010
0010
0000
,
0001
0001
0001
0000
,
0100
0000
0010
0000
,
1001
0000
0001
0100
,
0001
0000
1000
0000
,
0010
0000
1000
0100
,
1000
0000
0001
0000
,
1001
0000
1000
0010
,
0100
0000
0001
0000
,
1001
0000
1000
0100
,
0010
0000
0001
0000
,
0100
0000
0100
0010
,
0000
0010
0100
0000
,
0001
0000
0001
1000
,
0000
1000
0001
0000
,
1001
0000
1000
0010
,
0100
0000
0001
0000
,
1000
0100
1000
0000
,
0001
0010
0001
1000
,
0001
0100
0001
0000
,
1000
0010
1000
0001
,
1000
0100
1000
0000
,
0001
0010
0001
1000
,
0010
0000
0100
0001
,
1000
0000
0100
0010
,
0110
0000
0100
1000
,
0001
0000
0010
0000
,
0001
0000
0100
0001
,
1000
0000
0010
0000
,
0110
0000
0100
0000
,
0001
1000
0001
0000
,
0010
0000
0100
0000
,
1000
0001
1000
0000
,
0010
0100
0001
1000
,
0010
0100
0001
1001
,
1000
0100
0010
0001
,
1000
0010
0100
0110
,
0010
1000
0001
0010
,
0100
1000
0001
0000
,
1001
0000
1000
0010
,
0100
0000
0001
0001
,
1001
0000
1000
0100
,
1000
0001
0010
0001
,
1001
0000
1000
0010
,
0100
0001
0010
0100
,
0110
0010
0001
0100
,
0110
0010
1000
0100
,
1001
0001
0100
0010
,
0110
0100
0001
0000
,
1000
0000
1000
0100
,
0000
0010
0001
0000
,
1001
0000
0001
0100
,
0000
0010
1000
0000
,
2002
0000
0000
0000
,
0000
0000
0000
0000
,
0000
0000
0000
0000
,
0000
0000
0000
0000
,
0000
0000
0000
0000
,
3003
0000
0000
0000
;

//--------------- dance-single - forcednature ----------------
#NOTEDATA:;
#STEPSTYPE:dance-single;
#DESCRIPTION:forcednature;
#DIFFICULTY:Medium;
#METER:12;
#RADARVALUES:0,0,0,0,0;
#CREDIT:forcednature;
#NOTES:
0000
0000
0000
0000
,
0000
0000
0000
0000
,
0000
0000
0000
0000
,
0000
0000
0000
0000
,
0000
0000
0000
0000
,
1001
0000
1000
0001
,
0100
0000
0001
0010
0001
0000
0000
0000
,
0010
0000
0001
0100
0001
0000
1000
0000
,
0100
1000
0010
0000
0110
0000
0000
0000
,
0100
0001
0000
0100
0001
0000
0010
0001
,
0000
1000
0010
0000
1000
0100
1000
0000
,
0010
1000
0000
0010
1000
0000
0100
1000
,
0000
0001
0100
0000
0020
0000
0030
0000
,
1001
2000
3200
0320
,
0032
0000
0000
0000
,
0003
0200
0320
2030
,
3002
0000
0000
0023
0000
0000
0230
0000
,
0300
2000
3002
0203
,
0320
0000
0000
0000
,
0030
2000
3200
2300
,
3001
0000
0100
0000
0001
1000
0001
0000
,
1001
1000
0100
0000
,
0010
0100
1000
0001
,
0020
0000
0031
1000
,
0020
0000
0130
0001
,
2000
0000
3100
0010
,
0002
0000
0103
0010
,
2000
0000
3001
0010
,
0100
0010
0100
0000
1000
0000
0001
0000
,
1001
0000
1000
0000
0010
0000
0100
0001
,
0100
0000
0010
0000
1000
0000
0100
1000
,
0100
0000
0010
0000
0001
0000
0100
0010
,
1000
0000
0001
0000
0010
0000
0100
1000
,
0001
0000
0100
0000
0010
1000
0001
0100
,
0000
0001
0010
0100
,
0110
0000
0000
0000
0010
0001
1000
0100
,
0000
0000
1000
0001
1000
0000
0010
0000
,
0110
0000
0100
0001
0000
0000
0000
0000
,
0010
0100
0010
0001
0100
0010
0100
0000
,
0110
0000
0010
1000
0000
0000
0000
0000
,
0100
0000
0001
0100
1000
0000
0001
0000
,
0011
0000
0001
1000
0000
0000
0010
1000
,
0000
0100
1000
0000
0010
0000
0100
0000
,
0001
0000
0010
0100
0000
0010
0001
1000
,
0000
0010
0010
0000
0100
0001
1000
0000
,
1001
0000
0001
0000
0010
0100
0000
2200
,
0000
3300
0000
1000
0010
1000
0000
1010
,
0000
0010
0100
0000
0001
0010
0000
0022
,
0000
0033
0000
0000
0001
0000
0100
0000
,
0110
0000
0010
0000
1000
0100
0000
0220
,
0000
0330
0000
0010
0001
1000
0000
2020
,
0000
0030
0000
0000
3010
0000
0100
0001
,
0000
0021
0000
0000
0130
0000
1000
0000
,
0001
0100
0000
0010
0100
0000
0001
0010
,
0000
0100
0010
0000
0001
1000
0001
0000
,
1000
0100
0000
0010
0100
0000
1000
0010
,
0000
0100
0010
0000
1000
0001
1000
0000
,
0100
0010
0000
0110
0000
0100
0010
0002
,
0000
0000
1003
0000
0010
0010
0010
0000
,
1100
0000
0101
0000
0001
1000
0010
0000
,
1000
0100
0000
0010
0100
0000
0110
0000
,
1001
0000
0001
0100
0010
0100
0001
0000
,
1000
0010
0000
0100
0010
0000
1010
0000
,
1100
0000
0100
0010
0000
0001
0010
0000
,
0100
1000
0000
0010
1000
0010
0100
0000
,
0220
0000
0330
0000
0100
0001
1000
0020
,
0000
0030
0100
0001
,
0011
0000
0010
0100
0000
1100
0000
2020
,
0000
0000
3030
0000
0001
0010
0100
1000
,
0001
0000
0100
0010
0000
1010
0000
2200
,
0000
3300
0100
0010
,
0001
0000
0001
0100
0000
0100
0010
0000
,
1000
0100
0000
1000
0001
0000
0100
0010
,
0200
1000
0010
0302
,
1000
0000
0010
0000
1003
0001
1000
0000
,
0101
0000
0001
0010
0100
1000
0100
0010
,
0000
0100
1000
0001
0010
0000
0110
0000
,
0100
1000
0001
0100
0000
0010
1000
0000
,
0001
0010
0000
0001
1000
0010
0100
0000
,
0110
0000
0010
1000
0000
0100
1000
0000
,
0001
0100
0000
0001
0010
0000
0110
0000
,
2200
0000
3300
0000
1000
0100
0010
0002
,
0000
0000
0003
0000
0100
0010
0100
0000
,
1001
0000
0001
0010
0100
0010
0001
0000
,
0100
0000
0001
0010
0100
0010
0001
0000
,
1001
0000
1000
0010
0100
0010
1000
0000
,
0100
0000
1000
0010
0100
0010
1000
0000
,
1001
0000
0001
0010
0100
1000
0100
0010
,
0001
0000
1000
0010
0100
0001
0100
0010
,
1000
0000
0100
0010
0001
1000
0010
0100
,
0000
0001
0000
0010
0000
1000
0000
0000
,
0010
0001
0000
0100
0001
0000
1000
0010
,
0000
1000
0100
0000
0010
0001
1000
0000
,
0001
0001
0000
0010
0010
0000
1000
1000
,
0000
0100
0100
0000
0001
1000
0001
0000
,
0020
0000
0000
0000
,
0000
0000
0000
0000
,
0000
0000
0000
0000
,
0000
0000
0000
0000
,
0000
0000
0000
0000
,
0030
0000
0000
0000
;

//--------------- dance-single - forcednature ----------------
#NOTEDATA:;
#STEPSTYPE:dance-single;
#DESCRIPTION:forcednature;
#DIFFICULTY:Hard;
#METER:15;
#RADARVALUES:0,0,0,0,0;
#CREDIT:forcednature;
#NOTES:
0000
0000
0000
0000
,
0000
0000
0000
0000
,
0000
0000
0000
0000
,
0000
0000
0000
0000
,
0000
0000
0000
0000
,
1001
0000
1000
0100
0000
0010
0100
0000
,
1000
0001
0010
0100
1000
0000
0001
0000
,
1001
0000
0001
0100
0000
1000
0100
0000
,
0001
1000
0010
0100
0001
0000
1000
0000
,
0001
0011
0000
0010
0110
0000
0100
1100
,
0000
1000
0010
0100
0001
0010
0100
0000
,
1000
1010
0000
0010
0110
0000
0100
0101
,
0000
0000
0001
0000
0010
0000
0100
0000
1000
0001
1000
0001
1000
0000
0000
0000
,
0101
0000
0001
1000
0100
0010
0001
0000
,
0200
0001
0010
1000
,
0310
0000
0100
0001
1000
0001
0010
0000
,
0100
0000
1000
0010
0000
0100
0001
0000
,
0010
0000
0100
0010
0001
1000
0010
1000
,
0200
0001
0010
1000
,
0310
0000
0100
1000
0001
1000
0010
0000
,
0100
0000
0100
0000
0100
0000
0000
0000
0001
1000
0001
0000
1000
0000
0000
0000
,
1001
0000
0001
0000
0100
0000
0010
1000
,
0000
0001
0010
0000
0100
0000
1000
0000
,
0002
0000
0100
0000
1003
0001
0010
0100
,
0000
1000
1010
0110
,
0200
0000
0001
0000
0310
1000
0001
0010
,
0000
0100
1100
1001
,
0201
0000
0010
0000
0301
1000
0100
0010
,
0000
0001
0100
0110
0000
0010
1000
0100
,
0010
0000
0100
1000
0001
0010
0001
1000
,
0010
0000
0100
0001
1000
0000
1100
0000
,
0120
0000
0001
0000
0130
1000
0001
0100
,
0000
0010
1000
0000
1100
0000
1010
0000
,
0210
0000
1000
0000
0310
1000
0001
0010
,
0000
0100
1000
0000
1010
0000
0011
0000
,
0201
0000
0010
0000
0301
0010
0100
1000
,
0000
0010
0100
1000
0100
0001
1000
0000
,
1100
0000
1000
0010
0002
0000
0003
0000
,
0010
0100
0001
0010
0100
0010
0001
0000
,
0101
0000
0001
0010
2000
0000
3000
0000
,
0010
0100
1000
0010
0100
0001
1000
0000
,
0010
0001
0010
2000
0000
3001
0010
2000
,
0000
3010
0001
0100
0010
1000
0100
0000
,
0001
0100
1000
0020
0000
0130
1001
0010
,
0000
1000
1000
0001
0100
0010
1000
0000
,
0011
0000
1000
0100
0010
0001
0000
0201
,
0000
0000
1300
0000
0100
0001
0000
0011
,
0000
0010
0100
1000
0001
0010
0000
1200
,
0000
0000
0301
0000
0100
0010
0001
0000
,
1000
0010
0100
0001
1000
0100
0000
1020
,
0000
0000
0031
0010
0100
0001
0000
0011
,
0000
0010
0100
1000
0001
0100
0010
2000
,
0000
3002
0000
0103
0010
1000
0010
0000
,
1000
1100
0000
0001
0101
0000
0010
0110
,
0000
0001
0100
1000
0001
0010
1000
0000
,
0001
0011
0000
1000
1010
0000
0100
0110
,
0000
1000
0100
0001
1000
0010
0001
0000
,
0100
0010
1000
0001
0000
1000
0100
0010
,
0000
0000
0001
0000
0100
0000
0001
0000
1000
0001
1000
0001
1000
0000
0000
0000
,
0001
0100
0010
0100
0001
1000
0010
1000
,
0001
0010
0100
1000
1010
0000
0101
0000
,
1000
0100
0010
0100
1000
0001
0010
0001
,
1000
0010
0100
0001
0011
0000
1100
0000
,
1000
0010
0100
1000
0100
0010
1000
0001
,
0010
0100
0001
0100
0010
0001
1001
0000
,
0110
0000
0001
0100
0010
1000
0001
0010
,
0000
0100
1000
0100
0010
0001
0011
0000
,
0001
0100
1000
0100
0000
0101
0000
0011
,
0000
0010
0100
1000
0001
0100
0010
0100
,
0001
0010
1000
0010
0000
0011
0000
0101
,
0000
0100
0010
1000
0100
0010
0001
0000
,
1000
0010
0100
1000
0100
0001
1000
0000
,
0001
0010
0100
0001
0100
1000
0001
0010
,
0002
0000
0100
0000
1003
0010
0100
0001
,
0000
0010
0010
0001
0100
0010
1000
0000
,
0001
0000
0010
0001
0010
0000
0100
0000
1000
0000
0010
1000
0010
0000
0100
0000
,
0001
0000
1000
0100
1000
0000
0100
0000
0010
0000
0001
0000
1001
0000
0000
0000
,
1000
0000
0010
0100
0010
0000
0100
0000
0001
0000
0010
0100
0010
0000
0100
0000
,
1000
0000
0001
0100
0001
0000
0100
0000
0110
0000
0010
0000
1001
0000
0000
0000
,
1000
0000
0100
1000
0100
0000
0010
0000
0001
0000
0100
0001
0100
0000
0010
0000
,
1000
0000
0001
1000
0001
0000
0010
0000
0120
0000
0000
0000
0130
0000
0000
0000
,
1001
0000
1000
0010
0100
0001
0010
0011
,
0000
0000
0001
0000
0100
0000
0010
0000
1000
0000
0100
1000
0100
0000
0000
0000
,
0110
0000
0010
0000
0001
0000
0100
0000
0010
0000
1000
0010
0100
0000
0001
0000
,
1000
0000
0100
0000
1000
0000
0010
0000
0100
0000
0001
0100
0010
0000
0000
0000
,
1001
0000
0001
0000
0100
0000
0001
0000
0010
0000
0100
1000
0001
0000
0100
0000
,
0010
0000
1000
0000
0100
0000
1000
0000
0010
0000
0100
0001
1000
0000
0000
0000
,
0001
0000
0010
0100
0010
0000
0001
0000
1000
0000
0010
0100
0001
0000
1000
0000
,
0100
0000
0010
0001
0010
0000
0100
0000
1000
0000
0001
1000
0010
0000
0100
0000
,
0001
0000
1000
0100
1000
0000
0010
0000
0100
0000
0001
1000
0100
0000
0110
0000
,
0000
0000
0011
0000
0000
0000
0101
0000
0000
0000
2200
0000
0000
3300
0000
0000
,
1000
1010
0000
0001
0011
0000
1000
1100
,
0000
0001
0101
0000
1000
0001
1001
0000
,
0011
0011
0000
0101
0101
0000
1100
1100
,
0000
1010
1010
0000
0110
0110
1001
0000
,
0020
0000
0000
0000
,
0000
0000
0000
0000
,
0000
0000
0000
0000
,
0000
0000
0000
0000
,
0000
0000
0000
0000
,
0030
0000
0000
0000
;

//--------------- dance-double - forcednature ----------------
#NOTEDATA:;
#STEPSTYPE:dance-double;
#DESCRIPTION:forcednature;
#DIFFICULTY:Easy;
#METER:8;
#RADARVALUES:0,0,0,0,0;
#CREDIT:forcednature;
#NOTES:
00000000
00000000
00000000
00000000
,
00000000
00000000
00000000
00000000
,
00000000
00000000
00000000
00000000
,
00000000
00000000
00000000
00000000
,
00000000
00000000
00000000
00000000
,
00011000
00000000
00000000
01000000
,
00000000
00000000
00010000
00000000
,
00100000
00000000
00100000
00000000
,
00100000
00000000
00100000
00000000
,
00001000
00000000
00010000
00000010
,
00000000
00000010
00010000
00000000
,
00000100
00000000
00001000
00000001
,
00000000
00000001
00001000
00000000
,
00001001
00000000
00000010
00000000
,
00020000
00000000
00000000
00000000
,
00031000
00000000
00100000
00000000
,
00020000
00000000
00000000
00000000
,
01030000
00000000
00100000
00000000
,
20000000
00000000
00000000
00000000
,
31000000
00000000
00100000
00000000
,
00002000
00000000
00000000
00000000
,
00003000
00010000
00000100
00000000
,
00010000
00000000
00000100
00000000
,
00010000
00000000
00001000
00100000
,
00001000
00000000
00100000
00000000
,
00001000
00000000
00010000
00000010
,
00010000
00000000
00000010
00000000
,
00010000
00000000
00001000
01000000
,
00001000
00000000
01000000
00000000
,
10010000
00000000
00010000
00000000
,
10000000
01000000
10000000
00000000
,
00010000
00000000
01000000
00000000
,
00001000
00010000
00001000
00000000
,
00000010
00000000
00000100
00000000
,
00001000
00000001
00001000
00000000
,
00000010
00000000
00010000
00000000
,
00001000
01000000
00001000
00000000
,
00010000
00000000
00010000
00000000
,
00010000
00010000
00010000
00000000
,
00000010
00000000
00000010
00000000
,
00000010
00000010
00000010
00000000
,
00001000
00000000
00001000
00000000
,
00001000
00001000
00001000
00000000
,
00000100
00000100
00000100
00000000
,
00010000
00000000
00001000
00000000
,
00011000
00000000
01000000
00010000
,
01000000
00000000
00100000
00000000
,
10000000
00000000
01000000
10000000
,
01000000
00000000
00010000
00000000
,
00011000
00000000
00001000
00100000
,
00001000
00000000
00010000
00000000
,
00011000
00000000
00010000
00000010
,
00010000
00000000
00001000
00000000
,
00000010
00000000
00000010
00000001
,
00000000
00000001
00000100
00000000
,
00001000
00000000
00001000
00010000
,
00000000
00010000
00100000
00000000
,
01100000
00000000
01000000
00010000
,
10000000
00000000
01000000
00000000
,
01100000
00000000
00100000
00000000
,
00001000
00010000
00000010
00010000
,
00001000
00000000
00100000
00000000
,
00010000
01000000
00010000
10000000
,
00100000
00000000
10000000
00000000
,
01000000
00100000
00010000
00100000
,
00001000
00000000
00010000
00000100
,
00010000
00000000
00001000
00000000
,
00011000
00000000
00010000
00000010
,
00001000
00000000
00000001
00000001
,
00000010
00000000
00000100
00010000
,
00001000
00000000
00100000
00000000
,
01100000
00000000
01000000
10000000
,
00010000
10000000
00100000
00000000
,
01000000
00000000
00001000
00001000
,
00010000
00000000
00000100
00000000
,
00000110
00000000
00000010
00000001
,
00000100
00000001
00000010
00000100
,
00010000
00001000
01000000
00010000
,
00100000
01000000
01100000
00000000
,
01000000
10000000
00010000
10000000
,
00100000
01000000
00001000
00000000
,
00011000
00000000
00010000
00000100
,
00001000
00000000
00000010
00000010
,
00001001
00000000
00010000
00001000
,
01000000
00001000
00100000
01000000
,
01100000
00000000
00100000
00001000
,
00010000
00000010
00001000
00000100
,
00000110
00000010
00000001
00000100
,
00001000
00010000
01000000
10000000
,
00100000
01000000
00001000
00010000
,
00011000
00011000
00011000
00000000
,
00000100
00000000
00000100
00010000
,
00000000
00001000
01000000
00000000
,
00011000
00000000
00100000
00001000
,
00000000
00010000
00000010
00000000
,
00000200
00000000
00000000
00000000
,
00000000
00000000
00000000
00000000
,
00000000
00000000
00000000
00000000
,
00000000
00000000
00000000
00000000
,
00000000
00000000
00000000
00000000
,
00000300
00000000
00000000
00000000
;

//--------------- dance-double - forcednature ----------------
#NOTEDATA:;
#STEPSTYPE:dance-double;
#DESCRIPTION:forcednature;
#DIFFICULTY:Medium;
#METER:12;
#RADARVALUES:0,0,0,0,0;
#CREDIT:forcednature;
#NOTES:
00000000
00000000
00000000
00000000
,
00000000
00000000
00000000
00000000
,
00000000
00000000
00000000
00000000
,
00000000
00000000
00000000
00000000
,
00000000
00000000
00000000
00000000
,
00011000
00000000
00010000
00100000
,
10000000
00000000
01000000
10000000
00100000
00000000
00000000
00000000
,
00011000
00000000
00001000
00000010
,
00000001
00000000
00000100
00000001
00000010
00000000
00000000
00000000
,
00000100
00010000
00000000
00000100
00010000
00000000
00001000
00100000
,
00000000
00001000
00100000
00000000
00010000
10000000
00010000
00000000
,
01000000
00001000
00000000
01000000
00001000
00000000
00010000
00000010
,
00000000
00010000
00000010
00000000
00002000
00000000
00003000
00000000
,
00001001
00000002
00000023
00000230
,
00020300
00000000
00000000
00000000
,
00030000
00002000
02003000
03020000
,
20030000
00000000
00000000
32000000
00000000
00000000
03020000
00000000
,
00030000
00002000
00003020
00000032
,
00000203
00000000
00000000
00000000
,
00000300
00000020
00020030
00030020
,
00001030
00000000
00001000
00000000
00000100
00010000
00001000
00000000
,
00011000
00010000
00001000
00000000
,
01000000
00010000
10000000
00100000
,
02000000
00000000
03001000
00010000
,
00000200
00000000
00010300
00001000
,
00200000
00000000
00301000
00010000
,
00000020
00000000
00010030
00001000
,
00000020
00000000
00000031
00001000
,
00000001
00000100
00000001
00000000
00000100
00000000
00001000
00000000
,
00011000
00000000
00010000
00000000
00100000
00000000
01000000
00100000
,
01000000
00000000
00010000
00000000
10000000
00000000
01000000
10000000
,
01000000
00000000
00100000
00000000
00001000
00000000
01000000
00010000
,
01000000
00000000
00001000
00000000
00010000
00000000
00000100
00001000
,
00000100
00000000
00000010
00000000
00000001
00001000
00000001
00001000
,
00000000
00000010
00010000
00001000
,
00011000
00000000
00000000
00000000
00100000
00010000
00100000
01000000
,
00000000
10000000
00010000
01000000
,
01100000
00000000
00100000
10000000
00000000
00000000
00000000
00000000
,
01000000
10000000
01000000
00000000
00100000
00010000
00100000
00000000
,
00011000
00000000
00010000
00000010
00000000
00000000
00000000
00000000
,
00000100
00000000
00001000
00000100
00000001
00000000
00000010
00000000
,
00000110
00000000
00000100
00010000
00000000
00000000
00000010
00010000
,
00000000
00001000
00010000
00000000
00001000
00000000
01000000
00000000
,
00010000
00000000
00100000
01000000
00000000
00100000
00010000
10000000
,
00000000
00100000
00100000
00000000
01000000
00001000
00010000
00000000
,
00011000
00000000
00001000
00000000
00000010
00000100
00000000
00000220
,
00000000
00000330
00000010
00000000
00000001
00000010
00000000
00000011
,
00000000
00000001
00000100
00000000
00001000
00010000
00000000
00022000
,
00000000
00033000
00000000
00000000
00010000
00000000
00100000
00000000
,
01100000
00000000
01000000
00000000
00010000
10000000
00000000
20020000
,
00000000
30030000
00000000
10000000
01000000
00010000
00000000
00022000
,
00000000
00003000
00000000
00000000
00030010
00000000
00000100
00000001
,
00000000
00000021
00000000
00000000
00000130
00000000
00010000
00000000
,
00001000
01000000
00000000
00100000
01000000
00000000
00001000
00100000
,
00000000
01000000
00100000
00000000
00001000
00010000
00001000
00000000
,
00010000
00000010
00000000
00000100
00000010
00000000
00010000
00000100
,
00000000
00000010
00000100
00000000
00010000
00001000
00010000
00000000
,
00100000
01000000
00000000
01100000
00000000
00100000
10000000
00020000
,
00000000
00000000
00130000
00000000
00001000
00001000
00001000
00000000
,
01001000
00000000
00010100
00000000
00000100
00001000
00000010
00000000
,
00000100
00001000
00000000
00000100
00000001
00000000
00000011
00000000
,
00001100
00000000
00000100
00010000
00001000
00010000
00000100
00000000
,
00001000
00000010
00000000
00010000
00001000
00000000
00011000
00000000
,
00101000
00000000
00100000
01000000
00000000
10000000
00100000
00000000
,
01000000
00001000
00000000
00010000
00000100
00001000
00000010
00000000
,
00000220
00000000
00000330
00000000
00000100
00000001
00001000
00000200
,
00000000
00000300
00010000
00001000
,
00011000
00000000
00010000
01000000
00000000
11000000
00000000
20200000
,
00000000
00000000
30300000
00000000
10000000
01000000
00010000
00001000
,
00100000
00000000
00001000
00010000
00000000
00010010
00000000
00000220
,
00000000
00000330
00000100
00001000
,
00000100
00000000
00000100
00000001
00000000
00000001
00000010
00000000
,
00000100
00010000
00000000
00001000
00100000
00000000
01000000
10000000
,
02000000
10000000
00100000
03020000
,
00001000
00000000
00000010
00000000
00031000
00010000
00001000
00000000
,
00011000
00000000
00010000
00000100
00001000
00000010
00001000
00000100
,
00000000
00010000
00001000
01000000
00010000
00000000
10010000
00000000
,
10000000
01000000
00010000
01000000
00000000
00100000
00001000
00000000
,
00010000
00000010
00000000
00001000
00000001
00000100
00001000
00000000
,
00001100
00000000
00000100
00000001
00000000
00000010
00000001
00000000
,
00000010
00001000
00000000
00010000
00001000
00000000
00100000
00000000
,
02200000
00000000
03300000
00000000
01000000
10000000
00100000
02000000
,
00000000
03000000
00000000
00000000
00010000
00100000
01000000
00000000
,
01100000
00000000
00100000
00001000
00010000
00001000
01000000
00000000
,
00001000
00000000
00010000
00000010
00001000
00000010
00010000
00000000
,
00011000
00000000
00001000
00000010
00000100
00000010
00000001
00000000
,
00000100
00001000
00000100
00000000
00000001
00001000
00000010
00000000
,
00000110
00000000
00000100
00001000
00010000
00001000
01000000
00010000
,
00100000
00000000
01000000
00010000
00001000
00010000
00000100
00001000
,
00000010
00000000
00010000
00001000
00100000
01000000
00010000
00002000
,
00000000
02003000
00000000
23000000
00000000
32000000
00000000
03000000
,
00010000
00100000
00000000
01000000
00010000
00000000
00001000
00000010
,
00000000
00000100
00001000
00000000
00000010
00000100
00000001
00000000
,
00000010
00000010
00000000
00001000
00001000
00000000
00010000
00010000
,
00000000
01000000
01000000
00000000
10000000
00100000
00010000
00000000
,
00002000
00000000
00000000
00000000
,
00000000
00000000
00000000
00000000
,
00000000
00000000
00000000
00000000
,
00000000
00000000
00000000
00000000
,
00000000
00000000
00000000
00000000
,
00003000
00000000
00000000
00000000
;

//--------------- dance-double - forcednature ----------------
#NOTEDATA:;
#STEPSTYPE:dance-double;
#DESCRIPTION:forcednature;
#DIFFICULTY:Hard;
#METER:16;
#RADARVALUES:0,0,0,0,0;
#CREDIT:forcednature;
#NOTES:
00000000
00000000
00000000
00000000
,
00000000
00000000
00000000
00000000
,
00000000
00000000
00000000
00000000
,
00000000
00000000
00000000
00000000
,
00000000
00000000
00000000
00000000
,
00011000
00010000
00100000
01100000
,
01000000
00000000
00010000
10000000
01000000
00000000
00010000
00000000
,
00011000
00000000
00001000
00000010
00000000
00000001
00000010
00000000
,
00000100
00000001
00000000
00000100
00001000
00000000
00001001
00000000
,
00000001
00000100
00000000
00000100
00001000
00000000
00001000
00010000
,
00000000
00010000
00100000
10000000
00010000
00100000
01000000
00000000
,
10000000
01000000
00000000
01000000
00010000
00000000
00010000
00001000
,
00000000
00001000
00000010
00000001
00000200
00000000
00000300
00000000
,
00001001
00000000
00000001
00000000
00000100
00001000
00010000
00000000
,
00200000
10000000
01000000
10300000
,
00100000
00000000
10000000
00000000
01000000
00010000
00001000
00000000
,
00000010
00000000
00000001
00000100
00000000
00001000
00000100
00000000
,
00000001
00000000
00000010
00000000
00000100
00010000
00001000
00100000
,
00020000
01000000
10000000
00130000
,
00010000
00000000
00001000
00000100
00001000
00000001
00000100
00000000
,
00001000
00001000
00001000
00000000
00011000
00000000
00010000
00100000
,
10000000
00000000
01000000
00000000
00010000
00000000
00001000
00000010
,
00000000
00000100
00001000
00000000
00000001
00000000
00000100
00000000
,
00002000
00000000
00000000
00000000
00013000
00001000
00010000
00100000
,
00000000
00000000
01000000
00001000
,
00020000
00000000
00000000
00000000
00030100
00001000
00000001
00000010
,
00000000
00000000
00000001
00000100
,
00002000
00000000
00000000
00000000
00013000
00100000
01000000
00100000
,
00000000
10000000
00000000
11000000
00000000
01000000
00010000
00001000
,
00000010
00000000
00000100
00001000
00000001
00000100
00001000
00000100
,
00000001
00000000
00000010
00000100
00010000
00000000
00011000
00000000
,
00101000
00000000
00100000
00010000
01000000
00001000
00100000
00010000
,
00000000
10000000
00100000
00000000
01100000
00000000
01001000
00000000
,
00011000
00000000
00010000
00000100
00001000
00000001
00000100
00000010
,
00000000
00000100
00001000
00000000
00011000
00000000
00101000
00000000
,
01100000
00000000
01000000
10000000
00010000
00100000
01000000
00010000
,
00000000
00001000
00000010
00000100
00001000
00000001
00000100
00000000
,
00000110
00000000
00000010
00000100
00002000
00000000
00003000
00000000
,
00010000
00100000
01000000
00010000
00100000
01000000
00010000
00000000
,
00011000
00000000
00001000
00100000
02000000
00000000
03000000
00000000
,
10000000
00100000
00010000
00001000
00100000
00010000
01000000
00000000
,
00001000
00100000
01000000
00020000
00000000
00030100
00010000
00002000
,
00000000
01003000
00001000
00010000
00000010
00001000
00000001
00000000
,
00000100
00001000
00010000
00002000
00000000
00013000
00100000
10000000
,
00000000
00010000
10000000
00000000
01000000
00000000
00010000
00000000
,
00011000
00000000
00001000
00000000
00000100
00000010
00000000
00000201
,
00000000
00000000
00001300
00000000
00000100
00000001
00000000
00000011
,
00000000
00000010
00000100
00000000
00010000
00001000
00000000
02010000
,
00000000
00000000
13000000
00000000
01000000
00010000
00100000
00000000
,
01100000
00000000
01000000
00010000
00001000
00100000
00000000
02000000
,
00000000
00000000
13000000
00010000
01000000
00001000
00000000
00011000
,
00000000
00010000
00000100
00001000
00000010
00010000
00001000
00000010
,
00000000
00000001
00000100
00000001
00000010
00001000
00010000
00000000
,
00000100
00000200
00000000
00000010
00000320
00000000
00001000
00002030
,
00000000
00013000
01000000
10000000
00100000
10000000
01000000
00000000
,
00010000
00020000
00000000
00001000
00032000
00000000
00000010
00003020
,
00000000
00000031
00000100
00001000
00010000
00000010
00001000
00000000
,
00000100
00010000
00000000
00011000
00000000
00001000
00100000
01000000
,
00000000
00000000
10000000
00000000
00010000
00000000
01000000
00000000
00001000
00010000
00001000
00010000
00001000
00000000
00000000
00000000
,
01000000
00100000
00010000
00001000
00100000
01000000
00010000
00001000
,
00000010
00000100
00001000
00000001
00000100
00000000
00000110
00000000
,
00000010
00001000
00010000
01000000
00100000
10000000
00010000
00100000
,
01000000
00010000
00001000
01000000
00100000
00000000
10010000
00000000
,
00010000
00100000
01000000
00010000
00001000
00010000
01000000
00100000
,
00001000
00000010
00000100
00001000
00000010
00000100
00000001
00000000
,
00001002
00000000
00001003
00000010
00000100
00001000
00010000
00200000
,
00000000
01300000
00010000
10000000
01000000
00000000
01100000
00000000
,
00101000
00000000
00001000
00010000
00000000
00010100
00000000
00000110
,
00000000
00000010
00000001
00000100
00001000
00000100
00000001
00000010
,
00000100
00000000
00010000
00001000
00000000
00101000
00000000
01100000
,
00000000
01000000
10000000
00100000
10000000
01000000
00010000
00000000
,
00011000
00000000
00001000
00000010
00000001
00000100
00000001
00000000
,
00000010
00001000
00010000
00000100
00010000
00000010
00000100
00001000
,
00020000
00000000
00000100
00000000
00031000
00100000
01000000
00010000
,
00000000
00011000
00011000
00000000
00001000
00000010
00000001
00000000
,
00000100
00001000
01000000
00010000
00100000
00001000
00010000
00100000
,
10000000
01000000
00010000
00001000
01000000
00100000
01100000
00000000
,
00010000
01000000
10000000
01000000
00001000
00100000
00010000
00001000
,
00000100
00010000
00000010
00000100
00000110
00000010
00001001
00000000
,
00001000
00000100
00000001
00000100
00010000
00001000
00100000
01000000
,
10000000
00100000
00010000
00100000
02100000
00000000
03001000
00000000
,
00021000
00000000
00030100
00000010
00001000
00010000
00000010
00000110
,
00000000
00001001
00001001
00000000
00000001
00000100
00001000
00000000
,
00011000
00000000
00000000
00000000
00010000
00000000
00100000
00000000
01000000
00000000
00010000
01000000
00010000
00000000
10000000
00000000
,
01000000
00000000
00010000
00000000
00001000
00000000
00100000
00000000
00010000
00000000
01000000
00010000
01000000
00000000
00000000
00000000
,
00011000
00000000
00000000
00000000
00001000
00000000
00000010
00000000
00000001
00000000
00000100
00000001
00000100
00000000
00000010
00000000
,
00001000
00000000
00100000
00000000
00010000
00000000
00000010
00000000
00010000
00000000
00001000
00010000
00001000
00000000
00000000
00000000
,
00100000
00000000
01000000
00100000
01000000
00000000
00100000
00000000
00001000
00000000
00010000
00001000
00010000
00000000
00001000
00000000
,
00000010
00000000
00000100
00000010
00000100
00000000
00000010
00000000
00001000
00000000
00010000
00001000
00010000
00000000
00001000
00000000
,
01000000
00100000
00010000
00001000
00000100
00000010
00000110
00000002
,
00000000
00002003
00000000
00023000
00000000
20030000
00000000
30000000
,
10000000
00100000
00000000
00010000
00001000
00000000
00000010
00000001
,
00000000
00000100
00001000
00000100
00000001
00000010
00001000
00000000
,
00000011
00000011
00000000
00000101
00000101
00000000
00001100
00001100
,
00000000
00000000
00011000
00000000
00011000
00000000
00000000
00000000
00100000
01000000
00100000
01000000
00100000
00000000
00000000
00000000
,
02000000
00000000
00000000
00000000
,
00000000
00000000
00000000
00000000
,
00000000
00000000
00000000
00000000
,
00000000
00000000
00000000
00000000
,
00000000
00000000
00000000
00000000
,
03000000
00000000
00000000
00000000
;
