#VERSION:0.83;
#TITLE:幸せのかたち;
#SUBTITLE:;
#ARTIST:あさき;
#TITLETRANSLIT:Shiawase no katachi;
#SUBTITLETRANSLIT:;
#ARTISTTRANSLIT:Asaki;
#GENRE:;
#CREDIT:;
#MUSIC:Shiawase no katachi.ogg;
#BANNER:Shiawase no katachi.png;
#BACKGROUND:Shiawase no katachi-bg.png;
#CDTITLE:./CDTitles/jb copious APPEND.png;
#SAMPLESTART:76.288;
#SAMPLELENGTH:15.000;
#SELECTABLE:YES;
#OFFSET:1.695;
#BPMS:0.000=119.000;
#STOPS:72.500=1.008;
#TIMESIGNATURES:0.000=4=4,
72.000=2=4,
74.000=4=4
;
#BGCHANGES:0.000=../BGAs/09te.mp4=1.000=0=0=0=StretchNoLoop====,
99999.000=-nosongbg-=1.000=0=0=0=StretchNoLoop====
;
#FGCHANGES:;

//--------------- dance-single - forcednature ----------------
#NOTEDATA:;
#STEPSTYPE:dance-single;
#DESCRIPTION:forcednature;
#DIFFICULTY:Beginner;
#METER:3;
#RADARVALUES:0,0,0,0,0;
#CREDIT:forcednature;
#NOTES:
0000
0000
0000
0000
,
0000
0000
0000
0000
,
0000
0000
0000
0000
,
1000
0000
0000
0000
,
0001
0000
0000
0000
,
0100
0000
0000
0000
,
0010
0000
0000
0000
,
1000
0000
0000
0000
,
0010
0000
0000
0000
,
0100
0000
0000
0000
,
0001
0000
0010
0000
,
0100
0000
0000
0000
,
1000
0000
0000
0000
,
0010
0000
0000
0000
,
0100
0000
0000
0000
,
0001
0000
0000
0000
,
1000
0000
0000
0000
,
0001
0000
0001
0000
,
0010
0000
0000
0000
,
0100
0000
0000
0000
,
0000
1000
0000
0000
,
0001
0000
0001
0000
,
0001
0000
0100
0000
,
0000
0000
0010
0000
,
1000
0000
0010
0000
,
0000
0000
1000
0000
,
1000
0000
0100
0000
,
0000
0000
0010
0000
,
0001
0000
0010
0000
,
0001
0000
0001
0000
,
0000
0000
1001
0000
,
0000
1000
0000
1000
,
0000
0001
0000
0001
,
0000
0100
0000
0010
,
0000
0000
1000
0000
,
1000
0000
0100
0000
,
0010
0000
1001
0000
,
0000
0000
0001
0000
,
0100
0000
0010
0000
,
1000
0000
0001
0000
,
1000
0000
0100
0000
,
1000
0000
0001
0000
,
0000
0000
0100
0100
,
0100
0000
0010
0010
,
0010
0000
1000
0000
,
0001
0000
0010
0010
,
0010
0000
1001
0000
,
0010
0000
1001
0000
,
0100
0000
1001
0000
,
0000
1000
0001
0000
,
0000
0100
0000
0000
,
1001
0000
0000
0000
;

//--------------- dance-single - forcednature ----------------
#NOTEDATA:;
#STEPSTYPE:dance-single;
#DESCRIPTION:forcednature;
#DIFFICULTY:Easy;
#METER:7;
#RADARVALUES:0,0,0,0,0;
#CREDIT:forcednature;
#NOTES:
0000
0000
0000
0000
,
0000
0000
0000
0000
,
0000
0000
0000
0000
,
1000
1000
0000
1000
,
0002
0000
0003
0000
,
0100
0000
0010
0000
1000
0010
1000
0000
,
0001
0010
0100
0000
,
0010
0000
0001
0000
1000
0001
1000
0000
,
0010
0100
0001
0000
,
0010
0000
0100
0100
,
1001
0000
0000
0000
1000
0001
0000
0000
,
0100
0000
0010
0010
,
1000
0000
0100
0100
,
1000
0000
0001
0001
,
0100
0000
0001
0010
,
0001
0000
1000
1000
,
0010
0000
0100
0001
,
0100
0100
0010
1000
,
2002
3003
1000
0100
,
1000
0100
1000
0000
0100
0000
0010
0000
,
0001
1000
0001
0100
,
0001
0100
0001
0000
0100
0000
0010
0000
,
1000
0001
1000
0001
,
0010
0100
0010
0000
0001
0000
1000
0000
,
0001
0100
0001
1000
,
0010
0100
0010
0000
1000
0000
0001
0000
,
1000
0000
0100
0010
,
0100
1000
0001
0001
,
0100
0000
0010
0000
2000
0000
0000
3000
,
0100
0000
1000
0000
0001
1000
0001
0000
,
0100
0010
1001
1001
,
0000
0000
1000
0100
1000
0000
0100
0000
,
0100
0000
0010
0001
0010
0000
0001
0000
,
0001
0000
0100
0001
0100
0000
0010
0000
,
0010
1000
1001
0000
,
0001
0010
0100
1000
,
0001
1000
0000
0000
0110
0000
0000
0000
,
0001
0000
1000
0000
0100
0010
0100
0000
,
0010
0000
0001
0000
1000
0010
1000
0000
,
0001
0100
0001
0010
,
0001
0000
0100
0000
0001
0010
0001
0000
,
1000
0010
1000
0100
,
0010
0000
0000
0000
0100
1000
0100
0000
,
0010
0000
0010
0000
0001
0100
0001
0000
,
0010
0010
1001
0000
,
1000
0010
1000
0000
0001
0000
0001
0000
,
0010
0100
0010
0000
0110
0000
0000
0000
,
1001
0000
0110
0000
,
1001
1000
0001
0100
,
0100
0010
1001
0000
,
0100
0010
0000
0000
,
2002
0000
0000
0000
,
0000
0000
0000
0000
0000
0000
0000
0000
0000
3003
0000
0000
0000
0000
0000
0000
;

//--------------- dance-single - forcednature ----------------
#NOTEDATA:;
#STEPSTYPE:dance-single;
#DESCRIPTION:forcednature;
#DIFFICULTY:Medium;
#METER:11;
#RADARVALUES:0,0,0,0,0;
#CREDIT:forcednature;
#NOTES:
0000
0000
0000
0000
,
0000
0000
0000
0000
,
0000
0000
0000
0000
,
1000
0000
0000
0000
1000
0000
0000
1000
0000
0000
0001
0000
0100
0000
0000
2002
,
0000
0000
0000
0000
0000
0000
0000
0000
0000
0000
0000
0000
3003
0000
0000
1001
,
0000
1000
0100
1000
0000
0001
0010
0001
,
0000
0000
0100
0000
0001
0000
0100
0000
0010
0000
1000
0000
0010
0000
0000
0110
,
0000
0100
0001
1000
0000
0001
0010
0100
,
0000
0000
1000
0000
0001
0000
1000
0001
0000
0000
0010
0000
0010
0000
0100
1000
,
0000
0000
0000
0000
0000
0000
0000
0000
0000
0000
0000
0000
0000
0000
0000
0000
0000
0000
0000
0000
0000
0000
0000
0000
0000
0000
1000
0000
0000
0000
0000
0000
0000
0000
0000
0000
0000
0000
0000
0000
0000
0000
0000
0000
0000
0000
0000
0000
0000
0000
0000
0000
0000
0000
0000
0000
0000
0000
0000
1000
0000
0000
0000
0000
0000
0000
0000
0000
0000
0000
0000
0000
0000
0000
0000
0000
0000
0000
0000
0000
0000
0000
0000
0000
0000
0000
0000
0000
0000
0000
0000
0000
0000
0000
0000
1000
0000
0000
0000
0000
0000
0000
0000
0000
0000
0000
0000
0000
0000
0000
0000
0000
0000
0000
0000
0000
0000
0000
0000
0000
0000
0000
0000
0000
0000
0000
0000
0000
0000
0000
0000
1000
0000
0000
0000
0000
0000
0000
0000
0000
0000
0000
0000
0000
0100
0000
0000
0000
0000
0000
0000
0000
0000
0000
0000
0000
0010
0000
0000
0000
0000
0000
0000
0000
0000
0000
0000
0000
0000
0000
0000
0000
0000
0000
0000
0000
0000
0000
0000
0000
1001
0000
0000
0000
0000
0000
0000
0000
0000
0000
0000
0000
,
0000
0000
0001
0000
0100
0000
0000
0000
0001
1000
0001
1000
0000
0000
0000
0100
,
0000
0000
0100
0000
2000
0000
0000
0000
0000
0000
0000
0000
3000
0000
0000
0100
,
0000
0000
0100
0000
0020
0000
0000
0000
0000
0000
0000
0000
0030
0000
0000
0001
,
0000
0000
0001
0000
2000
0000
0000
0000
0000
0000
0000
0000
3000
0000
0000
0010
,
0000
0000
0010
0000
0100
0000
0000
0001
0000
0000
0001
0000
1000
0000
0000
1000
,
0200
0000
0000
0000
0010
0000
0000
0000
1000
0000
0000
0000
0310
0000
0000
0001
,
0000
0000
0001
0000
2000
0000
0000
0000
0010
0000
0000
0000
3100
0000
0000
1000
,
0000
0000
0001
0000
1000
0001
0000
0000
0100
0000
0001
0000
0010
0001
0000
1001
,
0000
0000
0220
0330
0000
0000
0000
1000
0000
0000
0100
0000
1000
0000
0100
0000
,
0010
0001
0010
0100
0000
1000
0001
0100
,
0010
0000
1000
0000
0001
0000
0010
0100
0000
0000
0100
0000
0010
0000
0001
0000
,
1000
0000
0001
0000
0100
0000
0010
1000
0000
0000
1000
0000
0001
0000
0010
0000
,
0001
0000
0100
0000
0010
1000
0010
1000
0000
0000
0001
0000
0010
0000
0001
0000
,
0100
0000
0010
0000
1000
0000
0100
0010
0000
0000
0100
0000
1000
0000
0001
0000
,
0100
0000
0010
0000
1000
0000
0001
0010
0000
0000
0100
0000
0010
0000
0001
0000
,
1000
0000
0001
0000
0100
0000
0010
1000
0000
0000
0100
0000
0010
0000
0100
0010
,
0000
0000
0001
0000
1000
0000
0001
1000
0000
0000
0010
0000
0100
0000
0010
0100
,
0000
0000
0001
0000
1000
0000
0001
1000
0000
0000
0001
0000
0010
0000
0001
0010
,
0000
0000
0100
0000
1000
0000
0100
1000
0000
0000
0001
0000
0100
0000
0001
0100
,
0000
0000
0010
0000
1000
0000
1001
0000
0000
0000
0001
0000
0100
0000
0100
0010
,
0000
0000
1000
0000
0001
1000
0001
0000
0010
0000
0000
0110
0000
0000
0000
0000
,
0000
0100
1000
0100
0000
0010
0100
0010
,
0000
0000
0001
0000
0010
0000
0001
1000
0000
0000
0000
1001
0000
0000
0001
0000
,
0100
0000
0001
0000
1000
0000
0000
0000
0010
0000
0000
0010
0000
0010
0000
0010
,
0000
1000
0001
0010
0000
0110
0000
0100
,
1000
0000
0000
0001
0000
0000
0200
0000
0000
0000
0320
0000
0000
0000
1030
0000
,
0001
1000
0001
1000
0000
0000
0000
0000
0100
0000
0000
0010
0000
0000
0001
0000
,
0000
0000
1000
0000
0001
0000
0100
0001
0000
0000
1000
0000
0010
0000
1000
0001
,
0000
0000
0010
0000
0100
0010
0100
0010
0000
0000
0001
0000
1000
0000
0001
0100
,
0000
0000
0010
0000
1000
0000
0001
2000
0000
0000
3000
0000
0100
0000
0010
0001
,
0000
0000
0010
0000
0100
0000
1000
0001
0000
0000
0100
0000
0010
0000
1000
0010
,
0000
0000
1000
0000
0001
0000
0010
0002
0000
0000
0003
0000
0100
0000
0010
1000
,
0000
0000
0001
0000
0010
0000
0000
0110
0000
0000
0100
0000
1000
0000
0000
1001
,
0000
0000
0001
0000
0100
0000
0000
0110
0000
0000
0010
0000
1000
0000
0000
1100
,
0000
0000
0001
0000
1000
0001
1000
0001
0000
0000
0100
0000
0010
0000
1000
0000
,
0010
0000
0100
0000
0010
0000
1000
0001
0000
0000
0010
0000
0100
0000
0010
0001
,
0010
0000
0100
0000
1000
0001
1000
0000
0020
0000
0000
0000
0030
0000
0000
0220
,
0000
0000
0000
0000
0330
0000
0000
0000
2002
0000
0000
0000
3003
0000
0000
0220
,
0000
0000
0000
0330
0000
0000
0000
0000
0000
0000
0000
0000
1000
0000
0000
0000
0010
0000
0000
0000
1000
0000
0000
0000
0002
0000
0000
0000
0000
0000
0000
0000
0000
0000
0000
0000
0013
0000
0000
0000
0000
0000
0000
0000
0000
0100
0000
0000
,
0000
0000
0000
0000
0000
0000
0000
0000
0100
0000
0000
0000
0000
0000
0000
0000
0010
0000
0000
0000
0000
0000
0000
0000
0000
0000
0000
0000
0000
0000
0000
0000
1001
0000
0000
0000
0000
0000
0000
0000
0000
0000
0000
0000
0000
0000
0000
0000
1000
0000
0000
0000
0000
0000
0000
0000
0000
0000
0000
0000
0000
0100
0000
0000
,
0000
0000
0000
0000
0000
0000
0000
0000
0000
0000
0000
0000
0000
0000
0000
0000
0000
0000
0000
0000
0000
0000
0000
0000
0000
0000
0000
0100
0000
0000
0000
0000
0000
0000
0000
0000
0000
0000
0000
0000
0000
0000
0000
0000
0000
0000
0000
0000
0000
0000
0000
0000
0000
0000
0010
0000
0000
0000
0000
0000
0000
0000
0000
0000
0000
0000
0000
0000
0000
0000
0000
0000
0000
0000
0000
0000
0000
0000
0000
0000
0000
0000
0000
0000
0000
0000
0000
0000
0000
0000
0000
0000
0000
0000
0000
0000
0000
0000
0001
0000
0000
0000
0000
0000
0000
0000
0000
0000
0000
0000
0000
0000
0000
0000
0000
0000
0000
0000
0000
0000
0000
0000
0000
0000
0000
0000
0000
0000
0000
0000
0000
0000
0000
0000
0000
0000
0000
0000
0000
0000
0000
0000
0000
0000
0000
0000
0000
0000
0000
0000
0000
0000
0000
0000
0000
0000
0000
0000
0000
0000
0000
0000
0000
0000
0000
0000
0000
0000
0000
0000
0000
0000
0000
0000
0000
0000
0000
0000
0000
0000
0000
0000
0000
0000
0000
0000
0000
0000
0000
0000
0000
0000
,
2002
0000
0000
0000
,
0000
0000
0000
0000
0000
0000
0000
0000
0000
3003
0000
0000
0000
0000
0000
0000
;

//--------------- dance-single - forcednature ----------------
#NOTEDATA:;
#STEPSTYPE:dance-single;
#DESCRIPTION:forcednature;
#DIFFICULTY:Hard;
#METER:14;
#RADARVALUES:0,0,0,0,0;
#CREDIT:forcednature;
#NOTES:
0000
0000
0000
0000
,
0000
0000
0000
0000
,
0000
0000
0000
0000
,
1001
0000
0000
0000
0101
0000
0000
0010
0000
0000
0010
0000
0101
0000
0000
1001
,
0000
0000
0000
0000
0000
0000
2000
0000
0000
0000
3002
0000
0203
0000
0310
1000
,
0000
1000
0100
0000
0010
0000
0001
1000
0001
0000
0100
0000
0010
1000
0001
0020
,
0000
0000
0130
0000
0010
0000
0001
2000
0000
0000
3010
0000
1000
0100
0010
0002
,
0010
0000
0000
0000
1003
0000
0001
0200
0000
0000
0310
0000
1000
0000
0001
2000
,
0100
0000
0100
0000
3001
0000
1000
0010
0000
0010
0100
0001
0100
0001
0010
0100
,
0000
0000
0000
0000
0000
0000
0000
0000
0000
0000
0000
0000
0000
0000
0000
0000
0000
0000
0000
0000
0000
0000
0000
0000
0000
0000
1100
0000
0000
0000
0000
0000
0000
0000
0000
0000
0000
0000
0000
0000
0000
0000
0000
0000
0000
0000
0000
0000
0000
0000
0000
0000
0000
0000
0000
0000
0000
0000
0000
0110
0000
0000
0000
0000
0000
0000
0000
0000
0000
0000
0000
0000
0000
0000
0000
0000
0000
0000
0000
0000
0000
0000
0000
0000
0000
0000
0000
0000
0000
0000
0000
0000
0000
0000
0000
0101
0000
0000
0000
0000
0000
0000
0000
0000
0000
0000
0000
0000
0000
0000
0000
0000
0000
0000
0000
0000
0000
0000
0000
0000
0000
0000
0000
0000
0000
0000
0000
0000
0000
0000
0000
0100
0000
0000
0000
0000
0000
0000
0000
0000
0000
0000
0000
0000
0010
0000
0000
0000
0000
0000
0000
0000
0000
0000
0000
0000
0001
0000
0000
0000
0000
0000
0000
0000
0000
0000
0000
0000
0000
0000
0000
0000
0000
0000
0000
0000
0000
0000
0000
0000
1001
0000
0000
0000
0000
0000
0000
0000
0000
0000
0000
0000
,
0000
0000
0001
0100
0010
0100
0000
0010
1000
0100
0010
0001
0000
0000
0000
1001
,
0000
0000
1000
0000
0020
0000
0000
0000
0130
0000
0000
0000
0001
0000
0000
1001
,
0000
0000
1000
0000
0200
0000
0000
0000
0310
0000
0000
0000
0001
0000
0010
0001
,
0000
0000
0001
0000
0200
0000
0000
0000
0310
0000
0000
0000
0010
0000
1000
0002
,
0000
0000
0013
0000
0100
0000
0000
1000
0001
0000
0001
0000
0101
0000
0100
0010
,
0000
0000
1000
0000
0001
0000
0010
0001
0000
0000
1000
0000
0010
0000
0100
0001
,
0000
0001
0010
0000
0100
0000
1000
0001
0000
0000
0100
0000
0010
1000
0000
1100
,
0000
0100
0010
0000
0001
1000
0000
0010
0100
0000
0100
0000
0001
0010
0000
0110
,
0000
0000
2002
3003
1000
0100
0010
0001
0000
0001
0100
0000
0010
0000
1000
0100
,
0000
0100
0010
0000
0001
0000
1000
0010
0000
1000
0100
0000
0010
0000
1000
0010
,
0000
0010
0001
0000
0100
0001
1000
0010
0000
0010
0100
0000
1000
0000
0100
0001
,
0000
0010
0001
0000
1000
0010
0100
0001
0000
0100
0001
0000
0010
0000
0100
1000
,
0000
0010
1000
0010
0100
0010
0100
0001
0000
0010
0001
0000
1000
0000
0010
0100
,
0000
0100
0001
0000
0010
0000
0100
1000
0000
0010
1000
0000
0001
0000
0010
0100
,
0010
0000
1000
0000
0001
0000
0100
1000
0000
0000
0010
0000
0100
0000
1000
0001
,
0000
0000
0010
0000
1000
0100
0010
0001
0000
0000
0100
0000
0010
1000
0010
1000
,
0000
0100
0010
0000
0001
0000
0100
0010
0000
1000
0010
0000
0100
0000
0000
0101
,
0000
0000
0011
0000
0010
0000
0100
1000
0000
0001
0100
0000
0010
0000
0000
1010
,
0000
0000
1100
0000
0100
0000
0010
0001
0000
0001
0100
0000
0010
0000
1000
0001
,
1000
0000
0100
0001
0100
0000
0010
0001
0000
0000
0100
0001
0100
0010
1000
0001
,
0000
0010
0100
0010
1000
0010
0001
0000
0011
0000
0000
0011
0000
0000
0001
0000
,
0000
0000
0100
0000
0010
0000
1000
0200
0000
0000
1300
0000
0010
0000
0100
0002
,
0000
0000
1003
0000
0010
1000
0100
1000
0010
0000
1000
0010
0000
0100
0010
0000
,
0100
0000
0001
0000
0010
0001
0010
0000
0100
0000
1000
0001
0000
0001
0000
0100
,
0000
0010
1000
0000
0100
0010
0100
0000
0010
0000
0001
0010
0001
0000
0000
0000
,
0200
0000
0000
0320
0000
0000
2030
0000
0000
0000
0100
0000
0001
0000
3010
0000
,
1000
0001
1000
0100
0000
0000
0010
0000
0110
0000
0100
0000
0001
0000
0100
1000
,
0000
0010
1000
0000
0001
0010
0001
0100
0000
0010
1000
0000
0100
0010
0100
0001
,
0000
0100
1000
0010
1000
0010
0100
0001
0000
0010
0001
0000
0100
0000
0010
1000
,
0000
0001
0010
0000
0100
0010
0100
1000
0000
0001
1000
0010
1000
0000
0100
0010
,
0000
1000
0010
0000
0001
0000
0100
0001
0000
0100
0010
0000
0001
0000
0010
1000
,
0000
0100
1000
0000
0001
0000
0010
1000
0000
0010
0001
0000
0100
0010
0100
0010
,
0000
1000
0010
0000
1000
0100
0010
0001
0000
0100
1000
0000
1100
0000
0100
0001
,
0000
0010
0001
0000
0101
0000
0100
0010
0000
1000
0010
0000
1000
0100
0010
0100
,
0000
0001
0100
0010
0100
0010
0001
1000
0000
0010
0001
0000
0010
0000
0100
0001
,
0000
0010
1000
0000
0010
0000
0100
1000
0000
0000
1010
0000
0010
0000
0100
0001
,
1000
0000
0000
0000
0000
0000
0100
0000
0000
0010
0000
0000
0001
0000
0010
0000
0001
0000
0010
0000
0000
0000
0000
0000
2002
0000
0000
0000
0000
0000
0000
0000
0000
0000
0000
0000
3003
0000
0000
0000
0000
0000
0000
0000
0000
0202
0000
0000
,
0000
0000
0000
0000
0303
0000
0000
0000
2002
0000
0000
0000
3003
0000
0000
2200
,
0000
3000
0000
0000
0310
0000
0000
0000
0110
0000
0000
0000
0100
0000
0000
1000
,
0000
0000
0000
0000
0000
0000
0000
0000
1000
0000
0000
0000
0000
0000
0000
0000
0010
0000
0000
0000
0000
0000
0000
0000
0000
0000
0000
0000
0000
0000
0000
0000
0110
0000
0000
0000
0000
0000
0000
0000
0000
0000
0000
0000
0000
0000
0000
0000
0100
0000
0000
0000
0000
0000
0000
0000
0000
0000
0000
0000
0000
0001
0000
0000
,
0000
0000
0000
0000
0000
0000
0000
0000
0000
0000
0000
0000
0000
0000
0000
0000
0000
0000
0000
0000
0000
0000
0000
0000
0000
0000
0000
0001
0000
0000
0000
0000
0000
0000
0000
0000
0000
0000
0000
0000
0000
0000
0000
0000
0000
0000
0000
0000
0000
0000
0000
0000
0000
0000
0010
0000
0000
0000
0000
0000
0000
0000
0000
0000
0000
0000
0000
0000
0000
0000
0000
0000
0000
0000
0000
0000
0000
0000
0000
0000
0000
0000
0000
0000
0000
0000
0000
0000
0000
0000
0000
0000
0000
0000
0000
0000
0000
0000
0100
0000
0000
0000
0000
0000
0000
0000
0000
0000
0000
0000
0000
0000
0000
0000
0000
0000
0000
0000
0000
0000
0000
0000
0000
0000
0000
0000
0000
0000
0000
0000
0000
0000
0000
0000
0000
0000
0000
0000
0000
0000
0000
0000
0000
0000
0000
0000
0000
0000
0000
0000
0000
0000
0000
0000
0000
0000
0000
0000
0000
0000
0000
0000
0000
0000
0000
0000
0000
0000
0000
0000
0000
0000
0000
0000
0000
0000
0000
0000
0000
0000
0000
0000
0000
0000
0000
0000
0000
0000
0000
0000
0000
0000
,
2002
0000
0000
0000
,
0000
0000
0000
0000
0000
0000
0000
0000
0000
3003
0000
0000
0000
0000
0000
0000
;

//--------------- dance-double - forcednature ----------------
#NOTEDATA:;
#STEPSTYPE:dance-double;
#DESCRIPTION:forcednature;
#DIFFICULTY:Easy;
#METER:6;
#RADARVALUES:0,0,0,0,0;
#CREDIT:forcednature;
#NOTES:
00000000
00000000
00000000
00000000
,
00000000
00000000
00000000
00000000
,
00000000
00000000
00000000
00000000
,
00001000
00010000
00000000
00001000
,
02000000
00000000
03000000
00000000
,
00100000
10000000
01000000
00100000
,
00010000
00000000
01000000
00000000
,
00001000
00010000
00000100
00001000
,
00000001
00000000
00000100
00000000
,
00000010
00000000
00010000
00001000
,
00010000
00000000
01000000
00000000
,
01100000
00000000
00100000
00010000
,
10000000
00000000
00010000
01000000
,
00001000
00000000
00010000
00001000
,
00010000
00000000
00000100
00001000
,
00000100
00000000
00000010
00000001
,
00001000
00000000
00000001
00000100
,
00000010
00000010
00001000
00000010
,
00020000
00030000
00001000
00100000
,
00000000
00010000
10000000
00010000
,
01000000
00100000
10000000
01000000
,
00000000
00100000
01000000
00100000
,
00001000
00010000
00000100
00001000
,
00000000
00000001
00000010
00000001
,
00000100
00000010
00001000
00000010
,
00000000
00010000
00001000
01000000
,
00010000
00100000
01000000
00000000
,
10000000
00010000
01000000
01000000
,
00001000
00000000
00010000
00000000
00002000
00000000
00000000
00003000
,
00010000
00000100
00001000
00000001
,
00000010
00000000
00000110
00000110
,
00000000
00000100
00010000
00001000
,
00100000
00001000
00010000
00000010
,
00000000
00010000
00001000
01000000
,
00010000
01000000
01100000
00000000
,
00100000
10000000
00010000
10000000
,
01000000
00000000
01100000
00000000
,
00100000
00010000
00100000
00001000
,
00010000
00000000
00011000
00000000
,
00001000
00010000
00000010
00001000
,
00000010
00000100
00000001
00000000
,
00000010
00000100
00001000
00000100
,
00010000
00001000
01000000
01000000
,
00010000
00010000
10000000
10000000
,
00010000
00010000
00100000
00000000
,
01000000
10000000
00010000
01000000
,
00001000
00000000
00011000
00000000
,
00000100
00000000
00001001
00000000
,
00000010
00000110
00000000
00001000
,
00000100
00010000
00011000
00000000
,
00001000
01000000
00000000
00000000
,
20020000
00000000
00000000
00000000
,
00000000
00000000
00000000
00000000
00000000
00000000
00000000
00000000
00000000
30030000
00000000
00000000
00000000
00000000
00000000
00000000
;

//--------------- dance-double - forcednature ----------------
#NOTEDATA:;
#STEPSTYPE:dance-double;
#DESCRIPTION:forcednature;
#DIFFICULTY:Medium;
#METER:10;
#RADARVALUES:0,0,0,0,0;
#CREDIT:forcednature;
#NOTES:
00000000
00000000
00000000
00000000
,
00000000
00000000
00000000
00000000
,
00000000
00000000
00000000
00000000
,
00001000
00000000
00000000
00000000
00010000
00000000
00000000
01000000
00000000
00000000
10000000
00000000
00100000
00000000
00000000
20020000
,
00000000
00000000
00000000
00000000
00000000
00000000
00000000
00000000
00000000
00000000
00000000
00000000
30030000
00000000
00000000
10010000
,
00000000
10000000
01000000
00010000
00000000
01000000
00010000
00001000
,
00000000
00000000
00010000
00000000
00001000
00000000
00000010
00000000
00000100
00000000
00000010
00000000
00000001
00000000
00000000
00001001
,
00000000
00001000
00000010
00010000
00000000
00001000
01000000
00010000
,
00000000
00000000
00100000
00000000
01000000
00000000
00010000
01000000
00000000
00000000
10000000
00000000
01000000
00000000
10000000
00100000
,
00000000
00000000
00000000
00000000
00000000
00000000
00000000
00000000
00000000
00000000
00000000
00000000
00000000
00000000
00000000
00000000
00000000
00000000
00000000
00000000
00000000
00000000
00000000
00000000
00000000
00000000
01000000
00000000
00000000
00000000
00000000
00000000
00000000
00000000
00000000
00000000
00000000
00000000
00000000
00000000
00000000
00000000
00000000
00000000
00000000
00000000
00000000
00000000
00000000
00000000
00000000
00000000
00000000
00000000
00000000
00000000
00000000
00000000
00000000
01000000
00000000
00000000
00000000
00000000
00000000
00000000
00000000
00000000
00000000
00000000
00000000
00000000
00000000
00000000
00000000
00000000
00000000
00000000
00000000
00000000
00000000
00000000
00000000
00000000
00000000
00000000
00000000
00000000
00000000
00000000
00000000
00000000
00000000
00000000
00000000
01000000
00000000
00000000
00000000
00000000
00000000
00000000
00000000
00000000
00000000
00000000
00000000
00000000
00000000
00000000
00000000
00000000
00000000
00000000
00000000
00000000
00000000
00000000
00000000
00000000
00000000
00000000
00000000
00000000
00000000
00000000
00000000
00000000
00000000
00000000
00000000
01000000
00000000
00000000
00000000
00000000
00000000
00000000
00000000
00000000
00000000
00000000
00000000
00000000
00010000
00000000
00000000
00000000
00000000
00000000
00000000
00000000
00000000
00000000
00000000
00000000
01000000
00000000
00000000
00000000
00000000
00000000
00000000
00000000
00000000
00000000
00000000
00000000
00000000
00000000
00000000
00000000
00000000
00000000
00000000
00000000
00000000
00000000
00000000
00000000
00011000
00000000
00000000
00000000
00000000
00000000
00000000
00000000
00000000
00000000
00000000
00000000
,
00000000
00000000
00001000
00000000
00010000
00000000
00000000
00000000
00010000
00001000
00010000
00001000
00000000
00000000
00000000
00000010
,
00000000
00000000
00000010
00000000
00000200
00000000
00000000
00000000
00000000
00000000
00000000
00000000
00000300
00000000
00000000
00001000
,
00000000
00000000
00001000
00000000
00000002
00000000
00000000
00000000
00000000
00000000
00000000
00000000
00000003
00000000
00000000
00000100
,
00000000
00000000
00001000
00000000
00020000
00000000
00000000
00000000
00000000
00000000
00000000
00000000
00030000
00000000
00000000
01000000
,
00000000
00000000
00010000
00000000
00001000
00000000
00000000
00100000
00000000
00000000
00010000
00000000
00100000
00000000
00000000
01000000
,
20000000
00000000
00000000
00000000
00100000
00000000
00000000
00000000
01000000
00000000
00000000
00000000
30100000
00000000
00000000
10000000
,
00000000
00000000
01000000
00000000
00020000
00000000
00000000
00000000
00001000
00000000
00000000
00000000
00030100
00000000
00000000
00010000
,
00000000
00000000
00001000
00000000
00000010
00000000
00000000
00000100
00001000
00000000
00000001
00000000
00000010
00000100
00000000
00000110
,
00000000
00000000
00002002
00003003
00000000
00000000
00000000
00001000
00000000
00000000
00000001
00000000
00000100
00000000
00001000
00000000
,
00010000
00001000
00100000
00010000
00000000
10000000
01000000
00010000
,
00001000
00000000
00010000
00000000
00000010
00000000
00001000
00000010
00000000
00000000
00000100
00000000
00001000
00000000
00000100
00000000
,
00000001
00000000
00000010
00000000
00000001
00000000
00001000
00000010
00000000
00000000
00010000
00000000
00001000
00000000
00100000
00000000
,
00010000
00000000
00100000
00000000
00001000
00010000
00001000
00010000
00000000
00000000
00000010
00000000
00001000
00000000
00000010
00000000
,
00010000
00000000
00001000
00000000
01000000
00000000
00010000
01000000
00000000
00000000
00100000
00000000
10000000
00000000
00010000
00000000
,
10000000
00000000
01000000
00000000
00010000
00000000
00001000
00010000
00000000
00000000
00001000
00000000
00000010
00000000
00000001
00000000
,
00000100
00000000
00000001
00000000
00000010
00000000
00000100
00000010
00000000
00000000
00000100
00000000
00010000
00000000
00001000
00010000
,
00000000
00000000
00001000
00000000
01000000
00000000
00010000
01000000
00000000
00000000
01000000
00000000
00100000
00000000
01000000
00100000
,
00000000
00000000
10000000
00000000
00010000
00000000
10000000
00010000
00000000
00000000
10000000
00000000
01000000
00000000
00100000
01000000
,
00000000
00000000
00100000
00000000
00001000
00000000
00010000
00001000
00000000
00000000
00010000
00000000
00000010
00000000
00001000
00000010
,
00000000
00000000
00000100
00000000
00000001
00000000
00000010
00000000
00000000
00000000
00000100
00000000
00010000
00000000
00010000
00002000
,
00000000
00000000
01003000
00000000
00010000
01000000
00010000
00000000
00100000
00000000
00000000
01100000
00000000
00000000
00000000
00000000
,
00000000
01000000
10000000
01000000
00000000
00010000
01000000
00010000
,
00000000
00001000
00010000
00001000
00000000
00000110
00000000
00000001
,
00000100
00000000
00001000
00000000
00000000
00000000
00010000
00000000
00001000
00000000
00000000
00100000
00000000
00100000
00000000
00100000
,
00000000
00001000
00010000
00100000
00000000
01100000
00000000
01000000
,
00010000
00000000
00000000
10000000
00000000
00000000
02000000
00000000
00000000
00000000
03020000
00000000
00000000
00000000
00031000
00000000
,
00010000
00001000
00010000
00001000
00000000
00000000
00000000
00000000
00000010
00000000
00000000
00000100
00000000
00000000
00010000
00000000
,
00000000
00000000
00000010
00000000
00001000
00000000
00000010
00000100
00000000
00000000
00000001
00000000
00000010
00000000
00000001
00000000
,
00000100
00000000
00001000
00000000
00010000
00001000
00010000
00001000
00000000
00000000
01000000
00000000
00010000
00000000
01000000
00100000
,
00000000
00000000
00100000
00000000
10000000
00000000
00010000
20000000
00000000
00000000
30000000
00000000
01000000
00000000
00100000
00010000
,
00000000
00000000
00100000
00000000
00001000
00000000
00010000
00001000
00000000
00000000
00010000
00000000
00000010
00000000
00010000
00000000
,
00000000
00000000
00001000
00000000
00000010
00000000
00000001
00000020
00000000
00000000
00000030
00000000
00000100
00000000
00010000
00001000
,
00000000
00000000
01000000
00000000
00010000
00000000
00000000
00110000
00000000
00000000
00100000
00000000
01000000
00000000
00000000
11000000
,
00000000
00000000
10000000
00000000
00100000
00000000
00000000
01100000
00000000
00000000
01000000
00000000
00001000
00000000
00000000
00011000
,
00000000
00000000
00010000
00000000
00001000
00010000
00001000
00010000
00000000
00000000
00000100
00000000
00000010
00000000
00001000
00000000
,
00000010
00000000
00000001
00000000
00001000
00000000
00000001
00000100
00000000
00000000
00001000
00000000
00010000
00000000
00100000
00000000
,
01000000
00000000
00100000
00000000
10000000
00010000
10000000
00000000
02000000
00000000
00000000
00000000
03000000
00000000
00000000
02200000
,
00000000
00000000
00000000
00000000
03300000
00000000
00000000
00000000
00022000
00000000
00000000
00000000
00033000
00000000
00000000
00000220
,
00000000
00000000
00000000
00000330
00000000
00000000
00000000
00000000
00000000
00000000
00000000
00000000
00000001
00000000
00000000
00000000
00001000
00000000
00000000
00000000
00000001
00000000
00000000
00000000
00000200
00000000
00000000
00000000
00000000
00000000
00000000
00000000
00000000
00000000
00000000
00000000
00001300
00000000
00000000
00000000
00000000
00000000
00000000
00000000
00000000
00010000
00000000
00000000
,
00000000
00000000
00000000
00000000
00000000
00000000
00000000
00000000
00010000
00000000
00000000
00000000
00000000
00000000
00000000
00000000
00001000
00000000
00000000
00000000
00000000
00000000
00000000
00000000
00000000
00000000
00000000
00000000
00000000
00000000
00000000
00000000
00011000
00000000
00000000
00000000
00000000
00000000
00000000
00000000
00000000
00000000
00000000
00000000
00000000
00000000
00000000
00000000
00010000
00000000
00000000
00000000
00000000
00000000
00000000
00000000
00000000
00000000
00000000
00000000
00000000
01000000
00000000
00000000
,
00000000
00000000
00000000
00000000
00000000
00000000
00000000
00000000
00000000
00000000
00000000
00000000
00000000
00000000
00000000
00000000
00000000
00000000
00000000
00000000
00000000
00000000
00000000
00000000
00000000
00000000
00000000
01000000
00000000
00000000
00000000
00000000
00000000
00000000
00000000
00000000
00000000
00000000
00000000
00000000
00000000
00000000
00000000
00000000
00000000
00000000
00000000
00000000
00000000
00000000
00000000
00000000
00000000
00000000
10000000
00000000
00000000
00000000
00000000
00000000
00000000
00000000
00000000
00000000
00000000
00000000
00000000
00000000
00000000
00000000
00000000
00000000
00000000
00000000
00000000
00000000
00000000
00000000
00000000
00000000
00000000
00000000
00000000
00000000
00000000
00000000
00000000
00000000
00000000
00000000
00000000
00000000
00000000
00000000
00000000
00000000
00000000
00000000
00100000
00000000
00000000
00000000
00000000
00000000
00000000
00000000
00000000
00000000
00000000
00000000
00000000
00000000
00000000
00000000
00000000
00000000
00000000
00000000
00000000
00000000
00000000
00000000
00000000
00000000
00000000
00000000
00000000
00000000
00000000
00000000
00000000
00000000
00000000
00000000
00000000
00000000
00000000
00000000
00000000
00000000
00000000
00000000
00000000
00000000
00000000
00000000
00000000
00000000
00000000
00000000
00000000
00000000
00000000
00000000
00000000
00000000
00000000
00000000
00000000
00000000
00000000
00000000
00000000
00000000
00000000
00000000
00000000
00000000
00000000
00000000
00000000
00000000
00000000
00000000
00000000
00000000
00000000
00000000
00000000
00000000
00000000
00000000
00000000
00000000
00000000
00000000
00000000
00000000
00000000
00000000
00000000
00000000
,
20020000
00000000
00000000
00000000
,
00000000
00000000
00000000
00000000
00000000
00000000
00000000
00000000
00000000
30030000
00000000
00000000
00000000
00000000
00000000
00000000
;

//--------------- dance-double - forcednature ----------------
#NOTEDATA:;
#STEPSTYPE:dance-double;
#DESCRIPTION:forcednature;
#DIFFICULTY:Hard;
#METER:13;
#RADARVALUES:0,0,0,0,0;
#CREDIT:forcednature;
#NOTES:
00000000
00000000
00000000
00000000
,
00000000
00000000
00000000
00000000
,
00000000
00000000
00000000
00000000
,
00011000
00000000
00000000
00000000
00010000
00000000
00000000
00100000
00000000
00000000
10000000
00000000
01000000
00000000
00000000
01100000
,
00000000
00000000
00000000
00000000
00000000
00000000
00200000
00000000
00000000
00000000
00302000
00000000
00023000
00000000
00030100
00001000
,
00000000
00000000
00000100
00000000
00000010
00000000
00000001
00000000
00000100
00000000
00001000
00000000
00010000
00000000
00100000
02000000
,
00000000
00000000
03010000
00000000
10000000
00000000
01000000
00200000
00000000
00000000
00301000
00000000
00010000
00000100
00001000
00000200
,
00000000
00000000
00000000
00000000
00000310
00000000
00000001
00000200
00000000
00000000
00000310
00000000
00010000
00000000
00001000
02000000
,
00000000
00000000
03010000
00000000
00100000
00000000
01000000
10000000
00000000
00100000
10000000
00100000
10000000
00010000
10000000
01000000
,
00000000
00000000
00000000
00000000
00000000
00000000
00000000
00000000
00000000
00000000
00000000
00000000
00000000
00000000
00000000
00000000
00000000
00000000
00000000
00000000
00000000
00000000
00000000
00000000
00000000
00000000
00010000
00000000
00000000
00000000
00000000
00000000
00000000
00000000
00000000
00000000
00000000
00000000
00000000
00000000
00000000
00000000
00000000
00000000
00000000
00000000
00000000
00000000
00000000
00000000
00000000
00000000
00000000
00000000
00000000
00000000
00000000
00000000
00000000
00001000
00000000
00000000
00000000
00000000
00000000
00000000
00000000
00000000
00000000
00000000
00000000
00000000
00000000
00000000
00000000
00000000
00000000
00000000
00000000
00000000
00000000
00000000
00000000
00000000
00000000
00000000
00000000
00000000
00000000
00000000
00000000
00000000
00000000
00000000
00000000
00000010
00000000
00000000
00000000
00000000
00000000
00000000
00000000
00000000
00000000
00000000
00000000
00000000
00000000
00000000
00000000
00000000
00000000
00000000
00000000
00000000
00000000
00000000
00000000
00000000
00000000
00000000
00000000
00000000
00000000
00000000
00000000
00000000
00000000
00000000
00000000
00000100
00000000
00000000
00000000
00000000
00000000
00000000
00000000
00000000
00000000
00000000
00000000
00000000
00001000
00000000
00000000
00000000
00000000
00000000
00000000
00000000
00000000
00000000
00000000
00000000
00000001
00000000
00000000
00000000
00000000
00000000
00000000
00000000
00000000
00000000
00000000
00000000
00000000
00000000
00000000
00000000
00000000
00000000
00000000
00000000
00000000
00000000
00000000
00000000
00001001
00000000
00000000
00000000
00000000
00000000
00000000
00000000
00000000
00000000
00000000
00000000
,
00000000
00000000
00001000
00000100
00010000
00001000
00000000
01000000
00010000
10000000
00010000
00100000
00000000
00000000
00000000
01100000
,
00000000
00000000
01000000
00000000
20000000
00000000
00000000
00000000
30100000
00000000
00000000
00000000
00010000
00000000
00000000
00011000
,
00000000
00000000
00001000
00000000
00000200
00000000
00000000
00000000
00000301
00000000
00000000
00000000
00000010
00000000
00000000
00000110
,
00000000
00000000
00000100
00000000
00020000
00000000
00000000
00000000
00031000
00000000
00000000
00000000
00100000
00000000
00000000
20010000
,
00000000
00000000
30100000
00000000
01100000
00000000
00000000
01000000
00001000
00000000
00010000
00000000
00001000
00000000
00000010
00000100
,
00000000
00000000
00001000
00000000
00000001
00000000
00000010
00000001
00000000
00000000
00000100
00000000
00001000
00000000
00010000
00001000
,
00000000
00000000
00100000
00000000
00010000
00000000
01000000
00010000
00000000
00000000
10000000
00000000
00100000
01000000
00000000
01100000
,
00000000
00000000
01000000
00000000
00010000
10000000
00000000
00000000
01000000
00000000
00010000
00000000
00001000
00010000
00000000
00011000
,
00000000
00000000
00020200
00030300
00000000
00000000
00000000
00000110
00000000
00000010
00000001
00000000
00000100
00000000
00001000
00010000
,
00001000
00000000
01000000
00000000
00010000
00000000
10000000
00100000
00000000
00000000
10000000
00000000
01000000
00000000
00010000
00001000
,
00010000
00000000
00000010
00000000
00001000
00000000
00000010
00000100
00000000
00000000
00000001
00000000
00000010
00000000
00000100
00001000
,
00000000
00000000
00000100
00000000
00010000
00000000
00001000
00100000
00000000
00000000
00110000
00000000
00000000
00000000
00010000
01000000
,
00000000
00100000
10000000
00100000
01000000
00100000
01000000
00010000
00000000
00100000
01000000
00000000
00100000
00000000
00001000
00000000
,
00000010
00000000
00000100
00000000
00010000
00000000
00000010
00001000
00000000
00000000
00000001
00000000
00000010
00000000
00000100
00001000
,
00000100
00000000
00010000
00000000
00001000
00000000
01000000
00010000
00000000
00000000
00100000
00000000
01000000
00000000
10000000
00010000
,
00000000
00000000
00100000
00000000
00001000
00010000
00000010
00001000
00000000
00000000
00000001
00000000
00000010
00000100
00001000
00000100
,
00000000
00010000
00001000
00000000
01000000
00000000
00000000
01100000
00000000
00000000
10010000
00000000
10000000
00000000
01000000
00010000
,
00000000
00001000
00010000
00000000
00000100
00000000
00001000
00000001
00000000
00000000
00000100
00000000
00000010
00000000
00001000
00000200
,
00000000
00000000
00010300
00000000
00001000
00000000
01000000
00010000
00000000
00010000
01000000
00000000
00100000
00000000
10000000
00010000
,
10000000
00000000
01000000
00000000
00010000
00000000
00011000
00000000
00000000
00000000
00010100
00000000
00000000
00000000
00000100
00000020
,
00000000
00000000
00000031
00001000
00000100
00001000
00000001
00000000
00000100
00000000
00000000
00011000
00000000
00000000
00000000
00000000
,
00000000
00000000
00100000
00000000
00001000
00000000
00010000
00001000
00000000
01000000
00001000
00000000
00010000
00000000
00000100
00001000
,
00000000
00000010
00001000
00000000
00000001
00000010
00000100
00000010
00000000
00000000
00001000
00010000
00000000
00001000
00100000
00000000
,
01000000
00000000
00010000
00000000
01000000
10000000
01000000
00000000
10000000
00000000
00100000
00010000
00000000
00010000
00000000
00001000
,
00000000
00000100
00000001
00000000
00000010
00000001
00000010
00000000
00000100
00000000
00010000
00001000
00100000
00000000
00010000
00000000
,
02000000
00000000
00000000
23000000
00000000
00000000
32000000
00000000
00000000
00000000
00010000
00000000
00010000
00000000
03001000
00000000
,
01000000
00010000
01000000
00001000
00000000
00000000
00000000
00000000
00011000
00000000
00001000
00000000
00000010
00000000
00000001
00000100
,
00000000
00000001
00000010
00000000
00001000
00010000
00001000
00100000
00000000
00010000
00100000
00000000
01000000
10000000
00010000
10000000
,
00000000
00100000
01000000
00010000
01000000
00100000
10000000
00010000
00000000
00100000
01000000
00000000
00010000
00000000
01000000
00100000
,
00000000
00001000
00000010
00000000
00000100
00001000
00000001
00000010
00000000
00000001
00000100
00000001
00001000
00000000
00000010
00010000
,
00000000
00100000
00010000
00000000
00001000
00000000
01000000
00010000
00000000
00100000
01000000
00000000
00010000
00000000
00001000
00100000
,
00000000
00001000
00000010
00000000
00000100
00000000
00010000
00000010
00000000
00001000
00000010
00000000
00000100
00001000
00000100
00000001
,
00000000
00000010
00000100
00000000
00010000
00001000
00100000
00010000
00000000
01000000
10000000
00000000
01000000
00010000
00100000
01000000
,
00000000
00010000
00001000
00000000
00000010
00000100
00001000
00000010
00000000
00000100
00001000
00000000
00000100
00000001
00000010
00000001
,
00000000
00001000
00000010
00010000
00001000
00010000
00000010
00001000
00000000
00000100
00010000
00000000
00001000
00000000
00100000
00010000
,
00000000
01000000
00001000
00000000
00010000
00000000
00100000
10000000
00000000
00000000
11000000
00000000
01000000
00000000
00010000
00001000
,
00000020
00000000
00000000
00000000
00000000
00000000
00000130
00000000
00000000
00000010
00000000
00000000
00000001
00000000
00001000
00000000
00000100
00000000
00001000
00000000
00000000
00000000
00000000
00000000
00002020
00000000
00000000
00000000
00000000
00000000
00000000
00000000
00000000
00000000
00000000
00000000
00003030
00000000
00000000
00000000
00000000
00000000
00000000
00000000
00000000
00022000
00000000
00000000
,
00000000
00000000
00000000
00000000
00033000
00000000
00000000
00000000
00220000
00000000
00000000
00000000
00330000
00000000
00000000
00022000
,
00000000
00003000
00000000
00000000
00030010
00000000
00000000
00000000
01001000
00000000
00000000
00000000
01000000
00000000
00000000
00010000
,
00000000
00000000
00000000
00000000
00000000
00000000
00000000
00000000
00100000
00000000
00000000
00000000
00000000
00000000
00000000
00000000
01000000
00000000
00000000
00000000
00000000
00000000
00000000
00000000
00000000
00000000
00000000
00000000
00010000
00000000
00000000
00000000
00001000
00000000
00000000
00000000
00000000
00000000
00000000
00000000
00000000
00000000
00000000
00000000
00000000
00000000
00000000
00000000
00000010
00000000
00000000
00000000
00000000
00000000
00000000
00000000
00000000
00000000
00000000
00000000
00000000
00000100
00000000
00000000
,
00000000
00000000
00000000
00000000
00000000
00000000
00000000
00000000
00000000
00000000
00000000
00000000
00000000
00000000
00000000
00000000
00000000
00000000
00000000
00000000
00000000
00000000
00000000
00000000
00000000
00000000
00000000
00010000
00000000
00000000
00000000
00000000
00000000
00000000
00000000
00000000
00000000
00000000
00000000
00000000
00000000
00000000
00000000
00000000
00000000
00000000
00000000
00000000
00000000
00000000
00000000
00000000
00000000
00000000
00001000
00000000
00000000
00000000
00000000
00000000
00000000
00000000
00000000
00000000
00000000
00000000
00000000
00000000
00000000
00000000
00000000
00000000
00000000
00000000
00000000
00000000
00000000
00000000
00000000
00000000
00000000
00000000
00000000
00000000
00000000
00000000
00000000
00000000
00000000
00000000
00000000
00000000
00000000
00000000
00000000
00000000
00000000
00000000
00100000
00000000
00000000
00000000
00000000
00000000
00000000
00000000
00000000
00000000
00000000
00000000
00000000
00000000
00000000
00000000
00000000
00000000
00000000
00000000
00000000
00000000
00000000
00000000
00000000
00000000
00000000
00000000
00000000
00000000
00000000
00000000
00000000
00000000
00000000
00000000
00000000
00000000
00000000
00000000
00000000
00000000
00000000
00000000
00000000
00000000
00000000
00000000
00000000
00000000
00000000
00000000
00000000
00000000
00000000
00000000
00000000
00000000
00000000
00000000
00000000
00000000
00000000
00000000
00000000
00000000
00000000
00000000
00000000
00000000
00000000
00000000
00000000
00000000
00000000
00000000
00000000
00000000
00000000
00000000
00000000
00000000
00000000
00000000
00000000
00000000
00000000
00000000
00000000
00000000
00000000
00000000
00000000
00000000
,
20020000
00000000
00000000
00000000
,
00000000
00000000
00000000
00000000
00000000
00000000
00000000
00000000
00000000
30030000
00000000
00000000
00000000
00000000
00000000
00000000
;
