#VERSION:0.83;
#TITLE:シャムシールの舞;
#SUBTITLE:;
#ARTIST:Zektbach;
#TITLETRANSLIT:Shamshir no mai;
#SUBTITLETRANSLIT:;
#ARTISTTRANSLIT:;
#GENRE:BATTLE DANCE;
#CREDIT:./CDTitles/pnm 14 FEVER!.png;
#MUSIC:Shamshir no mai.ogg;
#BANNER:Shamshir no mai.png;
#BACKGROUND:Shamshir no mai-bg.png;
#CDTITLE:;
#SAMPLESTART:33.325;
#SAMPLELENGTH:15.000;
#SELECTABLE:YES;
#OFFSET:2.048;
#BPMS:0.000=100.000
,28.000=155.000
,244.000=150.000
,246.000=142.000
,248.000=134.000
;
#STOPS:;
#TIMESIGNATURES:0.000=4=4;
#BGCHANGES:0.000=../BGAs/27em.mp4=1.000=0=0=0=StretchNoLoop====,
99999.000=-nosongbg-=1.000=0=0=0=StretchNoLoop====
;
#FGCHANGES:;

//--------------- dance-single - forcednature ----------------
#NOTEDATA:;
#STEPSTYPE:dance-single;
#DESCRIPTION:forcednature;
#CREDIT:forcednature;
#DIFFICULTY:Beginner;
#METER:3;
#RADARVALUES:0,0,0,0,0;
#NOTES:
0000
0000
0000
0000
,
0000
0000
0000
0000
,
0000
0000
0000
0000
,
0000
0000
0000
0000
,
0000
0000
0001
0000
,
0000
0000
0000
0000
,
1000
0000
0010
0000
,
0100
0000
0000
0000
,
0100
0000
0100
0000
,
0001
0000
0000
0000
,
0001
0000
0001
0000
,
0010
0000
0000
0000
,
0100
0000
0000
0000
,
1000
1000
1000
0000
,
0001
0000
0000
0000
,
1000
0000
0000
0000
,
0010
0000
0000
0000
,
0100
0100
0100
0000
,
0001
0000
0010
0000
,
1001
0000
0000
0000
,
1000
0000
0100
0000
,
1000
0000
0000
0000
,
0010
0000
0000
0000
,
1001
0000
0000
0000
,
0001
0000
0100
0000
,
0001
0000
0000
0000
,
0010
0000
0100
0100
,
0100
0000
1000
0000
,
0100
0000
1000
0000
,
0001
0000
1000
0000
,
0000
0010
0010
0010
,
0010
0000
0100
0000
,
0010
0000
0000
0000
,
0100
0000
0001
0000
,
1000
0000
0000
0000
,
0010
0000
0100
0000
,
0010
0000
0000
0000
,
0100
0000
0001
0000
,
1000
0000
0000
0000
,
1001
0000
0000
0000
,
0001
0000
0000
0000
,
0110
0000
0000
0000
,
1000
0000
0000
0000
,
0010
0000
0010
0000
,
0010
0000
0000
0000
,
0010
0000
0010
0000
,
0010
0000
0000
0000
,
1001
0000
0000
0000
,
0001
0000
0000
0000
,
0100
0100
0100
0100
,
0001
0000
0000
0000
,
0010
0000
0010
0000
,
0100
0000
1000
0000
,
0010
0010
0010
0010
,
0010
0000
0000
0000
,
0100
0000
0001
0000
,
1000
0000
0010
0000
,
1000
1000
1000
1000
,
1000
0000
0000
0000
,
0001
0001
0001
0001
,
0001
0000
0000
0000
,
0100
0000
0000
0000
,
1001
0000
0000
0000
,
0110
0000
0000
0000
,
1001
0000
0000
0000
,
1000
0000
0001
0000
,
2002
0000
0000
0000
,
0000
0000
0000
0000
,
3003
0000
0000
0000
;

//--------------- dance-single - forcednature ----------------
#NOTEDATA:;
#STEPSTYPE:dance-single;
#DESCRIPTION:forcednature;
#CREDIT:forcednature;
#DIFFICULTY:Easy;
#METER:8;
#RADARVALUES:0,0,0,0,0;
#NOTES:
0000
0000
0000
0000
,
0000
0000
0000
0000
,
0000
0000
0000
0000
,
0000
0000
0000
0000
,
0000
0000
1000
0100
,
1000
0001
0010
0000
,
0200
0000
2300
3000
,
1001
0001
0100
0000
,
0001
0001
0010
0000
,
1001
1000
0100
0000
,
1000
1000
0010
0000
,
0110
0000
0001
1000
,
0020
0000
0130
0001
,
1000
0100
0010
0100
,
1000
0001
0010
0000
,
1001
0000
1000
0100
,
0020
0000
0031
0100
,
0001
0010
0100
0010
,
0001
1000
0100
1001
,
1000
0010
0100
0010
,
1000
1000
0001
0100
,
0001
0010
0100
1000
,
0100
0010
0001
0000
,
1001
0001
0100
0001
,
1000
0010
0100
0010
,
1000
0100
0010
0001
,
0010
0100
1000
1001
,
0001
0100
1000
0100
,
0001
0100
1000
0100
,
0001
0010
1000
0010
,
0001
1001
1001
1001
,
1000
0010
1000
0100
,
1000
0010
1000
0000
,
0001
0100
0001
0010
,
0001
0100
0001
0000
,
0010
0100
1000
0010
,
0100
0001
0010
0000
,
0100
1000
0001
0100
,
0010
1000
1000
1000
,
1001
0000
0000
0000
,
0002
0000
0013
0000
,
1001
0000
0000
0000
,
2000
0000
3010
0000
,
1000
1000
0100
0100
,
1000
1000
0001
0010
,
0001
0001
0100
0100
,
0001
0001
1000
0010
,
2001
0000
3100
0010
,
0001
0100
0010
1000
,
1001
1001
0110
0110
,
1001
0001
0010
0001
,
0200
0300
0010
1000
,
0001
0010
1000
0010
,
0001
1001
1000
1001
,
0001
0100
0010
1000
,
0200
0300
1000
0001
,
0100
1000
0100
0001
,
1001
1001
0110
0110
,
1002
0000
1003
0010
,
1001
1001
0110
0110
,
2001
0000
3001
0010
,
2001
0000
3100
0010
,
0110
0001
1000
0010
,
1001
0100
0001
0010
,
0110
1000
1000
0001
,
0100
0010
0010
0100
,
2002
0000
0000
0000
,
0000
0000
0000
0000
,
3003
0000
0000
0000
;

//--------------- dance-single - forcednature ----------------
#NOTEDATA:;
#STEPSTYPE:dance-single;
#DESCRIPTION:forcednature;
#CREDIT:forcednature;
#DIFFICULTY:Medium;
#METER:10;
#RADARVALUES:0,0,0,0,0;
#NOTES:
0000
0000
0000
0000
,
0000
0000
0000
0000
,
0000
0000
0000
0000
,
0000
0000
0000
0000
,
0000
0000
0002
0203
,
0320
0000
2030
0000
3001
0010
0100
1000
,
0002
0000
0000
0000
0203
0000
0320
0030
,
1001
0000
1000
0000
0100
0100
0000
1000
,
0100
0000
1000
0000
0001
0010
0000
0000
,
0001
0000
1000
0000
0001
0001
0000
0100
,
0001
0000
0100
0000
0010
1000
0000
0000
,
1001
0000
0001
0010
0100
0010
0001
0000
,
2000
0000
0000
3100
0010
0000
0001
0000
,
1000
0000
0010
0100
0001
0000
0010
0001
,
1000
0000
0010
0100
0001
0000
0010
0000
,
1001
0000
1000
0010
0100
0010
1000
0000
,
0002
0000
0000
0013
0100
0000
1000
0000
,
0001
0100
0010
0000
1000
0100
0010
0000
,
0001
1000
0010
0000
0110
0000
1001
0000
,
1100
0000
0001
0010
0100
0010
0001
1000
,
0200
0000
0000
0310
0001
1000
0010
0000
,
0100
0001
1000
0010
1000
0100
0010
0001
,
0100
0010
1000
0001
0010
0100
1000
0000
,
1001
0000
0001
0100
0010
1000
0010
0100
,
0002
0000
0000
0013
0100
1000
0010
0000
,
0100
0001
0010
0001
1000
0010
0100
0001
,
1000
0100
0001
0100
0010
0000
1001
0000
,
0001
0100
1000
0000
1000
0100
0001
0000
,
0001
0100
1000
0000
0100
0000
1001
0000
,
1000
0100
0001
0000
0001
0100
1000
0000
,
1001
0011
0011
0011
,
2000
0000
3010
0100
0002
0000
0013
0100
,
1000
0010
0100
0010
2000
0000
0000
3001
,
0001
0010
0100
0010
0001
1000
0100
1000
,
0002
0000
0203
0000
0320
0000
0000
1030
,
2000
0000
3001
0010
0200
0000
0310
0001
,
1000
0010
0100
0001
2000
0000
0000
3100
,
0100
0010
0001
1000
0010
1000
0001
0010
,
0200
1000
0010
1300
,
1001
0002
0203
0320
,
1030
0100
2000
0000
3100
0010
0200
0300
,
1001
2000
3200
0320
,
0031
0100
0002
0000
0103
0010
0200
0000
,
0301
0010
0000
0100
1000
0010
0000
0100
,
0001
0010
0000
0100
1000
0010
0100
0000
,
0100
0010
0000
1000
0100
0010
0000
0001
,
0100
0010
0000
1000
0100
0010
0001
0000
,
2000
0000
0000
3010
0010
0000
0100
0000
,
0001
0000
0010
0100
0010
0000
0100
0000
,
1100
1100
0011
1001
,
1000
0000
0010
0100
0001
0000
0010
0000
,
0200
0000
0000
1300
0001
0000
0100
0000
,
0010
1000
0100
0001
0100
1000
0010
0000
,
0110
0110
0101
1001
,
1010
0000
0001
0010
0100
0000
0010
0000
,
0002
0000
0000
1003
0010
0000
1000
0000
,
0100
0001
0100
0001
0100
1000
0100
1000
,
0010
1010
0110
0101
,
0021
0000
0000
0130
0100
0000
1000
0000
,
1001
1010
0110
0101
,
0021
0000
0000
0100
0100
0000
0031
0000
,
0012
0000
0103
0010
,
2001
3200
0320
0032
,
0203
0320
2030
3002
,
0023
0000
0100
0000
0001
0001
0000
0001
,
0032
0203
0320
2030
,
3200
0000
0000
0000
,
0000
0000
0000
0000
,
0300
0000
0000
0000
;

//--------------- dance-single - forcednature ----------------
#NOTEDATA:;
#STEPSTYPE:dance-single;
#DESCRIPTION:forcednature;
#CREDIT:forcednature;
#DIFFICULTY:Hard;
#METER:14;
#RADARVALUES:0,0,0,0,0;
#NOTES:
0000
0000
0000
0000
,
0000
0000
0000
0000
,
0000
0000
0000
0000
,
0000
0000
0000
0000
,
0000
0000
2000
3002
,
0023
0000
0031
1000
0100
0001
0100
1000
,
0002
0000
0000
0000
0023
0000
0230
0300
,
1001
0000
1000
1000
0010
1000
0000
0001
,
0100
0001
0100
0001
0100
0000
0010
0000
1000
0000
0001
0000
0000
0000
0010
0000
,
1001
0000
0001
0001
0010
0001
0000
1000
,
0100
1000
0100
1000
0100
0000
0010
0000
0001
0000
1000
0000
0000
0000
0010
0000
,
1001
0000
0000
0000
1000
0100
0010
0100
1000
0000
0001
0000
0010
0000
0100
0000
,
2000
0000
0000
0000
0000
3000
0001
0100
0001
0000
1000
0000
0010
0000
0000
0000
,
0100
0000
0001
1000
0001
0000
0010
0000
0100
0000
1000
0000
0010
0000
0100
0000
,
0001
0010
1000
0010
0100
1000
0001
0000
,
1001
0000
0000
0000
0001
0100
0010
0100
0001
0000
1000
0000
0010
0000
0100
0000
,
0002
0000
0000
0000
0000
0003
1000
0100
1000
0000
0001
0000
0010
0000
0000
0000
,
0100
0000
1000
0001
1000
0000
0010
0000
0100
0000
0001
0000
0010
0000
0100
0000
,
1000
0010
0001
0010
0100
0000
0110
0000
,
1001
0000
0000
0000
0001
0010
0100
1000
0001
0000
0100
0000
0010
0000
1000
0000
,
0002
0000
0010
0000
0013
0000
0001
1000
0100
0000
0010
0000
0001
0000
0000
0000
,
1000
0000
0010
1000
0010
0000
0100
0000
0001
0000
0010
0000
0100
0000
1000
0000
,
0010
0000
0100
0010
0100
0000
0001
0000
1000
0000
0100
0000
0001
0000
0000
0000
,
0110
0000
0000
0000
1000
0010
0100
0001
1000
0000
0100
0000
0010
0000
0001
0000
,
2000
0000
0010
0000
3010
0000
1000
0001
0100
0000
0010
0000
1000
0000
0000
0000
,
0001
0000
0010
0001
0010
0000
0100
0000
1000
0000
0010
0000
0100
0000
0001
0000
,
0010
0000
0100
0010
0100
0000
1000
0000
0010
0000
0000
0000
1001
0000
0000
0000
,
0001
0000
0100
0010
0100
0000
0001
0000
1000
0000
0100
0010
0100
0000
1000
0000
,
0001
0000
0100
0010
0100
0000
0001
0000
0010
0100
1000
0000
0010
0100
0001
0000
,
1000
0000
0010
0100
0010
0000
1000
0000
0001
0000
0010
0100
0010
0000
0001
0000
,
0101
1010
0101
1010
,
2000
0000
3100
0001
2000
0000
3010
0001
,
1000
0000
0010
0100
0001
0000
1000
0000
0200
0000
0000
0000
0310
0000
0011
0000
,
0011
0001
0100
1000
0001
0010
1000
0001
,
0020
0000
1000
0000
0100
0000
0031
0101
,
0102
0000
1003
0100
0002
0000
1003
0010
,
0001
0000
0010
0100
1000
0000
0001
0000
0200
0000
0000
0000
0310
0000
1010
0000
,
1010
1000
0100
0001
1000
0010
0001
1000
,
0010
0000
0100
0010
0100
0000
0001
0000
0010
0000
0100
0010
0100
0000
1100
0000
,
1000
0002
0203
0320
,
1030
0100
0002
0000
1003
0010
0001
0000
,
1001
2000
3200
0320
,
0031
0100
2000
0000
3001
0010
2000
0000
,
3010
0000
0100
0001
0010
0000
0100
0000
0010
0000
0100
1000
0010
0000
0100
0000
,
0010
0000
0100
0001
0010
0000
0100
0000
1000
0000
1000
0000
0001
0000
0000
0000
,
0010
0000
0100
1000
0010
0000
0100
0000
0010
0000
0100
0001
0010
0000
0100
0000
,
0010
0000
0100
1000
0010
0000
0100
0000
0001
0000
0001
0000
1000
0000
0000
0010
,
0200
0000
0000
0000
0000
0300
0001
1000
0001
0000
0010
0000
0100
0000
1000
0000
,
0020
0000
0130
0001
2000
0000
3100
0000
,
0011
0101
1100
1010
,
0001
0000
0010
0001
1000
0000
0100
0000
1000
0000
0000
0010
0100
0000
0100
0000
,
0001
1000
0001
1000
0001
0000
0100
0000
0010
0000
0000
1000
0100
0000
0000
0000
,
0010
0001
0100
1000
0001
0010
1000
0100
,
1100
0101
0011
1010
,
1000
0000
0010
1000
0001
0000
0100
0000
0001
0000
0000
0010
0100
0000
0100
0000
,
1000
0001
1000
0001
1000
0000
0100
0000
0010
0000
0000
0001
0100
0000
0000
0000
,
0010
0000
1000
0100
1000
0100
1000
0000
0010
0000
0100
0001
0100
0001
0100
0000
,
0010
0000
0000
0010
1000
0000
0000
1000
0100
0000
0000
0100
0001
0000
0000
0000
,
0220
0000
0000
0000
0330
0000
1000
0001
1000
0000
0010
0000
0100
0001
0100
0001
,
0100
0011
1010
1100
,
0220
0000
0000
0000
0330
0000
0001
1000
0001
0000
0010
0000
0100
1000
0100
1000
,
0200
0000
0320
0031
,
0201
0320
2030
3001
,
1200
0000
0000
0000
0320
0000
0000
0000
0032
0000
0000
0000
1003
0010
0100
0001
,
2000
0000
0000
0000
3100
0000
1000
0001
0010
0000
0100
0000
1000
0000
0001
0000
,
0200
0000
0320
1000
2030
0000
3001
0000
,
0220
0000
0000
0000
,
0030
0000
0000
0000
,
0300
0000
0000
0000
;

//--------------- dance-double - forcednature ----------------
#NOTEDATA:;
#STEPSTYPE:dance-double;
#DESCRIPTION:forcednature;
#CREDIT:forcednature;
#DIFFICULTY:Easy;
#METER:9;
#RADARVALUES:0,0,0,0,0;
#NOTES:
00000000
00000000
00000000
00000000
,
00000000
00000000
00000000
00000000
,
00000000
00000000
00000000
00000000
,
00000000
00000000
00000000
00000000
,
00000000
00000000
00001000
00010000
,
00001000
00100000
00010000
01000000
,
00200000
00000000
10300000
00010000
,
10010000
10000000
01000000
00000000
,
00010000
00001000
00000010
00000000
,
00001001
00000001
00000100
00000000
,
00001000
00010000
00100000
00000000
,
01100000
01000000
00010000
00100000
,
02000000
00000000
03010000
00001000
,
00000010
00000100
00010000
00000010
,
00001000
00000001
00000010
00000000
,
00001001
00000001
00000100
00001000
,
00020000
00000000
00130000
01000000
,
00010000
10000000
01000000
00010000
,
00001000
00100000
00010000
01100000
,
10010000
00010000
01000000
00001000
,
00020000
00000000
00030010
00001000
,
00000100
00000010
00000001
00000100
,
00000010
00001000
00000001
00000010
,
00000100
00001000
00000010
00010000
,
00002000
00000000
01003000
00010000
,
00100000
01000000
10000000
00100000
,
01000000
00001000
00010000
00011000
,
00100000
00010000
01000000
00010000
,
00100000
00010000
00001000
00001000
,
00000010
00001000
00000100
00001000
,
00000010
00000110
00000110
00000110
,
00001001
00000000
00001000
00000100
,
00010000
00001000
00100000
00000000
,
10010000
00000000
00010000
01000000
,
00001000
00010000
00000010
00000000
,
00001001
00000000
00000001
00000100
,
00001000
00010000
00100000
00000000
,
10010000
00000000
10000000
01000000
,
00010000
00001000
00000010
00000000
,
00000110
00001000
00000001
00000100
,
00002000
00003000
00020000
00030000
,
00011000
01000000
00010000
00100000
,
00002000
00003000
00020000
00030000
,
00001000
00000010
00001000
00010000
,
00001000
00000010
00001000
00000000
,
00010000
00100000
00010000
00001000
,
00010000
00100000
00010000
00001000
,
00022000
00033000
01000000
00010000
,
00100000
01000000
00010000
00001000
,
00011000
00011000
00011000
00011000
,
00011000
00000100
00001000
00000010
,
00000200
00000000
00000301
00000010
,
00000100
00010000
00001000
00100000
,
01100000
01100000
01100000
01100000
,
01100000
10000000
00010000
01000000
,
00002000
00000000
00013000
00100000
,
00010000
00001000
00000010
00000100
,
00000110
00000110
00001001
00001001
,
00000110
00000000
00001000
00000100
,
00011000
00011000
00011000
00011000
,
00011000
00000000
01000000
00010000
,
10010000
00000000
00001000
00010000
,
00011000
00000010
00001000
00000100
,
00011000
00100000
00010000
01000000
,
10010000
00000000
10000000
01000000
,
00010000
00001000
00000100
00000001
,
00002002
00000000
00000000
00000000
,
00003000
00000000
00000000
00000000
,
00000003
00000000
00000000
00000000
;

//--------------- dance-double - forcednature ----------------
#NOTEDATA:;
#STEPSTYPE:dance-double;
#DESCRIPTION:forcednature;
#CREDIT:forcednature;
#DIFFICULTY:Medium;
#METER:11;
#RADARVALUES:0,0,0,0,0;
#NOTES:
00000000
00000000
00000000
00000000
,
00000000
00000000
00000000
00000000
,
00000000
00000000
00000000
00000000
,
00000000
00000000
00000000
00000000
,
00000000
00000000
00002000
00023000
,
00032000
00000000
00103000
00010000
00100000
01000000
10000000
01000000
,
00200000
00000000
00302000
00013000
,
00011000
00000000
00000010
00000000
00001000
00000010
00000000
00000010
,
00010000
00000000
00001000
00000000
00100000
00010000
00000000
00010000
,
00100000
00000000
00001000
00000000
00010000
00000100
00000000
00000100
,
00001000
00000000
00000100
00000000
00010000
00001000
00000000
00001000
,
01000000
00000000
00010000
00100000
01000000
10000000
00010000
00000000
,
00200000
00000000
00300000
00001000
00010000
00000000
00000010
00000000
,
00001000
00000100
00000010
00000000
00000001
00000100
00000010
00000000
,
00001000
00000100
00010000
00000000
00000010
00000000
00001000
00000000
,
00001001
00000000
00000001
00000100
00000010
00001000
00000100
00000000
,
00020000
00000000
00030000
00001000
01000000
00000000
00010000
00000000
,
00100000
01000000
10000000
00000000
00100000
01000000
00010000
00000000
,
00100000
00001000
00010000
00000000
00000010
00000000
00001001
00000000
,
00000110
00000000
00000001
00001000
00000100
00001000
00000001
00000000
,
00000020
00000000
00000030
00001000
00010000
00001000
00010000
00000000
,
00000100
00010000
00001000
00000000
01000000
00001000
00010000
00000000
,
00100000
01000000
00010000
01000000
00100000
10000000
00010000
00000000
,
10010000
00000000
10000000
01000000
00100000
00010000
01000000
00000000
,
00002000
00000000
00003000
00100000
00010000
00100000
00001000
00000000
,
00010000
00000010
00001000
00000000
00000010
00010000
00001000
00000000
,
00000010
00000100
00001000
00000000
00000010
00000000
00001001
00000000
,
00000001
00000100
00001000
00000000
00010000
00100000
10000000
00000000
,
10000000
01000000
00010000
00000000
00001000
00000010
00000001
00000000
,
00000001
00000100
00001000
00000000
00010000
00100000
10000000
00000000
,
01000000
01100000
01100000
01100000
,
10010000
00000000
10000000
01000000
00100000
00000000
01000000
10000000
,
00010000
00100000
00001000
00010000
00000200
00000000
00000000
00000300
,
00001000
00000001
00000100
00000001
00001000
00000010
00001000
00000001
,
00000200
00002300
00023000
00030000
,
01100000
00000000
00010000
10000000
00100000
00000000
10000000
00010000
,
00100000
01000000
00100000
00001000
00020000
00000000
00000000
00030000
,
00000100
00001000
00000010
00000100
00000001
00000010
00000100
00010000
,
00001000
00000000
00100000
00000000
00010000
00000000
01000000
01000000
,
00100000
20000000
32000000
03020000
,
00031000
00100000
00001000
00000000
00010000
00000010
00010000
00000000
,
00011000
00000200
00002300
00003020
,
00010030
00001000
00100000
00000000
00001000
00010000
00000010
00000000
,
00001000
00000100
00000100
00010000
00001000
00100000
00100000
00001000
,
00010000
00000100
00000100
00010000
00001000
00100000
00001000
00000000
,
00010000
00000010
00000010
00010000
00001000
01000000
01000000
00001000
,
00010000
00000010
00000010
00010000
00001000
01000000
00010000
00000000
,
00200000
00000000
00300000
01000000
10000000
01000000
00020000
00000000
,
00032000
00000000
00003010
00000001
00000010
00000000
00000100
00000000
,
00000110
00010100
00011000
00101000
,
01100000
00000000
01000000
10000000
00010000
00000000
00100000
00000000
,
00002000
00000000
00003000
00010000
00000010
00000000
00001000
00000000
,
00000001
00000100
00001000
00000100
00000001
00001000
00000010
00000000
,
00001010
00010010
00011000
01001000
,
01010000
00000000
00010000
00100000
01000000
00000000
10000000
00000000
,
00200000
00000000
00300000
10000000
00010000
00000000
00100000
00000000
,
00010000
01000000
10000000
01000000
00010000
10000000
00100000
00000000
,
10100000
11000000
01010000
00011000
,
00202000
00000000
00303000
00001000
00010000
00000100
00001000
00000000
,
00001010
00000110
00000101
00000011
,
00002200
00000000
00003300
00010000
00001000
00100000
00010000
00000000
,
20020000
30030000
00001000
00010000
,
00001001
00020000
00032000
00103000
,
00011000
00000020
00002030
00003100
,
00000220
00000000
00000330
00000010
00001000
00010000
01000000
00100000
,
00002000
00023000
00230000
10300000
,
20020000
00000000
00000000
00000000
,
00030000
00000000
00000000
00000000
,
30000000
00000000
00000000
00000000
;

//--------------- dance-double - forcednature ----------------
#NOTEDATA:;
#STEPSTYPE:dance-double;
#DESCRIPTION:forcednature;
#CREDIT:forcednature;
#DIFFICULTY:Hard;
#METER:15;
#RADARVALUES:0,0,0,0,0;
#NOTES:
00000000
00000000
00000000
00000000
,
00000000
00000000
00000000
00000000
,
00000000
00000000
00000000
00000000
,
00000000
00000000
00000000
00000000
,
00000000
00000000
00002000
00023000
,
00230000
00000000
10300000
00010000
10000000
01000000
00010000
00001000
,
00000020
00000000
00000000
00000000
00000032
00000000
00000203
00000300
,
00001001
00000000
00001000
00001000
00000010
00010000
00000000
00001000
,
00010000
00001000
00010000
00001000
00010000
00000000
00100000
00000000
01000000
00000000
00010000
00000000
00000000
00000000
00100000
00000000
,
10010000
00000000
00010000
00010000
10000000
01000000
00000000
00010000
,
00001000
00010000
00001000
00010000
00001000
00000000
00000010
00000000
00000100
00000000
00001000
00000000
00000000
00000000
00000010
00000000
,
00001001
00000000
00000000
00000000
00001000
00000100
00010000
00001000
00100000
00000000
00010000
00000000
01000000
00000000
00100000
00000000
,
20000000
00000000
00000000
00000000
00000000
30000000
00010000
01000000
00010000
00000000
10000000
00000000
00100000
00000000
00000000
00000000
,
10000000
00000000
01000000
00100000
01000000
00000000
00100000
00000000
00001000
00000000
00010000
00000000
00000100
00000000
00001000
00000000
,
00000010
00000100
00001000
00010000
00100000
01000000
00010000
00000000
,
10010000
00000000
00000000
00000000
00010000
01000000
00001000
00010000
00000010
00000000
00001000
00000000
00000100
00000000
00000010
00000000
,
00000002
00000000
00000000
00000000
00000000
00000003
00001000
00000100
00001000
00000000
00000001
00000000
00000010
00000000
00000000
00000000
,
00000001
00000000
00000100
00000010
00000100
00000000
00000010
00000000
00010000
00000000
00001000
00000000
01000000
00000000
00010000
00000000
,
00100000
01000000
00010000
00001000
00000010
00000000
00000110
00000000
,
00001001
00000000
00000000
00000000
00000001
00000010
00000100
00001000
00000010
00000000
00000100
00000000
00001000
00000000
00010000
00000000
,
00200000
00000000
00000000
00000000
00300000
00000000
01000000
00010000
10000000
00000000
00100000
00000000
01000000
00000000
00000000
00000000
,
00010000
00000000
00100000
00010000
00100000
00000000
01000000
00000000
00010000
00000000
00001000
00000000
00000010
00000000
00000100
00000000
,
00001000
00000000
00000001
00001000
00000001
00000000
00000100
00000000
00001000
00000000
00010000
00000000
00100000
00000000
00000000
00000000
,
10010000
00000000
00000000
00000000
10000000
00100000
01000000
00010000
00100000
00000000
01000000
00000000
00010000
00000000
00001000
00000000
,
00000020
00000000
00000000
00000000
00000030
00000000
00000100
00001000
00000001
00000000
00000010
00000000
00000100
00000000
00000000
00000000
,
00001000
00000000
00000010
00001000
00000010
00000000
00000100
00000000
00001000
00000000
00010000
00000000
00100000
00000000
01000000
00000000
,
00010000
00000000
10000000
00010000
10000000
00000000
01000000
00000000
00010000
00000000
00000000
00000000
00011000
00000000
00000000
00000000
,
00001000
00000000
00010000
00100000
00010000
00000000
00100000
00000000
00010000
00000000
00001000
00000010
00001000
00000000
00000010
00000000
,
00001000
00000000
00010000
01000000
00010000
00000000
01000000
00000000
00010000
00001000
00010000
00001000
00010000
00000000
00001000
00000000
,
00010000
00000000
00100000
00010000
00100000
00000000
00010000
00000000
00001000
00000000
00000010
00001000
00000010
00000000
00001000
00000000
,
00010000
00001001
00011000
10010000
,
20000000
00000000
31000000
00010000
00002000
00000000
00013000
01000000
,
00100000
00000000
00010000
01000000
00001000
00000000
00010000
00000000
00000020
00000000
00000000
00000000
00001030
00000000
00001100
00000000
,
00001100
00000001
00000010
00001000
00010000
01000000
10000000
00010000
,
00200000
00000000
10000000
00000000
00010000
00000000
00301000
00011000
,
00021000
00000000
00031000
00000010
00000002
00000000
00000013
00001000
,
00010000
00000000
00000100
00001000
00000010
00000000
00000100
00000000
00002000
00000000
00000000
00000000
00013000
00000000
00011000
00000000
,
00011000
00100000
00010000
10000000
00100000
00010000
00001000
00000100
,
00000002
00000000
00002003
00000000
00023000
00000000
10030000
10100000
,
00010000
20000000
30020000
00230000
,
01300000
00010000
00002000
00000000
00003010
00000100
00010000
00000000
,
00011000
00000002
00002003
00003020
,
00000130
00001000
00020000
00000000
00130000
01000000
00001000
00000000
,
00010000
00000000
00100000
01000000
00100000
00000000
00010000
00000000
00001000
00000000
00000010
00000100
00000010
00000000
00001000
00000000
,
00010000
00000000
00100000
01000000
00100000
00000000
10000000
00000000
01000000
00000000
00010000
00000000
00001000
00000000
00000000
00000000
,
00001000
00000000
00000010
00000100
00000010
00000000
00001000
00000000
00010000
00000000
00100000
01000000
00100000
00000000
00010000
00000000
,
00001000
00000000
00000010
00000100
00000010
00000000
00000001
00000000
00000100
00000000
00001000
00000000
00010000
00001000
00010000
00001000
,
00020000
00000000
00000000
00000000
00000000
00030000
00100000
10000000
00100000
00000000
01000000
00000000
00010000
00000000
00100000
00000000
,
02000000
00000000
03010000
00001000
00000020
00000000
00000130
00000000
,
00000110
00011000
01100000
00011000
,
00100000
00000000
00010000
10000000
01000000
00000000
10000000
00000000
00010000
00000000
00000000
00100000
01000000
00000000
01000000
00000000
,
00010000
00001000
00010000
00001000
00010000
00000000
00000100
00000000
00001000
00000000
00000000
00000010
00000100
00000000
00000000
00000000
,
00000001
00000010
00001000
00010000
00000010
00001000
00010000
01000000
,
01100000
00011000
00000110
00011000
,
00000010
00000000
00001000
00000001
00000100
00000000
00000001
00000000
00001000
00000000
00000000
00000010
00000100
00000000
00000100
00000000
,
00001000
00010000
00001000
00010000
00001000
00000000
01000000
00000000
00010000
00000000
00000000
00100000
01000000
00000000
00000000
00000000
,
10000000
00100000
00010000
00001000
00100000
00010000
00001000
00000100
,
00000110
00011000
01100000
00011000
,
00000220
00000000
00000000
00000000
00000330
00000000
00000001
00001000
00000001
00000000
00000100
00000000
00001000
00010000
00001000
00010000
,
00100000
00011000
00000110
00011000
,
02200000
00000000
00000000
00000000
03300000
00000000
10000000
00010000
10000000
00000000
01000000
00000000
00010000
00001000
00010000
00001000
,
00000020
00000000
00000032
00000103
,
00002010
00023000
02030000
03001000
,
00120000
00000000
00000000
00000000
00032000
00000000
00000000
00000000
00003200
00000000
00000000
00000000
00000310
00000001
00001000
00000100
,
00000020
00000000
00000000
00000000
00000031
00000000
00000100
00001000
00010000
00000000
00100000
00000000
10000000
00000000
00010000
00000000
,
00200000
02300000
03020000
00030100
,
00000220
00000000
00000000
00000000
,
00000300
00000000
00000000
00000000
,
00000030
00000000
00000000
00000000
;
