#VERSION:0.83;
#TITLE:雪上断火;
#SUBTITLE:;
#ARTIST:Des-ROW・組;
#TITLETRANSLIT:Setsujou danka;
#SUBTITLETRANSLIT:;
#ARTISTTRANSLIT:Des-ROW + ALPHA;
#GENRE:HIP ROCK3;
#CREDIT:;
#MUSIC:Setsujou danka.ogg;
#BANNER:Setsujou danka.png;
#BACKGROUND:Setsujou danka-bg.png;
#CDTITLE:./CDTitles/pnm 12 Iroha.png;
#SAMPLESTART:24.854;
#SAMPLELENGTH:15.000;
#SELECTABLE:YES;
#OFFSET:0.472;
#BPMS:0.000=180.000
,212.000=105.000
,276.000=180.000
;
#STOPS:;
#BGCHANGES:0.000=../BGAs/24ni.mp4=1.000=0=0=0=StretchNoLoop====,
99999.000=-nosongbg-=1.000=0=0=0=StretchNoLoop====
;
#FGCHANGES:;

//--------------- dance-single - forcednature ----------------
#NOTEDATA:;
#STEPSTYPE:dance-single;
#DESCRIPTION:forcednature;
#DIFFICULTY:Beginner;
#METER:5;
#RADARVALUES:0,0,0,0,0;
#CREDIT:forcednature;
#NOTES:
0000
0000
0000
0000
,
0000
0000
0000
0000
,
0000
0000
0000
0000
,
0000
0000
0000
0000
,
0000
0000
0000
0000
,
0000
0000
0000
0000
,
0000
0000
0000
0000
,
1001
0000
0000
0000
,
0010
0000
0000
0000
,
0100
0000
0000
0000
,
0010
0000
0000
0000
,
1000
0000
1000
0000
,
0001
0000
0001
0000
,
1000
0000
1000
0000
,
0001
0000
0001
0000
,
0100
0000
0100
0000
,
0010
0000
0010
0000
,
0000
1000
0000
1000
,
0001
0000
0010
0000
,
0100
0000
1001
0000
,
1000
0000
0000
0000
,
0001
0000
1001
0000
,
0010
0000
0000
0000
,
0100
0000
0110
0000
,
1000
0000
0000
0000
,
0100
0000
1001
0000
,
0010
0000
0100
0000
,
0001
0000
0001
0000
,
1000
0000
0001
0000
,
0010
0000
0010
0000
,
0100
0000
0010
0000
,
0001
0000
0001
0000
,
1000
0000
0001
0000
,
0100
0000
0100
0000
,
0010
0000
0100
0000
,
0001
0000
0001
0000
,
0001
1000
0001
0000
,
1000
0000
1000
0000
,
1000
0001
1000
0000
,
0010
0000
0010
0000
,
0010
0100
0010
0000
,
0100
0000
0100
0000
,
0100
0010
0100
0000
,
0001
0000
0001
0001
,
0001
0000
0001
0000
,
1000
0000
1000
1000
,
1000
0000
1000
0000
,
0010
0000
0010
0010
,
0010
0000
0010
0000
,
0100
0000
0100
0100
,
0100
0000
0100
0000
,
1001
0000
0000
0000
,
0000
0000
0000
0000
,
1000
0000
0100
0000
,
1000
0000
0001
0000
,
0100
0000
0001
0000
,
0010
0010
0010
0000
,
0001
0000
0100
0000
,
0001
0000
1000
0000
,
0100
0000
1000
0000
,
0010
0010
0010
0000
,
1000
0000
0001
0000
,
0010
0010
0010
0000
,
0001
0000
1000
0000
,
0010
0010
0010
0000
,
1001
0000
0000
0100
,
0110
0000
0000
0000
,
1001
0000
0000
0010
,
0220
0000
0330
0000
,
0000
0000
0000
0000
,
1000
0000
0001
0000
,
1000
0001
1000
0000
,
0010
0000
0100
0000
,
0010
0100
0010
0000
,
0001
0000
1000
0000
,
0001
1000
0001
0000
,
0010
0000
0100
0000
,
0010
0100
0010
0000
,
1000
1000
1000
0000
,
1000
1000
1000
0000
,
0001
0000
0100
0000
,
0001
0100
0001
0000
,
0001
0001
0001
0000
,
0001
0001
0001
0000
,
1000
0000
0100
0000
,
1000
0100
1000
0000
,
1001
0000
0000
0000
;

//--------------- dance-single - forcednature ----------------
#NOTEDATA:;
#STEPSTYPE:dance-single;
#DESCRIPTION:forcednature;
#DIFFICULTY:Easy;
#METER:10;
#RADARVALUES:0,0,0,0,0;
#CREDIT:forcednature;
#NOTES:
0000
0000
0000
0000
,
0000
0000
0000
0000
,
0000
0000
0000
0000
,
0000
0000
0000
0000
,
0000
0000
0000
0000
,
0000
0000
0000
0000
,
0000
0000
0000
0000
,
1001
0000
0000
0000
,
0001
0000
0100
0000
,
0010
0010
0010
0010
,
1000
1000
0001
0000
,
1001
0000
1100
0000
,
0100
0010
0011
0000
,
1001
0000
0101
0000
,
0100
0010
1010
0000
,
1000
0100
1100
0000
,
0001
0100
0101
0000
,
1000
0010
1000
0001
,
1000
1000
0100
0010
,
1001
0000
0001
0100
,
0110
0000
0000
0010
0000
0000
1000
0000
,
1001
0000
0001
0010
,
0110
0000
0000
0100
0000
0000
1001
0000
,
1000
0010
1000
0100
,
1000
0001
1000
0000
0010
0000
0000
0000
,
0001
0010
0001
0100
,
0001
1000
0001
0000
0010
0000
0000
0000
,
0100
1000
0100
0010
,
0100
1000
0100
0000
0010
0000
0001
0000
,
0100
0001
0100
0010
,
0100
0001
0100
0000
0010
0000
1000
0000
,
0100
0010
0100
1000
,
0100
0010
0100
0000
1000
0000
0001
0000
,
0100
0010
0100
0001
,
0100
0010
0100
0000
0001
0000
0000
0000
,
1000
0001
1000
0000
0001
0000
1000
0000
,
0010
0100
1001
0000
,
0001
1000
0001
0000
1000
0000
0001
0000
,
0010
0100
1001
0000
,
0100
0010
0100
0000
0010
0000
0100
0000
,
0001
1000
0110
0000
,
0100
0010
0100
0000
0010
0000
0100
0000
,
1000
0001
0110
0000
,
1000
0100
1000
0000
0001
0000
1000
0000
,
0010
1000
0010
0000
0100
0000
0100
0000
,
0001
0100
0001
0000
1000
0000
0001
0000
,
0010
0001
0010
0000
0100
0000
0100
0000
,
1000
0010
1000
0000
0010
0000
0100
0000
,
0010
0001
0010
0000
0100
0000
0100
0000
,
0001
0010
0001
0000
0010
0000
0100
0000
,
0010
1000
0010
0000
0100
0000
0010
0000
,
1001
0000
0000
0000
,
1000
0000
1000
0000
0000
0001
0000
0000
,
1001
0000
0000
0000
1000
0000
0000
0000
0100
0000
0010
0000
0000
0010
0000
0000
,
0001
0000
0100
0000
0001
1000
0001
0000
,
0010
0000
0000
0000
0100
0000
0000
0000
1000
0000
0010
0000
0000
0010
0000
0000
,
0010
0000
0100
0001
0100
0001
1000
0000
,
1100
0000
0000
0000
0100
0000
0000
0000
0010
0000
0001
0000
0000
0001
0000
0000
,
0001
0000
0100
0000
0010
1000
0010
0000
,
0100
0000
0001
0000
0100
0000
0000
0000
0001
0000
0010
0000
0000
0010
0000
0000
,
0010
0000
0100
1000
0100
1000
0001
0000
,
1001
0000
1000
0000
0010
0100
0010
0000
,
1000
0001
1000
0001
0010
0100
0010
0000
,
1001
0000
1000
0000
0001
0010
0001
0000
,
0001
1000
0001
1000
0010
0100
0010
0000
,
1001
0000
0000
0000
0000
0000
0000
0000
0100
0000
0010
0000
0000
0110
0000
0000
,
1001
0000
0000
0000
0001
1000
0001
0000
,
0110
0000
0000
0000
0000
0000
0000
0000
1000
0000
0001
0000
0000
1001
0000
0000
,
1002
0000
0100
0000
1003
0001
1000
0000
,
0010
0000
0010
0000
0000
0100
0000
0000
,
0001
0010
0001
0000
0010
0001
0010
0000
,
0100
1000
1100
0000
,
1000
0010
1000
0000
0010
1000
0010
0000
,
0100
0001
0101
0000
,
1000
0001
1000
0000
0001
1000
0001
0000
,
0010
0100
0110
0000
,
0001
1000
0001
0000
1000
0001
1000
0000
,
0010
0100
0110
0000
,
1000
1000
1000
0000
0001
0000
1000
0000
,
0001
0001
0001
0000
1000
0000
0001
0000
,
0100
0100
0100
0000
0010
0010
0010
0000
,
0100
0100
0100
0000
0010
0000
1001
0000
,
0001
0001
0001
0000
1000
0000
0001
0000
,
1000
1000
1000
0000
0001
0000
1000
0000
,
0100
0100
0100
0000
0010
0010
0010
0000
,
0100
0100
0100
0000
0010
0100
0010
0000
,
2002
0000
0000
0000
0000
0000
0000
3003
;

//--------------- dance-single - forcednature ----------------
#NOTEDATA:;
#STEPSTYPE:dance-single;
#DESCRIPTION:forcednature;
#DIFFICULTY:Medium;
#METER:14;
#RADARVALUES:0,0,0,0,0;
#CREDIT:forcednature;
#NOTES:
0000
0000
0000
0000
,
0000
0000
0000
0000
,
0000
0000
0000
0000
,
0000
0000
0000
0000
,
0000
0000
0000
0000
,
0000
0000
0000
0000
,
0000
0000
0000
0000
,
1001
0000
0001
0100
,
0010
1000
0001
0010
,
0100
0000
1000
0001
1000
0001
1000
0001
,
1000
0010
0100
0001
1000
0001
0010
0000
,
0100
1000
0100
1000
1010
0000
0001
0000
,
0100
0001
0100
0001
0011
0000
1000
0000
,
0100
0010
0100
0010
1001
0000
1000
0000
,
0010
0100
0010
0100
1001
0000
0001
0000
,
1000
0100
1000
0010
0101
0000
1000
0000
,
0001
0100
0001
0010
1100
0000
0001
0000
,
0010
1001
0100
1001
,
1000
1000
0001
0001
0100
0000
0010
0000
,
1010
0000
1000
0100
0001
0000
0100
0000
,
1000
0000
0001
0010
0000
1000
0010
0000
,
0001
0000
0100
1000
0100
0000
0010
0000
,
1000
0001
0110
1001
,
1000
0010
0001
0000
0010
1000
0001
0000
,
0010
0100
1000
0001
0100
0000
0110
0000
,
0010
1000
0010
0000
1000
0100
1000
0000
,
0001
0010
0100
1000
0010
0100
0001
0000
,
1100
0000
1010
0000
1000
1000
1000
0000
,
0100
0010
0001
0010
0100
0010
0001
0000
,
0100
0010
1000
0010
0100
0001
0010
0001
,
0100
0010
1000
0001
0010
0100
1000
0000
,
0101
0000
1100
0000
0001
0010
0100
0000
,
0010
0001
0100
0001
1000
0010
1000
0000
,
0100
0000
0010
0001
0100
0000
0010
1000
,
0001
0010
0001
0100
0010
1000
0100
0000
,
1001
0000
0101
0000
0001
0010
1000
0000
,
0010
0100
1000
0100
0010
0001
0011
0000
,
0001
1000
0010
1000
0001
0010
0001
0000
,
0100
0010
1000
0000
0100
0010
0110
0000
,
0100
1000
0001
1000
0010
1000
0001
0000
,
0100
1000
0100
0001
0010
0001
1000
0000
,
1010
0000
0011
0000
0100
0100
0100
0000
,
0001
0010
1000
0010
0001
0010
0100
0000
,
0010
0001
0100
1000
0100
0001
0010
0001
,
1000
0010
1000
0100
0001
0100
1000
0010
,
1000
0000
0100
0100
1000
0001
0100
0100
,
0001
1000
0010
0010
1000
0001
0010
0010
,
0100
0000
1000
0010
0001
0010
1000
0100
,
1000
0000
0001
0010
1000
0010
0001
0100
,
0001
0000
1000
0010
1000
0001
0010
0001
,
0100
0100
0100
0001
1000
0010
0001
0010
,
1001
0000
0000
0000
,
1000
1000
0001
0001
0000
1000
0001
0000
,
0101
0000
1000
0000
1010
0000
0000
0000
0001
0000
0010
0000
0000
0110
0000
0000
,
0100
0000
1000
0000
0010
0000
1000
0000
0001
0100
0001
0000
0010
0001
0010
0000
,
0100
0000
1000
0000
1001
0000
0000
0000
0001
0000
0100
0000
0000
1001
0000
0000
,
1000
0000
0010
0000
0001
0010
0001
0000
0020
0000
1000
0000
0130
0000
0110
0000
,
0010
0000
1000
0000
1100
0000
0000
0000
0001
0000
0011
0000
0000
0110
0000
0000
,
0100
0000
1000
0100
1000
0000
0001
0100
0001
0000
0010
0000
0010
0100
0010
0000
,
0001
0000
0100
0000
1010
0000
1000
0000
0100
0000
1100
0000
0000
0011
0000
0000
,
1000
0000
0100
0000
1000
0000
0010
1000
0010
0000
0100
0001
0100
0000
0000
0000
,
0010
0000
0000
0000
0000
0000
0000
0000
1000
0000
0000
0000
0000
0000
0000
0000
1100
0000
0000
0000
0000
0000
0000
0000
0000
0000
0000
0100
0000
0000
0000
0000
0010
0000
0000
0000
0000
0000
0000
0000
0001
0000
0000
0000
0000
0000
0000
0000
0100
0000
0000
0000
0000
0000
0000
0000
0010
0000
0000
0000
0000
0000
0000
0000
,
0000
1010
1010
0011
0011
0110
0100
1001
,
0001
0000
0000
0000
0000
0000
0000
0000
0010
0000
0000
0000
0000
0000
0000
0000
0001
0000
0000
0000
0100
0000
0000
0000
0000
0000
0000
0100
0000
0000
0000
0000
0010
0000
0000
0000
0000
0000
0000
0000
1010
0000
0000
0000
0000
0000
0000
0000
0000
0000
0000
0000
0001
0000
0000
0000
0000
0000
0000
0000
0000
0000
0000
0000
,
0010
0100
0010
0000
1001
0000
1001
0000
0100
0010
0100
0000
1001
0000
0110
0000
,
1002
0000
0000
0000
0000
0000
0000
0000
0000
0000
0000
0000
0000
0000
0000
0000
1003
0000
0000
0000
0000
0000
0000
0000
0100
0000
0000
0010
0000
0000
0000
0000
0001
0000
0000
0000
0000
0000
0000
0000
0100
0000
0000
0000
0000
0000
0000
0000
0000
0000
0000
0000
0010
0000
0000
0000
0000
0000
0000
0000
0000
0000
0000
0000
,
1002
0000
0100
0000
0100
0000
1000
0000
1003
0000
0010
0001
0010
0000
0100
0000
,
2001
0000
0000
0000
0000
0000
0000
0000
0000
0000
0000
0000
0000
0000
0000
0000
3001
0000
0000
0000
0000
0000
0000
0000
0100
0000
0000
0010
0000
0000
0000
0000
1000
0000
0000
0000
0000
0000
0000
0000
0100
0000
0000
0000
0000
0000
0000
0000
0000
0000
0000
0000
0010
0000
0000
0000
0000
0000
0000
0000
0000
0000
0000
0000
,
2001
0000
0100
0100
0100
0000
0001
0001
0001
0000
3010
0000
1000
0000
0001
0000
,
0010
0010
0100
0100
0000
0010
0100
0000
,
1000
0010
0100
0010
1000
0100
0010
0100
,
1000
0010
0001
0010
0100
0010
1001
0000
,
0001
0010
0100
0010
0001
0100
0010
0100
,
0001
0010
1000
0010
0100
0010
1001
0000
,
1000
0100
0001
0100
1000
0010
0001
0010
,
1000
0100
0001
0100
0010
0001
1000
0001
,
0100
1000
0100
0001
0010
1000
0010
0001
,
0100
0010
1000
0001
0010
0100
1001
0000
,
1000
0000
0000
1000
0100
0000
0010
0000
0001
0000
0000
0001
0100
0000
0010
0000
,
1000
0000
0000
1000
0001
0000
0010
0000
0100
0000
1000
0000
0010
0000
0000
0000
,
0100
1000
0100
1000
0100
0001
0100
0001
,
0010
0001
0010
0001
0010
0100
0100
1000
,
0001
0000
0000
0001
0100
0000
0010
0000
1000
0000
0000
1000
0100
0000
0010
0000
,
0001
0000
0000
0001
1000
0000
0010
0000
0100
0000
0001
0000
0010
0000
0000
0000
,
0100
0001
0100
0001
0100
1000
0100
1000
,
0010
0100
0010
0100
0001
0010
1000
0010
,
2002
0000
0000
0000
0000
0000
0000
3003
;

//--------------- dance-single - forcednature ----------------
#NOTEDATA:;
#STEPSTYPE:dance-single;
#DESCRIPTION:forcednature;
#DIFFICULTY:Hard;
#METER:17;
#RADARVALUES:0,0,0,0,0;
#CREDIT:forcednature;
#NOTES:
0000
0000
0000
0000
,
0000
0000
0000
0000
,
0000
0000
0000
0000
,
0000
0000
0000
0000
,
0000
0000
0000
0000
,
0000
0000
0000
0000
,
0000
0000
0000
0000
,
1001
0000
1000
0100
,
1000
0010
0100
0001
,
1000
0000
0100
0100
0100
0100
0100
0100
,
0100
0010
0001
0100
0001
1000
0100
0000
,
0011
0010
0100
0010
0011
0000
0001
1000
,
1010
0010
0100
0010
1010
0000
0001
0000
,
1100
0100
0010
0100
1100
0000
1000
0001
,
0101
0100
0010
0100
0101
0000
1000
0001
,
0011
0010
0100
0010
0011
0000
0001
1000
,
1010
0010
0100
0010
1010
0000
1000
0001
,
0101
0000
1010
1000
0100
0000
1001
0000
,
1000
0000
0001
0100
0001
0000
1000
0000
0100
0000
0010
0001
0010
0001
0010
0000
,
0110
0000
0100
1000
0001
0000
0100
0000
,
0010
0000
0000
0000
1000
0000
0001
0000
1000
0000
0010
0100
0001
0000
0000
0000
,
0011
0000
0010
0100
1100
0000
1000
0001
,
0101
0100
0100
0001
0010
0100
0110
0000
,
0011
0000
0001
0100
0110
0000
0010
1000
,
0001
0010
0001
0000
0010
0000
0100
0000
1000
0000
0100
0000
1001
0000
0000
0000
,
0011
1010
0011
1010
,
1000
1000
0001
0001
0100
0010
0110
0000
,
0100
0001
0100
0000
0010
0000
0100
0000
0001
0000
0001
0000
1000
0000
1000
0000
,
0100
0010
0100
0000
1000
0000
0001
0000
0010
0000
0110
0000
0100
0000
0110
0000
,
0010
0001
0010
0000
0001
0000
0100
0000
0010
1000
0010
0000
0100
0000
0001
0000
,
0010
0100
0010
0100
1000
0000
0001
0000
0100
0000
1001
0000
0010
0000
1001
0000
,
1000
0100
1000
0000
0001
0000
0010
0000
0001
0000
0100
0000
0010
0000
0100
0000
,
0001
1000
0001
0000
0010
0000
0100
0000
1000
0000
0110
0000
0001
0000
0110
0000
,
1000
0000
0101
0001
0010
0100
1100
1000
,
0010
0000
0100
0010
0100
0000
0001
0000
1000
0000
1000
0000
0001
0000
0001
0000
,
1000
0100
0010
0001
0010
0100
1000
0010
0100
0001
0100
0010
,
1000
0100
0010
0001
0100
0010
1000
0000
1001
0000
0000
0000
,
0001
0100
0010
1000
0010
0100
0001
0010
0100
1000
0100
0010
,
0001
0100
0010
1000
0100
0010
0001
0000
1001
0000
0000
0000
,
1000
0010
1000
0001
0010
0001
1000
0100
1000
0001
0100
0001
,
0010
0000
0100
0000
1000
0000
0010
0000
0100
0000
0001
0000
0010
0000
0000
0110
0000
0000
0100
0000
0000
0110
0000
0000
,
0010
0000
0001
0010
0001
0010
0001
0000
1000
0000
0001
0100
0001
0100
0001
0000
,
0010
0000
0100
1000
0001
0000
0100
0001
1000
0000
1000
0000
0010
1000
0010
0000
,
1000
0000
0010
0100
0000
0100
0001
0000
0010
0100
0000
0100
0001
0000
0100
0000
,
1000
0001
0010
0001
1000
0010
0100
0001
0010
0100
1000
0010
,
0100
0000
1010
0000
0100
0100
1010
0100
,
0001
0010
0100
0000
0010
0100
1000
0000
0001
0000
0101
0000
0100
0000
0101
0000
,
0001
0000
0010
0100
0000
0100
1000
0000
0010
0100
0000
0100
1000
0000
0100
0000
,
0001
0000
1000
0000
0010
0000
1000
0000
0001
0000
0010
0000
0100
0000
0000
0000
1001
0000
0000
0000
0000
0010
0000
0000
,
0100
0000
0011
0000
0100
0100
0011
0100
,
1000
0010
0100
0000
0010
0100
0001
0000
1000
0000
1010
0000
0001
0000
0011
0000
,
1001
0000
0000
0000
,
0001
0100
1000
0100
0000
0010
1001
0000
,
2200
3300
0001
0000
0011
0000
0000
0000
0001
0000
0101
0000
0000
1010
0000
0000
,
1000
0000
0001
0000
0010
0000
0001
0000
0100
0100
0010
0010
0100
0010
0200
0000
,
0301
0000
0010
0100
1100
0000
0001
0001
1000
0000
1010
0000
0000
0101
0000
0000
,
1000
0000
1000
1000
0001
0000
0001
0001
0200
2300
3200
0302
0013
0000
0110
0000
,
1001
0000
0010
0000
0101
0000
0000
0000
0001
0000
0011
0000
0100
1100
0000
1000
,
0001
0000
1000
0010
1000
0000
1000
0100
0010
0010
0010
0001
0010
0200
0000
0300
,
1000
1000
0001
0001
1001
0000
0010
0100
0001
0010
0011
0000
1000
1100
0100
0000
,
1000
0010
0100
0010
0001
0010
0200
0300
0002
0013
0020
0130
0200
1300
2000
3000
,
1001
0000
0000
0000
0000
0000
0000
0000
0001
0000
0000
0000
0100
0000
0000
0000
0010
0000
0000
0000
0000
0000
0000
0000
0010
0000
0000
1000
0000
0000
0000
0000
0100
0000
0000
0000
0000
0000
0000
0000
1100
0000
0000
0000
0000
0000
0000
0000
0000
0000
0000
0000
0110
0000
0000
0000
0000
0000
0000
0000
0000
0000
0000
0000
,
0021
0000
0100
0000
1000
0000
0130
0000
0010
0001
0100
0001
1000
0010
1000
0000
,
1100
0000
0000
0000
0000
0000
0000
0000
0001
0000
0000
0000
0100
0000
0000
0000
1000
0000
0000
0000
0000
0000
0000
0000
0100
0000
0000
0001
0000
0000
0000
0000
0001
0000
0000
0000
0000
0000
0000
0000
0011
0000
0000
0000
0000
0000
0000
0000
0000
0000
0000
0000
1100
0000
0000
0000
0000
0000
0000
0000
0000
0000
0000
0000
,
1000
0010
1000
0010
0001
0010
0001
0010
0100
1000
0100
0001
0010
0000
0110
0000
,
1002
0000
0000
0000
0000
0000
0000
0000
0010
0000
0000
0000
0000
0000
0000
0000
0103
0000
0000
0000
0000
0000
0000
0000
0100
0000
0000
0001
0000
0000
0000
0000
0001
0000
0000
0000
0010
0000
0000
0000
0011
0000
0000
0000
0000
0000
0000
0000
0100
0000
0000
0000
1100
0000
0000
0000
0000
0000
0000
0000
0000
0000
0000
0000
,
2001
0000
0000
0000
0000
0000
0000
0000
0010
0000
0000
0000
0000
0000
0000
0000
3100
0000
0000
0000
0000
0000
0000
0000
0100
0000
0000
1000
0000
0000
0000
0000
1000
0000
0000
0000
0000
0000
0000
0000
0001
0000
0000
0000
0100
0000
0000
0000
1000
0000
0000
0000
0000
0000
0000
0000
1000
0000
0000
0000
0100
0000
0000
0000
,
1002
0000
0000
0000
0000
0000
0000
0000
0010
0000
0000
0000
0000
0000
0000
0000
0103
0000
0000
0000
0000
0000
0000
0000
0100
0000
0000
0001
0000
0000
0000
0000
0011
0000
0000
0000
1000
0000
0000
0000
1100
0000
0000
0000
0000
0000
0000
0000
0001
0000
0000
0000
0110
0000
0000
0000
0000
0000
0000
0000
0000
0000
0000
0000
,
1000
0000
0000
0000
0010
0000
0000
0000
0001
0000
0000
0000
0010
0000
0000
0000
1000
0000
0000
0000
0100
0000
0000
0000
0001
0000
0000
0100
0000
0000
0000
0000
0110
0000
0000
0000
0010
0000
0000
0000
1001
0000
0000
0000
0000
0000
0000
0000
1100
0000
0000
0000
0000
0000
0000
0000
0101
0000
0000
0000
0000
0000
0000
0000
,
2000
3000
0100
0000
0001
0000
0100
0000
0000
0000
0010
0000
1001
0000
0000
0000
,
0001
0100
1000
0100
0010
1000
0001
0010
0001
1000
0010
0001
,
0010
0000
0100
0000
0001
0000
0010
0000
0001
0000
1000
0000
0010
0000
0000
1010
0000
0000
1000
0000
0000
1010
0000
0000
,
0010
0100
1000
0100
0001
0010
0001
1000
0010
1000
0100
0001
,
0100
0000
0010
0000
0001
0000
1000
0000
0001
0000
0100
0000
0010
0000
0000
0110
0000
0000
0100
0000
0000
0110
0000
0000
,
0010
1000
0100
0010
0001
0100
0001
0010
1000
0010
0001
0100
,
0001
0000
1000
0000
0010
0000
1000
0000
0100
0000
0010
0000
0001
0000
0000
0011
0000
0000
0010
0000
0000
0110
0000
0000
,
0100
1000
0001
0100
0010
1000
0001
0010
0001
1000
0010
0100
,
1000
0000
0100
0000
0001
0000
0010
0000
0001
0000
1000
0000
0100
0000
0000
0110
0000
0000
1001
0000
0000
0110
0000
0000
,
0001
0010
0100
1000
0010
0000
1000
0100
0010
0001
0100
0000
0001
0100
0010
1000
,
0100
1000
0010
0100
0001
0010
0100
0000
0010
0000
0101
0000
0010
0000
1100
0000
,
0001
0010
0001
0100
0010
1000
0100
0010
0001
0100
1000
0100
,
0001
0000
1000
0000
0010
0000
1000
0000
0001
0000
0010
0000
0001
0000
0000
0101
0000
0000
1000
0000
0000
1100
0000
0000
,
0001
0010
0001
1000
0100
0000
1000
0010
1000
0001
0100
0000
0010
1000
0001
0010
,
0100
0010
0001
1000
0010
0100
0001
0000
0010
0000
1001
0000
0100
0000
1001
0000
,
1000
0100
0010
0001
0100
0010
0001
0010
1000
0001
0100
1000
,
0100
0000
0001
0000
0010
0000
1000
0000
0001
0000
0100
0000
1000
0000
0000
1100
0000
0000
0101
0000
0000
1001
0000
0000
,
0220
0000
0000
0000
0000
0000
0000
0330
;

//--------------- dance-double - forcednature ----------------
#NOTEDATA:;
#STEPSTYPE:dance-double;
#DESCRIPTION:forcednature;
#DIFFICULTY:Easy;
#METER:10;
#RADARVALUES:0,0,0,0,0;
#CREDIT:forcednature;
#NOTES:
00000000
00000000
00000000
00000000
,
00000000
00000000
00000000
00000000
,
00000000
00000000
00000000
00000000
,
00000000
00000000
00000000
00000000
,
00000000
00000000
00000000
00000000
,
00000000
00000000
00000000
00000000
,
00000000
00000000
00000000
00000000
,
00011000
00000000
00000000
00000000
,
00001000
00000000
01000000
00000000
,
00010000
00010000
00010000
00010000
,
10000000
10000000
00010000
00000000
,
10010000
00000000
10000000
01000000
,
00010000
00000000
00011000
00000000
,
00010100
00000000
00000100
00001000
,
00000010
00000000
00000110
00000000
,
00001001
00000000
00000001
00000010
,
00001000
00000000
00011000
00000000
,
01000000
00010000
10000000
00010000
,
00100000
00010000
10000000
00000000
,
10010000
00000000
00010000
01000000
,
00001000
00000000
00000000
00001000
00000000
00000000
00010000
00000000
,
00011000
00000000
00000100
00001000
,
00001001
00000000
00000000
00000010
00000000
00000000
00000110
00000000
,
00000000
00001000
00000100
00010000
,
00001000
01000000
00010000
00000000
,
00100000
01000000
10000000
01000000
,
00100000
00010000
00100000
00000000
00001000
00000000
00000000
00000000
,
00010000
00000010
00001000
00000010
,
00000100
00000010
00000100
00000000
00000010
00000000
00001000
00000000
,
00000100
00010000
00001000
00010000
,
00000010
00001000
00000010
00000000
00010000
00000000
00001000
00000000
,
01000000
00010000
10000000
00010000
,
00100000
01000000
00100000
00000000
00010000
00000000
10000000
00000000
,
00010000
01000000
00001000
00010000
,
00000100
00001000
00000100
00000000
00010000
00000000
00000000
00000000
,
00001000
00100000
00001000
00000000
00010000
00000000
00001000
00000000
,
01000000
00001000
00011000
00000000
,
00010000
00000010
00010000
00000000
00001000
00000000
00010000
00000000
,
00000100
00010000
00011000
00000000
,
00001000
01000000
00001000
00000000
00010000
00000000
00001000
00000000
,
00100000
00001000
00011000
00000000
,
00010000
00000100
00010000
00000000
00001000
00000000
00010000
00000000
,
00000010
00010000
00011000
00000000
,
00001000
00010000
00001000
00000000
01000000
00000000
00010000
00000000
,
10000000
00010000
10000000
00000000
01000000
00000000
00100000
00000000
,
01000000
00100000
01000000
00000000
00100000
00000000
00001000
00000000
,
00010000
00001000
00010000
00000000
00000100
00000000
00001000
00000000
,
00000001
00001000
00000001
00000000
00001000
00000000
00000010
00000000
,
00000100
00000010
00000100
00000000
00000001
00000000
00001000
00000000
,
00000100
00001000
00000100
00000000
00010000
00000000
00001000
00000000
,
01000000
00010000
01000000
00000000
00001000
00000000
00010000
00000000
,
00011000
00000000
00000000
00000000
,
01000000
00000000
01000000
00000000
00000000
00010000
00000000
00000000
,
10010000
00000000
00000000
00000000
10000000
00000000
00000000
00000000
01000000
00000000
00010000
00000000
00000000
00010000
00000000
00000000
,
00001000
00000000
00010000
00000000
00000100
00001000
00000100
00000000
,
00000010
00000000
00000000
00000000
00000001
00000000
00000000
00000000
00000100
00000000
00001000
00000000
00000000
00010000
00000000
00000000
,
00001000
00000000
01000000
00010000
10000000
00010000
00100000
00000000
,
01100000
00000000
00000000
00000000
01000000
00000000
00000000
00000000
10000000
00000000
00100000
00000000
00000000
00100000
00000000
00000000
,
00100000
00000000
10000000
00000000
01000000
00010000
00001000
00000000
,
00100000
00000000
00010000
00000000
00100000
00000000
00000000
00000000
00001000
00000000
00010000
00000000
00000000
00010000
00000000
00000000
,
00000010
00000000
00001000
00000100
00001000
00000100
00000010
00000000
,
00001001
00000000
00000001
00000000
00000100
00001000
00010000
00000000
,
00100000
01000000
00100000
01000000
00010000
10000000
00010000
00000000
,
10010000
00000000
10000000
00000000
01000000
00010000
00001000
00000000
,
00000010
00000100
00000010
00000100
00001000
00000001
00000100
00000000
,
00000220
00000000
00000000
00000000
00000330
00000000
00000000
00000000
00000010
00000000
00010000
00000000
00000000
00001000
00000000
00000000
,
00022000
00000000
00033000
00000000
00010000
00001000
00100000
00000000
,
02200000
00000000
00000000
00000000
03300000
00000000
00000000
00000000
01000000
00000000
10000000
00000000
00000000
00010000
00000000
00000000
,
20020000
00000000
00000000
00000000
30030000
10000000
01000000
00010000
,
00001000
00000000
00001000
00000000
00000000
00001000
00000000
00000000
,
00010000
00001000
00010000
00000000
00000100
00001000
00000100
00000000
,
00010000
00001000
00011000
00000000
,
00001000
00010000
00001000
00000000
01000000
00010000
01000000
00000000
,
00001000
00010000
00011000
00000000
,
00010000
00001000
00010000
00000000
00000010
00001000
00000010
00000000
,
00000100
00000001
00001001
00001000
,
00000100
00001000
00000100
00000000
00010000
00001000
00010000
00000000
,
00001000
01000000
01010000
00000000
,
00010000
00010000
00010000
00000000
10000000
00000000
00010000
00000000
,
10000000
10000000
10000000
00000000
00010000
00000000
10000000
00000000
,
01000000
01000000
01000000
00000000
00100000
00100000
00100000
00000000
,
01000000
01000000
01000000
00000000
00100000
00000000
00001000
00000000
,
00010000
00010000
00010000
00000000
00001000
00000000
00010000
00000000
,
00001000
00001000
00001000
00000000
00010000
00000000
00001000
00000000
,
00000010
00000010
00000010
00000000
00000100
00000100
00000100
00000000
,
00000010
00000010
00000010
00000000
00000001
00001000
00000001
00000000
,
00002002
00000000
00000000
00000000
00000000
00000000
00000000
00003003
;

//--------------- dance-double - forcednature ----------------
#NOTEDATA:;
#STEPSTYPE:dance-double;
#DESCRIPTION:forcednature;
#DIFFICULTY:Medium;
#METER:14;
#RADARVALUES:0,0,0,0,0;
#CREDIT:forcednature;
#NOTES:
00000000
00000000
00000000
00000000
,
00000000
00000000
00000000
00000000
,
00000000
00000000
00000000
00000000
,
00000000
00000000
00000000
00000000
,
00000000
00000000
00000000
00000000
,
00000000
00000000
00000000
00000000
,
00000000
00000000
00000000
00000000
,
00011000
00000000
00010000
01000000
,
10000000
00100000
10000000
01000000
,
00010000
00000000
00001000
00010000
00001000
00010000
00001000
00010000
,
00000100
00001000
00000100
00010000
00001000
01000000
00010000
00000000
,
00100000
01000000
00010000
00001000
00011000
00000000
00010000
00000000
,
00000010
00000100
00001000
00010000
00011000
00000000
00001000
00000000
,
01000000
00100000
00010000
00001000
00011000
00000000
00010000
00000000
,
00000100
00000010
00001000
00010000
00011000
00000000
00001000
00000000
,
00100000
01000000
00010000
00001000
00011000
00000000
00010000
00000000
,
00000010
00000100
00001000
00010000
00011000
00000000
00001000
00000000
,
00100000
10010000
01000000
10010000
,
10000000
01000000
00010000
00001000
00000100
00000001
00000010
00000000
,
00001001
00000000
00000001
00000100
00010000
00000000
00001000
00000000
,
00000010
00000000
00010000
00100000
00000000
01000000
00010000
00000000
,
00100000
00000000
01000000
00010000
00001000
00000000
00000010
00000000
,
00000110
00000000
00000100
00001000
00000001
00000100
00001000
00000000
,
00011000
00000000
00010000
00100000
10000000
00000000
00100000
10000000
,
01000000
00010000
01000000
10000000
00100000
00000000
01100000
00000000
,
01000000
10000000
01000000
00000000
01000000
00010000
01000000
00000000
,
00001000
00010000
00000100
00000010
00001000
00010000
00000010
00000000
,
00001010
00000000
00001100
00000000
00000100
00000100
00000100
00000000
,
00000010
00000001
00000100
00001000
00000100
00000001
00000010
00000000
,
00000100
00010000
00001000
00100000
00001000
00010000
00000010
00010000
,
00001000
01000000
00010000
01000000
00100000
10000000
01000000
00000000
,
01100000
00000000
10010000
00000000
10000000
01000000
00010000
00000000
,
00001000
00100000
00010000
00100000
00001000
00010000
00000010
00000000
,
00000110
00000000
00000100
00001000
00000100
00000000
00000100
00000001
,
00001000
00000010
00010000
00001000
01000000
00010000
10000000
00000000
,
11000000
00000000
10100000
00000000
10000000
01000000
00010000
00000000
,
01000000
00010000
00001000
00010000
01000000
00010000
00001000
00000000
,
00011000
00000000
00010010
00000000
00000001
00000100
00001000
00000000
,
00000100
00001000
00010000
00000000
00001000
00010000
00100000
00000000
,
01100000
00000000
10010000
00000000
10000000
01000000
00010000
00000000
,
00001000
00100000
01000000
00100000
00001000
00010000
00000100
00000000
,
00000110
00000000
00001001
00000000
00010000
00010000
00010000
00000000
,
00001000
01000000
00010000
01000000
00001000
00010000
00001000
00000000
,
00100000
01000000
00010000
00001000
01000000
00100000
00010000
00001000
,
00000100
00000010
00001000
00000001
00000010
00001000
00010000
00000000
,
00011000
00000000
00000100
00010000
00001000
00000100
00000001
00000100
,
00001000
00000000
00010000
01000000
00010000
00001000
00100000
00000000
,
00011000
00000000
00010000
00001000
01000000
00010000
00100000
01000000
,
00100000
00000000
00001000
00010000
00000100
00001000
00000010
00001000
,
00000100
00000000
00000010
00001000
00000010
00000001
00000100
00000001
,
00000010
00001000
00010000
01000000
00100000
00001000
00010000
00000100
,
00011000
00000000
00000000
00000000
,
01000000
00001000
00100000
00001000
00000000
00010000
00000010
00000000
,
00000110
00000000
00000100
00000000
00001001
00000000
00000000
00000000
00001000
00000000
00000100
00000000
00000000
00011000
00000000
00000000
,
00010000
00000000
00001000
00000000
01000000
00000000
00001000
00000000
00010000
00000100
00010000
00000000
00000100
00001000
00000100
00000000
,
00000010
00000000
00000100
00000000
00001001
00000000
00000000
00000000
00000001
00000000
00000100
00000000
00000000
00000110
00000000
00000000
,
00000010
00000000
00010000
00000000
00100000
00000000
01000000
00100000
02000000
00000000
00000000
00000000
03010000
00000000
00100000
01000000
,
10000000
00000000
00010000
00000000
01010000
00000000
00000000
00000000
00100000
00000000
00101000
00000000
00000000
00010100
00000000
00000000
,
00000100
00000000
00001000
00000010
00010000
00000000
00001000
00010000
00000100
00001000
00000100
00000000
00010000
00001000
00010000
00000000
,
00100000
00000000
01000000
00100000
01000000
00000000
00010000
00000000
10000000
00000000
11000000
00000000
00000000
00110000
00000000
00000000
,
00010000
00000000
01000000
00000000
10000000
00000000
01000000
00010000
10000000
00000000
01000000
00010000
00001000
00000000
00000010
00000000
,
00000110
00000000
00000000
00000000
00000000
00000000
00000000
00000000
00000000
00000000
00000000
00000000
00000000
00000000
00000000
00000000
00000001
00000000
00000000
00000000
00000000
00000000
00000000
00000000
00000000
00000000
00000000
00000100
00000000
00000000
00000000
00000000
00001000
00000000
00000000
00000000
00000000
00000000
00000000
00000000
00010000
00000000
00000000
00000000
00000000
00000000
00000000
00000000
00001000
00000000
00000000
00000000
00000000
00000000
00000000
00000000
01000000
00000000
00000000
00000000
00000000
00000000
00000000
00000000
,
00000000
00110000
00110000
01100000
01100000
11000000
11000000
10010000
,
00010000
00000000
00000000
00000000
00000000
00000000
00000000
00000000
00100000
00000000
00000000
00000000
00000000
00000000
00000000
00000000
00010000
00000000
00000000
00000000
01000000
00000000
00000000
00000000
00000000
00000000
00000000
01000000
00000000
00000000
00000000
00000000
00001000
00000000
00000000
00000000
00000000
00000000
00000000
00000000
00011000
00000000
00000000
00000000
00000000
00000000
00000000
00000000
00000000
00000000
00000000
00000000
00010100
00000000
00000000
00000000
00000000
00000000
00000000
00000000
00000000
00000000
00000000
00000000
,
00001100
00001100
00001001
00001001
00000011
00000011
00000110
00001001
,
00002000
00000000
00000000
00000000
00000000
00000000
00000000
00000000
00000000
00000000
00000000
00000000
00000000
00000000
00000000
00000000
00003100
00000000
00000000
00000000
00000000
00000000
00000000
00000000
00010000
00000000
00000000
00001000
00000000
00000000
00000000
00000000
00010000
00000000
00000000
00000000
00000000
00000000
00000000
00000000
00100000
00000000
00000000
00000000
00000000
00000000
00000000
00000000
00000000
00000000
00000000
00000000
01100000
00000000
00000000
00000000
00000000
00000000
00000000
00000000
00000000
00000000
00000000
00000000
,
10020000
00000000
01000000
00000000
01000000
00000000
10000000
00000000
10030000
00000000
00010000
00100000
00010000
00000000
01000000
00000000
,
20010000
00000000
00000000
00000000
00000000
00000000
00000000
00000000
00000000
00000000
00000000
00000000
00000000
00000000
00000000
00000000
31000000
00000000
00000000
00000000
00000000
00000000
00000000
00000000
00100000
00000000
00000000
00010000
00000000
00000000
00000000
00000000
00100000
00000000
00000000
00000000
00000000
00000000
00000000
00000000
00001000
00000000
00000000
00000000
00000000
00000000
00000000
00000000
00000000
00000000
00000000
00000000
00010000
00000000
00000000
00000000
00000000
00000000
00000000
00000000
00000000
00000000
00000000
00000000
,
00012000
00000000
01000000
01000000
01000000
00000000
00010000
00010000
00013000
00000000
00001000
00000000
00000010
00000000
00000001
00000000
,
00000100
00001000
00000100
00001000
00000000
00010000
00001000
00000000
,
01000000
00010000
00100000
01000000
00010000
01000000
00100000
00001000
,
00000010
00000100
00001000
00000001
00000100
00000010
00001001
00000000
,
00000001
00000100
00000010
00000100
00001000
00010000
00001000
01000000
,
00010000
00100000
10000000
00100000
00010000
10000000
10010000
00000000
,
10000000
00010000
00100000
01000000
00010000
00000100
00001000
00000010
,
00000100
00001000
00000100
00000001
00000010
00000100
00001000
00000010
,
00000100
00001000
01000000
00010000
00100000
10000000
00100000
00010000
,
10000000
00100000
00010000
00001000
00000100
00000001
00001000
00000000
,
00000001
00000000
00000000
00000001
00000010
00000000
00000100
00000000
00001000
00000000
00000000
00001000
00000100
00000000
00010000
00000000
,
00001000
00000000
00000000
00001000
01000000
00000000
00010000
00000000
00100000
00000000
01000000
00000000
00100000
00000000
00000000
00000000
,
00010000
01000000
00010000
01000000
10000000
01000000
10000000
01000000
,
00010000
00100000
01000000
00010000
00001000
00000010
00000100
00000000
,
00001000
00000000
00000000
00001000
00000010
00000000
00010000
00000000
00001000
00000000
00000000
00001000
00100000
00000000
00010000
00000000
,
10000000
00000000
00000000
10000000
00100000
00000000
10000000
00000000
01000000
00000000
00010000
00000000
00001000
00000000
00000000
00000000
,
00100000
01000000
00010000
01000000
00100000
00001000
00000010
00000100
,
00010000
00000010
00000100
00000001
00000010
00001000
00010000
00001000
,
00022000
00000000
00000000
00000000
00000000
00000000
00000000
00033000
;

//--------------- dance-double - forcednature ----------------
#NOTEDATA:;
#STEPSTYPE:dance-double;
#DESCRIPTION:forcednature;
#DIFFICULTY:Hard;
#METER:17;
#RADARVALUES:0,0,0,0,0;
#CREDIT:forcednature;
#NOTES:
00000000
00000000
00000000
00000000
,
00000000
00000000
00000000
00000000
,
00000000
00000000
00000000
00000000
,
00000000
00000000
00000000
00000000
,
00000000
00000000
00000000
00000000
,
00000000
00000000
00000000
00000000
,
00000000
00000000
00000000
00000000
,
00011000
00000000
00010000
00100000
,
10000000
01000000
00010000
00001000
,
00000010
00000000
00000100
00000100
00000100
00000100
00000100
00000100
,
00000100
00001000
00000001
00000100
00000001
00001000
00000100
00000000
,
00000010
00001000
00010000
00001000
01000000
00000000
01100000
00000000
,
00100000
00010000
00001000
00010000
00000100
00000000
00000110
00000000
,
00000010
00001000
00010000
00001000
00100000
00000000
01100000
00000000
,
01000000
00010000
00001000
00010000
00000100
00000000
00000110
00000000
,
00000010
00000001
00000100
00001000
00010000
00000000
00011000
00000000
,
00001000
00010000
01000000
10000000
00100000
00000000
01100000
00000000
,
00100000
10000000
01000000
00010000
00000000
01000000
00010000
00001000
,
00100000
00000000
00010000
00100000
00001000
00000000
00010000
00000000
00000010
00000000
00001000
00000010
00001000
00000010
00000100
00000000
,
00000001
00000000
00000010
00001000
00011000
00000000
01000000
00000000
,
00100000
00000000
00000000
00000000
10000000
00000000
00100000
00000000
10000000
00000000
01000000
00010000
00001000
00000000
00000000
00000000
,
00110000
00000000
00100000
01000000
01010000
00000000
00010000
00001000
,
00000010
00001000
00010000
00010100
00000100
00001100
00001000
00000000
,
00000011
00000000
00001000
00000100
00010100
00000000
00010000
00001000
,
01000000
00010000
01000000
00000000
00100000
00000000
10000000
00000000
01000000
00000000
10000000
00000000
10100000
00000000
00000000
00000000
,
10000000
01000000
00000000
10000000
00100000
00000000
00010000
00000000
00001000
00000000
00000100
00000000
00001000
00000000
00010000
00000000
,
00000010
00001000
00000100
00000010
00000001
00000100
00000110
00000000
,
00000010
00001000
00000010
00000000
00010000
00000000
00001000
00000000
01000000
00000000
01000000
00000000
00010000
00000000
10000000
00000000
,
01000000
10000000
01000000
00000000
00100000
00000000
00001000
00000000
00010000
00000000
00011000
00000000
00001000
00000000
00011000
00000000
,
00010000
00000010
00001000
00000000
00000100
00000000
00001000
00000000
00000001
00000010
00000100
00000000
00001000
00000000
00000010
00000000
,
00010000
00001000
00010000
00001000
01000000
00000000
00010000
00000000
00100000
00000000
01100000
00000000
01000000
00000000
01100000
00000000
,
00100000
00001000
00010000
00000000
00001000
00000000
01000000
00000000
00100000
00000000
00010000
00000000
00100000
00000000
10000000
00000000
,
00010000
01000000
00001000
00000000
00010000
00000000
00001000
00000000
00000010
00000000
00000110
00000000
00000100
00000000
00000110
00000000
,
00000010
00000000
00001001
00000001
00000100
00001000
00011000
00000000
,
01000000
00010000
01000000
00100000
10000000
00100000
01000000
00000000
00010000
00000000
00010000
00000000
00100000
00000000
00100000
00000000
,
01000000
10000000
00100000
10000000
01000000
00100000
00001000
00010000
00001000
01000000
00010000
01000000
,
00001000
00010000
00000010
00001000
00000010
00010000
00000100
00000000
00001100
00000000
00000000
00000000
,
00001000
00000001
00000100
00000010
00001000
00000010
00010000
00001000
00010000
00000100
00001000
00000100
,
00010000
00001000
01000000
00010000
01000000
00001000
00010000
00000000
00101000
00000000
00000000
00000000
,
01000000
00010000
00100000
01000000
00100000
00001000
00010000
00001000
01000000
00010000
01000000
00001000
,
00010000
00000000
00000010
00000000
00010000
00000000
00001000
00000000
00000010
00000000
00000100
00000000
00001000
00000000
00000000
00001001
00000000
00000000
00000001
00000000
00000000
00001001
00000000
00000000
,
00001000
00000000
00000010
00000100
00000010
00001000
00000010
00000000
00010000
00000000
00001000
00010000
00001000
00100000
00010000
00000000
,
01000000
00000000
00010000
01000000
00100000
00000000
10000000
01000000
00100000
00000000
00100000
00000000
01000000
00100000
00010000
00000000
,
01000000
00000000
00001000
00010000
00000000
00000100
00001000
00000000
00000100
00010000
00000000
00001000
00000010
00000000
00000100
00000000
,
00001000
00000001
00000100
00000001
00001000
00000100
00010000
00001000
00010000
00000010
00000100
00001000
,
00010000
00000000
00011000
00000000
00100000
00100000
00011000
00100000
,
00001000
00010000
00001000
01000000
00010000
01000000
00001000
00000000
00010000
00000000
00010100
00000000
00000100
00000000
00001100
00000000
,
00001000
00000000
00000010
00000100
00000000
00001000
00000100
00000000
00000010
00001000
00000000
00000010
00010000
00000000
00001000
00000000
,
01000000
00000000
00010000
00000000
00100000
00000000
01000000
00000000
10000000
00000000
00100000
00000000
01000000
00000000
00000000
00000000
10010000
00000000
00000000
00000000
00000000
10000000
00000000
00000000
,
01000000
00000000
00011000
00000000
00100000
00100000
00011000
00100000
,
00001000
00010000
00000100
00000000
00001000
00000100
00010000
00000000
00000010
00000000
00001010
00000000
00001000
00000000
00001100
00000000
,
00000010
00000000
00000000
00000000
,
00000001
00000100
00001000
00010000
00000000
01000000
00100000
00000000
,
20020000
30030000
10000000
00000000
11000000
00000000
00000000
00000000
00010000
00000000
00110000
00000000
00000000
00101000
00000000
00000000
,
00000100
00000000
00010000
00000000
00100000
00000000
00010000
00000000
00001000
00001000
00000010
00000010
00000100
00000010
00000002
00000000
,
00000103
00000000
00001000
00010000
00011000
00000000
00100000
00100000
00001000
00000000
00011000
00000000
00000000
01001000
00000000
00000000
,
01000000
00000000
01000000
10000000
01000000
00000000
01000000
00010000
00200000
02300000
03020000
00032000
00003010
00000000
00000110
00000000
,
00001001
00000000
00000100
00000000
00011000
00000000
00000000
00000000
00010000
00000000
00011000
00000000
00100000
00110000
00000000
10000000
,
00100000
00000000
00100000
00010000
00100000
00000000
00100000
10000000
01000000
00010000
00001000
00100000
00010000
02000000
00000000
03000000
,
00001000
00010000
00100000
00010000
00001000
00000000
00000010
00000100
00001000
00000010
00000110
00000000
00000001
00000101
00000100
00000000
,
00001000
00010000
00100000
00010000
00001000
01000000
00020000
00030000
00200000
01300000
02000000
13000000
20000000
30100000
00200000
00300000
,
10010000
00000000
00000000
00000000
00000000
00000000
00000000
00000000
10000000
00000000
00000000
00000000
01000000
00000000
00000000
00000000
00010000
00000000
00000000
00000000
00000000
00000000
00000000
00000000
00010000
00000000
00000000
00001000
00000000
00000000
00000000
00000000
00000010
00000000
00000000
00000000
00000000
00000000
00000000
00000000
00000110
00000000
00000000
00000000
00000000
00000000
00000000
00000000
00000000
00000000
00000000
00000000
00001100
00000000
00000000
00000000
00000000
00000000
00000000
00000000
00000000
00000000
00000000
00000000
,
00001020
00000000
00000100
00000000
00000001
00000000
00000130
00000000
00000010
00001000
00000010
00010000
00001000
00100000
01000000
00000000
,
01100000
00000000
00000000
00000000
00000000
00000000
00000000
00000000
10000000
00000000
00000000
00000000
01000000
00000000
00000000
00000000
00010000
00000000
00000000
00000000
00000000
00000000
00000000
00000000
00001000
00000000
00000000
00001000
00000000
00000000
00000000
00000000
00000010
00000000
00000000
00000000
00000000
00000000
00000000
00000000
00000110
00000000
00000000
00000000
00000000
00000000
00000000
00000000
00000000
00000000
00000000
00000000
00001100
00000000
00000000
00000000
00000000
00000000
00000000
00000000
00000000
00000000
00000000
00000000
,
00001000
00000010
00000100
00001000
00010000
00001000
00000100
00000010
00001000
00000100
00000010
00000001
00000100
00000000
00000110
00000000
,
00001001
00000000
00000000
00000000
00000000
00000000
00000000
00000000
00000001
00000000
00000000
00000000
00000100
00000000
00000000
00000000
00001000
00000000
00000000
00000000
00000000
00000000
00000000
00000000
00010000
00000000
00000000
00100000
00000000
00000000
00000000
00000000
00100000
00000000
00000000
00000000
01000000
00000000
00000000
00000000
01100000
00000000
00000000
00000000
00000000
00000000
00000000
00000000
00100000
00000000
00000000
00000000
10010000
00000000
00000000
00000000
00000000
00000000
00000000
00000000
00000000
00000000
00000000
00000000
,
10010000
00000000
00000000
00000000
00000000
00000000
00000000
00000000
10000000
00000000
00000000
00000000
01000000
00000000
00000000
00000000
00010000
00000000
00000000
00000000
00000000
00000000
00000000
00000000
00001000
00000000
00000000
00000010
00000000
00000000
00000000
00000000
00000010
00000000
00000000
00000000
00000000
00000000
00000000
00000000
00000100
00000000
00000000
00000000
00010000
00000000
00000000
00000000
00001000
00000000
00000000
00000000
00000010
00000000
00000000
00000000
00000100
00000000
00000000
00000000
00000000
00000000
00000000
00000000
,
00001001
00000000
00000000
00000000
00000000
00000000
00000000
00000000
00000001
00000000
00000000
00000000
00000100
00000000
00000000
00000000
00001000
00000000
00000000
00000000
00000000
00000000
00000000
00000000
00010000
00000000
00000000
00010000
00000000
00000000
00000000
00000000
00011000
00000000
00000000
00000000
00100000
00000000
00000000
00000000
00110000
00000000
00000000
00000000
00000000
00000000
00000000
00000000
00010000
00000000
00000000
00000000
01100000
00000000
00000000
00000000
00000000
00000000
00000000
00000000
00000000
00000000
00000000
00000000
,
10000000
00000000
00000000
00000000
00100000
00000000
00000000
00000000
00010000
00000000
00000000
00000000
00100000
00000000
00000000
00000000
10000000
00000000
00000000
00000000
01000000
00000000
00000000
00000000
00010000
00000000
00000000
00001000
00000000
00000000
00000000
00000000
00011000
00000000
00000000
00000000
00010000
00000000
00000000
00000000
00001100
00000000
00000000
00000000
00000000
00000000
00000000
00000000
00000011
00000000
00000000
00000000
00000000
00000000
00000000
00000000
00000101
00000000
00000000
00000000
00000000
00000000
00000000
00000000
,
00000002
00000003
00000100
00000000
00001000
00000000
00000000
00000000
00000000
00000000
00010000
00100000
10000000
00000000
00000000
00000000
,
01000000
00010000
01000000
00100000
00001000
00010000
00000100
00000010
00000100
00001000
00000010
00001000
,
00000001
00000000
00000010
00000000
00000001
00000000
00000100
00000000
00001000
00000000
00010000
00000000
00001000
00000000
00000000
00101000
00000000
00000000
00100000
00000000
00000000
00110000
00000000
00000000
,
00010000
01000000
10000000
01000000
00010000
10000000
00100000
10000000
01000000
00010000
01000000
00100000
,
00001000
00000000
00010000
00000000
00000100
00000000
00010000
00000000
00001000
00000000
00000010
00000000
00000100
00000000
00000000
00000110
00000000
00000000
00000010
00000000
00000000
00000011
00000000
00000000
,
00000001
00000100
00001000
00000100
00000001
00001000
00000100
00000010
00001000
00000010
00000100
00010000
,
00001000
00000000
00100000
00000000
00001000
00000000
00010000
00000000
00100000
00000000
01000000
00000000
00010000
00000000
00000000
00110000
00000000
00000000
00100000
00000000
00000000
01100000
00000000
00000000
,
01000000
10000000
00010000
10000000
01000000
00010000
00001000
00100000
00010000
00100000
00001000
00010000
,
00000010
00000000
00000100
00000000
00001000
00000000
00010000
00000000
00001000
00000000
00000100
00000000
00000010
00000000
00000000
00000110
00000000
00000000
00001001
00000000
00000000
00000110
00000000
00000000
,
00001000
00000100
00010000
00001000
00100000
00000000
00010000
01000000
00001000
00010000
00000010
00000000
00001000
00000100
00010000
00001000
,
00010000
00000010
00001000
00000010
00010000
00001000
00100000
00000000
01000000
00000000
10010000
00000000
00100000
00000000
10010000
00000000
,
10000000
01000000
00010000
01000000
00100000
00001000
00010000
00000100
00010000
00001000
00000010
00000001
,
00000100
00000000
00000001
00000000
00000010
00000000
00001000
00000000
00010000
00000000
00001000
00000000
01000000
00000000
00000000
00110000
00000000
00000000
01000000
00000000
00000000
10100000
00000000
00000000
,
10000000
01000000
10000000
00010000
00100000
00000000
00001000
00010000
00000010
00001000
00000010
00000000
00010000
00001000
00100000
00010000
,
00100000
01000000
10000000
00010000
01000000
00010000
00100000
00000000
00001000
00000000
00010100
00000000
00001000
00000000
00010010
00000000
,
00000010
00000100
00001000
00010000
00001000
00000100
00000010
00001000
00000001
00000010
00000100
00010000
,
00001000
00000000
00100000
00000000
01000000
00000000
00100000
00000000
00001000
00000000
00010000
00000000
00100000
00000000
00000000
10100000
00000000
00000000
11000000
00000000
00000000
01010000
00000000
00000000
,
00022000
00000000
00000000
00000000
00000000
00000000
00000000
00033000
;
