#VERSION:0.83;
#TITLE:Scars of FAUNA;
#SUBTITLE:;
#ARTIST:猫叉Master;
#TITLETRANSLIT:;
#SUBTITLETRANSLIT:;
#ARTISTTRANSLIT:Nekomata Master;
#GENRE:WORLD/ELECTRONICA;
#CREDIT:;
#MUSIC:Scars of FAUNA.ogg;
#BANNER:Scars of FAUNA.png;
#BACKGROUND:Scars of FAUNA-bg.png;
#CDTITLE:./CDTitles/bm IIDX 22 PENDUAL.png;
#SAMPLESTART:80.653;
#SAMPLELENGTH:15.000;
#SELECTABLE:YES;
#OFFSET:0.430;
#BPMS:0.000=165.000
,123.000=82.500
,125.000=165.000
;
#STOPS:;
#TIMESIGNATURES:0.000=4=4,
4.000=3=4,
121.000=4=4,
125.000=3=4
;
#DISPLAYBPM:165.000;
#BGCHANGES:0.000=../BGAs/20dr.mp4=1.000=0=0=0=StretchNoLoop====,
99999.000=-nosongbg-=1.000=0=0=0=StretchNoLoop====
;
#FGCHANGES:;

//--------------- dance-single - forcednature ----------------
#NOTEDATA:;
#STEPSTYPE:dance-single;
#DESCRIPTION:forcednature;
#CREDIT:forcednature;
#DIFFICULTY:Beginner;
#METER:4;
#RADARVALUES:0,0,0,0,0;
#NOTES:
0000
0000
0000
0000
,
0000
0000
0000
0000
,
0000
0000
0000
0000
,
0000
0000
0000
0000
,
0000
0000
0000
0000
,
0000
0000
0000
0000
,
0000
0000
0000
0000
,
0001
0000
0000
0000
,
0000
0000
0000
0000
,
0000
0000
0000
0000
,
1000
0000
0000
0000
,
0000
0000
0000
0000
,
0000
0010
0000
0000
,
0100
0000
0000
0000
,
0000
0000
0000
0000
,
0000
0000
0000
0000
,
0001
0000
0000
0000
,
0000
0000
0000
0000
,
0000
0000
0000
0000
,
0010
0000
0000
0000
,
0000
0000
0100
0000
,
0000
0000
0000
0000
,
1000
0000
0000
1000
,
0000
0000
0001
0000
,
0000
0100
0000
0000
,
0010
0000
0000
0000
,
0000
0000
1000
0000
,
0000
0000
0000
0000
,
0001
0000
0000
0000
,
0000
0000
0100
0000
,
0000
0000
0000
0000
,
0000
1001
0000
0000
,
0000
0000
0000
0000
,
0000
0000
1000
0000
,
0000
0100
0000
0000
,
0000
0000
0000
0000
,
0000
0000
0010
0000
,
0000
0001
0000
0000
,
0000
0000
0000
0100
,
0000
0000
0000
0000
,
0000
0010
0000
0000
,
0000
0000
0000
1000
,
0000
0000
0000
0000
,
0000
0001
0000
0000
,
0001
0000
0000
0010
,
0000
0000
0010
0000
,
0000
0100
0000
0000
,
0100
0000
0000
1000
,
0000
1000
0000
1000
,
0000
0010
0000
0000
,
0010
0000
0000
0100
,
0000
0000
0100
0000
,
0000
0001
0000
0000
,
0001
0000
0000
1000
,
0000
0000
0000
0000
,
0000
1001
0000
0000
,
1000
0000
0000
0010
,
0000
0000
0100
0000
,
0000
0001
0000
0000
,
0010
0000
0010
0010
,
0000
0000
0100
0000
,
0000
1001
0000
0000
,
1000
0000
0000
0010
,
0000
0000
0100
0000
,
0000
0001
0000
0000
,
0010
0000
0010
0010
,
0000
0000
0100
0000
,
0000
1001
0000
0000
,
0000
0000
0000
1000
,
0000
0000
0010
0000
,
0000
1001
0000
0000
,
0110
0000
0000
0001
,
0000
0001
1000
1000
,
1000
0001
0000
0000
,
0000
0000
0000
0100
,
0000
0000
0010
0000
,
0000
1000
0000
0000
,
0100
0000
0000
0010
,
0000
0000
0001
0000
,
0000
0100
0100
0100
,
0010
0010
0110
0000
;

//--------------- dance-single - forcednature ----------------
#NOTEDATA:;
#STEPSTYPE:dance-single;
#DESCRIPTION:forcednature;
#CREDIT:forcednature;
#DIFFICULTY:Easy;
#METER:7;
#RADARVALUES:0,0,0,0,0;
#NOTES:
0000
0000
0000
0000
,
0000
0000
0000
0000
,
0000
0000
0000
0000
,
0000
0000
0000
0000
,
0000
0000
0000
0000
,
0000
0000
0000
0000
,
0000
0000
0000
0000
,
1000
0000
0000
0100
,
0000
0000
0010
0000
,
0000
0001
0000
0000
,
0100
0000
0000
0010
,
0000
0000
1000
0000
,
0000
0001
0010
0100
,
0220
0000
0000
0000
,
0000
0330
0002
0000
,
0003
0200
0000
0300
,
0020
0000
0030
2000
,
0000
3000
0002
0000
,
0003
0020
0000
0030
,
0220
0000
0000
0000
,
0330
1000
0002
0000
,
0003
0200
0000
0300
,
0010
0000
0010
0100
,
0000
0100
0001
0000
,
0001
1000
0001
1000
,
1001
0000
0001
0010
,
0000
0010
0100
0000
,
0100
1000
0010
0100
,
0001
0000
0001
1000
,
0000
1000
0010
0000
,
0010
0100
0001
0020
,
0000
0130
0000
0010
,
0001
0100
0000
0001
,
0000
1000
0010
0100
,
0000
0110
0000
1000
,
0100
0010
0000
0001
,
0000
1000
0001
0100
,
0000
1001
0000
1000
,
0000
0010
0000
1000
,
0100
0010
0001
0010
,
0100
1000
0000
1000
,
0010
0000
0100
0001
,
0010
0100
1000
0100
,
0010
0002
0000
0003
,
0100
0100
0100
0020
,
0000
0030
1000
1000
,
1000
0002
0000
0003
,
0010
0010
0010
0200
,
0000
0300
2000
0000
,
3000
0001
0000
0001
,
0010
0010
0010
0100
,
0000
0100
1000
1000
,
1000
0010
0000
0010
,
0100
0100
0001
2000
,
0000
3000
0010
0100
,
0010
1000
0100
0010
,
0001
0010
0100
1000
,
0010
0100
0001
0000
,
0000
0001
0010
0100
,
1000
0000
0000
0001
0000
0000
0200
0000
,
0000
0300
0020
0000
,
0030
1000
0100
0010
,
0001
0010
0100
1000
,
0010
0100
0001
0000
,
0000
0001
0010
0100
,
1000
0000
0000
0100
0000
0000
0010
0000
,
0000
0001
1000
1000
,
0010
0110
0000
0001
,
0001
0000
0010
0100
,
0000
1000
0010
0000
,
1000
0100
0100
0010
,
0100
0100
0010
0001
,
0001
1000
0010
0100
,
0110
2002
0000
3003
,
2000
0000
3000
0200
,
0000
0300
0020
0000
,
0030
0002
0000
0003
,
0200
0000
0300
0020
,
0000
0030
2000
0000
,
3000
0000
0000
0000
0001
0000
0000
0001
0000
0000
1000
0000
0001
0000
0000
0000
,
0010
0000
0000
0010
0000
0000
0010
0000
0010
0000
0000
0000
0000
0000
0000
0000
;

//--------------- dance-single - forcednature ----------------
#NOTEDATA:;
#STEPSTYPE:dance-single;
#DESCRIPTION:forcednature;
#CREDIT:forcednature;
#DIFFICULTY:Medium;
#METER:12;
#RADARVALUES:0,0,0,0,0;
#NOTES:
0000
0000
0000
0000
,
0000
0000
0000
0000
,
0000
0000
0000
0000
,
0000
0000
0000
0000
,
0000
0000
0000
0000
,
0000
0000
0000
0000
,
0000
0000
0000
0000
,
0002
0000
0000
0003
0001
0000
0200
0000
,
0000
0300
0100
0000
0020
0000
0000
0030
,
0010
0000
2000
0000
0000
3000
1000
0000
,
1002
0000
0000
0003
0001
0000
0020
0000
,
0000
0030
0010
0000
0200
0000
0000
0300
,
0100
0000
0000
0000
1000
0000
0000
0001
0000
0000
0100
0000
0010
0000
0000
0000
,
2001
0000
0000
0000
,
0000
3010
0200
0000
,
0000
0302
0000
0003
,
2001
0000
3100
0020
,
0000
0032
0000
0000
0203
0000
0000
0000
,
0310
1000
0001
0010
,
0210
0000
1000
1000
,
1000
0320
0032
0000
,
0100
0000
2003
0000
0000
0010
3010
0000
,
0110
0000
0000
0100
0000
0000
0001
0000
0010
0000
0000
0000
0110
0000
0000
0100
,
0000
0000
1000
0000
0010
0000
0000
0000
1001
0000
0000
1000
0000
0000
0100
0000
,
0110
0000
0000
0000
0001
0000
0000
0001
0100
0000
0000
0100
0010
0000
1000
0000
,
1001
0000
0000
0001
0000
0000
0010
0000
0100
0000
0000
0000
0010
0000
0000
0010
,
0000
0000
0001
0000
1000
0000
0000
0000
0010
0000
0000
0010
0000
0000
0010
0000
,
0010
0000
0000
0000
0100
0000
0000
0001
0000
0000
1000
0000
0010
0000
0000
0000
,
0110
0000
0000
1000
0000
0000
1000
0000
0001
0000
0000
0000
0010
0000
0000
0010
,
0000
0000
0100
0000
1000
0000
0000
0000
0001
0000
0000
0001
0000
0000
0001
0000
,
0001
0000
0000
0000
0100
0000
0000
0010
0000
0000
0100
0000
0220
0000
0000
0000
,
0000
0330
1001
0000
1100
0000
0001
0010
,
0100
0010
0001
1000
0100
1000
0001
0000
,
0110
0000
1000
0010
0100
0010
1000
0001
,
0100
0001
0010
0000
0110
0000
0001
1000
,
0100
1000
0001
0100
0001
0010
0100
0000
,
1001
0000
0000
0000
1000
0000
0010
0000
0100
0000
0000
0100
0000
0000
0001
0000
,
0010
0000
1001
0000
1000
1000
0100
1000
,
1000
0010
1000
0100
0010
0000
0002
0000
,
0100
1000
0023
0230
,
1300
0000
1001
0000
0001
0001
0100
0001
,
0001
0010
0001
0100
0010
0000
1000
0000
,
0001
0000
0010
0010
0010
0000
0100
1000
,
0000
1000
0010
0000
0200
0000
0302
0000
,
2003
0000
3010
0100
0001
1000
0010
0000
,
2000
0000
3200
0000
0320
0000
0031
0001
,
0001
0101
2000
3020
,
0230
0000
0301
1000
0010
0100
0002
0000
,
0010
0010
0013
0000
1000
0001
0100
0010
,
1000
0000
1001
0000
0001
0010
0110
0000
,
1001
0000
0001
1000
0100
0010
0001
0000
,
1000
0010
0110
0000
1001
0000
0001
0010
,
1000
0000
0110
0000
0001
1000
1100
0000
,
0011
0000
0001
1000
0010
0100
0002
0000
,
0000
0000
0003
0010
0200
0000
2300
0000
,
3002
0000
1003
0100
0001
0100
1000
0001
,
1000
0010
0001
0010
1000
0001
1000
0010
,
0100
1000
0001
0010
0200
0000
0300
0010
,
0000
1000
0001
0010
1000
0010
0001
1000
,
0002
0000
0103
2000
0000
3100
0020
0000
,
1000
0000
1000
0000
1030
0000
0000
0000
0110
0000
0000
0110
0000
0000
0001
0000
,
0010
0000
0001
0100
1000
0100
0001
1000
,
0001
0010
1000
0010
0001
1000
0001
0010
,
0100
0001
1000
0010
0200
0000
0300
0010
,
0000
0001
1000
0010
0001
0010
1000
0001
,
2000
0000
3100
0002
0000
0103
0020
0000
,
0001
0000
0001
0000
0031
0000
0000
0000
0100
0000
0000
0100
1000
0000
0000
1000
,
0010
0000
0110
0000
0001
0100
0010
0100
,
0001
0000
0010
0100
1000
0010
0100
0000
,
0001
1000
0100
1000
0001
0000
0010
0001
,
1000
0000
0000
0000
0010
0000
0000
0100
0000
0000
0010
0000
0110
0000
0000
0000
,
1000
0000
0000
0001
0000
0000
1000
0000
1001
0000
0000
0000
0100
0000
0000
0010
,
0000
0000
0100
0000
0110
0000
0000
0000
0001
0000
0000
1000
0001
0000
0000
0100
,
0010
0000
1000
0100
0010
0100
1000
0000
,
0001
0100
0010
0100
0001
0000
1000
0010
,
0001
0010
0100
0000
0001
0010
1000
0010
,
0100
0000
0000
0000
1000
0000
0000
1000
0010
0000
0100
0000
0001
0000
0000
0000
,
0010
0000
0000
0010
0100
0000
1000
0000
0001
0000
0000
0000
0100
0000
0000
0100
,
0010
0000
1000
0000
0001
0000
0000
0000
0010
0000
0000
0010
0001
0000
0100
0000
,
0010
0000
0000
0000
1000
0000
0000
1000
0000
0000
0001
0000
0011
0000
0000
0000
,
0110
0000
0000
0110
0000
0000
0100
0000
1001
0000
0000
0000
0000
0000
0000
0000
;

//--------------- dance-single - forcednature ----------------
#NOTEDATA:;
#STEPSTYPE:dance-single;
#DESCRIPTION:forcednature;
#CREDIT:forcednature;
#DIFFICULTY:Hard;
#METER:16;
#RADARVALUES:0,0,0,0,0;
#NOTES:
0000
0000
0000
0000
,
0000
0000
0000
0000
,
0000
0000
0000
0000
,
0000
0000
0000
0000
,
0000
0000
0000
0000
,
0000
0000
0000
0000
,
0000
0000
0000
0000
,
1000
0000
0000
1000
0000
0000
0100
0000
1000
0000
0000
0000
0001
0000
0000
0001
,
0000
0000
0010
0000
0001
0000
0000
0000
0100
0000
0000
0010
0000
0000
0100
0000
,
0010
0000
0000
0000
1000
0000
0000
0001
0000
0000
1000
0001
1000
0000
0000
0000
,
0011
0000
0000
0010
0000
0000
0001
0000
0010
0000
0000
0000
0100
0000
0000
0100
,
0000
0000
1000
0000
0100
0000
0000
0000
1000
0000
0000
1000
0000
0000
0010
0000
,
0100
0000
0000
0000
0110
0000
0000
0110
0000
0000
0001
1000
0001
0000
0000
0000
,
2002
0000
0000
0003
,
0000
0000
3100
0010
0002
0000
0000
0000
,
0000
0203
0000
0300
,
0120
0000
0000
0000
1030
0001
0020
0000
,
0000
0230
0000
0000
2300
0000
0000
0000
,
0000
0000
0000
0000
3020
0000
0000
0000
0230
0000
0000
0000
0301
1000
0010
0100
,
0002
0000
0010
0010
0000
0010
0010
0000
,
0010
0013
0001
1000
0200
0000
0010
0010
,
0000
0000
0310
0000
0002
0000
0000
0000
1000
0003
1000
0001
0100
0000
0000
0000
,
0110
0000
0000
0110
0000
0000
1000
0000
1100
0000
0000
0000
0110
0000
0000
0110
,
0000
0000
0001
0000
0101
0000
0000
0000
1001
0000
0000
1001
0000
0000
0100
0000
,
0110
0000
0000
0000
1000
0000
0100
0010
0001
0000
0100
0010
2000
0000
0000
0000
,
3001
0000
0010
0001
0000
0010
0100
0000
1000
0000
0000
0000
0010
0000
1000
0010
,
0000
0100
0001
0000
0010
0000
0000
0000
0001
0000
1000
0100
0000
1000
0001
0000
,
0010
0000
0000
0000
0001
0000
1000
0001
0000
0100
0001
0000
1000
0000
0010
1000
,
0010
0000
0100
0010
0000
0100
0001
0000
1000
0000
0000
0000
0100
0000
0010
0100
,
0000
1000
0001
0000
0010
0000
0000
0000
0011
0000
0000
1000
0100
0000
0010
0100
,
1000
0000
0000
0000
0001
0100
0001
1000
0010
1000
0001
0100
0020
0000
0000
0000
,
0000
0000
0000
0000
1030
0000
0000
1000
0010
0000
0100
0000
0010
0000
1000
0001
,
0010
0000
0100
0000
0010
0001
0010
0000
0100
0000
1000
0000
0010
0000
0000
0010
,
0100
0000
0001
0000
0010
0000
0100
1000
0002
0000
0203
0000
2300
0000
3200
0000
,
0301
1000
0010
0100
0001
0000
0000
0001
0010
0000
0100
0000
0010
0000
0001
1000
,
0010
0000
0100
0000
0010
1000
0010
0000
0100
0000
0001
0000
0010
0000
0000
0010
,
0100
0000
1000
0000
0010
0000
0100
0001
1000
0000
0100
0010
0000
0010
0100
0000
,
0010
0001
0010
0100
2000
0000
0000
0000
0010
0000
0010
0000
0010
0000
0000
0000
,
0001
0000
0100
0100
0100
0000
3001
1000
,
0100
0000
0001
0000
0100
0000
1000
0100
0010
0000
0100
0010
0001
0000
1000
0000
,
0010
0100
0002
0000
0010
0010
0010
0000
,
1000
0000
0100
0100
0100
0000
1003
0001
,
0100
0000
1000
0000
0100
0000
0001
0100
0010
0000
0100
0010
1000
0000
0001
0010
,
0100
0010
1001
0000
1000
0100
0001
0000
,
0110
0000
0002
0023
2030
3020
0031
0000
,
0001
0100
1000
0000
0110
0000
2000
3020
,
0032
0003
0110
0000
1000
0100
0001
0000
,
1010
0000
0000
0000
0002
0000
0203
0000
2300
0000
3002
0000
0013
0000
1000
0010
,
1000
0000
0010
0000
0100
0000
0001
0010
0100
0000
1000
0100
0010
0000
0001
0000
,
1000
0010
1000
0010
0100
0000
0000
0100
0001
0000
0000
0001
0010
0000
0000
0010
,
0200
0000
0000
0000
1300
0000
0010
0000
0100
0001
1000
0010
0100
0000
0000
0100
,
0001
0000
0000
0000
0000
0000
0000
0000
0000
0001
0000
0000
0010
0000
0000
0000
0000
0000
0000
0000
0000
0010
0000
0000
0200
0000
0000
0000
0000
0000
0000
0000
0000
0000
0000
0000
1300
0000
0000
0000
0000
0000
0001
0000
0010
0000
0001
0000
,
1000
0000
0000
0000
0010
0000
0000
0010
0100
0000
0000
0100
0001
0000
0000
0001
,
0020
0000
0000
0000
0130
0000
1000
0000
0001
0010
0001
0010
0200
0000
0000
0000
,
0000
0000
0000
0000
0300
0000
1000
0001
2000
0000
0000
0000
3020
0000
0000
0000
,
0230
0000
0000
0000
0301
0000
0010
0001
0100
0000
0010
0100
0002
0000
0010
0000
,
1003
0000
0000
0000
0000
0000
0010
0000
0000
1000
0000
0000
0100
0000
0000
0000
0000
0000
0010
0000
0000
0100
0000
0000
2000
0000
0000
0000
0000
0000
0010
0000
0000
0000
0000
0000
3001
0000
0000
0000
0000
0000
0010
0000
0001
0000
0010
0000
,
0100
0000
1000
0000
0001
0100
0010
1000
0002
0000
0000
0000
0013
0000
0100
0000
,
1000
0000
0010
0000
0110
0000
0100
0001
0010
0000
0100
1000
0010
0000
0100
0000
,
0002
0000
0000
0000
0013
0100
2000
0000
0000
0000
3001
0000
1000
0100
0002
0000
,
0000
0000
0103
0000
0100
0000
1000
0000
0001
0000
0100
0010
1000
0010
0100
0000
,
0001
0010
0100
1000
0001
0000
1000
0100
0001
0000
0100
1000
0020
0000
0100
0000
,
1030
0000
0000
0000
0000
0000
0001
0000
0000
0100
0000
0000
1000
0000
0000
0000
0000
0000
0100
0000
0000
0001
0000
0000
0020
0000
0000
0000
0000
0000
0100
0000
0000
0000
0000
0000
0031
0000
0000
0000
0000
0000
1000
0000
0100
0000
0010
0000
,
0100
0000
1000
0001
0100
0000
1000
0000
0100
0001
0100
0001
1000
0000
0010
0100
,
0001
0000
0010
0000
0011
0000
1000
0100
0001
0000
0100
0010
0002
0000
0100
0000
,
2003
0000
0000
0000
3010
0100
0002
0000
0000
0000
0013
0000
0001
0100
2000
0000
,
0000
0000
3100
0000
0101
0000
0000
0000
0001
0000
0010
0100
1000
0100
0010
0000
,
0001
1000
0010
0100
0002
0000
0000
0000
0010
0000
0010
0000
0010
0000
0000
0000
,
1000
0000
0100
0100
0203
0320
2030
0000
,
0100
0100
0100
0000
3002
0000
0010
0010
,
0013
0000
0001
1000
0100
0000
0010
0100
0000
0010
0100
0000
1001
0000
0000
0000
,
1000
0000
0010
0100
0000
0001
0010
0000
0011
0000
0000
0000
0001
0000
0010
0100
,
0000
1000
0010
0000
0110
0000
0000
0000
0001
0100
0001
0100
0010
1000
0010
1000
,
0001
0010
0100
1000
0001
0000
0100
1000
0000
0100
0001
0000
0011
0000
0000
0000
,
1000
0000
0100
0001
0000
0100
1000
0000
1010
0000
0000
0000
0001
0000
0010
0100
,
0000
1000
0010
0000
0101
0000
0000
0001
1000
0000
0010
0100
0000
0001
0010
0000
,
1100
0000
1000
0001
1000
0000
0010
0100
0001
0100
0010
0000
1010
0000
0100
0000
,
0001
0000
0010
0100
1000
0100
0010
0100
1000
0001
0100
0010
1000
0000
0001
0010
,
0100
0010
0001
0000
0110
0000
0100
1000
0001
0000
0100
0010
1000
0010
0100
0010
,
1000
0001
0100
0010
1000
0000
0000
1100
0000
0000
0011
0000
1001
0000
0010
0100
,
0110
0000
0000
1001
0000
0000
0100
0010
1001
0000
0000
0000
0000
0000
0000
0000
;

//--------------- dance-double - forcednature ----------------
#NOTEDATA:;
#STEPSTYPE:dance-double;
#DESCRIPTION:forcednature;
#CREDIT:forcednature;
#DIFFICULTY:Easy;
#METER:7;
#RADARVALUES:0,0,0,0,0;
#NOTES:
00000000
00000000
00000000
00000000
,
00000000
00000000
00000000
00000000
,
00000000
00000000
00000000
00000000
,
00000000
00000000
00000000
00000000
,
00000000
00000000
00000000
00000000
,
00000000
00000000
00000000
00000000
,
00000000
00000000
00000000
00000000
,
00001000
00000000
00000000
00010000
,
00000000
00000000
00000100
00000000
,
00000000
00001000
00000000
00000000
,
00000010
00000000
00000000
00000100
,
00000000
00000000
00000001
00000000
,
00000000
00000010
00000100
00000010
,
00000220
00000000
00000000
00000000
,
00000000
00000330
00002000
00000000
,
00003000
00000002
00000000
00000003
,
00000200
00000000
00000300
00002000
,
00000000
00003000
00020000
00000000
,
00030000
00200000
00000000
00300000
,
02200000
00000000
00000000
00000000
,
03300000
10000000
00020000
00000000
,
00030000
00200000
00000000
00300000
,
00001000
00000000
00001000
00010000
,
00000000
00010000
00000100
00000000
,
00000100
00001000
00000010
00001000
,
00000001
00000000
00000001
00000010
,
00000000
00000010
00000100
00000000
,
00000100
00010000
00000000
00010000
,
00001000
00000000
00001000
01000000
,
00000000
01000000
00010000
00000000
,
00010000
00100000
01000000
20000000
,
00000000
30100000
00000000
10000000
,
00000000
01000000
00000000
00100000
,
00000000
00001000
00010000
00001000
,
00000000
00011000
00000000
00000100
,
00000000
00001000
00000000
00000010
,
00000000
00000100
00000001
00000100
,
00000000
00001001
00000000
00001000
,
00000000
00000100
00000000
00010000
,
00010000
00001000
00010000
00001000
,
00010000
00001000
00000000
01000000
,
00000000
00010000
00000000
00100000
,
00100000
01000000
00100000
01000000
,
00100000
02000000
00000000
03000000
,
10000000
00000000
00000000
00200000
,
00000000
00000000
00300000
00000000
01000000
00000000
00000000
00010000
,
00000000
00200000
00000000
00300000
,
00001000
00000000
00000000
00020000
,
00000000
00030000
00000200
00000000
,
00000300
00001000
00000000
00001000
,
00000000
00000010
00000010
00000100
,
00000000
00000100
00000000
00000001
,
00000001
00000010
00000000
00000010
,
00000000
00000100
00010000
00002000
,
00000000
00003000
00100000
00010000
,
00100000
01000000
00000000
01000000
,
10000000
00000000
10000000
00100000
,
01000000
00010000
00100000
00000000
,
00001000
00010000
00000000
00010000
,
00000100
00000000
00000000
00000100
00000000
00000000
00002000
00000000
,
00000000
00003000
00000020
00000000
,
00000030
00000100
00000000
00000100
,
00000001
00000000
00000001
00000010
,
00000000
00000100
00001000
00000000
,
00000010
00010000
00000000
00010000
,
00001000
00000000
00000000
00001000
00000000
00000000
00100000
00000000
,
00000000
00010000
01000000
01000000
,
00100000
10010000
00000000
10000000
,
00000000
01000000
00100000
00010000
,
00000000
00100000
00000000
00001000
,
00010000
00000100
00000000
00000100
,
00001000
00000000
00001000
00000010
,
00000000
00000010
00000100
00000001
,
00000100
00000020
00000000
00000030
,
00002000
00000000
00003000
00000200
,
00000000
00000300
00020000
00000000
,
00030000
00002000
00000000
00003000
,
00200000
00000000
00300000
00020000
,
00000000
00030000
02000000
00000000
,
03000000
00000000
00000000
00000000
00100000
00000000
00000000
00100000
00000000
00000000
10000000
00000000
00010000
00000000
00000000
00000000
,
01000000
00000000
00000000
01000000
00000000
00000000
01000000
00000000
01000000
00000000
00000000
00000000
00000000
00000000
00000000
00000000
;

//--------------- dance-double - forcednature ----------------
#NOTEDATA:;
#STEPSTYPE:dance-double;
#DESCRIPTION:forcednature;
#CREDIT:forcednature;
#DIFFICULTY:Medium;
#METER:12;
#RADARVALUES:0,0,0,0,0;
#NOTES:
00000000
00000000
00000000
00000000
,
00000000
00000000
00000000
00000000
,
00000000
00000000
00000000
00000000
,
00000000
00000000
00000000
00000000
,
00000000
00000000
00000000
00000000
,
00000000
00000000
00000000
00000000
,
00000000
00000000
00000000
00000000
,
00020000
00000000
00000000
00030000
00010000
00000000
00002000
00000000
,
00000000
00003000
00001000
00000000
00200000
00000000
00000000
00300000
,
00100000
00000000
00020000
00000000
00000000
00030000
00010000
00000000
,
20010000
00000000
00000000
30000000
10000000
00000000
00200000
00000000
,
00000000
00300000
00100000
00000000
02000000
00000000
00000000
03000000
,
01000000
00000000
00000000
00000000
00001000
00000000
00000000
00001000
00000000
00000000
00010000
00000000
00011000
00000000
00000000
00000000
,
00000200
00000000
00000000
00000000
,
00000000
00001300
00000002
00000000
,
00000000
00000023
00000000
00000030
,
00002001
00000000
00003010
00020000
,
00000000
00032000
00000000
00000000
02003000
00000000
00000000
00000000
,
03010000
10000000
01000000
00100000
,
02100000
00000000
10000000
10000000
,
10000000
03200000
00302000
00000000
,
00100000
00000000
00023000
00000000
00000000
00000100
00030100
00000000
,
00011000
00000000
00000000
00010000
00000000
00000000
00010000
00000000
00001000
00000000
00000000
00000000
00000010
00000000
00000000
00000010
,
00000000
00000000
00000100
00000000
00001000
00000000
00000000
00000000
00000001
00000000
00000000
00000001
00000000
00000000
00000010
00000000
,
00001000
00000000
00011000
00000000
01000000
00010000
00100000
01000000
,
10010000
00000000
00000000
00010000
00000000
00000000
00100000
00000000
01000000
00000000
00000000
00000000
00010000
00000000
00000000
00010000
,
00000000
00000000
00001000
00000000
00000010
00000000
00000000
00000000
00000100
00000000
00000000
00000100
00000000
00000000
00000100
00000000
,
00000100
00000000
00000000
00000000
00001000
00000000
00000000
00000010
00000000
00000000
00000001
00000000
00000010
00000000
00000000
00000000
,
00000110
00000000
00000000
00000001
00000000
00000000
00000001
00000000
00001000
00000000
00000000
00000000
00000100
00000000
00000000
00000100
,
00000000
00000000
00010000
00000000
00001000
00000000
00000000
00000000
00100000
00000000
00000000
00100000
00000000
00000000
00100000
00000000
,
00100000
00000000
00000000
00000000
00010000
00000000
00000000
01000000
00000000
00000000
00010000
00000000
20000000
00000000
00000000
00000000
,
00000000
00000000
30100000
00000000
10010000
00000000
10000000
01000000
,
00100000
00010000
01000000
00001000
00010000
01000000
00010000
00000000
,
00011000
00000000
00000010
00001000
00000001
00000010
00001000
00010000
,
00000100
00001000
00000010
00000000
00001001
00000000
00000001
00000100
,
00000010
00001000
00000100
00010000
00001000
00000100
00001000
00000000
,
00011000
00000000
00100000
00010000
10000000
00100000
00010000
00001000
,
01000000
00010000
00100000
00000000
01000000
01000000
10000000
00000000
,
00100000
00000000
01000000
01000000
00010000
00000000
00200000
00000000
,
02300000
03020000
00032000
00003020
,
00000130
00000000
00001001
00000000
00000100
00000100
00000001
00000000
,
00000010
00000000
00000100
00000100
00001000
00000000
00000020
00000000
,
00000230
00002300
00023000
00230000
,
01300000
10010000
20000000
32000000
,
03020000
00000000
00031000
00100000
00010000
00100000
00001000
00000000
,
00000020
00000000
00000230
00000000
00020300
00000000
00031000
00001000
,
00001000
00000110
00000002
00000203
,
00002300
00000000
00013000
00100000
01000000
00100000
20000000
00000000
,
00010000
00010000
30010000
00000000
10000000
01000000
00010000
00001000
,
00100000
00000000
10010000
00000000
00010000
01000000
00001000
00000000
,
00011000
00000000
00000010
00010000
00001000
00000010
00000001
00000000
,
00000100
00000001
00000010
00000000
00000110
00000000
00000100
00010000
,
00100000
00000000
01100000
00000000
01000000
00010000
00100000
00000000
,
10010000
00000000
10000000
01000000
00010000
00001000
00000020
00000000
,
00000000
00000000
00000030
00000100
00000200
00000000
00020300
00000000
,
00030020
00000000
00010030
00001000
00000010
00001000
00010000
00000010
,
00010000
00001000
00000100
00001000
00010000
00000100
00001000
00000010
,
00000100
00001000
00010000
00100000
02000000
00000000
03000000
00010000
,
00000000
10000000
00010000
00100000
10000000
00100000
00010000
10000000
,
00020000
00000000
01030000
00002000
00000000
00013000
00000020
00000000
,
00001000
00000000
00001000
00000000
00001030
00000000
00000000
00000000
00000110
00000000
00000000
00000110
00000000
00000000
00000001
00000000
,
00000010
00000000
00001000
00010000
00100000
00010000
00001000
00100000
,
00001000
00010000
01000000
00010000
00001000
01000000
00010000
00100000
,
01000000
00010000
00001000
00000010
00000200
00000000
00000300
00001000
,
00000000
00000001
00001000
00000010
00000001
00000010
00001000
00000001
,
00002000
00000000
00003100
00020000
00000000
00031000
00200000
00000000
,
00010000
00000000
00010000
00000000
00310000
00000000
00000000
00000000
01100000
00000000
00000000
01000000
10000000
00000000
00100000
00000000
,
01000000
00000000
10010000
00000000
10000000
01000000
00000000
00010000
,
01000000
00000000
00010000
00001000
00000010
00000001
00001000
00000000
,
00000001
00000100
00000000
00001000
00000100
00000000
00000001
00000010
,
00001000
00000000
00000000
00000000
00010000
00000000
00000000
00010000
00000000
00000000
00001000
00000000
00011000
00000000
00000000
00000000
,
01000000
00000000
00000000
01000000
00000000
00000000
00010000
00000000
00110000
00000000
00000000
00000000
01000000
00000000
00000000
01000000
,
00000000
00000000
10000000
00000000
10100000
00000000
00000000
00000000
00010000
00000000
00000000
00010000
00100000
00000000
00000000
00100000
,
00001000
00000000
00010000
00001000
00000010
00000100
00010000
00000000
,
00001000
00000010
00000001
00000100
00000001
00000000
00000010
00001000
,
00010000
01000000
00010000
00000000
00001000
00100000
00010000
00100000
,
00001000
00000000
00000000
00000000
00010000
00000000
00000000
00010000
00100000
00000000
10000000
00000000
00010000
00000000
00000000
00000000
,
00100000
00000000
00000000
00100000
01000000
00000000
00010000
00000000
00001000
00000000
00000000
00000000
00000010
00000000
00000000
00000010
,
00000100
00000000
00001000
00000000
00000001
00000000
00000000
00000000
00000100
00000000
00000000
00000100
00001000
00000000
00010000
00000000
,
00100000
00000000
00000000
00000000
10000000
00000000
00000000
01000000
00000000
00000000
00010000
00000000
00001000
00000000
00000000
00000000
,
00000110
00000000
00000000
00000110
00000000
00000000
00000010
00000000
00001001
00000000
00000000
00000000
00000000
00000000
00000000
00000000
;

//--------------- dance-double - forcednature ----------------
#NOTEDATA:;
#STEPSTYPE:dance-double;
#DESCRIPTION:forcednature;
#CREDIT:forcednature;
#DIFFICULTY:Hard;
#METER:16;
#RADARVALUES:0,0,0,0,0;
#NOTES:
00000000
00000000
00000000
00000000
,
00000000
00000000
00000000
00000000
,
00000000
00000000
00000000
00000000
,
00000000
00000000
00000000
00000000
,
00000000
00000000
00000000
00000000
,
00000000
00000000
00000000
00000000
,
00000000
00000000
00000000
00000000
,
00001000
00000000
00000000
00001000
00000000
00000000
00010000
00000000
00001000
00000000
00000000
00000000
01000000
00000000
00000000
01000000
,
00000000
00000000
00010000
00000000
01000000
00000000
00000000
00000000
00100000
00000000
00000000
00100000
00000000
00000000
10000000
00000000
,
00100000
00000000
00000000
00000000
10000000
00000000
00000000
10000000
00000000
00000000
00010000
10000000
00010000
00000000
00000000
00000000
,
00110000
00000000
00000000
00100000
00000000
00000000
00001000
00000000
00100000
00000000
00000000
00000000
00001000
00000000
00000000
00001000
,
00000000
00000000
00010000
00000000
00000100
00000000
00000000
00000000
00001000
00000000
00000000
00001000
00000000
00000000
00000010
00000000
,
00000100
00000000
00000000
00000000
00000110
00000000
00000000
00000110
00000000
00000000
00000001
00001000
00000001
00000000
00000000
00000000
,
00002002
00000000
00000000
00000003
,
00000000
00000000
00003100
00010000
00002000
00000000
00000000
00000000
,
00000000
00203000
00000000
00300000
,
02100000
00000000
00000000
00000000
13000000
00010000
00200000
00000000
,
00000000
00302000
00000000
00000000
00023000
00000000
00000000
00000000
,
00000000
00000000
00000000
00000000
00030020
00000000
00000000
00000000
00002030
00000000
00000000
00000000
00003001
00000100
00000010
00001000
,
00000002
00000000
00000010
00000010
00000000
00000010
00000010
00000000
,
00000010
00000013
00000001
00000100
00002000
00000000
00010000
00010000
,
00000000
00000000
00013000
00000000
00200000
00000000
00000000
00000000
00010000
00300000
00010000
00100000
01000000
00000000
00000000
00000000
,
01100000
00000000
00000000
01100000
00000000
00000000
10000000
00000000
10010000
00000000
00000000
00000000
01001000
00000000
00000000
01001000
,
00000000
00000000
00001000
00000000
00010010
00000000
00000000
00000000
00001100
00000000
00000000
00001100
00000000
00000000
00000001
00000000
,
00000011
00000000
00000000
00000000
00001000
00000000
00000100
00001000
00000100
00000000
00010000
00001000
00200000
00000000
00000000
00000000
,
00310000
00000000
00100000
00010000
00000000
00100000
01000000
00000000
10000000
00000000
00000000
00000000
00100000
00000000
10000000
00100000
,
00000000
01000000
00010000
00000000
00100000
00000000
00000000
00000000
00001000
00000000
00010000
00000100
00000000
00001000
00000010
00000000
,
00010000
00000000
00000000
00000000
00001000
00000000
01000000
00010000
00000000
00100000
00001000
00000000
00010000
00000000
00001000
00010000
,
00001000
00000000
00010000
00000100
00000000
00001000
00000100
00000000
00000010
00000000
00000000
00000000
00000001
00000000
00000100
00000001
,
00000000
00000100
00001000
00000000
00010000
00000000
00000000
00000000
00011000
00000000
00000000
00100000
00010000
00000000
00100000
01000000
,
10000000
00000000
00000000
00000000
00010000
01000000
00001000
00010000
00001000
01000000
00010000
01000000
00200000
00000000
00000000
00000000
,
00000000
00000000
00000000
00000000
10300000
00000000
00000000
10000000
01000000
00000000
00010000
00000000
00001000
00000000
00010000
00001000
,
00000010
00000000
00000100
00000000
00001000
00000010
00001000
00000000
00000001
00000000
00000010
00000000
00000001
00000000
00000000
00000001
,
00000100
00000000
00001000
00000000
00010000
00000000
00001000
00010000
00200000
00000000
20300000
00000000
30020000
00000000
02030000
00000000
,
03010000
10000000
00100000
01000000
00010000
00000000
00000000
00010000
00100000
00000000
01000000
00000000
10000000
00000000
01000000
00010000
,
00001000
00000000
00100000
00000000
00010000
00100000
00001000
00000000
00010000
00000000
00000010
00000000
00001000
00000000
00000000
00001000
,
00000010
00000000
00000100
00000000
00000001
00000000
00000100
00001000
00010000
00000000
00000000
00011000
00000000
00001000
00010000
00000000
,
00001000
00100000
00010000
00100000
02000000
00000000
00000000
00000000
10000000
00000000
10000000
00000000
10000000
00000000
00000000
00000000
,
00100000
00000000
10000000
10000000
10000000
00000000
03100000
01000000
,
00010000
00000000
00001000
00000000
00100000
00000000
00010000
00100000
00001000
00000000
00010000
00001000
00010000
00000000
00000010
00000000
,
00001000
00000100
00000020
00000000
00000001
00000001
00000001
00000000
,
00000100
00000000
00000001
00000001
00000001
00000000
00000130
00010000
,
00001000
00000000
00100000
00000000
00001000
00000000
00010000
00001000
00010000
00000000
00000010
00001000
00000010
00000000
00000100
00000001
,
00000010
00000100
00001001
00000000
00000002
00000000
00002003
00000000
,
00023000
00000000
10030000
00100000
01000000
00010000
10010000
00000000
,
20000000
00000000
30020000
00000000
00032000
00000000
00003002
00000023
,
00000230
00000300
00000110
00000000
00000002
00000000
00002003
00000000
,
00023000
00000000
20030000
30200000
02300000
03020000
00130000
01000000
,
10000000
00000000
01000000
00000000
00010000
00000000
00001000
00010000
00001000
00000000
00010000
00001000
00000010
00000000
00000001
00000000
,
00000100
00000001
00000100
00000001
00001000
00000000
00000000
00000000
00000002
00000000
00000000
00000000
00000203
00000000
00000000
00000000
,
00020300
00000000
00130000
01000000
10000000
00100000
10010000
00000000
,
20000000
00000000
00000000
00000000
00000000
00000000
32000000
00000000
00000000
00000000
00000000
00000000
03002000
00000000
00000000
00000000
00000000
00000000
00003010
00000000
00000000
00001000
00000001
00000100
,
00000001
00000110
00000002
00000023
,
00020030
00000000
00000000
00000000
01030000
00000000
10000000
00000000
00100000
01000000
00100000
01000000
00020000
00000000
00000000
00000000
,
00000000
00000000
00000000
00000000
00030000
00000000
10000000
01000000
00020000
00000000
00000000
00000000
00032000
00000000
00000000
00000000
,
00003020
00000000
00000000
00000000
00000031
00000000
00001000
00000100
00000001
00000000
00000100
00000000
00010000
00000000
00001000
00000000
,
00100000
00000000
00000000
00000000
00000000
00000000
00010000
00000000
00000000
01000000
00000000
00000000
10000000
00000000
00000000
00000000
00000000
00000000
01000000
00000000
00000000
00000000
00000000
00000000
00001000
00000000
00000000
00000000
00000000
00000000
00100000
00000000
00000000
00000000
00000000
00000000
00010000
00000000
00000000
00000000
00000000
00000000
00100000
00000000
00001000
00000000
00010000
00000000
,
00001000
00000010
00000100
00010000
00002000
00000000
00103000
00010000
,
01000000
00000000
00100000
00000000
10000000
00000000
00010000
01000000
10000000
00000000
01000000
00000000
00001000
00000000
00100000
00000000
,
00020000
00000000
00000000
00000000
00031000
00000000
00000200
00000000
00000000
00000000
00010300
00000000
00001000
00000010
00000002
00000000
,
00000000
00000000
00000003
00000000
00000100
00000000
00001000
00000000
00010000
00001000
00010000
00001000
00000000
00100000
00010000
00000000
,
00100000
01000000
00100000
01000000
10000000
00000000
00010000
00100000
10000000
00000000
00100000
00000000
00001000
00000000
00010000
00000000
,
00000100
00000000
00000000
00000000
00000000
00000000
00001000
00000000
00000000
00000010
00000000
00000000
00000001
00000000
00000000
00000000
00000000
00000000
00000010
00000000
00000000
00000000
00000000
00000000
00010000
00000000
00000000
00000000
00000000
00000000
00000100
00000000
00000000
00000000
00000000
00000000
00001000
00000000
00000000
00000000
00000000
00000000
00000100
00000000
00010000
00000000
00001000
00000000
,
00010000
01000000
00100000
00001000
00020000
00000000
00030010
00001000
,
00000100
00000000
00000010
00000000
00000001
00000000
00001000
00000010
00000001
00000000
00000010
00000000
00010000
00000000
00000100
00000000
,
00002000
00000000
00000000
00000000
00013000
00000000
00200000
00000000
00000000
00000000
00301000
00000000
00010000
01000000
20000000
00000000
,
00000000
00000000
30000000
00000000
00100000
00000000
00010000
00000000
00001000
00000000
00010000
00001000
00000000
00010000
00000100
00000000
,
00001000
00000100
00000010
00000001
00002000
00000000
00000000
00000000
00000010
00000000
00000010
00000000
00000010
00000000
00000000
00000000
,
00000001
00000000
00000100
00000100
00003200
00020300
00032000
00000000
,
00100000
00100000
00100000
00000000
02003000
00000000
00100000
00100000
,
03100000
00000000
01000000
00010000
10000000
00000000
01000000
00010000
00000000
00001000
00010000
00000000
00001000
00000000
00000010
00000000
,
00000001
00000000
00000100
00001000
00000000
00010000
00001000
00000000
00011000
00000000
00000000
00000000
00010000
00000000
01000000
10000000
,
00000000
00010000
10000000
00000000
00100000
00000000
00010000
00000000
00001000
00000000
00010000
00000100
00001000
00000100
00010000
00000000
,
00000100
00001000
00000001
00001000
00000010
00000000
00000100
00000001
00000000
00000100
00001000
00000000
00010000
00000000
00001000
00000000
,
00100000
00000000
01000000
10000000
00000000
01000000
00010000
00000000
00001000
00000000
00000000
00000000
00000100
00000000
00000001
00000010
,
00000000
00001000
00010000
00000000
00001000
00000000
00100000
00000000
01000000
00000000
10000000
00100000
00000000
00010000
00001000
00000000
,
00011000
00000000
00000000
00000000
00000010
00000000
00000100
00001000
00000000
00010000
00100000
00000000
01100000
00000000
00010000
00000000
,
00100000
00000000
01000000
00010000
00000000
00001000
00000010
00000100
00000010
00000000
00000001
00000000
00000100
00000000
00001000
00010000
,
00000000
00100000
00010000
00000000
00011000
00000000
00001000
00010000
00001000
00000000
01000000
00010000
10000000
00010000
01000000
00000000
,
00100000
10000000
01000000
00100000
00010000
00000000
00000000
00110000
00000000
00000000
00011000
00000000
00001100
00000000
00000000
00000000
,
00000110
00000000
00000000
00011000
00000000
00000000
01000000
00100000
01100000
00000000
00000000
00000000
00000000
00000000
00000000
00000000
;
