#VERSION:0.83;
#TITLE:Sakura Reflection (P*Light Slayer Remix);
#SUBTITLE:;
#ARTIST:P*Light;
#TITLETRANSLIT:;
#SUBTITLETRANSLIT:;
#ARTISTTRANSLIT:;
#GENRE:;
#CREDIT:;
#MUSIC:Sakura Reflection (P_Light Slayer Remix).ogg;
#BANNER:Sakura Reflection (P_Light Slayer Remix).png;
#BACKGROUND:Sakura Reflection (P_Light Slayer Remix)-bg.png;
#CDTITLE:./CDTitles/SDVX II -infinite infection-.png;
#SAMPLESTART:14.186;
#SAMPLELENGTH:15.000;
#SELECTABLE:YES;
#OFFSET:-0.006;
#BPMS:0.000=186.000
,148.000=93.000
,156.000=186.000
,236.000=93.000
,256.000=186.000
;
#STOPS:;
#TIMESIGNATURES:0.000=4=4;
#BGCHANGES:0.000=../BGAs/18eu.mp4=1.000=0=0=0=StretchNoLoop====,
99999.000=-nosongbg-=1.000=0=0=0=StretchNoLoop====
;
#FGCHANGES:;

//--------------- dance-single - forcednature ----------------
#NOTEDATA:;
#STEPSTYPE:dance-single;
#DESCRIPTION:forcednature;
#CREDIT:forcednature;
#DIFFICULTY:Beginner;
#METER:1;
#RADARVALUES:0,0,0,0,0;
#NOTES:
0000
0000
0000
0000
,
0000
0000
0000
0000
,
0000
0000
0000
0000
,
0000
0000
0000
0000
,
0000
0000
0000
0000
,
0000
0000
0000
0000
,
0000
0000
0000
0000
,
1000
0000
0000
0000
,
0001
0000
0000
0000
,
0100
0000
0000
0000
,
0010
0000
0000
0000
,
1000
0000
0000
0000
,
0000
0000
0000
0000
,
0001
0000
0000
0000
,
0000
0000
0000
0000
,
0010
0000
0000
0000
,
0000
0000
0000
0000
,
0100
0000
0000
0000
,
0000
0000
0000
0000
,
0010
0000
0000
0000
,
0000
0000
0000
0000
,
0001
0000
0000
0000
,
0000
0000
0000
0000
,
1000
0000
0000
0000
,
0010
0000
0000
0000
,
1000
0000
0000
0000
,
0100
0000
0000
0000
,
0010
0000
0000
0000
,
0000
0000
0000
0000
,
0001
0000
0000
0000
,
0000
0000
0000
0000
,
1000
0000
0000
0000
,
0000
0000
0000
0000
,
0010
0000
0000
0000
,
0000
0000
0000
0000
,
0100
0000
0000
0000
,
0000
0000
0000
0000
,
0001
0000
0000
0000
,
0000
0000
0000
0000
,
1000
0000
0000
0000
,
0001
0000
0000
0000
,
0100
0000
0000
0000
,
0000
0000
0000
0000
,
0010
0000
0000
0000
,
1000
0000
0000
0000
,
0010
0000
0000
0000
,
0000
0000
0000
0000
,
0100
0000
0000
0000
,
0001
0000
0000
0000
,
0100
0000
0000
0000
,
0000
0000
0000
0000
,
0001
0000
0000
0000
,
0010
0000
0000
0000
,
0001
0000
0000
0000
,
0000
0000
0000
0000
,
1000
0000
0000
0000
,
0100
0000
0000
0000
,
1000
0000
0000
0000
,
0010
0000
0000
0000
,
0100
0000
0000
0000
,
0001
0000
0000
0000
,
0000
0000
0000
0000
,
1000
0000
0000
0000
,
0000
0000
0000
0000
,
0010
0000
0000
0000
,
0100
0000
0000
0000
,
0001
0000
0000
0000
,
0000
1000
0000
0000
,
0000
0001
0000
0000
,
0100
0000
0000
0000
,
0000
0000
0000
0000
,
0010
0000
0000
0000
,
1000
0000
0000
0000
,
0010
0000
0000
0000
,
0000
0000
0000
0000
,
0100
0000
0000
0000
,
0001
0000
0000
0000
,
1000
0000
0000
0000
,
0000
0000
0000
0000
,
0100
0000
0000
0000
,
0010
0000
0000
0000
,
0001
0000
0000
0000
,
0100
0000
0000
0000
,
0010
0000
0000
0000
,
2000
0000
0000
3000
;

//--------------- dance-single - forcednature ----------------
#NOTEDATA:;
#STEPSTYPE:dance-single;
#DESCRIPTION:forcednature;
#CREDIT:forcednature;
#DIFFICULTY:Easy;
#METER:6;
#RADARVALUES:0,0,0,0,0;
#NOTES:
0000
0000
0000
0000
,
0000
0000
0000
0000
,
0000
0000
0000
0000
,
0000
0000
0000
0000
,
0000
0000
0000
0000
,
0000
0000
0000
0000
,
0000
0000
0000
0000
,
1001
0000
0000
0000
,
0110
0000
0000
0000
,
1000
0001
1000
0001
,
0000
0010
0100
0000
,
1000
0010
1000
0000
,
0001
0010
0001
0000
,
0100
0010
1000
0001
,
0100
0010
1000
0000
,
0001
0010
0100
0000
,
0010
0001
1000
0000
,
0010
0100
0010
1000
,
0000
0001
0010
0000
,
0001
0100
0001
0000
,
1000
0100
1000
0000
,
0010
0100
0001
1000
,
0010
0100
0001
0000
,
1000
0100
1000
0000
,
0001
0000
0000
0001
0000
0000
0100
0000
,
0010
0010
1000
1000
,
0001
0010
0001
0000
,
0200
0000
0000
0000
,
0300
0000
0000
0000
,
1000
0001
0010
0001
,
0100
0001
0010
0000
,
0001
1000
0010
1000
,
0100
1000
0010
0000
,
1000
0001
0100
0001
,
0010
0001
0100
0000
,
0001
1000
0100
1000
,
0010
0010
0100
0100
,
0001
0000
0010
0000
,
0100
0000
1000
0000
,
0001
0000
0100
0000
,
1001
0000
0100
0000
,
0110
0000
1001
0000
,
0000
0010
0010
0000
,
1000
0100
1000
0010
,
1000
1000
1000
0000
,
0001
0100
0001
0010
,
0001
0001
0001
0000
,
0100
0010
1000
0001
,
1000
1000
1000
0000
,
0100
0010
0001
1000
,
0001
0001
0001
0000
,
0000
0110
0000
1000
,
0001
0100
0010
0000
,
1000
0001
0010
0001
,
1000
0010
1000
0000
,
0001
0000
0000
0001
0000
0000
0001
0000
,
1000
0000
0000
1000
0000
0000
1000
0000
,
0010
0100
0010
0100
,
0001
1000
0002
0000
,
0013
0000
0002
2003
,
3010
0000
0100
0000
,
0001
0000
1000
0000
,
0100
0000
0010
0000
,
0001
0000
1000
0000
,
0010
0000
0010
0000
,
0100
0000
0100
0000
,
0001
1000
0001
1000
,
0000
0100
0100
0000
,
0000
0010
0010
0000
,
0001
0100
0001
0010
,
0100
1000
0010
0000
,
0100
0001
1000
0100
,
0010
0000
0000
0010
0000
0000
0010
0000
,
0001
0100
0001
1000
,
0010
1000
0001
0000
,
0010
0100
1000
0100
,
0000
0010
0010
0000
,
0001
0100
0001
0010
,
0001
1000
0010
0000
,
0100
0001
1000
0100
,
1000
0001
0100
0000
,
0110
0000
0010
1000
,
0001
0000
0000
0001
0000
0000
0010
0000
,
0100
1000
0100
1000
,
0020
0000
0000
0130
;

//--------------- dance-single - forcednature ----------------
#NOTEDATA:;
#STEPSTYPE:dance-single;
#DESCRIPTION:forcednature;
#CREDIT:forcednature;
#DIFFICULTY:Medium;
#METER:12;
#RADARVALUES:0,0,0,0,0;
#NOTES:
0000
0000
0000
0000
,
0000
0000
0000
0000
,
0000
0000
0000
0000
,
0000
0000
0000
0000
,
0000
0000
0000
0000
,
0000
0000
0000
0000
,
0000
0000
0000
0000
,
1001
1000
0100
0010
,
1001
0001
0100
0010
,
1000
0100
1000
0001
0100
0001
0010
0100
,
0000
1000
1000
0001
0001
0000
0110
0000
,
1000
0001
0100
0000
0010
1000
0100
0000
,
0010
0001
0100
0010
1000
0001
0010
0000
,
0100
1000
0001
0000
0100
0010
1000
0000
,
0100
0100
1000
0010
0010
1000
0001
0000
,
0100
0010
1000
0000
0001
0010
0100
0000
,
0010
0001
0100
0010
1000
0001
0010
0000
,
0110
0000
1000
0000
0001
0001
0100
0100
,
0000
0000
0010
0000
1000
0001
0000
0200
0000
0000
0000
0000
0300
0000
0000
0000
,
0001
0010
0100
0000
0010
0001
1000
0000
,
0010
0100
0001
1000
0100
0010
0001
0000
,
1000
0100
1000
0000
0010
0100
0001
0000
,
1000
1000
0010
1000
1000
0001
0010
0000
,
0110
0000
0100
1000
0001
1000
0010
0000
,
0110
0000
0000
1001
0000
0000
0010
0000
,
1000
0100
1000
0001
0100
0001
0010
0000
,
0001
0000
0100
0000
0010
1000
0000
0002
0000
0000
0000
0000
0013
0000
0000
0000
,
0110
0000
0100
0000
1000
0001
0000
0100
,
0000
0010
0010
0010
0010
0000
1000
0000
,
1001
0000
0001
0010
0000
0100
0010
0001
,
0000
0100
0010
0100
0010
0000
0110
0000
,
1001
0000
1000
0010
0000
0100
0010
1000
,
0000
0100
0010
0100
0010
0000
0110
0000
,
1001
0000
0001
0100
0000
0010
0100
0001
,
0000
0010
0100
0010
0100
0000
0110
0000
,
1001
0000
1000
0100
0000
0010
0100
1000
,
0001
0100
0001
0100
0010
1000
0001
1000
,
0100
0000
0000
0010
0000
0001
0000
0010
0000
0100
0000
1000
0000
0001
0000
0000
,
0100
0000
0000
0010
0000
1000
0000
0001
0000
0010
0000
0200
0000
0000
0300
0000
,
1001
0001
0100
0001
,
1001
1000
0100
1000
,
1010
0100
0011
0100
,
0000
0010
0010
0010
0010
0000
0110
0000
,
1000
0001
0100
0001
1000
0001
0100
0000
,
0010
0010
0010
0000
1000
0001
0010
0000
,
0100
1000
0001
1000
0100
1000
0001
0000
,
0100
0010
0100
0000
0001
0001
0001
0000
,
0010
0100
1000
0100
0010
0100
1000
0000
,
0001
0000
0000
0100
0000
0000
0001
0000
1000
0000
0100
0000
0010
0000
0000
0000
,
0100
1000
0010
1000
0100
1000
0010
0000
,
0100
0100
0001
0001
0010
0100
0010
0001
,
0000
0100
0110
0000
0010
1000
0100
0000
,
0010
0001
1000
0001
0010
0001
0100
0000
,
0010
1000
0001
1000
0010
1000
0100
0000
,
0010
0001
0100
0001
0010
0100
1000
0000
,
0001
0000
0000
0100
0000
0000
0010
0000
0000
1000
0000
0000
0001
0000
0001
0000
,
1000
0000
0000
0100
0000
0000
0010
0000
0000
0001
0000
0000
1000
0000
1000
0000
,
0010
0100
0001
0000
0010
0100
1000
0000
,
0001
0100
0001
1000
0100
1000
0010
0000
,
1001
0000
2000
3002
,
0103
0010
1000
0001
0100
0010
1000
0000
,
0100
0010
0001
1000
0010
0100
0001
0000
,
0010
0001
1000
0010
0100
1000
0100
0000
,
0001
0010
0001
0001
0100
0100
0020
1030
,
1100
0000
0011
0000
,
0101
0000
1010
0000
,
1000
0100
1000
0010
0100
0001
0010
0001
,
0000
0100
0100
0100
0100
0000
1001
0000
,
0000
0010
0010
0010
0010
0000
1001
0000
,
1000
0100
0010
0001
0100
0010
1000
0000
,
0001
0010
0100
0010
0001
0100
0010
0000
,
1000
0001
0010
0001
1000
0010
0100
0000
,
1000
0100
0001
1000
0100
0001
0100
0000
,
0010
0001
0100
0001
1000
0010
1000
0000
,
0001
0010
0100
1000
0010
0100
0001
0000
,
1000
0010
0100
0010
0001
0010
0100
0010
,
0000
0000
1000
0000
0001
0010
0000
0200
0000
0000
0000
0000
1300
0000
0000
0000
,
0100
0010
0001
0100
0010
1000
0001
0000
,
0010
0100
1000
0010
0100
0001
1000
0000
,
0010
0100
0001
0010
0001
1000
0100
0000
,
0001
0100
1000
0001
0100
1000
0100
0000
,
0110
0000
0010
1000
0001
0010
0100
0000
,
1100
0000
0000
0101
0000
0000
1001
0000
,
0001
0010
0001
1000
0010
1000
0100
0010
,
0002
0000
0000
0103
;

//--------------- dance-single - forcednature ----------------
#NOTEDATA:;
#STEPSTYPE:dance-single;
#DESCRIPTION:forcednature;
#CREDIT:forcednature;
#DIFFICULTY:Hard;
#METER:16;
#RADARVALUES:0,0,0,0,0;
#NOTES:
0000
0000
0000
0000
,
0000
0000
0000
0000
,
0000
0000
0000
0000
,
0000
0000
0000
0000
,
0000
0000
0000
0000
,
0000
0000
0000
0000
,
0000
0000
0000
0000
,
1001
0000
0001
0000
0100
0000
0010
1000
,
1001
0000
1000
0000
0100
0000
0010
0001
,
1001
0000
1000
0000
0010
0000
1000
0000
0001
0010
0001
0000
1000
0100
1000
0000
,
0000
0010
0110
0100
0110
0000
0001
1000
,
0010
0000
0100
0001
0000
0100
0000
0010
0000
1000
0001
0000
0010
0000
0000
0000
,
0100
0000
1000
0001
0000
0100
0000
0010
0000
1000
0001
0000
0020
0000
0000
0000
,
0130
0000
0010
0001
0000
1000
0000
0010
0000
0100
0001
0000
1000
0000
0100
0000
,
0010
0001
0010
0001
0010
0000
0100
1000
0100
1000
0100
0000
0010
0000
0001
0000
,
1000
0000
0010
0100
0000
0001
0000
1000
0000
0100
1000
0000
0001
0000
0000
0000
,
0100
0000
0010
1000
0000
0001
0000
0010
0000
0100
1000
0000
0020
0000
0000
0000
,
0130
0000
0001
0000
0010
0000
0001
0000
1000
0010
1000
0000
0001
0010
0001
0000
,
0000
0000
0100
0000
0010
1000
0000
0001
0000
0000
0010
0000
0010
0000
0000
0000
,
0100
0000
1000
0001
0000
0100
0000
0010
0000
1000
0001
0000
0010
0000
0100
0000
,
1000
0000
0001
0100
0000
0010
0000
1000
0000
0001
0010
0000
0200
0000
1000
0000
,
0310
0000
0100
1000
0000
0001
0000
1000
0000
0010
0100
0000
0001
0000
0010
0000
,
0001
0100
0001
0100
0001
0000
1000
0010
1000
0010
1000
0000
0001
0000
0010
0100
,
1000
0000
0001
0100
0000
0001
0000
0010
0000
0100
1000
0000
0001
0000
0100
0000
,
0110
0000
0000
0000
0010
0000
1001
0000
0000
0000
1000
0000
0100
0000
0010
0001
,
1000
0000
0010
0000
1000
0000
0100
0000
0010
0001
0010
0000
0001
0100
0001
0000
,
0010
0000
0100
0000
1000
0001
0000
0200
0000
0000
0000
0000
0310
0000
0000
0000
,
1001
0000
1000
0100
0001
0100
0000
0010
,
0000
0000
0001
0000
0001
0000
0001
0000
0001
0100
0000
0000
0010
0000
0000
0000
,
1000
0100
0010
1000
0010
0001
0100
0001
,
1000
0010
0010
0100
0001
0000
0011
0000
,
0010
0100
1000
0010
0100
1000
0100
0001
,
0010
0001
0100
0001
0010
0100
1000
0010
,
0100
1000
0100
0001
0010
0001
1000
0010
,
1000
0100
0100
0010
0001
0000
1001
0000
,
1000
0010
0100
0010
0001
0010
0100
0001
,
1000
0010
0001
1000
0100
0001
0010
0001
,
0100
0000
0000
0010
0000
1000
0000
0001
0000
0010
0000
0010
0000
0010
0100
1000
,
0001
0100
0000
0010
0000
1000
0000
0001
0000
0010
0000
0010
0000
0100
1000
0001
,
0100
0000
1000
0100
0001
0000
0001
0010
,
1000
0000
0001
0100
1000
0000
1000
0010
,
0001
0000
1000
0100
0001
0010
0100
1000
,
0000
0010
0110
0100
0110
0000
1001
0000
,
0001
0100
1000
0100
0001
0010
1000
0010
,
0100
0000
1000
0000
0001
0000
0100
0000
1000
0000
0100
0010
0000
0100
0001
0000
,
1000
0010
0001
0010
1000
0100
0001
0100
,
0010
0000
0001
0000
0100
0000
0001
0000
1000
0010
1000
0010
0100
0000
0000
0000
,
1000
0100
0001
0010
1000
0010
0001
0100
,
0010
0000
0001
0010
0000
0100
0010
0000
1000
0000
0001
0010
0000
0100
1000
0000
,
0001
0000
0100
0000
1000
0000
0100
0000
0001
0000
0010
0000
1000
0000
0010
0100
,
1000
0000
1000
0000
1000
0000
1000
0000
0010
0000
0100
0001
1000
0001
0010
0100
,
0000
0000
0001
0100
1000
0000
0001
0000
0100
0000
1000
0000
0100
0000
0001
0000
,
0010
0000
0100
0000
0001
0000
0100
0000
0010
0000
0001
0000
1000
0010
1000
0000
,
0100
0001
0100
1000
0010
0001
0010
0100
,
0001
0000
0010
0000
0001
0000
0100
0000
0010
0000
1000
0000
0100
0010
0100
0000
,
1100
0000
0000
1010
0000
0000
0101
0000
0000
0011
0000
0000
0001
0100
0010
0000
,
1010
0000
0000
0101
0000
0000
0011
0000
0000
1100
0000
0000
1000
0001
1000
0001
,
0010
0000
0100
0000
1000
0000
0100
0010
0001
0000
0100
0000
0010
0000
1000
0010
,
0100
0001
0010
0000
0100
1000
0010
0000
1000
0001
0100
0010
1000
0001
0010
0100
,
1000
0000
0020
0230
,
0301
0000
0010
0100
1000
0000
0001
0100
0010
1000
0001
0100
0010
0000
1000
0001
,
1000
0000
0100
0010
0001
0000
1000
0010
1000
0000
0001
0001
0001
0000
0100
0010
,
1000
0000
0001
0010
0100
1000
0001
0000
0100
0010
1000
0001
0010
0000
0100
1000
,
0001
0000
0100
0000
1000
0100
0010
1000
0001
0010
0001
0100
0010
0000
0110
0000
,
1002
0013
2001
3010
,
1002
0103
2001
3100
,
1000
0000
0010
0100
0001
0000
0001
0010
0100
0000
1000
0010
0100
0000
0100
0001
,
0000
1000
1100
0001
0011
0100
0100
0000
,
0000
0001
0101
1000
1010
0000
1001
0000
,
0001
0000
0100
0010
0000
1000
0000
0001
0000
0010
0100
0000
1000
0000
0010
0000
,
0100
0000
0001
1000
0000
0100
0000
0010
0000
0001
1000
0000
0010
0100
0010
0000
,
1000
0000
0010
0100
0000
0001
0000
1000
0000
0100
0010
0000
0001
0000
1000
0000
,
0001
0100
0010
1000
0001
0000
0001
0100
0010
1000
0001
0000
0010
0000
0100
0000
,
0010
0000
0001
1000
0000
0010
0000
0100
0000
0001
1000
0000
0100
0000
0010
0000
,
0001
0000
1000
0010
0000
0100
0000
0001
0000
1000
0100
0000
0010
0001
0010
0000
,
0100
0000
0100
0000
1000
0000
1000
0000
0001
0100
0001
0000
1000
0010
1000
0001
,
0000
0000
0110
0000
0100
0010
0000
2002
0000
0000
0000
0000
3003
0000
0000
0000
,
1000
0000
0100
0010
0000
0100
0000
1000
0000
0001
0100
0000
0010
0000
1000
0000
,
0001
0000
0010
0100
0000
0010
0000
0001
0000
1000
0010
0000
0100
0001
0100
0000
,
0010
0000
1000
0001
0000
0010
0000
0100
0000
0010
0001
0000
1000
0000
0010
0000
,
1000
0100
0010
0001
1000
0000
1000
0100
0010
0001
1000
0000
0010
0000
0100
0001
,
0100
0000
0010
1000
0000
0001
0000
0010
0000
0100
1000
0000
1001
0000
0000
0000
,
0001
0010
0100
1000
0010
0000
1000
0010
0100
0001
0010
0000
0110
0000
0000
0000
,
0100
0000
1000
0001
0100
0000
0001
1000
0100
0000
0010
0001
1000
0001
0100
0000
,
0010
0000
1000
0000
0001
0010
0000
0200
0000
0000
0000
0000
0301
0000
0000
0000
;

//--------------- dance-double - forcednature ----------------
#NOTEDATA:;
#STEPSTYPE:dance-double;
#DESCRIPTION:forcednature;
#CREDIT:forcednature;
#DIFFICULTY:Easy;
#METER:6;
#RADARVALUES:0,0,0,0,0;
#NOTES:
00000000
00000000
00000000
00000000
,
00000000
00000000
00000000
00000000
,
00000000
00000000
00000000
00000000
,
00000000
00000000
00000000
00000000
,
00000000
00000000
00000000
00000000
,
00000000
00000000
00000000
00000000
,
00000000
00000000
00000000
00000000
,
00011000
00000000
00000000
00000000
,
01001000
00000000
00000000
00000000
,
00010000
00000100
00001000
00000100
,
00000000
00000010
00000010
00000000
,
00000001
00000100
00000001
00000000
,
00001000
00000100
00001000
00000000
,
00000010
00010000
00000010
00000000
,
00010000
00010000
00010000
00000000
,
00001000
01000000
00001000
00000000
,
00100000
00010000
00100000
00000000
,
01000000
10000000
01000000
10000000
,
00000000
00010000
01000000
00000000
,
00001000
00010000
00001000
00000000
,
00010000
00000100
00010000
00000000
,
00000100
00001000
00000100
00000000
,
00000010
00000010
00000010
00000000
,
00000100
00010000
00001000
00000000
,
01000000
00000000
00000000
01000000
00000000
00000000
00100000
00000000
,
10000000
10000000
00010000
00010000
,
00100000
01000000
00100000
00000000
,
00020000
00000000
00000000
00000000
,
00030000
00000000
00000000
00000000
,
01000000
00010000
01000000
00000000
,
00001000
00010000
00000100
00000000
,
00001000
00000100
00001000
00000000
,
00000010
00010000
00001000
00000000
,
00100000
00010000
00100000
00000000
,
01000000
10000000
00010000
00000000
,
01000000
00010000
01000000
00000000
,
00001000
00001000
00010000
00010000
,
00000100
00000000
00001000
00000000
,
00000001
00000000
00000100
00000000
,
00000010
00000000
00010000
00000000
,
00011000
00000000
00001000
00000000
,
00100000
00000000
10010000
00000000
,
00000000
01000000
01000000
00000000
,
00010000
01000000
00010000
01000000
,
00001000
00001000
00001000
00000000
,
00010000
00000100
00010000
00000100
,
00001000
00001000
00001000
00000000
,
00000010
00010000
00000010
00010000
,
00001000
00001000
00001000
00000000
,
00100000
00010000
00100000
00010000
,
01000000
01000000
01000000
00000000
,
00000000
00011000
00000000
00000100
,
00001000
00000100
00000010
00000000
,
00000001
00001000
00000001
00000100
,
00000010
00001000
00000010
00000000
,
00010000
00000000
00000000
00010000
00000000
00000000
00010000
00000000
,
00001000
00000000
00000000
00001000
00000000
00000000
00001000
00000000
,
00100000
00010000
00100000
00010000
,
10000000
00100000
20000000
00000000
,
31000000
00000000
00200000
00320000
,
01030000
00000000
00001000
00000000
,
00010000
00000000
00000100
00000000
,
00001000
00000000
00000001
00000000
,
00000100
00000000
00000010
00000000
,
00010000
00000000
00010000
00000000
,
00001000
00000000
00001000
00000000
,
01000000
00010000
01000000
00010000
,
00000000
00100000
00100000
00000000
,
00000000
01000000
01000000
00000000
,
00100000
00010000
00100000
00000000
,
00001000
00010000
00001000
00000000
,
00010000
00000100
00010000
00000000
,
00000010
00000000
00000000
00000010
00000000
00000000
00000010
00000000
,
00001000
00000001
00001000
00000000
,
00000100
00001000
00000100
00000000
,
00010000
00001000
00010000
00001000
,
00000000
01000000
01000000
00000000
,
00010000
00100000
00010000
00100000
,
01000000
10000000
01000000
00000000
,
00100000
00010000
00100000
00010000
,
01000000
00001000
01000000
00000000
,
00011000
00000000
00010000
00000100
,
00001000
00000000
00000000
00001000
00000000
00000000
00000001
00000000
,
00000100
00000010
00000100
00000010
,
00002000
00000000
00000000
00003100
;

//--------------- dance-double - forcednature ----------------
#NOTEDATA:;
#STEPSTYPE:dance-double;
#DESCRIPTION:forcednature;
#CREDIT:forcednature;
#DIFFICULTY:Medium;
#METER:12;
#RADARVALUES:0,0,0,0,0;
#NOTES:
00000000
00000000
00000000
00000000
,
00000000
00000000
00000000
00000000
,
00000000
00000000
00000000
00000000
,
00000000
00000000
00000000
00000000
,
00000000
00000000
00000000
00000000
,
00000000
00000000
00000000
00000000
,
00000000
00000000
00000000
00000000
,
00011000
00000100
00001000
00000010
,
00011000
01000000
00010000
00100000
,
01000000
10000000
01000000
00100000
00001000
00010000
00000010
00010000
,
00000000
00001000
00001000
00000010
00000010
00000000
00000110
00000000
,
00000100
00001000
00000001
00000000
00000100
00000010
00001000
00000000
,
00000100
00010000
00001000
01000000
00010000
01000000
00100000
00000000
,
10000000
01000000
00100000
00000000
00010000
01000000
00001000
00000000
,
00010000
00010000
00000100
00010000
00010000
00000010
00001000
00000000
,
00000100
00000010
00000001
00000000
00001000
00000010
00010000
00000000
,
00001000
00100000
01000000
00100000
00010000
10000000
00100000
00000000
,
01100000
00000000
01000000
00000000
00001000
00001000
00010000
00010000
,
00000000
00000000
00000100
00000000
00001000
00000100
00000000
00000020
00000000
00000000
00000000
00000000
00000030
00000000
00000000
00000000
,
00000001
00000100
00000010
00000000
00010000
00001000
01000000
00000000
,
00010000
00100000
01000000
00100000
00010000
10000000
00100000
00000000
,
01000000
00001000
00010000
00000000
00000100
00001000
00000010
00000000
,
00000100
00000100
00001000
00000100
00000100
00000001
00000010
00000000
,
00000110
00000000
00000100
00010000
00001000
01000000
00010000
00000000
,
10010000
00000000
00000000
01100000
00000000
00000000
10000000
00000000
,
01000000
00100000
01000000
00010000
00001000
00000010
00000100
00000000
,
00000010
00000000
00000001
00000000
00001000
00000001
00000000
00000200
00000000
00000000
00000000
00000000
00000310
00000000
00000000
00000000
,
00001001
00000000
00001000
00000000
00000100
00010000
00000000
00001000
,
00000000
01000000
01000000
01000000
01000000
00000000
00100000
00000000
,
10010000
00000000
10000000
01000000
00000000
00100000
00010000
01000000
,
00000000
00001000
00010000
00001000
00010000
00000000
00000100
00000000
,
00000110
00000000
00000010
00000001
00000000
00000100
00000010
00001000
,
00000000
00000100
00010000
00000100
00010000
00000000
00001000
00000000
,
01001000
00000000
01000000
00010000
00000000
00100000
01000000
00100000
,
00000000
00010000
10000000
00010000
10000000
00000000
00100000
00000000
,
10010000
00000000
10000000
01000000
00000000
00100000
00010000
01000000
,
00001000
00010000
00001000
00010000
00000100
00001000
00000001
00001000
,
00000010
00000000
00000000
00010000
00000000
00001000
00000000
00100000
00000000
00010000
00000000
00100000
00000000
01000000
00000000
00000000
,
10000000
00000000
00000000
00010000
00000000
01000000
00000000
00001000
00000000
00010000
00000000
00000200
00000000
00000000
00000300
00000000
,
00000110
00000010
00000001
00000100
,
00000110
00000010
00010000
00001000
,
00101000
00010000
01001000
00010000
,
00000000
00001000
00001000
00001000
00001000
00000000
00010000
00000000
,
00100000
10000000
00010000
10000000
00100000
10000000
00010000
00000000
,
01000000
01000000
01000000
00000000
00001000
00010000
00000100
00000000
,
00001000
00000001
00000010
00000001
00001000
00000001
00000010
00000000
,
00000100
00000010
00000100
00000000
00010000
00010000
00010000
00000000
,
00001000
01000000
00100000
01000000
00001000
01000000
00100000
00000000
,
10000000
00000000
00000000
00010000
00000000
00000000
10000000
00000000
01000000
00000000
00100000
00000000
00010000
00000000
00000000
00000000
,
01000000
00001000
00010000
00001000
01000000
00001000
00010000
00000000
,
00000100
00000100
00001000
00001000
00000010
00000100
00000001
00000010
,
00000000
00000100
00000110
00000000
00000010
00000001
00001000
00000000
,
00000010
00010000
00000100
00010000
00000010
00010000
00000100
00000000
,
00010000
00001000
01000000
00001000
00010000
00001000
01000000
00000000
,
00100000
10000000
01000000
10000000
00100000
10000000
01000000
00000000
,
00100000
00000000
00000000
00001000
00000000
00000000
00010000
00000000
00000000
00000100
00000000
00000000
00001000
00000000
00001000
00000000
,
00000010
00000000
00000000
00010000
00000000
00000000
00001000
00000000
00000000
01000000
00000000
00000000
00010000
00000000
00010000
00000000
,
00100000
01000000
00100000
00000000
00001000
00010000
00001000
00000000
,
00000100
00000010
00000100
00000001
00001000
00000001
00000010
00000000
,
00000110
00000000
00000200
00020300
,
00031000
01000000
00010000
01000000
00100000
10000000
00010000
00000000
,
00100000
01000000
00100000
00001000
00010000
00000010
00001000
00000000
,
00000100
00000010
00000100
00001000
00000001
00000100
00000001
00000000
,
00000010
00000100
00010000
00010000
00001000
00001000
02000000
03100000
,
10010000
00000000
00011000
00000000
,
00001001
00000000
00011000
00000000
,
01000000
00010000
01000000
00001000
00010000
00000100
00001000
00000100
,
00000000
00000010
00000010
00000010
00000010
00000000
00011000
00000000
,
00000000
00100000
00100000
00100000
00100000
00000000
00011000
00000000
,
01000000
00010000
00100000
00010000
01000000
00100000
10000000
00000000
,
01000000
00100000
00001000
00010000
00000100
00000010
00000001
00000000
,
00001000
00000010
00010000
00001000
00100000
00010000
01000000
00000000
,
00100000
10000000
01000000
00010000
00001000
00000100
00000001
00000000
,
00000010
00000100
00010000
00000100
00001000
00000010
00010000
00000000
,
00001000
00100000
01000000
00100000
00001000
00010000
00100000
00000000
,
10000000
00010000
01000000
00100000
01000000
00001000
00010000
00000100
,
00000000
00000000
00000010
00000000
00000001
00001000
00000000
00000200
00000000
00000000
00000000
00000000
00010300
00000000
00000000
00000000
,
00000100
00001000
00000010
00010000
00001000
01000000
00100000
00000000
,
10000000
01000000
00010000
00001000
00000100
00000001
00000010
00000000
,
00000100
00010000
00001000
00000100
00001000
00010000
00000010
00000000
,
00001000
00010000
01000000
00010000
00100000
01000000
00100000
00000000
,
01100000
00000000
01000000
10000000
00010000
10000000
00100000
00000000
,
01010000
00000000
00000000
00011000
00000000
00000000
00001100
00000000
,
00000100
00000010
00000100
00010000
00001000
01000000
00100000
01000000
,
00020000
10000000
00100000
01030000
;

//--------------- dance-double - forcednature ----------------
#NOTEDATA:;
#STEPSTYPE:dance-double;
#DESCRIPTION:forcednature;
#CREDIT:forcednature;
#DIFFICULTY:Hard;
#METER:16;
#RADARVALUES:0,0,0,0,0;
#NOTES:
00000000
00000000
00000000
00000000
,
00000000
00000000
00000000
00000000
,
00000000
00000000
00000000
00000000
,
00000000
00000000
00000000
00000000
,
00000000
00000000
00000000
00000000
,
00000000
00000000
00000000
00000000
,
00000000
00000000
00000000
00000000
,
00011000
00000000
01000000
00000000
00010000
00000000
00100000
01000000
,
00010000
00000000
00001000
00000000
00000100
00000000
00000010
00010000
,
00001000
00000000
00000010
00000000
00000100
00000000
00000010
00000000
00000001
00001000
00000001
00000000
00000100
00000001
00000100
00000000
,
00000000
00001000
00001000
00010000
00001000
00000000
01000000
00010000
,
10000000
00000000
00010000
00100000
00000000
01000000
00000000
00100000
00000000
00001000
00010000
00000000
00000010
00000000
00000000
00000000
,
00001000
00000000
00000100
00000010
00000000
00000001
00000000
00000100
00000000
00000010
00010000
00000000
00002000
00000000
00000000
00000000
,
01003000
00000000
00010000
10000000
00000000
00010000
00000000
00100000
00000000
01000000
00100000
00000000
00001000
00000000
00010000
00000000
,
00000010
00001000
00000010
00001000
00000010
00000000
00000100
00000001
00000100
00000001
00000100
00000000
00000010
00000000
00010000
00000000
,
00001000
00000000
00100000
00010000
00000000
00100000
00000000
01000000
00000000
10000000
00010000
00000000
01000000
00000000
00000000
00000000
,
00001000
00000000
00010000
00000100
00000000
00010000
00000000
00001000
00000000
00000010
00000100
00000000
00000020
00000000
00000000
00000000
,
00000031
00000000
00000100
00000000
00000010
00000000
00000100
00000000
00001000
00010000
00001000
00000000
01000000
00010000
01000000
00000000
,
00000000
00000000
00100000
00000000
10000000
00010000
00000000
00100000
00000000
00000000
01000000
00000000
01000000
00000000
00000000
00000000
,
00100000
00000000
00001000
00010000
00000000
00000010
00000000
00001000
00000000
00000001
00000010
00000000
00000100
00000000
00000000
00000000
,
00010000
00000000
00001000
01000000
00000000
00010000
00000000
01000000
00000000
00100000
10000000
00000000
00020000
00000000
00000000
00000000
,
00130000
00000000
01000000
00100000
00000000
00001000
00000000
00010000
00000000
00000010
00001000
00000000
00000100
00000000
00000010
00000000
,
00000001
00000100
00000001
00000100
00000001
00000000
00001000
00000010
00001000
00000010
00001000
00000000
00000100
00000000
00010000
00001000
,
00010000
00000000
00001000
01000000
00000000
00010000
00000000
01000000
00000000
00100000
10000000
00000000
00010000
00000000
00100000
00000000
,
01100000
00000000
00000000
00000000
00100000
00000000
00001000
00000000
00000000
00000000
00000010
00000000
00000100
00000000
00001000
00000001
,
00000010
00000000
00000100
00000000
00001000
00000000
00000010
00000000
00010000
00001000
00010000
00000000
00001000
01000000
00001000
00000000
,
01000000
00000000
00010000
00000000
10000000
00010000
00000000
00200000
00000000
00000000
00000000
00000000
01300000
00000000
00000000
00000000
,
10010000
00000000
10000000
01000000
00010000
00001000
00000000
00000100
,
00000000
00000000
00000001
00000000
00000001
00000000
00000001
00000000
00000001
00001000
00000000
00000000
00000100
00000000
00000000
00000000
,
00000010
00000100
00010000
00001000
01000000
00010000
00100000
01000000
,
00100000
00001000
00001000
00010000
00000010
00000000
00000110
00000000
,
00000100
00001000
00000100
00000001
00000010
00000100
00010000
00000100
,
00001000
00000010
00001000
00010000
01000000
00100000
00010000
00100000
,
10000000
01000000
10000000
00100000
00010000
00001000
00000010
00000001
,
00000100
00000010
00000010
00010000
00001000
00000000
00011000
00000000
,
00010000
00100000
01000000
00100000
10000000
01000000
00010000
00001000
,
00000010
00000100
00010000
00001000
00000100
00000001
00000010
00001000
,
00010000
00000000
00000000
00100000
00000000
10000000
00000000
00010000
00000000
00100000
00000000
00100000
00000000
01000000
10000000
01000000
,
00010000
00001000
00000000
00000010
00000000
00000100
00000000
00001000
00000000
00000010
00000000
00000010
00000000
00000100
00000001
00001000
,
00000100
00000010
00000100
00010000
00001000
01000000
00100000
01000000
,
00010000
00100000
01000000
00100000
00001000
00010000
00000010
00000100
,
00000010
00000000
00000100
00001000
00010000
01000000
00100000
00010000
,
00000000
01000000
01000000
00100000
01000000
00000000
10010000
00000000
,
10000000
01000000
00010000
00001000
00100000
00010000
00001000
00000100
,
00010000
00000000
00001000
00000000
00000100
00000000
00000010
00000000
00001000
00000000
00000001
00000010
00000000
00000001
00001000
00000000
,
00000001
00000100
00001000
00010000
00000010
00001000
00010000
01000000
,
00001000
00000000
00010000
00000000
00100000
00000000
01000000
00000000
00010000
10000000
00010000
10000000
00100000
00000000
00000000
00000000
,
10000000
01000000
00010000
00001000
01000000
00100000
00010000
00001000
,
00000010
00000000
00000100
00001000
00000000
00000100
00000010
00000000
00000001
00000000
00000100
00000010
00000000
00001000
00000010
00000000
,
00000100
00000000
00001000
00000000
00010000
00000000
00100000
00000000
10000000
00000000
01000000
00000000
00010000
00000000
00001000
00010000
,
00000100
00000000
00000100
00000000
00000100
00000000
00000100
00000000
00001000
00000000
00000010
00000100
00000001
00000100
00000010
00001000
,
00000000
00000000
00000001
00000010
00000100
00000000
00001000
00000000
00000010
00000000
00000100
00000000
00001000
00000000
00010000
00000000
,
00000100
00000000
00000010
00000000
00001000
00000000
00010000
00000000
00100000
00000000
01000000
00000000
00010000
10000000
00010000
00000000
,
00100000
01000000
00010000
00001000
01000000
00100000
00010000
00001000
,
00000010
00000000
00000100
00000000
00010000
00000000
00001000
00000000
00000100
00000000
00000001
00000000
00000010
00000001
00000010
00000000
,
00000100
00000000
00000000
00010100
00000000
00000000
00011000
00000000
00000000
00101000
00000000
00000000
00100000
00000000
00010000
00000000
,
01000000
00000000
00000000
01001000
00000000
00000000
00011000
00000000
00000000
00010010
00000000
00000000
00000010
00001000
00000010
00001000
,
00000100
00000000
00000010
00000000
00000100
00000000
00010000
00001000
00010000
00000000
00100000
00000000
01000000
00000000
00100000
10000000
,
00100000
10000000
00010000
00000000
00100000
01000000
00100000
00000000
00010000
10000000
00010000
01000000
00001000
00010000
00000010
00001000
,
00000001
00000000
00000020
00000230
,
00010300
00000000
00001000
00000000
01000000
00000000
00100000
00000000
10000000
01000000
10000000
00100000
01000000
00000000
00010000
00000000
,
00100000
00000000
00001000
00000000
00010000
00000000
00000010
00001000
00000010
00000000
00000100
00000100
00000100
00000000
00000001
00000000
,
00001000
00000000
00000100
00010000
00001000
00100000
00010000
00000000
01000000
00010000
10000000
00010000
00100000
00000000
01000000
10000000
,
01000000
00000000
00010000
00000000
00001000
00010000
00000100
00001000
00000010
00000100
00000010
00001000
00000001
00000000
00000010
00000000
,
00020200
00030300
02002000
03003000
,
00020020
00030030
00202000
00303000
,
10000000
01000000
00100000
00010000
00001000
00000100
00000010
00000001
,
00000000
00000100
00001000
00010000
01000000
00100000
00100000
00000000
,
00000000
01000000
00010000
00001000
00000100
00000000
00000110
00000000
,
00000010
00000000
00001000
00000001
00000000
00000010
00000000
00000100
00000000
00000010
00000001
00000000
00001000
00000000
00000010
00000000
,
00010000
00000000
00001000
00100000
00000000
01000000
00000000
00100000
00000000
00010000
10000000
00000000
00100000
01000000
00100000
00000000
,
10000000
00000000
00010000
01000000
00000000
00001000
00000000
00010000
00000000
00000100
00001000
00000000
00000010
00000000
00000100
00000000
,
00000001
00000010
00000100
00000010
00000001
00000000
00000001
00000100
00000010
00000100
00000001
00000000
00000010
00000000
00000100
00000000
,
00010000
00000000
00001000
01000000
00000000
00100000
00000000
01000000
00000000
00010000
10000000
00000000
01000000
00000000
00100000
00000000
,
00001000
00000000
00010000
00000010
00000000
00001000
00000000
00000100
00000000
00000010
00000001
00000000
00000100
00000010
00000100
00000000
,
00001000
00000000
00001000
00000000
00010000
00000000
00010000
00000000
00100000
01000000
00100000
00000000
10000000
00010000
10000000
00000000
,
00000000
00000000
01000000
00000000
00010000
00001000
00000000
00022000
00000000
00000000
00000000
00000000
00033000
00000000
00000000
00000000
,
00010000
00000000
00000100
00001000
00000000
00000010
00000000
00001000
00000000
00000100
00000010
00000000
00000001
00000000
00000100
00000000
,
00000010
00000000
00001000
00000010
00000000
00010000
00000000
00001000
00000000
00100000
00010000
00000000
10000000
00100000
10000000
00000000
,
01000000
00000000
00100000
00001000
00000000
00010000
00000000
00000010
00000000
00001000
00000010
00000000
00010000
00000000
00001000
00000000
,
00100000
00010000
10000000
00010000
01000000
00000000
00100000
10000000
00010000
10000000
01000000
00000000
00100000
00000000
00001000
00010000
,
00001000
00000000
01000000
00010000
00000000
01000000
00000000
00001000
00000000
00010000
00000100
00000000
00001100
00000000
00000000
00000000
,
00001000
00000010
00010000
00001000
01000000
00000000
00010000
00100000
00001000
00010000
00000100
00000000
00000110
00000000
00000000
00000000
,
00000010
00000000
00000001
00000100
00000001
00000000
00001000
00000100
00001000
00000000
00000010
00010000
00001000
01000000
00001000
00000000
,
00010000
00000000
00000100
00000000
00001000
00000010
00000000
00020000
00000000
00000000
00000000
00000000
01030000
00000000
00000000
00000000
;
