#VERSION:0.83;
#TITLE:Sakura Luminance;
#SUBTITLE:;
#ARTIST:Ryu☆;
#TITLETRANSLIT:;
#SUBTITLETRANSLIT:;
#ARTISTTRANSLIT:;
#GENRE:;
#CREDIT:;
#MUSIC:Sakura Luminance.ogg;
#BANNER:Sakura Luminance.png;
#BACKGROUND:Sakura Luminance-bg.png;
#CDTITLE:./CDTitles/REFLEC BEAT colette.png;
#SAMPLESTART:96.492;
#SAMPLELENGTH:15.000;
#SELECTABLE:YES;
#OFFSET:0.912;
#BPMS:0.000=170.000;
#STOPS:;
#TIMESIGNATURES:0.000=4=4;
#BGCHANGES:0.000=../BGAs/19cy.mp4=1.000=0=0=0=StretchNoLoop====,
99999.000=-nosongbg-=1.000=0=0=0=StretchNoLoop====
;
#FGCHANGES:;

//--------------- dance-single - forcednature ----------------
#NOTEDATA:;
#STEPSTYPE:dance-single;
#DESCRIPTION:forcednature;
#DIFFICULTY:Beginner;
#METER:2;
#RADARVALUES:0,0,0,0,0;
#CREDIT:forcednature;
#NOTES:
0000
0000
0000
0000
,
0000
0000
0000
0000
,
0000
0000
0000
0000
,
0000
0000
0000
0000
,
0000
0000
0000
0000
,
0000
0000
0000
0000
,
0001
0000
0000
0000
,
0000
0000
0000
0000
,
1000
0000
0000
0000
,
0000
0000
0000
0000
,
0010
0000
0000
0000
,
0100
0000
0000
0000
,
0001
0000
0000
0000
,
0100
0000
0000
0000
,
0010
0000
0000
0000
,
1000
0000
0000
0000
,
0001
0000
0000
0000
,
1000
0000
0000
0000
,
0000
0000
0000
0000
,
0001
0000
0000
0100
,
0000
0000
0001
0000
,
1000
0000
0000
0100
,
0000
0000
1000
0000
,
0001
0000
0000
0010
,
0000
0000
0001
0000
,
1000
0000
0000
0010
,
0000
0000
1000
0000
,
0000
0001
0000
0000
,
0000
0001
0000
0000
,
0000
0001
0000
0000
,
0000
0001
0000
0000
,
0000
1000
0000
0000
,
0000
1000
0000
0000
,
0000
0100
0000
0000
,
0000
1000
0000
0000
,
0000
0010
0000
0000
,
0000
0010
0000
0000
,
0000
0100
0000
0000
,
0000
0001
0000
0000
,
0000
0010
0000
0000
,
0000
0010
0000
0000
,
0000
0100
0000
0000
,
0000
1000
1000
1000
,
0002
0000
0000
0000
,
0000
0000
0000
0000
,
0000
0000
0000
0000
,
0003
0000
0000
0000
,
2000
0000
0000
0000
,
0000
0000
0000
0000
,
0000
0000
0000
0000
,
3000
0000
0000
0000
,
0001
0000
0000
0000
,
0000
0000
0000
0000
,
0100
0000
0000
0000
,
0010
0000
0000
0000
,
1000
0000
0000
0000
,
0000
0000
0000
0000
,
0100
0000
0000
0000
,
0010
0000
0000
0000
,
0001
0000
0000
0000
,
0000
0000
0000
0000
,
1000
0000
0000
0000
,
0010
0000
0000
0000
,
1000
0000
0000
0000
,
0000
0000
0000
0000
,
0001
0000
0000
0000
,
0010
0000
0000
0000
,
0200
0000
0000
0000
,
0300
0000
0000
0000
,
1000
0000
0000
0000
,
0010
0000
0000
0000
,
1000
0000
0000
0000
,
0100
0000
0000
0000
,
0010
0000
0000
0000
,
0001
0000
0000
0000
,
0100
0000
0000
0000
,
0001
0000
0000
0000
,
0010
0000
0000
0100
,
0000
0000
1000
0000
,
0100
0000
0000
0010
,
0000
0000
0001
0000
,
1000
0000
0000
0001
,
0000
0000
0100
0000
,
0010
0000
0000
1000
,
0000
0000
0001
0000
,
0010
0000
0000
0000
;

//--------------- dance-single - forcednature ----------------
#NOTEDATA:;
#STEPSTYPE:dance-single;
#DESCRIPTION:forcednature;
#DIFFICULTY:Easy;
#METER:6;
#RADARVALUES:0,0,0,0,0;
#CREDIT:forcednature;
#NOTES:
0000
0000
0000
0000
,
0000
0000
0000
0000
,
0000
0000
0000
0000
,
0000
0000
0000
0000
,
0000
0000
0000
0000
,
0000
0000
0000
0000
,
1000
0000
0000
0000
,
0001
0000
0100
0000
,
0010
0000
1000
0000
,
0001
0000
0000
0000
,
0020
0000
0000
0030
,
0100
0000
1000
0100
,
0000
1000
0001
0000
,
0100
0000
0010
1000
,
0000
0001
1000
0000
,
0100
0000
0010
0001
,
0000
1000
0001
0000
,
0100
0000
0010
1000
,
0000
0001
0010
0000
,
0100
1000
0100
0010
,
0001
0010
0100
1000
,
0100
0010
0001
0010
,
0000
0100
1000
0000
,
0010
1000
0010
0100
,
0001
0100
0010
1000
,
0010
0100
0001
0100
,
0000
0010
1000
0000
,
0001
0010
0000
0010
,
0001
0100
0000
0100
,
0010
1000
0000
1000
,
0100
1000
0000
1000
,
0001
0100
0000
0100
,
0010
1000
0000
1000
,
0001
0010
0000
0010
,
0000
0100
0000
0100
,
1000
0010
0000
0010
,
1000
0100
0000
0100
,
0010
0001
0000
0001
,
0100
0001
0000
0001
,
1000
0100
0000
1000
,
0000
0001
0000
0100
,
0001
0010
0000
0001
,
0000
1000
0000
0010
,
0200
0000
0000
0000
,
0000
0000
0000
0000
,
0000
0000
0000
0000
,
0000
0000
0000
0000
,
0302
0000
0000
0000
,
0000
0000
0000
0000
,
0000
0000
0000
0000
,
0000
0000
0000
0003
,
1000
0000
0000
0000
,
0100
0000
0010
0000
,
0001
0000
1000
0000
,
0001
0000
0000
0000
,
0100
0000
0000
0000
,
0010
0000
1000
0000
,
0001
0000
1000
0000
,
0100
0000
0000
0000
,
0010
0000
0001
0000
,
1000
0000
0001
0000
,
0100
0000
0010
0000
,
1000
0000
0000
0000
,
0001
0000
0010
0000
,
0100
0000
1000
0000
,
0100
0000
0010
0000
,
0001
0000
0000
0000
,
0100
0100
0100
0200
,
0000
0000
0000
0300
,
0001
0010
0001
1000
,
0010
0100
0001
1000
,
0100
1000
0010
1000
,
0001
0010
0100
0000
,
0010
0001
0100
0001
,
1000
0010
1000
0001
,
0010
0100
1000
0100
,
0010
0001
1000
0000
,
0010
0100
0001
0100
,
0010
1000
0010
0100
,
0001
0100
0010
1000
,
0000
0001
1000
0000
,
0100
0010
0001
0010
,
0100
1000
0100
0010
,
0001
0010
0100
1000
,
0000
0010
0100
0000
,
2002
0000
0000
0000
,
3003
0000
0000
0000
;

//--------------- dance-single - forcednature ----------------
#NOTEDATA:;
#STEPSTYPE:dance-single;
#DESCRIPTION:forcednature;
#DIFFICULTY:Medium;
#METER:10;
#RADARVALUES:0,0,0,0,0;
#CREDIT:forcednature;
#NOTES:
0000
0000
0000
0000
,
0000
0000
0000
0000
,
0000
0000
0000
0000
,
0000
0000
0000
0000
,
0000
0000
0000
0000
,
0000
0000
0000
0000
,
1000
0000
0001
0000
,
0100
0010
1000
0010
,
0100
0000
0001
0000
,
1000
0100
0010
0000
,
0002
0000
0000
0003
,
0100
0000
0001
0000
0100
0010
1000
0010
,
0000
0100
0001
0000
0010
0001
0010
0000
,
0100
0000
1000
0000
0010
1000
0001
1000
,
0000
0100
0010
0001
2000
0000
0000
0000
,
3010
0000
0100
0000
0001
0010
0001
1000
,
0000
0010
0100
0000
0001
0010
0001
0000
,
1000
0000
0010
0000
1000
0000
0001
0010
,
0000
0100
1000
0001
0200
0000
0300
0000
,
0010
1000
0100
1000
0001
0000
0010
0001
,
0100
0001
1000
0000
0010
0000
0010
0000
,
0010
1000
0100
1000
0001
0100
0002
0000
,
0000
0013
0100
1000
0020
0000
0030
0000
,
0100
0001
0010
0001
1000
0000
0100
1000
,
0010
1000
0001
0000
0100
0000
0100
0000
,
0100
0001
0010
0001
1000
0010
2000
0000
,
0000
3001
0100
0010
2000
0000
3000
0000
,
1001
0001
0100
0001
,
0010
0001
0100
0001
,
1000
0100
1000
0010
,
1000
0100
0100
0100
,
0110
0010
0001
0100
,
0001
0010
0001
0100
,
0110
0010
1000
0100
,
0000
1000
0000
1000
0000
1000
0000
1000
,
0001
0000
0100
0001
0100
0000
0001
0000
,
1000
0000
0100
1000
0100
0000
1000
0000
,
0001
0000
0010
0001
0010
0000
0001
0000
,
1000
0010
0010
0010
,
0100
0001
0000
0001
0000
1000
0000
1000
,
0000
0100
0000
0100
0000
0010
0000
0010
,
0001
0100
0000
0100
0000
0010
0000
0010
,
1000
0001
0000
0001
0010
0001
0000
0001
,
0200
0000
0000
0000
,
0000
0000
0000
0000
,
0000
0000
0000
0000
,
0000
0000
0000
0000
,
0020
0000
0000
0000
,
0000
0000
0000
0000
,
0000
0000
0000
0000
,
0000
0000
0000
0330
,
1000
0000
0001
0000
,
0010
0001
0100
0001
,
1000
0000
0100
0000
,
1000
0010
0100
0000
,
0001
0000
1000
0000
,
0100
1000
0001
0100
,
0010
0000
1000
0000
,
0100
0010
0001
0000
,
0100
0001
0100
0010
,
1000
0001
0010
0000
,
0100
1000
0001
0100
,
0010
1000
0001
0000
,
1000
1000
0100
0100
,
0010
0010
0001
0001
,
0100
0100
0010
0010
,
1000
0001
0010
0000
,
0100
0100
0100
0000
0100
0000
0200
0000
,
0000
0000
0000
0310
,
1001
0000
1000
0010
0100
0001
1000
0000
,
0100
1000
0100
0000
0010
0001
0010
0000
,
1001
0000
0001
0100
0010
1000
0001
0000
,
1000
0100
0010
0100
0001
0000
0001
0000
,
0110
0000
0100
1000
0001
1000
0010
0000
,
0100
0001
1000
0000
0001
0010
0100
0000
,
1001
0000
0001
0100
0010
1000
0001
0000
,
1000
0010
0100
0001
0020
0000
0030
0000
,
0100
0001
0100
1000
0010
0000
0100
1000
,
0100
0001
0010
0000
0100
0001
0100
1000
,
0100
0001
0100
1000
0010
0100
0002
0000
,
0000
1003
0100
0010
0001
0000
1001
0000
,
1000
0010
0001
0010
0100
0000
0001
0010
,
1000
0010
0100
0000
1000
0010
0001
0010
,
0100
0001
0010
0001
1000
0010
2000
0000
,
0000
3100
0100
0010
0002
0000
0003
0000
,
0220
0000
0000
0000
,
0330
0000
0000
0000
;

//--------------- dance-single - forcednature ----------------
#NOTEDATA:;
#STEPSTYPE:dance-single;
#DESCRIPTION:forcednature;
#DIFFICULTY:Hard;
#METER:14;
#RADARVALUES:0,0,0,0,0;
#CREDIT:forcednature;
#NOTES:
0000
0000
0000
0000
,
0000
0000
0000
0000
,
0000
0000
0000
0000
,
0000
0000
0000
0000
,
0000
0000
0000
0000
,
0000
0000
0000
0000
,
1000
0000
0000
0000
0100
0000
0000
0000
1000
0000
0000
0001
0000
0010
0000
0000
,
0001
0100
0010
1000
0010
0100
0001
0000
,
0010
0000
0000
0000
0100
0000
0000
0000
1000
0000
0000
0001
0000
0100
0000
0000
,
0010
1000
0100
1000
0002
0000
0000
0000
,
0020
0000
0000
0033
,
0101
0000
1100
0000
0001
0010
1000
0010
,
0000
0100
1000
0001
0100
0010
1000
0010
,
0110
0000
0101
0000
1000
0010
0001
0010
,
0000
0000
0100
0000
0001
0000
0010
0000
0100
1000
0100
0000
1000
0000
0000
0000
,
1010
0000
0011
0000
1000
0100
0001
0100
,
0000
0010
0001
0100
0001
1000
0100
1000
,
1010
0000
0011
0000
1000
0100
0001
0100
,
0000
0010
0010
0100
2002
0000
3003
0000
,
1000
0010
1000
0000
0001
0000
0100
0000
0010
0000
0000
0000
1000
0100
1000
0000
,
0001
0000
0010
0000
0100
0000
0000
0000
1000
0010
1000
0000
0001
0000
0100
0000
,
0001
0010
0001
0000
1000
0000
0100
0000
0010
0000
0001
0000
0201
0000
0000
0000
,
0000
1300
0100
0001
0010
0000
0110
0000
,
0100
1000
0100
0000
0010
0000
0001
0000
0100
0000
0000
0000
0100
0001
0100
0000
,
0010
0000
1000
0000
0100
0000
0000
0000
0100
1000
0100
0000
0010
0000
0001
0000
,
1000
0010
1000
0000
0001
0000
0010
0000
0100
0000
1000
0000
0020
0000
0000
0000
,
0000
0130
0100
0010
2002
0000
3003
0000
,
1000
0010
0100
0010
1000
0001
0100
0001
,
1000
0100
0010
0100
1000
0001
0010
0001
,
0100
0010
1000
0001
0010
0100
1000
0001
,
0100
0010
1000
0000
1000
0000
1000
0000
,
0001
0010
0100
0010
0001
1000
0010
1000
,
0001
0100
0010
0100
0001
1000
0100
1000
,
0010
0100
0001
1000
0100
0010
0001
1000
,
0000
0001
0100
0001
0000
0001
0100
0001
,
1000
0010
1000
0100
0010
0001
0100
0001
,
1000
0010
0100
0001
0010
0001
1000
0010
,
1000
0100
0010
0100
1000
0001
0100
0001
,
0010
0100
1000
0000
1000
0000
1000
0000
,
0010
0100
0001
0010
0000
0010
0100
1000
,
0000
0001
0100
0010
0000
0010
1000
0001
,
0000
1000
0100
0010
0000
0010
0001
0100
,
0020
0001
0100
1030
,
2002
0000
0000
0000
,
0000
0000
0000
0000
,
0000
0000
0000
0000
,
0000
0000
0000
3003
,
0200
0000
0000
0000
,
0000
0000
0000
0000
,
0000
0000
0000
0000
,
0000
0000
0000
0300
,
0001
0000
0000
0000
0100
0000
0000
0000
0010
0000
0000
1000
0000
0001
0000
0000
,
0010
0100
1000
0000
0100
0010
0001
0000
,
1000
0000
0000
0000
0001
0000
0000
0000
0100
0000
0000
0010
0000
1000
0000
0000
,
0001
0010
0100
1000
0010
0000
0000
0000
,
0100
0000
0000
0000
0001
0000
0000
0000
1000
0000
0000
0100
0000
1000
0000
0000
,
0010
0100
0001
0000
0010
0100
1000
0000
,
0001
0000
0000
0000
0010
0000
0000
0000
0001
0000
0000
0100
0000
0010
0000
0000
,
1000
0001
0010
0001
0100
0000
0000
0000
,
0010
0000
0000
0000
1000
0000
0001
0000
0010
0000
0000
0100
0000
1000
0000
0000
,
0100
0010
0001
0000
1000
0001
0100
0000
,
0010
0000
0000
0000
1000
0000
0001
0000
0010
0000
0000
0001
0000
0100
0000
0000
,
0010
1000
0100
1000
0001
0000
0000
0000
,
0100
0000
0000
0000
0010
0000
1000
0000
0001
0000
0000
0010
0000
0100
0000
0000
,
0010
0001
1000
0001
0100
0010
1000
0000
,
0001
0000
0000
0000
0010
0000
0100
0000
1000
0000
0000
0001
0000
0100
0000
0000
,
0010
1000
0001
1000
0100
0000
0000
0000
,
0010
0010
0010
0100
0010
0100
0010
0000
,
0200
0001
0010
1300
,
1002
0000
0000
0000
0103
0000
0001
0000
0010
0100
0000
1000
0000
0010
0000
1000
,
0001
0010
1000
0010
0100
1000
0001
0100
,
0020
0000
0000
0000
1030
0000
0001
0000
0010
0001
0000
0100
0000
0010
0000
1000
,
0001
1000
0010
0100
0010
0000
0010
0000
,
2001
0000
0000
0000
3100
0000
1000
0000
0010
0100
0000
0001
0000
0010
0000
0001
,
1000
0010
0001
0010
0100
0001
0010
0001
,
1002
0000
0000
0000
0103
0000
0010
0000
1000
0001
0000
0010
0000
0001
0000
0100
,
0010
1000
1000
0100
1200
0000
0301
0000
,
0100
1000
0100
1000
0001
0000
0010
0000
0001
0000
0000
0000
0100
0001
0100
0001
,
1000
0000
0010
0000
1000
0000
0000
0000
0100
1000
0100
1000
0001
0000
0100
0000
,
0010
1000
0010
1000
0001
0000
0010
0000
0001
0000
0100
0000
0120
0000
0000
0000
,
0000
1030
0001
0010
0100
0000
1001
0000
,
0001
0010
0001
0010
0100
0000
1000
0000
0001
0000
0000
0000
1000
0010
1000
0010
,
0100
0000
0001
0000
1000
0000
0000
0000
0001
0010
0001
0000
1000
0000
0010
0000
,
0100
0001
0100
0001
1000
0000
1000
0000
0100
0000
0100
0000
2001
0000
0000
0000
,
0000
3001
0100
0010
2000
0000
3100
0000
,
2002
0000
0000
0000
,
3003
0000
0000
0000
;

//--------------- dance-double - forcednature ----------------
#NOTEDATA:;
#STEPSTYPE:dance-double;
#DESCRIPTION:forcednature;
#DIFFICULTY:Easy;
#METER:5;
#RADARVALUES:0,0,0,0,0;
#CREDIT:forcednature;
#NOTES:
00000000
00000000
00000000
00000000
,
00000000
00000000
00000000
00000000
,
00000000
00000000
00000000
00000000
,
00000000
00000000
00000000
00000000
,
00000000
00000000
00000000
00000000
,
00000000
00000000
00000000
00000000
,
00001000
00000000
00000000
00000000
,
00010000
00000000
00000100
00000000
,
00010000
00000000
00000000
00000000
,
00001000
00000000
01000000
00000000
,
00002000
00000000
00000000
00003000
,
00100000
00000000
00010000
01000000
,
00000000
01000000
00010000
00000000
,
00100000
00000000
00001000
00010000
,
00000000
00010000
00001000
00000000
,
00010000
00000000
00000100
00001000
,
00000000
00001000
00000100
00000000
,
00000010
00000000
00000001
00000100
,
00000000
00000010
00001000
00000000
,
00000100
00000000
00000100
00010000
,
00000000
00010000
00001000
00000000
,
01000000
00000000
01000000
00001000
,
00000000
00001000
00010000
00000000
,
00000010
00000000
00000010
00010000
,
00000000
00010000
00001000
00000000
,
00100000
00000000
00100000
00010000
,
00000000
01000000
01000000
00000000
,
00100000
10000000
00000000
10000000
,
00000000
01000000
00000000
01000000
,
00000000
00100000
00000000
00001000
,
00000000
00010000
00000000
00000100
,
00001000
00000001
00000000
00000001
,
00000000
00000100
00000000
00000100
,
00000010
00001000
00000000
00001000
,
00000000
00000100
00000000
00000100
,
00010000
00001000
00000000
01000000
,
00000000
00010000
00000000
10000000
,
00000000
00010000
00000000
00100000
,
01000000
00100000
00000000
00100000
,
00002000
00000000
00000000
00000000
,
00000000
00000000
00003000
00000000
,
00010000
00000000
00000100
00000000
,
00001000
00000000
00000001
00000000
,
00002000
00000000
00000000
00000000
,
00000000
00000000
00000000
00000000
,
00000000
00000000
00000000
00000000
,
00000000
00000000
00000000
00000000
,
00003002
00000000
00000000
00000000
,
00000000
00000000
00000000
00000000
,
00000000
00000000
00000000
00000000
,
00000000
00000000
00000000
00000003
,
00001000
00000000
00000000
00000000
,
00000100
00000000
00010000
00000000
,
00001000
00000000
00000000
00000000
,
01000000
00000000
00000000
00000000
,
00010000
00000000
00000000
00000000
,
10000000
00000000
01000000
00000000
,
00100000
00000000
00000000
00000000
,
00001000
00000000
00000000
00000000
,
00010000
00000000
00000000
00000000
,
00000010
00000000
00001000
00000000
,
00000001
00000000
00000000
00000000
,
00000010
00000000
00000000
00000000
,
00000100
00000000
00000000
00000000
,
00010000
00000000
00001000
00000000
,
01000000
00000000
00000000
00000000
,
00010000
00000000
00000000
00000000
,
10000000
10000000
00000000
20000000
,
00000000
00000000
00000000
30000000
,
00010000
00000000
00100000
00010000
,
00100000
00000000
00001000
00000000
,
00010000
00000000
00000010
00001000
,
00000010
00000000
00000100
00000000
,
00000001
00000000
00001000
00000100
,
00001000
00000000
00000010
00000000
,
00010000
00000000
00001000
00010000
,
00001000
00000000
00001000
00000000
,
01000000
00000000
01000000
00010000
,
00000000
00010000
00100000
00000000
,
00001000
00000000
00001000
00010000
,
00000000
00010000
00000010
00000000
,
00001000
00000000
00001000
00000100
,
00000000
00000100
00010000
00000000
,
00001000
00000000
00001000
01000000
,
00000000
01000000
00010000
00000000
,
20020000
00000000
00000000
00000000
,
30030000
00000000
00000000
00000000
;

//--------------- dance-double - forcednature ----------------
#NOTEDATA:;
#STEPSTYPE:dance-double;
#DESCRIPTION:forcednature;
#DIFFICULTY:Medium;
#METER:10;
#RADARVALUES:0,0,0,0,0;
#CREDIT:forcednature;
#NOTES:
00000000
00000000
00000000
00000000
,
00000000
00000000
00000000
00000000
,
00000000
00000000
00000000
00000000
,
00000000
00000000
00000000
00000000
,
00000000
00000000
00000000
00000000
,
00000000
00000000
00000000
00000000
,
00001000
00000000
00010000
00000000
,
00000100
00001000
00000010
00010000
,
00001000
00000000
00100000
00000000
,
00010000
10000000
00100000
00000000
,
02000000
00000000
00000000
03000000
,
00010000
00000000
10000000
00000000
00010000
00100000
00001000
00100000
,
00000000
00001000
00010000
00000000
00000010
00001000
00000010
00000000
,
00010000
00000000
00001000
00000000
00100000
00010000
00100000
01000000
,
00000000
10000000
00010000
10000000
00200000
00000000
00000000
00000000
,
01300000
00000000
00010000
00000000
01000000
00001000
00010000
00001000
,
00000000
00010000
00000100
00000000
00001000
00000001
00001000
00000000
,
00000010
00000000
00010000
00000000
00001000
00000000
00100000
00010000
,
00000000
10000000
00100000
01000000
00020000
00000000
00030000
00000000
,
00010000
00001000
00100000
00001000
01000000
00000000
00001000
00010000
,
00000010
00010000
00000100
00000000
00010000
00000000
00010000
00000000
,
00010000
00001000
01000000
00010000
00100000
00001000
00020000
00000000
,
00000000
00030010
00001000
00000100
00020000
00000000
00030000
00000000
,
00001000
01000000
00010000
00100000
00001000
00000000
00010000
00000100
,
00001000
00000010
00010000
00000000
00001000
00000000
00001000
00000000
,
00001000
01000000
00010000
00100000
00001000
00010000
00000020
00000000
,
00000000
00001030
00000100
00000010
00000002
00000000
00000003
00000000
,
00001001
00001000
00000100
00001000
,
00000010
00010000
00001000
00010000
,
01000000
10000000
00100000
10000000
,
01000000
00010000
00010000
00010000
,
00011000
00001000
00000010
00001000
,
00010000
00000100
00001000
00000100
,
00000110
00000010
00000001
00000010
,
00000000
00000100
00000000
00000100
00000000
00000100
00000000
00000100
,
00010000
00000000
00001000
00010000
00001000
00000000
01000000
00000000
,
00010000
00000000
10000000
00100000
10000000
00000000
01000000
00000000
,
00100000
00000000
00010000
00100000
00010000
00000000
00010000
00000000
,
01000000
00001000
00001000
00001000
,
00010000
00000100
00000000
00000100
00000000
00001000
00000000
00001000
,
00000000
00000010
00000000
00000010
00000000
00001000
00000000
00001000
,
00000100
00010000
00000000
00010000
00000000
00001000
00000000
00001000
,
01000000
00010000
00000000
00010000
00100000
00010000
00000000
00010000
,
20000000
00000000
00000000
00000000
,
00000000
00000000
00000000
00000000
,
00000000
00000000
00000000
00000000
,
00000000
00000000
00000000
00000000
,
00020000
00000000
00000000
00000000
,
00000000
00000000
00000000
00000000
,
00000000
00000000
00000000
00000000
,
00000000
00000000
00000000
30030000
,
10000000
00000000
01000000
00000000
,
00100000
00010000
00100000
00001000
,
00010000
00000000
00000010
00000000
,
00001000
00000100
00001000
00000000
,
00000001
00000000
00000100
00000000
,
00000010
00001000
00000010
00010000
,
00001000
00000000
00100000
00000000
,
00010000
10000000
00100000
00000000
,
01000000
00010000
01000000
00001000
,
00010000
00000010
00001000
00000000
,
00000100
00001000
00000100
00010000
,
00001000
00100000
00010000
00000000
,
10000000
10000000
01000000
01000000
,
00100000
00100000
00010000
00010000
,
00001000
00001000
00000100
00000100
,
00000010
00000001
00001000
00000000
,
00000010
00000010
00000010
00000000
00000010
00000000
00000020
00000000
,
00000000
00000000
00000000
00000130
,
00001001
00000000
00001000
00000100
00010000
00001000
01000000
00000000
,
00010000
00100000
00010000
00000000
10000000
00100000
10000000
00000000
,
01000000
00000000
00100000
00010000
00100000
00001000
00010000
00000000
,
00000010
00001000
00000100
00001000
00000001
00000000
00000001
00000000
,
00001001
00000000
00001000
00000100
00010000
00001000
01000000
00000000
,
00010000
00100000
00001000
00000000
00010000
00000010
00001000
00000000
,
00001001
00000000
00000001
00000010
00000100
00010000
00001000
00000000
,
01000000
00010000
00100000
00010000
20000000
00000000
30000000
00000000
,
01000000
00010000
01000000
00010000
00001000
00000000
00000100
00001000
,
00000100
00001000
00010000
00000000
00100000
01000000
00100000
00000000
,
00100000
00010000
00100000
00010000
00001000
00010000
00000200
00000000
,
00000000
00001300
00000001
00000100
00000010
00000000
00001001
00000000
,
00001000
00000100
00010000
00001000
01000000
00000000
00010000
00100000
,
00001000
00010000
00000010
00000000
00001000
00000100
00010000
00001000
,
01000000
00010000
00100000
00001000
00010000
00000010
00002000
00000000
,
00000000
00003100
00010000
00001000
02000000
00000000
03000000
00000000
,
20020000
00000000
00000000
00000000
,
30030000
00000000
00000000
00000000
;

//--------------- dance-double - forcednature ----------------
#NOTEDATA:;
#STEPSTYPE:dance-double;
#DESCRIPTION:forcednature;
#DIFFICULTY:Hard;
#METER:14;
#RADARVALUES:0,0,0,0,0;
#CREDIT:forcednature;
#NOTES:
00000000
00000000
00000000
00000000
,
00000000
00000000
00000000
00000000
,
00000000
00000000
00000000
00000000
,
00000000
00000000
00000000
00000000
,
00000000
00000000
00000000
00000000
,
00000000
00000000
00000000
00000000
,
00001000
00000000
00000000
00000000
00010000
00000000
00000000
00000000
00100000
00000000
00000000
01000000
00000000
00100000
00000000
00000000
,
10000000
01000000
00010000
00001000
00010000
01000000
00100000
00000000
,
00001000
00000000
00000000
00000000
00010000
00000000
00000000
00000000
00000010
00000000
00000000
00001000
00000000
00000010
00000000
00000000
,
00000100
00001000
00000100
00000001
00000020
00000000
00000000
00000000
,
00000200
00000000
00000000
00000330
,
00010100
00000000
00101000
00000000
00001000
00010000
00100000
01000000
,
00000000
00100000
10000000
00010000
10000000
01000000
00010000
00001000
,
00011000
00000000
00101000
00000000
00100000
01000000
00010000
00001000
,
00000000
00000000
00000010
00000000
00000100
00000000
00001000
00000000
00000100
00001000
00000100
00000000
00010000
00000000
00000000
00000000
,
00010010
00000000
00101000
00000000
00001000
00010000
00100000
00010000
,
00000000
00001000
00000010
00000100
00000010
00000001
00001000
00000001
,
00000101
00000000
00001100
00000000
00010000
00001000
00010000
00100000
,
00000000
10000000
10000000
01000000
20020000
00000000
30030000
00000000
,
10000000
01000000
00010000
00001000
00000010
00000000
00000001
00000100
,
00001000
00010000
00100000
00000000
10000000
01000000
00010000
00001000
,
10000000
00100000
00010000
00001000
00000100
00000001
00002001
00000000
,
00000000
00003100
00010000
00000010
00001000
00000000
00000110
00000000
,
00000001
00000010
00001000
00010000
01000000
00000000
10000000
00100000
,
00010000
00001000
00000100
00000000
00000001
00000010
00001000
00010000
,
00000001
00000100
00001000
00010000
00100000
10000000
02000000
00000000
,
00000000
03010000
00010000
00001000
00022000
00000000
00033000
00000000
,
00010000
00000100
00001000
00000010
00010000
00001000
00100000
00010000
,
01000000
00001000
00010000
00000010
00001000
00000001
00000010
00000001
,
00001000
00000100
00010000
00001000
01000000
00010000
10000000
00100000
,
10000000
01000000
00100000
00000000
00100000
00000000
00100000
00000000
,
00010000
00100000
00001000
00010000
00000010
00001000
00000010
00000100
,
00000001
00000100
00000001
00000010
00000100
00001000
00000100
00010000
,
00001000
01000000
00010000
01000000
00100000
10000000
00010000
10000000
,
00000000
01000000
00010000
01000000
00000000
01000000
00010000
01000000
,
00100000
00001000
00010000
00000100
00001000
00000001
00001000
00000010
,
00010000
00001000
01000000
00010000
00100000
00010000
10000000
00100000
,
10000000
01000000
00100000
00001000
00010000
00000010
00001000
00000010
,
00000100
00000001
00000010
00000000
00000010
00000000
00000010
00000000
,
00000100
00001000
00000010
00010000
00000000
00001000
00100000
00010000
,
00000000
01000000
00001000
00010000
00000000
00000100
00010000
00001000
,
00000000
01000000
00100000
00010000
00000000
00001000
00000100
00000010
,
00002000
00000100
00000001
00003010
,
00022000
00000000
00000000
00000000
,
00000000
00000000
00000000
00000000
,
00000000
00000000
00000000
00000000
,
00000000
00000000
00000000
00033000
,
02000000
00000000
00000000
00000000
,
00000000
00000000
00000000
00000000
,
00000000
00000000
00000000
00000000
,
00000000
00000000
00000000
03000000
,
00010000
00000000
00000000
00000000
10000000
00000000
00000000
00000000
01000000
00000000
00000000
00100000
00000000
00010000
00000000
00000000
,
00100000
00001000
00010000
00000000
00000010
00010000
00001000
00000000
,
00010000
00000000
00000000
00000000
00000100
00000000
00000000
00000000
00001000
00000000
00000000
00000001
00000000
00001000
00000000
00000000
,
00000010
00010000
00001000
01000000
00010000
00000000
00000000
00000000
,
10000000
00000000
00000000
00000000
01000000
00000000
00000000
00000000
10000000
00000000
00000000
00100000
00000000
10000000
00000000
00000000
,
01000000
00010000
00001000
00000000
00010000
00001000
00000010
00000000
,
00000100
00000000
00000000
00000000
00001000
00000000
00000000
00000000
00000001
00000000
00000000
00001000
00000000
00000010
00000000
00000000
,
00010000
00001000
01000000
00010000
00100000
00000000
00000000
00000000
,
01000000
00000000
00000000
00000000
10000000
00000000
00010000
00000000
00100000
00000000
00000000
00001000
00000000
00010000
00000000
00000000
,
00000010
00001000
00000001
00000000
00000010
00000100
00010000
00000000
,
00001000
00000000
00000000
00000000
01000000
00000000
00010000
00000000
10000000
00000000
00000000
01000000
00000000
00100000
00000000
00000000
,
00010000
01000000
00001000
00010000
00000010
00000000
00000000
00000000
,
00001000
00000000
00000000
00000000
00000100
00000000
00010000
00000000
00001000
00000000
00000000
01000000
00000000
00010000
00000000
00000000
,
00100000
00001000
00010000
00000000
00000010
00010000
00001000
00000000
,
00000010
00000000
00000000
00000000
00000100
00000000
00001000
00000000
00000001
00000000
00000000
00000100
00000000
00000001
00000000
00000000
,
00001000
00000010
00010000
00001000
01000000
00000000
00000000
00000000
,
00100000
00100000
00100000
01000000
00100000
01000000
00100000
00000000
,
00020000
00000100
00001000
00030010
,
02001000
00000000
00000000
00000000
03010000
00000000
10000000
00000000
01000000
10000000
00000000
00100000
00000000
10000000
00000000
00010000
,
00100000
01000000
00100000
00001000
00010000
00000010
00000100
00000010
,
00002000
00000000
00000000
00000000
00003001
00000000
00000010
00000000
00000100
00001000
00000000
00000100
00000000
00010000
00000000
00001000
,
01000000
00010000
00100000
01000000
00100000
00000000
00100000
00000000
,
00012000
00000000
00000000
00000000
01003000
00000000
00010000
00000000
01000000
00001000
00000000
00010000
00000000
00000100
00000000
00001000
,
00000100
00010000
00001000
00010000
00000010
00001000
00010000
01000000
,
01200000
00000000
00000000
00000000
10300000
00000000
00010000
00000000
10000000
01000000
00000000
00100000
00000000
00010000
00000000
00100000
,
00001000
00010000
00010000
00000010
00002010
00000000
00003100
00000000
,
00010000
00001000
00000010
00000001
00000100
00000000
00001000
00010000
,
00100000
10000000
01000000
00000000
00010000
00001000
00000010
00000001
,
00010000
00001000
00000100
00000001
00000010
00001000
00020000
00000000
,
00000000
00030100
00010000
00001000
00100000
00000000
00011000
00000000
,
00001000
00000100
00000001
00000010
00001000
00000000
00010000
01000000
,
10000000
00100000
00010000
00000000
00001000
00000100
00000001
00000010
,
00001000
00010000
01000000
00010000
00001000
00010000
00200000
00000000
,
00000000
10300000
01000000
00010000
00002000
00000000
00003010
00000000
,
00000220
00000000
00000000
00000000
,
00000330
00000000
00000000
00000000
;
