#VERSION:0.83;
#TITLE:防人恋歌;
#SUBTITLE:;
#ARTIST:Ax feat.夏川陽子;
#TITLETRANSLIT:Sakimori renka;
#SUBTITLETRANSLIT:;
#ARTISTTRANSLIT:Ax feat.Yoko Natsukawa;
#GENRE:万葉歌;
#CREDIT:;
#MUSIC:Sakimori renka.ogg;
#BANNER:Sakimori renka.png;
#BACKGROUND:Sakimori renka-bg.png;
#CDTITLE:./CDTitles/pnm 18 Sengoku Retsuden.png;
#SAMPLESTART:45.505;
#SAMPLELENGTH:15.000;
#SELECTABLE:YES;
#OFFSET:2.120;
#BPMS:0.000=85.000
,34.000=170.000
,140.000=85.000
,162.000=170.000
;
#STOPS:139.000=0.353;
#TIMESIGNATURES:32.000=5=4,
37.000=4=4,
149.000=5=4,
154.000=4=4
;
#BGCHANGES:0.000=../BGAs/23wa.mp4=1.000=0=0=0=StretchNoLoop====,
99999.000=-nosongbg-=1.000=0=0=0=StretchNoLoop====
;
#FGCHANGES:;

//--------------- dance-single - forcednature ----------------
#NOTEDATA:;
#STEPSTYPE:dance-single;
#DESCRIPTION:forcednature;
#CREDIT:forcednature;
#DIFFICULTY:Beginner;
#METER:2;
#RADARVALUES:0,0,0,0,0;
#NOTES:
0000
0000
0000
0000
,
0000
0000
0000
0000
,
0000
0000
0000
0000
,
0000
0000
0000
0000
,
0000
0000
1000
0000
,
0000
0000
0000
0000
,
0000
0001
0000
0000
,
0000
0000
0000
0000
,
0100
0000
0000
0000
,
0000
0010
0000
0000
,
0000
0000
0000
0000
,
0000
0000
0000
0000
,
0000
0000
0000
0000
,
0000
1000
0000
0000
,
0000
0000
0000
0000
,
0000
0000
0000
0000
,
0000
0000
0000
0000
,
0000
0001
0000
0000
,
0000
0000
0000
0000
,
0000
0010
0000
0000
,
0000
0000
0000
0000
,
0000
0100
0000
0000
,
0000
0000
0000
0000
,
0000
1000
0000
0000
,
0000
0000
0000
0000
,
0000
0001
0000
0000
,
0000
0000
0000
0000
,
0000
0100
0000
0000
,
0000
0000
0000
0000
,
0000
0001
0000
0000
,
0000
0000
0000
0000
,
0000
1000
0000
0000
,
0000
0000
0000
0000
,
0000
0010
0000
0000
,
0000
0000
0000
0000
,
1001
0000
0000
0000
,
0000
0000
0000
1000
,
0000
0000
0000
0000
,
0000
0000
0100
0000
,
0000
0000
0000
0000
,
0010
0000
0000
0000
,
0000
0000
0001
0000
,
0000
0000
0000
0000
,
0000
0000
0100
0000
,
0000
0000
0000
0000
,
0000
0000
0001
0000
,
0000
0000
0000
0000
,
0000
0000
1000
0000
,
0000
0000
0000
0000
,
0000
0000
0010
0000
,
0000
0000
0000
0000
,
0000
0000
0100
0000
,
0000
0000
0000
0000
,
0000
0000
0001
0000
,
0000
0000
0000
0000
,
0000
0000
0010
0000
,
0000
0000
0000
0000
,
0000
0000
0000
0100
,
0000
0100
0000
0000
,
0000
0000
0000
1000
,
0000
0000
0010
0000
,
0000
0000
0000
0100
,
0000
0100
0000
0000
,
0000
0000
0001
0000
,
0000
0000
0010
0000
,
0000
0000
0100
0000
,
0000
0000
1000
0000
,
0001
0000
0000
0000
;

//--------------- dance-single - forcednature ----------------
#NOTEDATA:;
#STEPSTYPE:dance-single;
#DESCRIPTION:forcednature;
#CREDIT:forcednature;
#DIFFICULTY:Easy;
#METER:8;
#RADARVALUES:0,0,0,0,0;
#NOTES:
0000
0000
0000
0000
,
0000
0000
0000
0000
,
0000
0000
0000
0000
,
0000
0000
0000
0000
,
0000
2002
0000
0000
0000
0000
0000
0000
3003
0000
0000
0000
2000
0000
0000
0000
,
3000
0100
1000
0001
,
0000
1001
0002
0003
,
0100
0010
1000
0000
,
2002
0000
0000
0000
,
3003
1000
0100
0010
,
0000
0100
1000
0001
,
0010
0000
0001
0100
,
0001
0000
1000
0010
,
1000
0001
0010
0100
,
0000
0010
0001
1000
,
0100
0000
1000
0010
,
1000
0002
0000
0000
,
0003
0100
0010
1000
,
0010
0100
0110
1001
,
0000
0001
0010
0100
,
0010
0100
0110
1001
,
0000
1000
0100
1000
,
0001
0010
0110
1001
,
0000
0001
0001
1000
,
1000
0010
0100
0110
,
0000
0100
1001
0100
,
1001
1000
0100
0010
,
0000
0100
1001
0100
,
1001
0001
0100
0010
,
0000
0010
1001
0010
,
1001
1000
0100
0010
,
0000
0010
1001
0100
,
0001
0000
1000
0010
,
0000
0100
1001
0001
,
0100
0000
0010
1001
,
1001
0002
0003
0100
,
0010
1000
0000
1001
,
2000
3000
0100
0010
,
0001
0000
2002
0000
,
0000
0000
3003
0000
,
0220
0000
0000
0000
,
0330
0000
0001
0100
,
0001
0010
0100
0110
,
1001
0000
1000
0100
,
1000
0010
0100
0110
,
1001
0000
1000
0100
,
1000
0001
0010
0110
,
1001
0000
0001
0001
,
0100
0100
0010
1000
,
1001
0000
0100
1001
,
0100
1001
1000
0010
,
0100
0000
0010
1001
,
0010
1001
0001
0010
,
0100
0000
1000
0110
,
1000
0110
0001
1000
,
0010
0000
0100
1001
,
0001
0010
0000
0100
,
1000
0000
0010
1001
,
0100
1001
0001
0100
,
0010
0000
1000
0110
,
0001
0110
1000
0001
,
0100
0000
0010
1001
,
0100
1001
0001
0010
,
0100
1000
1001
0110
,
1000
0001
0100
0010
,
0110
0000
0001
1001
,
1000
0100
0010
0110
,
2002
0000
3003
0000
;

//--------------- dance-single - forcednature ----------------
#NOTEDATA:;
#STEPSTYPE:dance-single;
#DESCRIPTION:forcednature;
#CREDIT:forcednature;
#DIFFICULTY:Medium;
#METER:11;
#RADARVALUES:0,0,0,0,0;
#NOTES:
0000
0000
0000
0000
,
0000
0000
0000
0000
,
0000
0000
0000
0000
,
0000
0000
0000
0000
,
0000
2002
0000
0000
0000
0000
0000
0000
3003
0000
1000
0000
0200
0000
0000
0310
,
0000
0000
0001
0000
0100
0000
0010
0000
1000
0000
0001
0000
0001
0010
0000
0000
,
0100
0000
1000
0000
0001
0000
0000
0000
0200
0000
0000
0310
0000
0000
1000
0000
,
0001
0000
0010
0000
0100
0000
1000
0000
1000
0010
0000
0000
0100
0000
0001
0000
,
2002
0000
0000
0000
,
3003
0110
0001
1000
,
0000
0100
0000
1000
0000
0001
0010
0000
,
0000
0001
1000
0000
0010
0000
0100
0000
,
0000
0002
0000
0023
0000
0032
0000
0203
,
0000
0300
0010
0000
1000
0000
0001
0000
,
0000
1000
0000
0100
0000
0010
0001
0000
,
0000
1000
0001
0000
0100
0000
0010
0000
,
1000
0002
0000
0000
0013
0010
0010
0000
,
0100
1000
0001
0000
0100
0010
1000
0000
,
0100
0010
0001
0000
0011
0000
1100
0000
,
0000
0000
1000
0000
0010
0100
0001
0000
,
0010
0100
2000
0000
3020
0000
0230
0000
,
0302
0000
1003
0000
0100
0010
0001
0000
,
0100
0010
1000
0000
1010
0000
0101
0000
,
0000
0002
0010
2003
,
0010
0000
3001
1000
0001
0100
0020
0000
,
0030
0000
1000
0001
1001
0000
1000
0001
,
1001
0000
1000
0100
0010
0001
0100
0000
,
0110
0000
0001
1000
1001
0000
0001
0010
,
0001
1000
0100
0000
0110
0000
0010
0001
,
1000
0000
0010
0100
0110
0000
0010
0100
,
0110
0000
0010
1000
0001
1000
0100
0000
,
0010
0011
0201
1300
,
0100
0001
0000
1010
0000
1000
0100
0000
,
0110
0011
1200
0301
,
0100
1000
0000
0001
0001
1000
0010
0000
,
0110
0000
0001
0000
0200
0000
0000
0310
0000
0000
1000
0000
0100
0000
0010
0000
,
0001
0000
1000
0000
1000
0010
0000
0000
0100
0000
0001
0000
1000
0000
0000
0000
,
0200
0000
0000
0310
0000
0000
0001
0000
1000
0000
0010
0000
0100
0000
0001
0000
,
0001
0010
0000
0000
0100
0000
1000
0000
2002
0000
0000
0000
0000
0000
0000
0000
,
0000
0000
0000
0000
0000
0000
0000
0000
3003
0000
0000
0000
0001
1000
0010
0100
,
0002
0000
0000
0000
,
0000
0000
0003
0000
1000
0000
0100
0010
,
0001
0000
0100
0010
1000
0000
1010
0000
,
0101
0000
0000
0000
0001
0000
0010
0100
,
1000
0000
0010
0100
0002
0000
0023
0000
,
0230
0000
2300
0000
3001
0000
0100
0010
,
1000
0000
0100
0010
0001
0000
0011
0000
,
1100
0000
2000
0010
,
3002
0000
0010
0000
1003
0001
1000
0100
,
0020
0000
0030
0000
0001
0100
0101
0000
,
1000
0010
1010
0000
0001
0100
0010
1000
,
0100
0000
0110
0000
1000
0100
1100
0000
,
1000
0010
1000
0001
0100
0000
0110
0000
,
0010
1000
0001
0000
0010
0100
1100
0000
,
0100
0010
0011
0000
0010
0001
1000
0001
,
0100
0010
1010
1200
,
0301
0000
0100
1000
0000
0001
0001
1000
,
0020
0000
0000
0000
0030
0000
0000
0000
1000
0001
1000
0000
0001
0000
0000
0000
,
0010
0000
0110
0000
0100
1000
0001
0010
,
0001
1000
0100
0000
1000
0001
1001
0000
,
0001
0100
0010
1000
0002
0000
0023
0000
,
0130
1000
0001
0000
1000
0010
0110
0000
,
0001
0100
0110
0000
1000
0001
0010
0001
,
1000
0000
0010
0100
0001
0000
0021
0000
,
1030
0000
0010
0001
0000
1000
1000
0001
,
0100
0000
0110
0000
0001
1000
1100
0000
,
1000
0001
0011
0000
0001
1000
1000
0001
,
2002
0000
3003
0000
;

//--------------- dance-single - forcednature ----------------
#NOTEDATA:;
#STEPSTYPE:dance-single;
#DESCRIPTION:forcednature;
#CREDIT:forcednature;
#DIFFICULTY:Hard;
#METER:15;
#RADARVALUES:0,0,0,0,0;
#NOTES:
0000
0000
0000
0000
,
0000
0000
0000
0000
,
0000
0000
0000
0000
,
0000
0000
0000
0000
,
0000
2002
0000
0000
0000
0000
3003
0000
0110
0000
0001
0000
0200
0000
0000
1300
,
0000
0101
0000
0001
0010
0001
1000
0000
0010
0000
0100
0001
1000
0010
0000
1000
,
0000
0100
0010
0100
0010
0000
0001
0000
0200
0000
0000
1300
0000
1100
0000
0100
,
0001
1000
0010
0000
1000
0000
0100
0010
0100
0010
0000
0001
1000
0010
0100
0000
,
2002
0000
0000
0000
,
3003
0110
0002
0103
,
0010
1000
0000
1000
0100
0001
0100
1000
,
0001
0010
0000
0000
0011
0000
1100
0000
,
0001
0200
0000
1300
0100
0001
1000
1000
,
0010
0100
0110
0000
2000
0000
3100
0000
,
0010
0001
0000
0001
0100
1000
0100
0001
,
1000
0010
0000
0000
1010
0000
0101
0000
,
1000
0000
0200
0000
0000
0000
0301
0000
0100
0000
1000
0000
0001
0000
0010
0001
,
0010
0001
1000
0100
1000
0000
0000
0000
0010
0000
0100
0000
0101
0000
0000
0000
,
0001
0010
0110
0000
1001
0000
0001
0100
,
1000
0000
0000
0000
0101
0000
0000
0000
1000
0000
0010
0000
0100
0000
0001
0100
,
0001
1000
0200
0000
0302
0000
1003
0010
,
0001
1000
0001
0000
0010
0100
1100
0000
,
1000
0010
0110
0000
1001
0000
1000
0100
,
0001
0100
2100
0000
0010
0000
3002
0000
,
0023
0000
0000
0000
0031
0000
0100
0000
0010
1000
0010
1000
0002
0000
0000
0000
,
0003
0000
1000
0100
0011
0000
1000
0100
,
0011
0000
0001
0100
1000
0100
0001
0000
,
1001
0000
0001
0100
1010
0000
0001
0010
,
1000
0000
0010
0000
0001
0000
0010
0100
0010
0000
0100
1000
0100
0000
1000
0010
,
1000
0010
1000
0000
0001
0000
0010
0000
1100
0000
0000
0000
0001
0000
0010
0000
,
1100
0000
0001
0100
1000
0100
0001
0000
,
1001
0000
0000
0000
1000
0100
1000
0000
0100
0010
0100
0000
0010
0000
0001
0000
,
0100
0000
0110
0000
0000
0000
0010
0000
0010
0000
1000
0000
0001
1000
0001
0000
,
1001
0000
0000
0000
1000
0000
0100
0000
0001
0000
0100
0000
1000
0001
0010
0000
,
0100
0110
0000
0010
1001
0100
1001
0000
,
0110
0000
1000
0000
0200
0000
0000
0301
0000
1100
0000
1000
0010
1000
0001
0000
,
0011
0000
0100
1000
0001
0010
0000
0001
0100
1000
0100
0100
0001
0000
1000
0000
,
0200
0000
0000
0301
0000
0101
0000
0100
1000
0001
0010
0000
0001
0000
0100
0010
,
0001
0010
0000
1000
0001
0010
0100
1000
0020
0000
0000
0000
0230
0000
0000
0000
,
0302
0000
0000
0000
2003
0000
0000
0000
3200
0000
0000
0000
0310
0001
1000
0100
,
0020
0000
0002
0000
,
0000
0000
0033
0000
0001
0000
0100
0010
,
1010
0000
0100
0010
0011
0000
0101
0000
,
0001
0010
1000
0000
0011
0000
0001
0100
,
0010
0000
1000
0010
1000
0000
0001
0000
0020
0000
0000
0000
2030
0000
0000
0000
,
3001
0100
1000
0001
1000
0000
0100
0010
,
0011
0000
0100
0010
1010
0000
1000
0100
,
0001
0100
1000
0001
0021
0000
0100
0100
,
0230
0000
2300
0000
3001
0100
0100
0010
,
1000
0001
1000
0001
2000
0000
0000
0000
3001
0010
0001
0000
1100
0000
0000
0000
,
0001
0010
0001
0000
1100
0000
0000
0000
1000
0000
0010
0000
0001
0000
0010
0000
,
1000
0000
0000
0000
1001
0000
0000
0000
1000
0010
1000
0000
0101
0000
0000
0000
,
1000
0000
0100
0000
0001
0000
0100
0000
1000
0000
0100
0010
0100
0000
0010
0001
,
0010
0000
0001
1000
0010
1000
0001
0000
1000
0010
0100
0000
0101
0000
0000
0000
,
1000
0010
0100
0000
0101
0000
0000
0000
1000
0000
0010
0000
0001
0000
0010
0000
,
1000
0000
0000
0000
1001
0000
0000
0000
0001
0010
0001
0000
0010
0100
0010
0000
,
0100
1000
0010
0110
0000
0100
0100
0001
,
1000
0001
1000
0000
1001
0000
0000
0000
0001
0010
0100
1000
0010
0000
0000
0000
,
0100
0000
0010
0000
1001
0000
0000
0000
0001
0100
0001
0000
0100
0010
0100
0000
,
0010
1000
0001
0100
0010
0000
0000
0000
0100
0000
0010
0000
1001
0000
0000
0000
,
2000
0000
0100
0000
3002
0000
0100
0000
1003
0000
0001
0010
0001
0000
0010
0100
,
0010
0000
0100
1000
0001
1000
0100
0000
0010
0001
0100
0000
0101
0000
0000
0000
,
0010
1000
0100
0000
1100
0000
0000
0000
0010
0001
0010
0000
0100
1000
0100
0000
,
0010
0001
1000
0000
0010
0000
0100
0000
0101
0000
0000
0000
0021
0000
0000
0000
,
1030
0010
0001
0200
0000
1300
0100
0001
,
1000
0000
0010
0100
0001
0000
0000
0000
1000
0100
1000
0100
0010
0000
0001
0000
,
1000
0010
1000
0010
0100
0000
0001
0000
0000
0000
1001
0000
0100
0000
0110
0000
,
2002
0000
3003
0000
;

//--------------- dance-double - forcednature ----------------
#NOTEDATA:;
#STEPSTYPE:dance-double;
#DESCRIPTION:forcednature;
#CREDIT:forcednature;
#DIFFICULTY:Easy;
#METER:8;
#RADARVALUES:0,0,0,0,0;
#NOTES:
00000000
00000000
00000000
00000000
,
00000000
00000000
00000000
00000000
,
00000000
00000000
00000000
00000000
,
00000000
00000000
00000000
00000000
,
00000000
00022000
00000000
00000000
00000000
00000000
00000000
00000000
00033000
00000000
00000000
00000000
00000200
00000000
00000000
00000000
,
00000300
00001000
00000001
00000010
,
00000000
00000110
00000200
00000300
,
00010000
00001000
01000000
00000000
,
20020000
00000000
00000000
00000000
,
30030000
10000000
01000000
00100000
,
00000000
00010000
00100000
00001000
,
00010000
00000000
00000010
00001000
,
00000010
00000000
00000100
00000001
,
00000100
00000010
00001000
00000010
,
00000000
00010000
00001000
00010000
,
00001000
00000000
01000000
00010000
,
01000000
00200000
00000000
00000000
,
00300000
10000000
01000000
00100000
,
01000000
00100000
00001000
00011000
,
00000000
00010000
00000100
00001000
,
00000001
00000010
00000010
00000110
,
00000000
00000100
00001000
00000100
,
00010000
00001000
00010000
00011000
,
00000000
01000000
01000000
00010000
,
00010000
10000000
00100000
01100000
,
00000000
01000000
10010000
01000000
,
10010000
10000000
01000000
00100000
,
00000000
00001000
00011000
00010000
,
00011000
00000100
00001000
00000001
,
00000000
00000100
00001001
00000010
,
00001001
00001000
00000100
00010000
,
00000000
00001000
00001000
00010000
,
00001000
00000000
01000000
00010000
,
00000000
00100000
10010000
10000000
,
01000000
00000000
00100000
10010000
,
00010000
02000000
03000000
00001000
,
00010000
00000010
00000000
00001001
,
00002000
00003000
00000100
00010000
,
00001000
00000000
00022000
00000000
,
00000000
00000000
00033000
00000000
,
02000000
00000000
00000000
00000000
,
03000000
00000000
00010000
10000000
,
00010000
10000000
01000000
01100000
,
10010000
00000000
00010000
00100000
,
00001000
00010000
00000100
00000110
,
00001001
00000000
00000001
00000100
,
00000001
00001000
00000010
00000110
,
00001001
00000000
00001000
00001000
,
00000100
00000100
00010000
00001000
,
00011000
00000000
00001000
00011000
,
00010000
00011000
01000000
00010000
,
00100000
00000000
01000000
10010000
,
00100000
10010000
00010000
01000000
,
00001000
00000000
00010000
00011000
,
00001000
00011000
00010000
00000100
,
00001000
00000000
00000010
00001001
,
00001000
00000100
00000000
00010000
,
00001000
00000000
01000000
10010000
,
00100000
10010000
00010000
01000000
,
00001000
00000000
00010000
00011000
,
00001000
00011000
00000100
00001000
,
00000010
00000000
00000100
00001001
,
00000010
00001001
00000001
00000010
,
00000100
00001000
00001001
00000110
,
00001000
00000100
00010000
00001000
,
00011000
00000000
01000000
10010000
,
10000000
01000000
00010000
00001000
,
00022000
00000000
00033000
00000000
;

//--------------- dance-double - forcednature ----------------
#NOTEDATA:;
#STEPSTYPE:dance-double;
#DESCRIPTION:forcednature;
#CREDIT:forcednature;
#DIFFICULTY:Medium;
#METER:11;
#RADARVALUES:0,0,0,0,0;
#NOTES:
00000000
00000000
00000000
00000000
,
00000000
00000000
00000000
00000000
,
00000000
00000000
00000000
00000000
,
00000000
00000000
00000000
00000000
,
00000000
00022000
00000000
00000000
00000000
00000000
00000000
00000000
00033000
00000000
00010000
00000000
00002000
00000000
00000000
01003000
,
00000000
00000000
00010000
00000000
10000000
00000000
00100000
00000000
10000000
00000000
01000000
00000000
01000000
00100000
00000000
00000000
,
00010000
00000000
00100000
00000000
00001000
00000000
00000000
00000000
00020000
00000000
00000000
00030100
00000000
00000000
00000100
00000000
,
00001000
00000000
00000001
00000000
00000010
00000000
00000100
00000000
00000100
00001000
00000000
00000000
00000100
00000000
00010000
00000000
,
00022000
00000000
00000000
00000000
,
00033000
00011000
01000000
00010000
,
00000000
10000000
00000000
10000000
00000000
00100000
01000000
00000000
,
00000000
00010000
00100000
00000000
00001000
00000000
00010000
00000000
,
00000000
00000200
00000000
00002300
00000000
00003002
00000000
00000023
,
00000000
00000030
00000100
00000000
00001000
00000000
00000100
00000000
,
00000000
00010000
00000000
00010000
00000000
00001000
00010000
00000000
,
00000000
00001000
01000000
00000000
00010000
00000000
01000000
00000000
,
00100000
20000000
00000000
00000000
30010000
00010000
00010000
00000000
,
10000000
01000000
00010000
00000000
00001000
00010000
00001000
00000000
,
00010000
00000100
00001000
00000000
00001100
00000000
00000011
00000000
,
00000000
00000000
00000001
00000000
00000100
00000010
00001000
00000001
,
00000100
00002000
00023000
00032000
,
00203000
00000000
00310000
00000000
10000000
01000000
00010000
00000000
,
01000000
10000000
00100000
00000000
01100000
00000000
10010000
00000000
,
00000000
00020000
00100000
02030000
,
03020000
00000000
00130000
00001000
00010000
00000100
00002000
00000000
,
00003000
00000000
00000001
00001000
00001001
00000000
00000001
00001000
,
00001001
00000000
00001000
00000100
00010000
00001000
00100000
00000000
,
00011000
00000000
00010000
00001000
00011000
00000000
00001000
00010000
,
00001000
01000000
00010000
00000000
00110000
00000000
00100000
01000000
,
10000000
00000000
00010000
10000000
10010000
00000000
00010000
10000000
,
10010000
00000000
00010000
01000000
00001000
00010000
00000010
00000000
,
00001000
00001100
00000120
00000031
,
00000010
00000100
00000000
00001100
00000000
00010000
00001000
00000000
,
00011000
00101000
00120000
01030000
,
10000000
00100000
00000000
10000000
10000000
00010000
10000000
00000000
,
01000000
00000000
00010000
00000000
00002000
00000000
00000000
00103000
00000000
00000000
00001000
00000000
00010000
00000000
00000100
00000000
,
00001000
00000000
00000001
00000000
00000001
00000010
00000000
00000000
00000001
00000000
00000100
00000000
00001000
00000000
00000000
00000000
,
00020000
00000000
00000000
00031000
00000000
00000000
00010000
00000000
00001000
00000000
01000000
00000000
00010000
00000000
10000000
00000000
,
10000000
00100000
00000000
00000000
10000000
00000000
01000000
00000000
20020000
00000000
00000000
00000000
00000000
00000000
00000000
00000000
,
00000000
00000000
00000000
00000000
00000000
00000000
00000000
00000000
30030000
00000000
00000000
00000000
00010000
01000000
00001000
00010000
,
00000020
00000000
00000000
00000000
,
00000000
00000000
00000030
00000000
00001000
00000000
00000100
00000010
,
00000001
00000000
00000100
00000010
00001000
00000000
00001100
00000000
,
00010100
00000000
00000000
00000000
00010000
00000000
00001000
01000000
,
00010000
00000000
10000000
00100000
20000000
00000000
32000000
00000000
,
03200000
00000000
00320000
00000000
01030000
00000000
00001000
00010000
,
00001000
00000000
00010000
00000100
00001000
00000000
00001100
00000000
,
00000011
00000000
00000002
00000100
,
00002003
00000000
00000100
00000000
00003010
00010000
00001000
01000000
,
00020000
00000000
00030000
00000000
00100000
01000000
01100000
00000000
,
10000000
00010000
10010000
00000000
00010000
01000000
00001000
00010000
,
00000010
00000000
00001001
00000000
00000100
00000010
00000110
00000000
,
00000001
00000101
00000000
00001000
00000010
00000000
00001001
00000000
,
00001000
00000100
00010000
00000000
00001000
00100000
00101000
00000000
,
00001000
00100000
00101000
00000000
00001000
00010000
00001000
01000000
,
00010000
10000000
10100000
02010000
,
03100000
00000000
10000000
00010000
00000000
00100000
00100000
00001000
,
00020000
00000000
00000000
00000000
00030000
00000000
00000000
00000000
00001000
00010000
00001000
00000000
00010000
00000000
00000000
00000000
,
00000100
00000000
00001100
00000000
00001000
00000001
00000010
00000001
,
00001000
00000100
00010000
00000000
00001000
00010000
00011000
00000000
,
00001000
01000000
00010000
01000000
00200000
00000000
20300000
00000000
,
30010000
00100000
01000000
00000000
00010000
00001000
00011000
00000000
,
00001000
00010000
00011000
00000000
00000100
00001000
00000001
00000010
,
00000001
00000000
00000100
00000001
00001000
00000000
00001020
00000000
,
00000130
00000000
00000010
00010000
00000000
00001000
00001000
01000000
,
00010000
00000000
10010000
00000000
10000000
01000000
01100000
00000000
,
00010000
01000000
01100000
00000000
00010000
01000000
00001000
00010000
,
00000020
00000000
00000030
00000000
;

//--------------- dance-double - forcednature ----------------
#NOTEDATA:;
#STEPSTYPE:dance-double;
#DESCRIPTION:forcednature;
#CREDIT:forcednature;
#DIFFICULTY:Hard;
#METER:15;
#RADARVALUES:0,0,0,0,0;
#NOTES:
00000000
00000000
00000000
00000000
,
00000000
00000000
00000000
00000000
,
00000000
00000000
00000000
00000000
,
00000000
00000000
00000000
00000000
,
00000000
00022000
00000000
00000000
00000000
00000000
00033000
00000000
01000000
00000000
00010000
00000000
00200000
00000000
00000000
10300000
,
00000000
00100000
00010000
00100000
00001000
00000000
00010000
00000000
00000100
00000000
00001000
00000010
00000100
00000010
00000000
00000100
,
00000000
00000001
00000010
00000001
00000010
00000000
00000100
00000000
00002000
00000000
00000000
00003010
00000000
00001000
00000100
00010000
,
00001000
00000000
00100000
00000000
00010000
00000000
10000000
00100000
10000000
00100000
00000000
10000000
01000000
00010000
00001000
00000000
,
00022000
00000000
00000000
00000000
,
00033000
00011000
00000200
00001300
,
00000100
00010000
00000000
00001000
00000010
00000001
00001000
00000001
,
00000100
00001000
00000000
00000000
00011000
00000000
00101000
00000000
,
00100000
00020000
00000000
01030000
10000000
01000000
00010000
00010000
,
00100000
00001000
00011000
00000000
02000000
00000000
03010000
00000000
,
01000000
00001000
00000000
00010000
00100000
10000000
00010000
10000000
,
01000000
00010000
00000000
00000000
00011000
00000000
00010010
00000000
,
00000010
00000000
00002000
00000000
00000000
00000000
00003001
00000000
00000100
00000000
00001000
00000000
00010000
00000000
00001000
00010000
,
00001000
00010000
00001000
00010000
00000100
00000000
00000000
00000000
00001000
00000000
00000010
00000000
00000001
00000000
00000000
00000000
,
00000010
00001000
00000100
00000000
00000110
00000000
00011000
00000000
,
00010000
00000000
01000000
00000000
10000000
00000000
00000000
00000000
00100000
00000000
10000000
00000000
01000000
00000000
00100000
01000000
,
00100000
00010000
02000000
00000000
03002000
00000000
00103000
00010000
,
00100000
00001000
01000000
00000000
00010000
00100000
10000000
00000000
,
00100000
00010000
01000000
00000000
01100000
00000000
00011000
00000000
,
00001000
00000100
00000002
00000000
00000010
00000000
00002003
00000000
,
00003200
00000000
00000000
00000000
00010300
00000000
00001000
00000000
00010000
00001000
00010000
00001000
00020000
00000000
00000000
00000000
,
00030000
00000000
00001000
00010000
00101000
00000000
00001000
00010000
,
00101000
00000000
00001000
01000000
00010000
00100000
01000000
00000000
,
01100000
00000000
00100000
01000000
10010000
00000000
10000000
01000000
,
00010000
00000000
00001000
00000000
00100000
00000000
00010000
00100000
00010000
00000000
00100000
00001000
00010000
00000000
00001000
00010000
,
00001000
00010000
00001000
00000000
00010000
00000000
00001000
00000000
00010010
00000000
00000000
00000000
00010000
00000000
00001000
00000000
,
00010010
00000000
00000010
00001000
00000100
00010000
00000010
00000000
,
00000100
00000000
00000001
00000000
00000010
00000001
00000010
00000000
00000100
00000010
00000100
00000000
00001000
00000000
00000100
00000000
,
00010000
00000000
00011000
00000000
00000000
00000000
00100000
00000000
00100000
00000000
00010000
00000000
10000000
00010000
10000000
00000000
,
10010000
00000000
00000000
00000000
10000000
00000000
01000000
00000000
00010000
00000000
00001000
00000000
00100000
00010000
00100000
00000000
,
00001000
00010000
00000000
00010100
00001100
00001010
00000110
00000000
,
00000010
00000000
00001000
00000000
00000200
00000000
00000000
00000301
00000000
00000100
00001000
00000100
00010000
00000000
00001000
00000000
,
00100000
00000000
00010000
01000000
00100000
01000000
00000000
00100000
00000000
10000000
01000000
10000000
01000000
00000000
00100000
00000000
,
00020000
00000000
00000000
01030000
00000000
00010000
00100000
00001000
00010000
00000000
00000100
00000000
00001000
00000000
00000001
00000100
,
00000001
00000010
00000000
00000001
00000100
00001000
00010000
00100000
20000000
00000000
00000000
00000000
32000000
00000000
00000000
00000000
,
03020000
00000000
00000000
00000000
00032000
00000000
00000000
00000000
00003020
00000000
00000000
00000000
00000031
00001000
00000100
00000010
,
00000002
00000000
00000200
00000000
,
00000000
00000000
00000303
00000000
00001000
00000000
00000100
00010000
,
00011000
00000000
00001000
00100000
00110000
00000000
01010000
00000000
,
00010000
00100000
10000000
00000000
00110000
00000000
00010000
00100000
,
00001000
00000000
00010000
00001000
00010000
00000000
00000100
00000000
00002000
00000000
00000000
00000000
00003020
00000000
00000000
00000000
,
00001030
00000100
00000001
00000100
00001000
00000000
00000001
00000100
,
00000110
00000000
00001000
00000100
00010100
00000000
00010000
00001000
,
01000000
00010000
00100000
01000000
20000000
00000000
00100000
00100000
,
30200000
00000000
00320000
00000000
00031000
00010000
00001000
00010000
,
00001000
00010000
00001000
00010000
00002000
00000000
00000000
00000000
00013000
00001000
00010000
00000000
00010010
00000000
00000000
00000000
,
00010000
00001000
00010000
00000000
00010010
00000000
00000000
00000000
00010000
00000000
00000100
00000000
00001000
00000000
00000010
00000000
,
00000100
00000000
00000000
00000000
00000110
00000000
00000000
00000000
00000010
00000100
00000010
00000000
00001001
00000000
00000000
00000000
,
00000001
00000000
00000100
00000000
00001000
00000000
00010000
00000000
00000010
00000000
00001000
00000010
00001000
00000000
00000010
00010000
,
00001000
00000000
00010000
00001000
00010000
00001000
00010000
00000000
00001000
00010000
00001000
00000000
00101000
00000000
00000000
00000000
,
00001000
00010000
00001000
00000000
00101000
00000000
00000000
00000000
00100000
00000000
00010000
00000000
01000000
00000000
00001000
00000000
,
00100000
00000000
00000000
00000000
01000000
00000000
10000000
00000000
00100000
10000000
00100000
00000000
01000000
00100000
01000000
00000000
,
00010000
01000000
00001000
00011000
00000000
00000010
00000010
00001000
,
00000001
00001000
00000001
00000000
00001001
00000000
00000000
00000000
00001000
00000100
00010000
00001000
00100000
00000000
00000000
00000000
,
00010000
00000000
10000000
00000000
10010000
00000000
00000000
00000000
00010000
01000000
00010000
00000000
01000000
00100000
01000000
00000000
,
00100000
10000000
00010000
01000000
00100000
00000000
00000000
00000000
01000000
00000000
00001000
00000000
00010010
00000000
00000000
00000000
,
00000002
00000000
00000203
00000000
00002300
00000000
00023000
00000000
00031000
00000000
00010000
00001000
00010000
00000000
00001000
00100000
,
00010000
00000000
00100000
01000000
00100000
01000000
10000000
00000000
01000000
00100000
00010000
00000000
00110000
00000000
00000000
00000000
,
00001000
00010000
00000100
00000000
00001100
00000000
00000000
00000000
00001000
00000010
00001000
00000000
00000001
00000100
00000001
00000000
,
00000100
00000010
00001000
00000000
00000100
00000000
00010000
00000000
00011000
00000000
00000000
00000000
00201000
00000000
00000000
00000000
,
00310000
01000000
10000000
02000000
00000000
03010000
10000000
00100000
,
10000000
00000000
01000000
00010000
00001000
00000000
00000000
00000000
00100000
00010000
00100000
00001000
00010000
00000000
00000100
00000000
,
00001000
00000010
00010000
00001000
00010000
00000000
00000100
00000000
00000000
00000000
00001100
00000000
00010100
00000000
00011000
00000000
,
00202000
00000000
00303000
00000000
;
