#VERSION:0.83;
#TITLE:STELLAR WIND;
#SUBTITLE:;
#ARTIST:L.E.D.;
#TITLETRANSLIT:;
#SUBTITLETRANSLIT:;
#ARTISTTRANSLIT:;
#GENRE:HARD DANCE;
#CREDIT:;
#MUSIC:STELLAR WIND.ogg;
#BANNER:STELLAR WIND.png;
#BACKGROUND:STELLAR WIND-bg.png;
#CDTITLE:./CDTitles/bm IIDX 18 Resort Anthem.png;
#SAMPLESTART:75.632;
#SAMPLELENGTH:15.000;
#SELECTABLE:YES;
#OFFSET:0.852;
#BPMS:0.000=160.000;
#STOPS:;
#TIMESIGNATURES:0.000=4=4;
#BGCHANGES:0.000=../BGAs/10tr.mp4=1.000=0=0=0=StretchNoLoop====,
99999.000=-nosongbg-=1.000=0=0=0=StretchNoLoop====
;
#FGCHANGES:;

//--------------- dance-single - forcednature ----------------
#NOTEDATA:;
#STEPSTYPE:dance-single;
#DESCRIPTION:forcednature;
#DIFFICULTY:Beginner;
#METER:4;
#RADARVALUES:0,0,0,0,0;
#CREDIT:forcednature;
#NOTES:
0000
0000
0000
0000
,
0000
0000
0000
0000
,
0000
0000
0000
0000
,
0000
0000
0000
0000
,
0000
0000
0000
0000
,
0000
0000
0000
0000
,
1000
0000
0000
0000
,
0001
0000
0000
0000
,
0100
0000
0100
0000
,
0010
0000
0000
0000
,
1000
0000
0000
0000
,
0001
0000
0000
0000
,
0010
0000
0000
0000
,
0001
0000
0100
0000
,
0001
0000
0000
0000
,
1000
0000
0000
0000
,
0100
0000
0100
0000
,
0010
0000
0000
0000
,
0001
0000
0000
0000
,
0100
0000
0000
0000
,
0010
0000
1000
0000
,
0010
0000
1000
0000
,
0001
0000
0000
0000
,
0010
0000
0000
0000
,
0100
0000
1000
0000
,
0100
0000
1000
0000
,
1000
0000
0000
0000
,
0010
0000
0000
0000
,
0100
0000
0001
0000
,
0100
0000
0001
0000
,
1000
0000
1000
0000
,
0100
0000
0100
0000
,
0010
0000
0001
0000
,
0010
0000
0001
0000
,
0200
0000
0000
0000
,
0000
0000
0300
0000
,
0002
0000
0000
0000
,
0000
0000
0003
0000
,
2000
0000
0000
0000
,
0000
0000
3000
0000
,
0200
0000
0000
0000
,
0000
0000
0300
0000
,
0010
0000
0000
0000
,
0001
0000
0000
0000
,
0100
0000
0000
0000
,
0010
0000
0000
0000
,
1000
0000
1000
0000
,
0001
0000
0001
0000
,
0100
0000
0010
0000
,
1000
0000
0001
0000
,
0010
0000
0000
0000
,
0100
0000
1000
0000
,
0100
1000
0100
0000
,
0010
0000
0001
0000
,
0010
0001
0010
0000
,
0001
0000
0100
0000
,
0001
0100
0001
0000
,
1000
0000
0010
0000
,
1000
0010
1000
0000
,
0100
0000
1000
0000
,
0001
0010
0001
0000
,
0100
0000
0001
0000
,
1000
0010
1000
0000
,
0100
0000
0010
0000
,
0001
0000
1000
0000
,
0110
0000
1001
0000
,
1000
0000
0001
0000
,
0100
0000
0000
0000
,
0010
0000
1000
0000
,
0001
0000
0000
0000
,
0010
0000
0001
0000
,
1000
0000
1000
0000
,
0001
0000
0001
0000
,
0100
0000
0010
0000
,
1000
0001
0100
0010
,
1000
0000
0000
0000
;

//--------------- dance-single - forcednature ----------------
#NOTEDATA:;
#STEPSTYPE:dance-single;
#DESCRIPTION:forcednature;
#DIFFICULTY:Easy;
#METER:9;
#RADARVALUES:0,0,0,0,0;
#CREDIT:forcednature;
#NOTES:
0000
0000
0000
0000
,
0000
0000
0000
0000
,
0000
0000
0000
0000
,
0000
0000
0000
0000
,
0000
0000
0000
0000
,
0000
0000
0000
0000
,
1001
1000
0001
0100
,
0010
0000
1000
0000
0010
0000
0100
0001
,
1000
0010
1000
0000
0001
0010
0001
0000
,
0100
0000
0000
0010
0000
0000
0100
0000
0000
0010
0000
0000
1000
0000
0001
0000
,
2000
0100
0001
0010
,
3200
1000
0320
0100
,
0032
0100
1000
0010
,
0203
0000
1000
0000
0010
0000
0301
0100
,
0020
0100
1000
0100
,
2030
0000
0010
0000
3002
0000
0013
0001
,
1000
0010
1000
0000
0001
0010
0001
0000
,
0100
0000
0000
0100
0000
0000
0100
0000
0010
0000
0000
0010
0000
0000
0010
0000
,
1000
0000
1100
0000
1000
0001
0010
0000
,
0001
0000
0101
0000
0001
1000
0010
0000
,
0100
0000
0000
0100
0000
0000
0100
0000
0001
0000
0000
0001
0000
0000
0001
0000
,
1000
0000
0000
1000
0000
0000
1000
0000
0100
0000
0000
0100
0000
0000
0100
0000
,
0010
0000
0011
0000
0010
0001
1000
0000
,
0010
0000
1010
0000
0010
1000
0001
0000
,
1000
0000
0000
1000
0000
0000
1000
0000
0100
0000
0000
0100
0000
0000
0100
0000
,
0010
0000
0000
0010
0000
0000
0010
0000
0001
0000
0000
0001
0000
0000
0001
0000
,
0100
0000
0110
0000
0100
0001
1000
0000
,
0100
0000
0110
0000
0100
1000
0001
0000
,
1000
0000
0000
1000
0000
0000
1000
0000
0010
0000
0000
0010
0000
0000
0010
0000
,
0100
0000
0000
0100
0000
0000
0100
0000
0001
0000
0000
0001
0000
0000
0001
0000
,
0010
0100
0010
0000
0100
0010
0100
0000
,
1000
0001
1000
0000
0001
1000
0001
0000
,
0100
0000
0000
0001
0000
0000
0100
0000
0010
0000
0000
1000
0000
0000
0010
0000
,
0100
0000
0000
0001
0000
0000
1000
0000
0100
0000
0100
0000
0000
0000
0010
0000
,
0002
0000
0000
0000
,
0000
0000
0000
0000
,
0203
0000
0000
0000
,
0000
0000
0000
0000
,
0320
0000
0000
0000
,
0000
0000
0000
0000
,
2030
0000
0000
0000
,
0000
0000
0000
0000
0000
0000
3000
1000
,
0002
0000
0000
0000
,
0000
0000
0000
0000
,
0023
0000
0000
0000
,
0000
0000
0000
0130
,
1001
0000
0000
0000
0000
0000
0000
0010
,
0010
0000
0000
0000
0000
0000
0000
0100
,
0100
0000
0000
0010
0010
0000
0000
1000
,
0001
0100
0001
0100
0010
1000
0001
0010
,
0200
0000
0000
0300
,
1000
0000
0100
1000
0000
1000
0100
0000
,
0010
0001
0000
0001
0010
0000
0001
1000
,
0001
0000
0100
0001
0000
0001
0100
0000
,
0010
1000
0000
1000
0010
0000
1000
0001
,
1000
0000
0100
0010
0000
0010
0001
0000
,
0100
0010
0000
0010
1000
0000
0100
0010
,
0100
0000
1000
0001
0000
0001
0100
0000
,
0010
1000
0000
1000
0001
0000
0010
0100
,
1000
0000
0001
0100
0000
0100
0010
0000
,
0010
1000
0000
1000
0001
0000
0010
0000
,
1001
0000
1000
0100
0000
0100
0010
0000
,
0010
0001
0000
0001
1000
0000
0010
0000
,
0110
0000
0100
0001
0000
0100
1000
0000
,
0100
0010
0000
1000
0001
0000
0010
0000
,
1100
0010
0101
0010
,
1000
0001
1000
0001
0010
0100
1000
0000
,
0001
0001
0100
0001
0001
0100
0010
0000
,
1001
0100
1001
0010
,
1000
1000
0100
1000
1000
0100
0010
0000
,
1001
0000
0100
0000
0010
0010
0010
0000
,
1000
0001
0100
0001
1000
0100
0010
0000
,
0110
0000
0100
0000
1000
0001
0100
0000
,
0010
0010
1000
0010
0010
0001
0010
0000
,
0100
0000
0000
0001
0000
0000
1000
0000
0000
0001
0000
0000
0010
0000
0000
0000
,
0110
0000
0000
0000
;

//--------------- dance-single - forcednature ----------------
#NOTEDATA:;
#STEPSTYPE:dance-single;
#DESCRIPTION:forcednature;
#DIFFICULTY:Medium;
#METER:13;
#RADARVALUES:0,0,0,0,0;
#CREDIT:forcednature;
#NOTES:
0000
0000
0000
0000
,
0000
0000
0000
0000
,
0000
0000
0000
0000
,
0000
0000
0000
0000
,
0000
0000
0000
0000
,
0000
0000
0000
0000
,
1100
0001
1000
0010
,
0100
0001
0010
0000
0100
0000
1000
0001
,
1000
0100
1000
0100
0010
0001
0010
0001
,
0100
0000
0000
0110
0000
0000
0010
0000
0000
1001
0000
0000
1000
0000
0001
0000
,
1000
1010
1000
1100
,
0001
0000
0000
0010
0000
0000
0100
0000
1000
0000
0000
0001
0000
0000
0100
0000
,
0010
1010
1000
0101
,
0001
0000
0000
0010
0000
0000
0100
0000
0000
1000
0000
0000
0100
0000
0010
0000
,
0001
1001
1000
0101
,
1000
0000
0000
0010
0000
0000
0100
0000
0001
0000
0000
0010
0000
0000
0100
0000
,
1000
0001
1000
0001
0100
0010
0100
0010
,
0100
0000
0000
1001
0000
0000
0010
0000
1000
0001
0000
1000
0001
0000
0010
0000
,
0100
1000
0100
0010
0001
0100
0010
1000
,
0100
1000
0001
0100
0010
1000
0001
0010
,
0100
1100
0001
0101
,
1000
0000
0000
0000
1010
0000
0000
0000
0001
1000
0000
0001
1000
0000
0010
0000
,
0100
0001
0010
0001
0100
0010
1000
0100
,
1000
0010
0100
0001
0010
0100
1000
0010
,
0100
0101
0010
1010
,
0001
0000
0000
0000
1001
0000
0000
0000
1000
0001
0000
1000
0001
0000
0010
0000
,
0100
1000
0100
0001
0100
0010
0100
1000
,
0001
0100
1000
0100
0010
0100
0001
1000
,
0100
0011
0001
1010
,
1000
0000
0110
0000
0001
0001
0001
1000
,
0010
1000
0100
1000
0010
1000
0100
1000
,
0001
0010
0001
0100
0001
0010
0001
0100
,
0001
0000
0000
0110
0000
0000
1000
0000
0001
0100
0000
0001
0100
0000
0010
0000
,
1000
0000
0000
0100
0000
0000
0010
0000
0001
0000
0001
0000
0100
0000
0010
0000
,
2000
0000
0000
0000
,
0000
0000
0000
0000
,
3002
0000
0000
0000
,
0000
0000
0000
0000
,
0023
0000
0000
0000
,
0000
0000
0000
0000
,
0230
0000
0000
0000
,
0000
0000
0000
0300
,
1001
1000
0000
1000
,
0000
1000
0000
1000
,
0100
0001
0000
0001
,
0000
0001
0000
0100
,
0110
0000
0001
0000
1000
0000
0100
0010
,
0110
0000
1000
0000
0001
0000
0100
0010
,
0110
0000
0010
0100
1001
0000
1000
0001
,
0100
0000
0100
0000
0010
0000
0010
0000
0100
0000
0010
0000
1000
0001
1000
0000
,
0200
0000
0000
0300
,
0110
0000
0000
0001
0000
0000
1000
0000
0000
0001
0000
0000
0100
0000
0000
0010
,
0000
0000
1000
0000
0000
0100
0000
0000
0010
0000
0000
0010
0000
0000
0001
0000
,
0100
0000
0000
0010
0000
0000
1000
0000
0000
0100
0000
0000
1000
0000
0000
0010
,
0000
0000
0100
0000
0000
0001
0000
0000
0010
0000
0000
0010
0000
0000
0010
0000
,
0100
0000
0000
1000
0000
0000
0001
0000
0000
0100
0000
0000
0001
0000
0000
0010
,
0000
0000
0100
0000
0000
1000
0000
0000
0001
0000
0000
1000
0000
0000
0010
0000
,
0100
0000
0000
0001
0000
0000
0100
0000
0000
1000
0000
0000
0100
0000
0000
0010
,
0000
0000
1000
0000
0000
0001
0000
0000
1000
0000
0100
0000
0010
0000
0001
1000
,
0001
0000
0000
0100
0000
0000
0001
0000
0000
1000
0000
0000
0010
0000
0000
1000
,
0000
0000
0100
0000
0000
0001
0000
0000
0100
0000
0000
0010
0000
0000
0001
0000
,
1001
0000
0000
1000
0000
0000
0010
0000
0000
0001
0000
0000
0010
0000
0000
0100
,
0000
0000
0001
0000
0000
1000
0000
0000
0100
0000
0100
0000
0010
0000
0001
1000
,
0001
0100
0001
0010
0001
0100
0001
0000
,
1000
0100
1000
0010
1000
0100
1000
0000
,
0010
0100
1000
0100
0001
0100
0010
0100
,
0001
0000
1000
0000
0100
0000
0010
0000
0001
0000
1000
0000
0001
1000
0001
0000
,
1000
0100
1000
0000
0001
0000
1000
0100
1000
0000
0001
0000
1000
0100
1000
0000
,
0010
0000
0000
0100
0000
0000
0010
0000
1000
0000
0100
0000
0010
0000
0000
0000
,
0001
0100
0001
0000
1000
0000
0001
0100
0001
0000
1000
0000
0001
0100
0001
0000
,
0010
0000
0000
0100
0000
0000
0010
0000
0001
0000
0100
0000
0010
0000
0000
0000
,
1000
0100
1000
0000
1000
0000
0001
0100
0001
0000
0001
0000
1000
0100
1000
0000
,
0010
0100
0001
0100
1000
0100
0001
1000
,
0001
1000
0001
1000
0001
0000
1000
0001
1000
0001
1000
0000
0001
1000
0001
1000
,
0001
0100
0000
0001
0100
0000
0010
1000
0000
0010
1000
0000
0100
0000
0010
0000
,
2002
0000
0000
0000
,
0000
0000
0000
0000
,
3003
0000
0000
0000
;

//--------------- dance-single - forcednature ----------------
#NOTEDATA:;
#STEPSTYPE:dance-single;
#DESCRIPTION:forcednature;
#DIFFICULTY:Hard;
#METER:16;
#RADARVALUES:0,0,0,0,0;
#CREDIT:forcednature;
#NOTES:
0000
0000
0000
0000
,
0000
0000
0000
0000
,
0000
0000
0000
0000
,
0000
0000
0000
0000
,
0000
0000
0000
0000
,
0000
0000
0000
0000
,
1001
0000
0110
0000
0001
0100
1000
0000
,
0100
0010
1000
0100
0010
0001
0100
0100
,
0001
0001
1000
1000
0100
0100
0010
0010
,
0100
0000
0000
1001
0000
0000
0110
0000
0000
1001
0000
0000
1000
0001
1000
0001
,
0200
0001
1000
0010
,
0301
0000
0000
0100
0000
0000
0010
0000
1000
0000
0000
0100
0000
0000
0010
0000
,
0100
0000
0000
0100
0000
0000
1000
0000
0000
1000
0000
0000
0010
0000
0100
0000
,
0001
0000
0000
0001
0000
0000
0010
0000
0000
0100
0000
0000
1000
0000
0100
0010
,
0200
1000
0001
0010
,
1300
0000
0000
0100
0000
0000
0010
0000
0001
0000
0000
0100
0000
0000
0010
0000
,
1000
0100
1000
0010
0100
0001
0010
0001
,
0100
0000
0000
0110
0000
0000
1001
0000
1000
0100
0000
0010
0001
0000
0100
0001
,
0100
0010
0100
0001
0100
0010
1000
0001
,
1000
0100
0010
0100
1000
0010
0100
0001
,
0010
0000
0000
0010
0000
0000
0100
0000
1000
0000
0000
1000
0000
0000
0001
0000
,
0100
0000
0000
0100
0000
0000
0010
0000
1000
0001
0000
1000
0001
0000
0010
0000
,
0100
0010
0001
0100
0010
1000
0001
1000
,
0100
0010
0100
1000
0010
0100
0001
0010
,
0001
0000
0000
0001
0000
0000
0100
0000
0010
0000
0000
0010
0000
0000
1000
0000
,
0100
0000
0000
0010
0000
0000
0001
0000
1000
0000
1000
0000
0010
0000
0100
0001
,
0100
0010
1000
0001
1000
0100
0010
0001
,
1000
0100
0001
0100
0010
0001
1000
0010
,
0100
0000
0000
0001
0000
0000
1000
0000
0100
0000
0000
1000
0000
0000
0001
0000
,
0100
0000
0000
0010
0000
0000
1000
0000
0100
0000
0100
0000
0100
0000
0010
0001
,
0010
0001
0100
0001
0010
0001
0100
0001
,
1000
0000
0010
0000
1000
0000
0100
0000
1000
0000
0010
0000
1000
0000
0100
1000
,
0100
0000
0000
0110
0000
0000
1001
0000
0001
0100
0000
0010
1000
0000
0001
1000
,
0001
0000
0010
0001
0000
1000
0010
0000
0100
0001
0100
0010
1000
0000
0001
0010
,
0200
0000
0000
0000
,
0000
0000
0000
0000
,
0320
0000
0000
0000
,
0000
0000
0000
0000
,
0032
0000
0000
0000
,
0000
0000
0000
0000
,
2003
0000
0000
0000
,
0000
0000
0000
0000
0000
0000
0000
0000
0000
0000
0000
0000
0000
0000
3001
1000
,
0002
0010
0000
0100
,
0000
0010
0000
0100
,
2003
0010
0000
0100
,
0000
0000
0000
0000
0010
0000
0000
0000
0000
0000
0000
0000
3100
0000
1000
0001
,
2000
0000
0010
0000
0100
0000
3010
1000
,
1002
0000
0010
0000
0100
0000
0013
0001
,
2001
0000
0000
0000
3100
0000
1000
0001
0020
0000
0000
0000
0130
0000
1000
0001
,
1000
0100
1000
0100
0010
0001
0010
0000
0001
0100
0010
1000
0010
0100
0001
1000
,
0200
0000
0000
0300
,
0100
0000
0000
0100
1000
0000
0010
0000
0000
0010
1000
0000
0001
0000
0000
0001
,
0100
0000
0001
0000
0000
0001
0010
0000
0100
0000
0000
1000
0000
0000
0010
0000
,
0100
0000
0000
0100
0001
0000
0010
0000
0000
0010
0001
0000
1000
0000
0000
1000
,
0100
0000
1000
0000
0000
1000
0010
0000
0100
0000
0000
0001
1000
0000
0100
1000
,
0100
0000
0000
0100
0010
0000
0001
0000
0000
0001
0100
0000
0010
0000
0000
0010
,
1000
0000
0100
0000
0000
0100
0010
0000
0001
0000
0000
1000
0000
0000
0010
0000
,
0100
0000
0000
0100
0001
0000
1000
0000
0000
1000
0100
0000
0010
0000
0000
0010
,
0001
0000
1000
0000
0000
1000
0010
0000
0100
0000
0100
0000
0001
0000
1000
0100
,
1000
0000
0001
0100
0000
0100
0010
0000
0010
1000
0000
1000
0100
0000
0100
0010
,
0000
0010
0001
0000
0001
1000
0000
1000
0010
0000
0000
0100
0000
0000
0001
0000
,
1001
0000
1000
0010
0000
0010
0100
0000
0100
0001
0000
0001
0010
0000
0010
0100
,
0000
0100
1000
0000
1000
0001
0000
0001
0100
0000
0100
0000
0010
0000
1000
0001
,
1000
0100
1000
0010
1000
0100
1000
0010
,
0100
0000
0001
0000
0010
0000
0001
0000
0100
0000
0001
0000
0010
0000
0001
1000
,
0001
0001
0100
0100
0010
0010
1000
1000
,
0100
1000
0100
1000
0001
0010
0001
0000
0100
0001
0100
0001
1000
0010
1000
0000
,
0001
0100
0001
0100
0010
0000
1000
0100
1000
0100
0010
0000
0001
0100
0010
1000
,
0001
0000
0000
1000
0000
0000
0100
0000
0010
0000
0010
0000
0001
1000
0001
0000
,
1000
0100
1000
0100
0010
0000
0001
0100
0001
0100
0010
0000
1000
0100
0010
0001
,
1000
0000
0010
0000
1000
0000
0100
0000
0010
0000
0001
0100
0010
0000
1000
0000
,
0001
0100
0001
0100
0001
0000
0001
0010
0001
0010
0001
0000
0001
1000
0001
1000
,
0001
0000
0100
0000
0001
0000
0010
0000
0100
1000
0100
0000
1000
0000
0010
0000
,
1000
0100
0010
0001
1000
0000
0001
0100
0010
1000
0001
0000
0010
0001
1000
0010
,
0100
0001
0000
1000
0100
0000
0010
0001
0000
1000
0010
0000
0100
0000
0110
0000
,
2002
0000
0000
0000
,
0000
0000
0000
0000
,
3003
0000
0000
0000
;

//--------------- dance-double - forcednature ----------------
#NOTEDATA:;
#STEPSTYPE:dance-double;
#DESCRIPTION:forcednature;
#DIFFICULTY:Easy;
#METER:8;
#RADARVALUES:0,0,0,0,0;
#CREDIT:forcednature;
#NOTES:
00000000
00000000
00000000
00000000
,
00000000
00000000
00000000
00000000
,
00000000
00000000
00000000
00000000
,
00000000
00000000
00000000
00000000
,
00000000
00000000
00000000
00000000
,
00000000
00000000
00000000
00000000
,
00011000
00000000
00001000
01000000
,
00010000
00000000
00100000
00000000
01000000
00000000
10000000
00010000
,
10000000
00100000
10000000
00100000
,
01000000
00000000
00000000
01000000
00000000
00000000
01000000
00000000
,
00001000
00010000
00000100
00010000
,
00000010
00001000
00000010
00000100
,
00000001
00000010
00000001
00000100
,
00001000
00010000
00001000
01001000
,
01010000
00010000
00100000
01000000
,
10000000
01000000
00100000
00001000
,
00010000
00010000
00000010
00000010
,
00001000
00000000
00000000
00001000
00000000
00000000
00001000
00000000
,
00000100
00000010
00000001
00000010
,
00000100
00010000
00001000
00010000
,
00200000
00000000
02300000
00000000
,
03020000
00000000
20030000
00000000
,
31000000
00100000
00010000
01000000
,
00001000
00010000
00000100
00001000
,
00000020
00000000
00000230
00000000
,
00000302
00000000
00002003
00000000
,
00003100
00000010
00000100
00010000
,
00001000
01000000
00010000
01000000
,
00200000
00000000
20300000
00000000
,
30020000
00000000
00230000
00000000
,
01300000
00100000
00001000
00010000
,
00000010
00000100
00000010
00001000
,
00000001
00000000
00000000
00000001
00000000
00000000
00000000
00000000
00001000
00000000
00000000
00001000
00000000
00000000
00000000
00000000
,
00000100
00000000
00000000
00000100
00000000
00000000
00000000
00000000
00010000
00000000
00000000
00000000
00001000
00000000
00000000
00000000
,
00022000
00000000
00000000
00000000
,
00000000
00000000
00000000
00000000
,
00000000
00000000
00000000
00000000
,
00000000
00000000
00000000
00000000
,
00000000
00000000
00000000
00000000
,
00000000
00000000
00000000
00000000
,
00000000
00000000
00000000
00000000
,
00000000
00000000
00000000
00033000
,
00000100
00010000
00000000
00010000
,
00000000
00010000
00000000
00010000
,
00001000
01000000
00000000
01000000
,
00000000
01000000
00000000
00100000
,
10010000
00010000
00000000
01000000
,
01001000
00001000
00000000
00010000
,
00010100
00000000
00001010
00000000
,
00000001
00000001
00000010
00000100
,
00001000
00000000
00000000
00000000
,
00000010
00010000
00001000
00100000
,
00001000
00000000
00010000
00000000
00100000
01000000
00100000
00000000
,
10000000
00010000
00100000
01000000
,
00100000
00000000
00001000
00000000
00010000
00000010
00010000
00000000
,
00001000
00000010
00000100
00000010
,
00000001
00000000
00001000
00000000
00000010
00000100
00000010
00000000
,
00001000
00000100
00010000
00001000
,
01000000
00000000
00010000
00000000
00100000
01000000
00100000
00000000
,
10010000
00010000
01000000
00001000
,
00010000
00000000
00000100
00000000
00001000
00000010
00001000
00000000
,
00000110
00000001
00001000
00000010
,
00000101
00000000
00001000
00000000
00000100
00010000
00000100
00000000
,
00001000
00000010
00001000
00010000
,
01001000
00000000
00001000
00000000
00100000
00000000
01000000
10000000
,
01000000
00000000
00100000
00010000
00100000
00000000
00001000
00000000
,
00010000
00000010
00010000
00000010
00001000
00000100
00001000
00000000
,
00000001
00000000
00000010
00001000
00000000
00000010
00000001
00000000
,
00001001
00000001
00000100
00001000
,
00011000
00000000
00010000
00100000
00000000
00010000
00001000
00000000
,
00010000
00000000
01000000
00000000
10000000
00010000
10000000
00000000
,
00100000
00000000
00100000
01000000
00000000
01000000
00001000
00000000
,
00010000
00000000
00000100
00000000
00001000
00000010
00001000
00000000
,
00000001
00000001
00000000
00001000
00001000
00000000
00000010
00000000
,
00000100
00000000
00000000
00001000
00000000
00000000
00010000
00000000
00000000
00001000
00000000
00000000
00100000
00000000
00000000
00000000
,
02200000
00000000
00000000
00000000
,
00000000
00000000
00000000
00000000
,
03300000
00000000
00000000
00000000
;

//--------------- dance-double - forcednature ----------------
#NOTEDATA:;
#STEPSTYPE:dance-double;
#DESCRIPTION:forcednature;
#DIFFICULTY:Medium;
#METER:13;
#RADARVALUES:0,0,0,0,0;
#CREDIT:forcednature;
#NOTES:
00000000
00000000
00000000
00000000
,
00000000
00000000
00000000
00000000
,
00000000
00000000
00000000
00000000
,
00000000
00000000
00000000
00000000
,
00000000
00000000
00000000
00000000
,
00000000
00000000
00000000
00000000
,
00011000
00000000
01000000
00000000
00010000
00100000
01000000
00000000
,
10000000
00000000
00010000
00000000
01000000
00001000
00010000
00000000
,
00000100
00001000
00000100
00001000
00000001
00000100
00000001
00000100
,
00000010
00000000
00000000
00001000
00000000
00000000
00010000
00000000
00000000
01000000
00000000
00000000
00100000
00000000
00100000
00000000
,
10000000
00000000
11000000
00000000
01000000
00100000
00010000
00000000
,
01000000
00000000
00001000
00000000
00010000
00000100
00001000
00000000
,
00000010
00000000
00010000
00000000
00001000
00000010
00000100
00000000
,
00001000
00000000
00000001
00000000
00000100
00000010
00001000
00000001
,
00000010
00000000
00000100
00000000
00010000
00001000
00100000
00000000
,
00010000
00000000
01000000
00000000
00100000
10000000
00010000
00000000
,
10000000
01000000
10000000
01000000
00100000
00010000
00100000
00010000
,
01000000
00000000
00000000
00001000
00000000
00000000
00010000
00000000
00000100
00000000
00000000
00001000
00000000
00000000
00000010
00000000
,
00000100
00000000
00000000
00001000
00000000
00000000
00010000
00000000
00000000
00001000
00000000
00000000
00100000
00000000
00010000
00000000
,
01000000
00000000
00000000
00100000
00000000
00000000
10000000
00000000
00000000
00010000
00000000
00000000
10000000
00000000
01000000
00000000
,
00010000
00000000
00000000
00010000
00000000
00000000
00010000
00000000
00001000
00000000
00000000
00001000
00000000
00000000
00001000
00000000
,
00000010
00000000
00000000
00000010
00000000
00000000
00000010
00000000
00000100
00000000
00000000
00000100
00000000
00000000
00000100
00000000
,
00001000
00000000
00000000
00000001
00000000
00000000
00000100
00000000
00000000
00000001
00000000
00000000
00000010
00000000
00000100
00000000
,
00010000
00000000
00000000
00001000
00000000
00000000
01000000
00000000
00000000
00001000
00000000
00000000
00010000
00000000
00100000
00000000
,
01000000
00000000
00000000
01000000
00000000
00000000
01000000
00000000
00010000
00000000
00000000
00010000
00000000
00000000
00010000
00000000
,
10000000
00000000
00000000
10000000
00000000
00000000
10000000
00000000
01000000
00000000
00100000
00000000
00010000
00000000
01000000
00000000
,
00010000
00000000
00000000
00100000
00000000
00000000
00001000
00000000
00000000
00010000
00000000
00000000
00000010
00000000
00001000
00000000
,
00000100
00000000
00000000
00000010
00000000
00000000
00000100
00000000
00000000
00001000
00000000
00000000
00000001
00000000
00000100
00000000
,
00000010
00000000
00000000
00000010
00000000
00000000
00000010
00000000
00001000
00000000
00000000
00001000
00000000
00000000
00001000
00000000
,
00010000
00000000
00000000
00010000
00000000
00000000
00010000
00000000
01000000
00000000
00000000
01000000
00000000
00000000
01000000
00000000
,
00100000
10000000
00100000
10000000
01000000
10000000
01000000
10000000
,
00010000
00100000
00010000
00100000
00001000
00010000
00001000
00010000
,
00000010
00000000
00000000
00001010
00000000
00000000
00000001
00000000
00000010
00000000
00000000
00000110
00000000
00000000
00000100
00000000
,
00010000
00000000
00000000
00001000
00000000
00000000
01000000
00000000
00010000
00000000
00010000
00000000
10000000
00000000
00010000
00000000
,
00200000
00000000
00000000
00000000
,
00000000
00000000
00000000
00000000
,
02300000
00000000
00000000
00000000
,
00000000
00000000
00000000
00000000
,
23000000
00000000
00000000
00000000
,
00000000
00000000
00000000
00000000
,
30020000
00000000
00000000
00000000
,
00000000
00000000
00000000
00030000
,
01002000
00010000
00000000
00010000
,
00000000
00100000
00000000
00100000
,
00023000
00000100
00000000
00001000
,
00000000
00001000
00000000
00030010
,
00001100
00000000
00001000
00000000
00000010
00000000
00010000
00001000
,
00010000
00000000
00100000
00000000
01000000
00000000
00010000
10000000
,
00010000
00000000
00100000
01000000
00100000
00000000
00001000
00010000
,
00000100
00001000
00000010
00010000
00001000
00000010
00000001
00001000
,
00000020
00000000
00000000
00000030
,
00000100
00001000
00000100
00000001
00000010
00000100
00010000
00001000
,
01000000
00010000
00100000
00001000
00010000
00100000
01000000
00010000
,
10000000
01000000
00010000
00001000
01000000
00010000
00100000
01000000
,
00010000
00001000
00000100
00000010
00001000
00000001
00000010
00000100
,
00000010
00000001
00000100
00001000
00010000
01000000
00100000
00001000
,
00010000
00100000
10000000
00010000
10000000
01000000
00010000
00001000
,
01000000
00010000
00100000
00001000
00010000
00000010
00001000
00000100
,
00000010
00001000
00000010
00000001
00000100
00001000
00010000
00100000
,
01000000
00010000
00100000
00010000
00001000
00000100
00001000
00000010
,
00010000
00001000
00000010
00000100
00001000
00000001
00000100
00001000
,
00010000
01000000
00100000
00001000
00010000
00100000
10000000
00010000
,
00100000
01000000
00100000
00001000
00010000
00010000
00100000
01000000
,
00010000
01000000
00010000
00100000
00010000
01000000
00010000
00100000
,
00001000
00010000
00000100
00010000
00001000
00010000
00000010
00010000
,
00001000
00000010
00001000
00000010
00000001
00000010
00000001
00000010
,
00000100
00001000
00000001
00000100
00001000
00010000
02000000
00000000
,
03100000
00001000
00010000
00100000
00010000
00001000
00100000
00000000
,
01100000
00000000
01000000
00000000
00010000
00001000
00000100
00000000
,
00000010
00010000
00001000
00000010
00001000
00010000
00000010
00000000
,
00000110
00000000
00000100
00000000
00001000
00010000
01000000
00000000
,
00100000
00001000
00010000
01000000
00100000
00001000
00010000
01000000
,
00100000
00001000
00010000
00000010
00000100
00001000
00000100
00000001
,
00000010
00000010
00000100
00010000
00010000
00001000
01000000
01000000
,
00010000
00000000
00000000
00100000
00000000
00000000
01000000
00000000
00000000
00010000
00000000
00000000
00001000
00000000
00000100
00000000
,
00000220
00000000
00000000
00000000
,
00000000
00000000
00000000
00000000
,
00000330
00000000
00000000
00000000
;

//--------------- dance-double - forcednature ----------------
#NOTEDATA:;
#STEPSTYPE:dance-double;
#DESCRIPTION:forcednature;
#DIFFICULTY:Hard;
#METER:16;
#RADARVALUES:0,0,0,0,0;
#CREDIT:forcednature;
#NOTES:
00000000
00000000
00000000
00000000
,
00000000
00000000
00000000
00000000
,
00000000
00000000
00000000
00000000
,
00000000
00000000
00000000
00000000
,
00000000
00000000
00000000
00000000
,
00000000
00000000
00000000
00000000
,
00011000
00000000
00010100
00000000
00000100
00001000
00000010
00000000
,
00000100
00001000
00000100
00000001
00000010
00000100
00010000
00010000
,
00001000
00001000
01000000
01000000
00010000
00010000
00100000
00100000
,
01000000
00000000
00000000
10000000
00000000
00000000
01000000
00000000
00000000
00010000
00000000
00000000
00001000
00010000
00001000
00010000
,
00000200
00001000
00000010
00000001
,
00000310
00000000
00000000
00000100
00000000
00000000
00010000
00000000
00001000
00000000
00000000
01000000
00000000
00000000
00100000
00000000
,
10000000
00000000
00000000
10000000
00000000
00000000
01000000
00000000
00000000
01000000
00000000
00000000
00010000
00000000
00001000
00000000
,
00100000
00000000
00000000
00100000
00000000
00000000
00001000
00000000
00000000
00010000
00000000
00000000
00000010
00000000
00000100
00000001
,
00000200
00001000
00000010
00000001
,
00000310
00000000
00000000
00000100
00000000
00000000
00001000
00000000
00010000
00000000
00000000
01000000
00000000
00000000
00100000
00000000
,
00010000
01000000
00010000
00100000
00001000
00010000
00000100
00010000
,
00001000
00000000
00000000
00000010
00000000
00000000
00000001
00000000
00000100
00000010
00000000
00000010
00001000
00000000
00000100
00010000
,
00000100
00001000
00010000
00100000
00010000
00001000
00000100
00010000
,
00001000
01000000
00010000
00001000
00000010
00001000
00010000
01000000
,
00100000
00000000
00000000
00100000
00000000
00000000
10000000
00000000
01000000
00000000
00000000
01000000
00000000
00000000
00010000
00000000
,
00001000
00000000
00000000
00001000
00000000
00000000
00000100
00000000
00000001
00001000
00000000
00000001
00001000
00000000
00000100
00000000
,
00000010
00000100
00001000
00010000
00100000
01000000
00100000
00010000
,
00001000
01000000
00010000
00001000
00000010
00000100
00000010
00001000
,
00010000
00000000
00000000
00010000
00000000
00000000
01000000
00000000
00100000
00000000
00000000
00100000
00000000
00000000
10000000
00000000
,
01000000
00000000
00000000
00010000
00000000
00000000
00001000
00000000
00000100
00000000
00000100
00000000
00000001
00000000
00000010
00000100
,
00000010
00001000
00010000
00100000
01000000
00001000
00010000
00000100
,
00000010
00001000
00010000
00100000
01000000
00001000
00010000
00000100
,
00000010
00000000
00000000
00001000
00000000
00000000
00010000
00000000
00100000
00000000
00000000
00010000
00000000
00000000
00001000
00000000
,
00010000
00000000
00000000
01000000
00000000
00000000
10000000
00000000
00100000
00000000
00100000
00000000
00100000
00000000
01000000
00010000
,
01000000
00001000
00010000
00001000
00000010
00001000
00010000
00010000
,
00000100
00000000
00010000
00000000
00001000
00000000
00010000
00000000
00100000
00000000
00010000
00000000
00001000
00000000
00001000
01000000
,
00010000
00000000
00000000
00110000
00000000
00000000
11000000
00000000
10000000
00010000
00000000
00010000
01000000
00000000
00001000
00010000
,
00001000
00000000
00010000
00000100
00000000
00001000
00000100
00000000
00000010
00000001
00001000
00000001
00000100
00000000
00000010
00010000
,
00002000
00000000
00000000
00000000
,
00000000
00000000
00000000
00000000
,
00203000
00000000
00000000
00000000
,
00000000
00000000
00000000
00000000
,
02300000
00000000
00000000
00000000
,
00000000
00000000
00000000
00000000
,
23000000
00000000
00000000
00000000
,
00000000
00000000
00000000
00000000
00000000
00000000
00000000
00000000
00000000
00000000
00000000
00000000
00000000
00000000
30010000
10000000
,
02000000
00100000
00000000
00010000
,
00000000
00100000
00000000
10000000
,
03200000
00001000
00000000
00010000
,
00000000
00000000
00000000
00000000
01000000
00000000
00000000
00000000
00000000
00000000
00000000
00000000
00310000
00000000
00100000
00001000
,
00020000
00000000
00000010
00000000
00001000
00000000
00030100
00010000
,
00012000
00000000
00100000
00000000
00010000
00000000
01003000
00001000
,
00021000
00000000
00000000
00000000
00030100
00000000
00010000
00000010
00002000
00000000
00000000
00000000
00003100
00000000
00000010
00000001
,
00001000
00000010
00001000
00000010
00010000
00001000
00100000
00000000
00010000
10000000
01000000
00100000
00010000
01000000
00001000
00010000
,
00002000
00000000
00000000
00003000
,
00000010
00000000
00000000
00000010
00000100
00000000
00001000
00000000
00000000
00001000
00000001
00000000
00000100
00000000
00000000
00000100
,
00001000
00000000
00010000
00000000
00000000
00010000
00100000
00000000
01000000
00000000
00000000
00010000
00000000
00000000
10000000
00000000
,
01000000
00000000
00000000
01000000
00010000
00000000
00001000
00000000
00000000
00001000
00100000
00000000
00010000
00000000
00000000
00010000
,
01000000
00000000
00001000
00000000
00000000
00001000
00010000
00000000
00000100
00000000
00000000
00001000
00000010
00000000
00000100
00000001
,
00000100
00000000
00000000
00000100
00001000
00000000
00010000
00000000
00000000
00010000
00000010
00000000
00001000
00000000
00000000
00001000
,
00000100
00000000
00010000
00000000
00000000
00010000
00001000
00000000
01000000
00000000
00000000
00010000
00000000
00000000
00100000
00000000
,
01000000
00000000
00000000
01000000
10000000
00000000
00010000
00000000
00000000
00010000
01000000
00000000
00001000
00000000
00000000
00001000
,
00010000
00000000
00000100
00000000
00000000
00000100
00001000
00000000
00000010
00000000
00000010
00000000
00000100
00000000
00001000
00010000
,
00001000
00000000
00100000
00010000
00000000
00010000
01000000
00000000
01000000
00100000
00000000
00100000
10000000
00000000
10000000
01000000
,
00000000
01000000
00010000
00000000
00010000
00001000
00000000
00001000
00000100
00000000
00000000
00000001
00000000
00000000
00000010
00000000
,
00000110
00000000
00000100
00010000
00000000
00010000
00001000
00000000
00001000
01000000
00000000
01000000
00010000
00000000
00010000
00100000
,
00000000
00100000
01000000
00000000
01000000
00010000
00000000
00010000
00001000
00000000
00001000
00000000
00000100
00000000
00000001
00000010
,
00000001
00000100
00000001
00000010
00001000
00010000
00100000
00010000
,
00001000
00000000
01000000
00000000
00010000
00000000
01000000
00000000
00100000
00000000
10000000
00000000
00010000
00000000
00100000
01000000
,
00100000
00100000
00001000
00001000
00010000
00010000
00000010
00000010
,
00000100
00000001
00000100
00000000
00000010
00010000
00000000
00010000
00001000
00000000
00001000
00100000
00010000
00100000
01000000
00000000
,
10000000
01000000
00100000
00010000
00100000
00000000
00001000
00010000
00000100
00001000
00000100
00000000
00000010
00000001
00001000
00000001
,
00000100
00000000
00000000
00001000
00000000
00000000
00010000
00000000
01000000
00000000
01000000
00000000
00100000
00010000
00100000
00000000
,
00001000
00010000
00000100
00001000
00000010
00000000
00010000
00001000
01000000
00010000
00100000
00000000
01000000
10000000
01000000
00100000
,
00010000
00000000
01000000
00000000
00001000
00000000
00010000
00000000
00000100
00000000
00001000
00000010
00000100
00000000
00000001
00000000
,
00000010
00000100
00001000
00000100
00010000
00000000
00010000
00001000
01000000
00010000
00100000
00000000
00100000
01000000
10000000
01000000
,
00100000
00000000
00010000
00000000
01000000
00000000
00001000
00000000
00010000
00000100
00010000
00000000
00001000
00000000
00000100
00000000
,
00000001
00000010
00000100
00000010
00001000
00000000
00010000
00100000
01000000
00100000
10000000
00000000
00010000
10000000
01000000
10000000
,
00100000
01000000
00000000
01000000
00001000
00000000
00001000
00010000
00000000
00010000
00000100
00000000
00000010
00000000
00000110
00000000
,
00002002
00000000
00000000
00000000
,
00000000
00000000
00000000
00000000
,
00003003
00000000
00000000
00000000
;
