#VERSION:0.83;
#TITLE:STARLIGHT DANCEHALL;
#SUBTITLE:;
#ARTIST:P*Light;
#TITLETRANSLIT:;
#SUBTITLETRANSLIT:;
#ARTISTTRANSLIT:;
#GENRE:HAPPY EMOTION;
#CREDIT:;
#MUSIC:STARLIGHT DANCEHALL.ogg;
#BANNER:STARLIGHT DANCEHALL.png;
#BACKGROUND:STARLIGHT DANCEHALL-bg.png;
#CDTITLE:./CDTitles/bm IIDX 23 copula.png;
#SAMPLESTART:89.104;
#SAMPLELENGTH:15.000;
#SELECTABLE:YES;
#OFFSET:1.729;
#BPMS:0.000=177.000;
#STOPS:;
#TIMESIGNATURES:0.000=4=4;
#BGCHANGES:4.000=STARLIGHT DANCEHALL.mp4=1.000=0=0=0=StretchNoLoop====,
99999.000=-nosongbg-=1.000=0=0=0=StretchNoLoop====
;
#FGCHANGES:;

//--------------- dance-single - forcednature ----------------
#NOTEDATA:;
#STEPSTYPE:dance-single;
#DESCRIPTION:forcednature;
#DIFFICULTY:Beginner;
#METER:3;
#RADARVALUES:0,0,0,0,0;
#CREDIT:forcednature;
#NOTES:
0000
0000
0000
0000
,
0000
0000
0000
0000
,
0000
0000
0000
0000
,
0000
0000
0000
0000
,
0000
0000
0000
0000
,
0000
0000
0000
0000
,
0000
0000
0000
0000
,
1000
0000
0000
0000
,
1000
0000
0000
0000
,
0001
0000
0000
0000
,
0100
0000
0000
0000
,
1001
0000
0000
0000
,
0000
0000
0000
0000
,
0110
0000
0000
0000
,
0000
0000
0000
0000
,
1000
0000
0000
0000
,
0001
0000
0000
0000
,
0100
0000
0100
0000
,
0010
0000
0000
0000
,
1000
0000
0000
0000
,
0001
0000
0000
0000
,
0010
0000
0000
0000
,
0001
0000
0000
0000
,
1000
0000
0000
0000
,
0010
0000
0000
0000
,
1000
0000
1000
0000
,
0000
0000
1000
0000
,
0100
0000
0000
0000
,
0010
0000
0000
0000
,
0001
0000
0000
0000
,
1000
0000
0000
0000
,
0001
0000
0000
0000
,
0100
0000
0000
0000
,
0010
0000
0010
0000
,
0010
0000
0000
0000
,
1000
0000
0000
0000
,
0100
0000
0000
0000
,
0010
0000
0001
0000
,
0010
0000
0000
0000
,
0001
0000
0000
0000
,
0100
0000
0000
0000
,
0010
0000
1000
0000
,
0010
0000
0000
0000
,
1000
0000
0000
0000
,
0100
0000
0000
0000
,
0010
0000
0000
0000
,
0001
0000
0000
0000
,
1000
0000
0000
0000
,
0010
0000
0000
0000
,
0100
0000
0100
0000
,
0001
0000
0000
0000
,
1000
0000
0000
0000
,
0000
0000
0000
0000
,
0100
0000
0000
0000
,
0000
0000
0000
0000
,
0010
0000
0000
0000
,
0000
0000
0000
0000
,
0001
0000
0000
0000
,
0100
0000
0000
0000
,
0010
0000
0000
0000
,
0010
0000
0000
0000
,
1000
0000
0000
0000
,
1000
0000
0000
0000
,
0001
0000
0001
0000
,
0010
0000
0010
0000
,
0100
0000
1000
0000
,
0001
0000
0000
0000
,
1001
0000
0000
0000
,
1000
0000
0010
0000
,
1000
0000
0000
0000
,
0100
0000
0000
0000
,
1001
0000
0000
0000
,
0001
0000
0010
0000
,
0001
0000
0000
0000
,
0100
0000
0100
0000
,
0010
0000
0000
0000
,
1000
0000
0010
0000
,
1000
0000
0000
0000
,
0001
0000
0010
0000
,
0001
0000
0000
0000
,
0100
0000
0000
0000
,
0010
0000
0010
0000
,
0010
0000
0000
0000
,
1001
0000
0000
0000
;

//--------------- dance-single - forcednature ----------------
#NOTEDATA:;
#STEPSTYPE:dance-single;
#DESCRIPTION:forcednature;
#DIFFICULTY:Easy;
#METER:6;
#RADARVALUES:0,0,0,0,0;
#CREDIT:forcednature;
#NOTES:
0000
0000
0000
0000
,
0000
0000
0000
0000
,
0000
0000
0000
0000
,
0000
0000
0000
0000
,
0000
0000
0000
0000
,
0000
0000
0000
0000
,
0000
0000
0000
0000
,
1000
0000
0000
0000
,
1000
0000
0100
0000
,
0010
0000
0000
0000
,
0001
0000
1000
1000
,
0002
0000
1000
0000
,
1000
0000
1003
0000
,
2000
0000
0001
0000
,
0001
0000
3001
0000
,
1000
0000
0010
0000
,
0100
0000
0001
0000
,
0010
0000
0010
0000
,
2002
0000
3003
0000
,
1000
0000
0100
0000
,
1000
0000
0000
0000
,
0001
0000
0001
0000
,
0100
0000
0100
0000
,
0001
0000
0010
0000
,
0001
0000
0000
0000
,
1000
0000
0010
0000
,
0000
0000
0010
0000
,
0100
0000
0100
0000
,
0001
0000
0000
0000
,
0010
0000
0100
0000
,
0010
0000
0100
0000
,
1000
0000
1000
0000
,
0001
0000
0000
0000
,
0100
0000
0010
0000
,
1000
0000
0000
0000
,
0001
0000
0001
0000
,
0010
0000
0000
0000
,
0100
0000
1000
0000
,
0100
0000
0000
0000
,
1000
0000
1000
0000
,
0010
0000
0000
0000
,
0100
0000
0001
0000
,
0100
0000
0000
0000
,
1001
0000
0000
0000
,
1000
0000
0000
0000
,
0100
0000
0010
0000
,
0001
0000
0000
0000
,
0100
0000
0001
0000
,
0100
0000
0000
0000
,
0010
0000
0010
0000
,
0010
0000
0000
0000
,
1000
0000
0000
0000
,
0100
0000
0000
0000
,
0010
0000
0000
0000
,
0001
0000
1000
0000
,
0001
0000
0000
0000
,
0100
0000
0000
0000
,
0010
0000
0000
0000
,
2002
0000
3003
0000
,
2000
0000
0100
0000
,
0100
0000
3100
0000
,
0002
0000
0100
0000
,
0100
0000
0103
0000
,
1001
0000
0010
0000
,
1001
0000
0100
0000
,
0010
0010
0010
0000
,
0220
0000
0330
0000
,
1000
0000
0100
0000
,
1000
0000
0010
0000
,
0100
0001
0100
0000
,
0001
0100
0001
0000
,
0010
0000
0100
0000
,
1000
0000
0001
0000
,
0100
0010
0100
0000
,
0010
0100
0010
0000
,
1000
0000
1000
0000
,
0100
0010
0100
0000
,
0010
0000
0010
0000
,
0001
1000
0001
0000
,
0100
0000
0100
0000
,
0010
1000
0010
0000
,
1000
0000
0001
0000
,
0010
0100
0010
0000
,
1001
0000
0000
0000
;

//--------------- dance-single - forcednature ----------------
#NOTEDATA:;
#STEPSTYPE:dance-single;
#DESCRIPTION:forcednature;
#DIFFICULTY:Medium;
#METER:11;
#RADARVALUES:0,0,0,0,0;
#CREDIT:forcednature;
#NOTES:
0000
0000
0000
0000
,
0000
0000
0000
0000
,
0000
0000
0000
0000
,
0000
0000
0000
0000
,
0000
0000
0000
0000
,
0000
0000
0000
0000
,
0000
0000
0000
0000
,
0101
1000
0000
0010
,
1000
0001
0000
0010
,
0100
1000
0000
0001
,
1001
0000
0110
1001
,
0102
0100
0100
0100
,
0100
0100
0100
1003
,
2100
0100
0100
0100
,
0100
0100
0100
3001
,
1001
0001
0100
0010
,
1001
1000
0100
0010
,
0101
1000
1100
0001
,
2002
0000
3003
0010
,
1001
0000
0001
0000
0100
0010
1000
0000
,
0001
0000
0010
0000
0100
1000
0001
0000
,
0101
0000
0001
1000
0010
0100
0001
0000
,
1000
0100
1000
0000
0001
0100
0001
0000
,
1001
0000
1000
0000
0001
0100
1000
0000
,
0100
0000
0001
0000
0010
0100
1000
0000
,
2010
0000
3100
0000
0001
0010
0100
0000
,
0010
0000
0000
0010
0000
0000
0010
0000
0100
0000
0000
0000
1001
0000
0000
0000
,
0001
0000
0000
0100
0000
0000
0001
0000
0000
0100
0000
0000
0001
0000
0000
0000
,
1000
0000
0000
0100
0000
0000
1000
0000
0000
0100
0000
0000
1000
0000
0000
0000
,
0010
0100
0001
0010
0100
1000
0010
0000
,
1000
0100
1000
0000
0001
0100
0001
0000
,
1001
0000
0000
1000
0000
0000
1000
0000
0000
1000
0000
0000
1000
0000
0000
0000
,
1001
0000
0000
0001
0000
0000
0001
0000
0000
0001
0000
0000
0001
0000
0000
0000
,
0100
0001
0100
0001
1000
0100
1000
0100
,
0020
0030
0100
0100
,
1001
0000
0001
0100
0010
1000
0001
0000
,
0110
0000
1000
0100
0010
0001
0100
0000
,
0010
0010
0100
0100
,
0001
1000
0001
1000
0001
0000
0000
0000
,
1100
0000
0001
0100
0010
0100
0001
0000
,
0101
0000
1000
0100
0010
0100
1000
0000
,
0001
0001
1000
1000
,
0010
0100
0010
0100
0010
0000
0100
0000
,
0102
1000
0010
1003
,
0001
0010
0100
1000
0001
0000
1000
0000
,
2100
0001
0010
3001
,
1000
0010
0100
0001
1000
0000
0001
0000
,
0101
0000
1000
0100
1000
0000
0010
0000
,
1100
0000
0001
0100
0001
0000
0010
0000
,
0012
0103
2010
3100
,
2002
0000
3003
0000
,
0001
0100
0001
0000
,
1000
0000
0100
0000
1000
0100
1000
0000
,
0010
1000
0010
0000
,
0100
0001
0100
0000
0001
0100
0001
0000
,
0010
0000
0100
0000
0010
0100
0010
0000
,
0001
0000
1000
0000
0001
1000
0001
0000
,
1000
0000
0010
0000
1000
0010
1000
0000
,
0200
0000
0010
0310
,
2001
0100
0001
0100
,
0001
0100
0001
3010
,
1002
0100
1000
0100
,
1000
0100
1000
0013
,
1001
0000
0000
0000
0001
0000
0000
0000
0100
0000
0000
0100
0000
0000
0010
0000
,
1000
0000
0000
0000
0100
0000
0000
0000
0010
0000
0000
0010
0000
0000
0001
0000
,
0100
0001
0100
0001
1000
0100
1000
0100
,
0020
0000
0030
0100
,
1001
0000
0000
0001
0000
0000
0100
0000
0000
0001
0000
0000
1000
0000
0000
0000
,
0010
0000
0000
1000
0000
0000
0001
0000
0000
1000
0000
0000
0100
0000
0000
0000
,
0010
0000
0000
0100
0000
0000
1000
0000
0000
0001
0000
0000
0100
0000
0000
0000
,
0010
0000
0000
1000
0000
0000
0001
0000
0000
0010
0000
0000
0100
0000
0000
0000
,
1001
0000
0000
1000
0000
0000
0010
0000
0000
1000
0000
0000
0001
0000
0000
0000
,
0010
0000
0000
0001
0000
0000
0100
0000
0000
1000
0000
0000
0100
0000
0000
0000
,
0010
0000
0000
1000
0000
0000
0001
0000
0000
0010
0000
0000
0100
0000
0000
0000
,
0010
0000
0000
0010
0000
0000
0010
0000
0000
0010
0000
0000
0100
0000
0000
0000
,
1001
0000
0000
0001
0000
0000
0100
0000
0000
0001
0000
0000
1000
0000
0010
0000
,
1000
0000
0000
0100
0000
0000
0010
0000
0000
0001
0000
0000
0100
0000
0010
0000
,
0100
0000
0000
0001
0000
0000
0010
0000
0000
0100
0000
0000
1000
0000
0001
0000
,
1000
0000
0000
0100
0000
0000
0010
0000
0000
0001
0000
0000
0100
0000
0000
0000
,
0010
1000
0010
1000
0010
1000
0010
0000
,
0100
0001
0100
0001
0100
0001
0100
0000
,
0001
0010
0001
0010
0100
1000
0100
1000
,
0010
0000
0000
0100
0000
0000
0001
0000
0000
1000
0000
0000
0100
0000
0010
0000
,
0100
0000
0000
0000
;

//--------------- dance-single - forcednature ----------------
#NOTEDATA:;
#STEPSTYPE:dance-single;
#DESCRIPTION:forcednature;
#DIFFICULTY:Hard;
#METER:14;
#RADARVALUES:0,0,0,0,0;
#CREDIT:forcednature;
#NOTES:
0000
0000
0000
0000
,
0000
0000
0000
0000
,
0000
0000
0000
0000
,
0000
0000
0000
0000
,
0000
0000
0000
0000
,
0000
0000
0000
0000
,
0000
0000
0000
0000
,
0101
0000
0001
0000
0000
1000
0100
0000
,
1000
1000
0010
0000
0000
0100
0001
0000
,
0010
0000
0100
0000
0000
0010
0001
1000
,
1001
0000
0110
1001
,
2100
0010
0100
0010
,
0100
0010
0100
3001
,
0102
0010
0100
0010
,
0100
0010
0100
1003
,
0110
0000
0001
1000
0100
0010
0100
1000
,
1001
0000
0001
0100
0010
1000
0001
0010
,
0100
1000
0100
0000
0010
0000
0001
0000
1000
0010
1000
0010
0100
0001
0100
0001
,
0200
0000
0000
0000
0310
0000
1000
0001
,
1001
0000
0000
0000
0001
0000
1000
0000
0010
0000
0000
0100
0000
0000
0010
0000
,
1000
0000
0000
0000
0100
0000
1000
0000
0001
0000
0000
0010
0000
0000
0001
0000
,
1000
0100
1000
0010
0100
0001
0010
0000
,
0100
0000
0001
0000
0100
0000
1000
0000
0100
0000
0010
0001
0000
0000
0010
0000
,
0100
0000
0000
0000
0110
0000
0000
0000
1000
0000
0000
0001
0100
0000
0010
0000
,
1000
0000
0000
0000
1001
0000
0000
0000
0001
0000
0000
0010
0001
0000
0100
0000
,
0102
0000
1000
0000
0013
0100
1000
0000
,
0010
0000
0000
0010
0000
0000
1000
0000
0001
0000
0010
0000
0100
0000
0100
0000
,
1100
0000
0000
1000
0000
0000
0010
0000
0000
0100
0000
0000
0001
0000
0010
0001
,
0010
0000
0000
0100
0000
0000
1000
0000
0000
0001
0000
0000
0100
0000
0010
1000
,
0010
0100
0001
0001
0010
0100
1000
0000
,
0001
0000
0100
0000
1000
0000
0100
0000
0001
0000
1000
0010
0000
0000
1000
0000
,
0100
0001
0100
0001
0100
1000
0100
1000
,
0010
0001
0010
0001
0010
1000
0010
1000
,
0001
0100
0001
0000
1000
0000
0010
0000
1000
0100
1000
0000
0001
0000
0010
0000
,
0200
0000
0300
0000
1000
0001
0100
0000
,
0001
1000
0100
0001
0100
0010
0001
0000
,
0100
0010
0001
0010
1000
0001
0010
0000
,
0011
0011
1100
1100
,
1000
0010
0100
0001
0100
0000
0010
0000
,
1000
0100
0001
0100
1000
0010
1000
0000
,
0001
0100
1000
0100
0010
1000
0001
0000
,
0101
0101
1010
1010
,
0001
0010
0100
1000
0020
0000
0130
0000
,
1001
0101
0110
1010
,
1000
0001
0100
0001
0020
0000
0130
0000
,
1001
1100
0110
0011
,
0001
0100
1000
0100
0020
0000
1030
0000
,
0001
0100
0001
0100
0010
1000
0010
1000
,
0100
0010
0100
0010
0001
1000
0001
1000
,
0100
1000
0100
0000
0010
0000
0001
0000
0100
0001
0100
0000
0010
0000
1000
0000
,
0200
0010
0020
0330
,
0002
0000
0000
0000
0003
0100
0000
0001
,
2000
0000
3000
0020
0000
0000
0030
0000
,
2000
0000
3200
0000
0300
0010
0000
0001
,
0200
0000
0300
0020
0000
0030
2000
0000
,
3002
0000
0000
0000
0003
0010
0000
0100
,
2000
0000
3000
0020
0000
0000
0030
0000
,
0002
0000
0023
0000
0030
0100
0000
0001
,
0010
0010
0010
0000
0100
0000
0100
0000
,
2001
0100
0001
0010
,
0001
0100
0001
3010
,
1002
0100
1000
0010
,
1000
0100
1000
0013
,
0001
0000
0100
0000
0010
0000
1000
0000
0100
0000
0000
0100
0000
0000
0100
0000
,
0010
0000
0001
0000
1000
0000
0010
0000
0100
0001
0000
0100
0000
0000
0100
0000
,
0010
0000
1000
0000
0001
0000
0010
0000
0001
0100
0001
0000
1000
0100
1000
0000
,
0020
0000
0000
0000
0030
0000
0100
0100
,
1001
0000
0000
0001
0000
0000
0100
0000
0000
0010
0000
0000
1000
0000
0100
0000
,
0001
0000
0000
0100
0000
0000
0010
0000
0000
0001
0000
0000
0100
0001
1000
0010
,
0100
0000
0000
0010
0000
0000
1000
0000
0000
0001
0000
0000
1000
0100
0010
0001
,
1000
0000
0000
0010
0000
0000
0100
0000
0000
0001
0000
0000
0010
0000
0000
0000
,
1001
0000
0000
1000
0000
0000
0001
0000
0000
0100
0000
0000
1000
0000
0100
0000
,
0001
0000
0000
0010
0000
0000
0001
0000
0000
1000
0000
0000
0100
1000
0001
0010
,
0100
0000
0000
1000
0000
0000
0010
0000
0000
1000
0000
0000
0001
0100
0010
1000
,
0001
0000
0000
0011
0000
0000
0110
0000
0000
1100
0000
0000
0010
0000
0000
0000
,
1001
0000
0000
0001
0010
0000
0100
0000
1000
0010
0000
0000
1000
0100
0010
0001
,
0100
0000
0000
0010
1000
0000
0001
0000
0010
0001
0000
0000
0100
0001
1000
0010
,
0100
0000
0000
0001
1000
0000
0100
0000
1000
0010
0000
0000
0100
0000
1000
0000
,
0100
0000
0000
0001
0010
0000
0100
0000
1000
0010
0000
0000
0200
0000
0000
0000
,
0301
1000
0100
0010
1000
0010
0001
1000
,
1100
0100
0010
0001
0100
1000
0100
0001
,
1000
0010
1000
0000
0001
0000
0100
0000
0001
0010
0001
0000
1000
0000
0100
0000
,
0001
0000
0000
0100
0000
0000
0010
0000
0000
0001
0000
0000
0100
0000
1000
0000
,
0100
0000
0000
0000
;

//--------------- dance-single - forcednature ----------------
#NOTEDATA:;
#STEPSTYPE:dance-single;
#DESCRIPTION:forcednature;
#DIFFICULTY:Challenge;
#CREDIT:forcednature;
#METER:17;
#RADARVALUES:0,0,0,0,0;
#NOTES:
0000
0000
0000
0000
,
0000
0000
0000
0000
,
0000
0000
0000
0000
,
0000
0000
0000
0000
,
0000
0000
0000
0000
,
0000
0000
0000
0000
,
0000
0000
0000
0000
,
1200
0000
0301
0000
0100
1000
0010
0000
,
0001
0010
1000
0000
0001
0100
1000
0000
,
0101
0000
0001
0000
1000
0010
0001
0000
,
2010
0000
3100
0100
0110
0000
1001
0000
,
0001
0100
0010
0100
1000
0100
0010
0100
,
0001
0100
1000
0100
0001
0000
1001
0000
,
1000
0100
0010
0100
0001
0100
0010
0100
,
1000
0100
0001
0100
0010
0000
1001
0000
,
0001
0000
0010
0000
1000
0000
0010
0000
0001
0000
0010
0000
0100
0000
0010
0001
,
1000
0000
0010
0000
0001
0000
0010
0000
1000
0000
0010
0000
0100
0000
0010
1000
,
0001
0000
0010
0001
0010
0000
0100
0010
0100
1000
0100
1000
0001
0010
0100
1000
,
0020
0000
0000
0000
0130
0000
0110
0010
,
1001
0000
1000
0000
0100
0000
0010
0000
0100
1000
0000
0100
1000
0000
0001
0000
,
0010
0000
0001
0000
1000
0000
0010
0000
0100
0001
0000
0100
0001
0000
0010
0000
,
0110
0000
0100
1000
0010
0000
0100
0001
0010
0000
0100
1000
0020
0000
0000
0000
,
0130
0000
1000
0000
0100
0000
0001
0000
1000
0000
1000
0010
0000
0000
0100
0000
,
1001
0000
0001
0000
0100
0000
0010
0000
0100
0001
0000
0100
0001
0000
1000
0000
,
0010
0000
1000
0000
0001
0000
0010
0000
0100
1000
0000
0100
1000
0000
0010
0000
,
0210
0000
1300
0000
0100
0001
0011
0000
,
1100
0000
0000
1100
0000
0000
0001
0000
0010
0100
0000
0100
0010
0000
0010
0000
,
0001
1000
0000
0010
1000
0000
0001
1000
0000
0010
1000
0000
0100
0000
0010
0100
,
1000
0001
0000
0010
0001
0000
1000
0001
0000
0010
0001
0000
0100
0000
0010
0100
,
0001
0000
0000
0000
0000
0000
0000
0000
0000
0000
0000
0000
0000
0000
0000
0000
0000
0000
0000
0000
0000
0000
0000
0000
0020
0000
0000
0000
0000
0000
0000
0000
0000
0000
0000
0000
0000
0000
0000
0000
0000
0000
0000
0000
0000
0000
0000
0000
1000
0000
0000
0000
0000
0000
0000
0000
0000
0000
0000
0000
0000
0000
0000
0000
0000
0000
0000
0000
0000
0000
0000
0000
1000
0000
0000
0000
0000
0000
0000
0000
0000
0000
0000
0000
0000
0000
0000
0000
0000
0000
0000
0000
0000
0000
0000
0000
0100
0000
0000
0000
0000
0000
0000
0000
0000
0000
0000
0000
0000
0000
0000
0000
0000
0000
0000
0000
0000
0000
0000
0000
0100
0000
0000
0000
0000
0000
0000
0000
0000
0000
0000
0000
0000
0000
0000
0000
0000
0000
0000
0000
0000
0000
0000
0030
0002
0000
0000
0000
0000
0000
0000
0000
0000
0000
0000
0000
0000
0000
0000
0000
0000
0000
0000
0000
0000
0000
0000
0000
0000
0000
0000
0000
0000
0000
0000
0000
0000
0000
0000
0000
0000
0000
0000
0000
0000
0000
0000
0000
0000
0000
0000
0000
,
0103
0000
1000
0000
0100
0000
0001
0000
0010
0000
0010
0100
0000
0000
0010
0000
,
1001
0000
1000
0100
0000
0010
0100
0000
1000
0010
0000
0100
0010
0000
0100
0001
,
1000
0000
0001
0010
0000
0100
0010
0000
0001
0100
0000
0010
0100
0000
0001
1000
,
0010
0100
0010
0100
0001
0100
0010
0100
0001
1000
0010
1000
0001
0010
0100
1000
,
0002
0000
0000
0000
0000
0000
0003
0000
0100
0010
0100
0010
0100
0000
0000
0000
,
0001
0000
1000
0100
0001
0000
0100
0000
1000
0000
0010
0000
0110
0000
0000
0000
,
1000
0000
0001
0100
1000
0000
0100
0000
0001
0000
0010
0000
0110
0000
0000
0000
,
0100
1000
0000
0000
0001
0010
0000
0000
1000
0010
0000
0000
0001
0100
0000
0000
,
0010
1000
0100
0001
0110
0000
1001
0000
,
0001
0000
1000
0010
0001
0000
0010
0000
1000
0000
0100
0000
0110
0000
0000
0000
,
1000
0000
0001
0010
1000
0000
0010
0000
0001
0000
0100
0000
0110
0000
0000
0000
,
0010
1000
0000
0000
0001
0100
0000
0000
1000
0100
0000
0000
0001
0010
0000
0000
,
2001
0000
0100
0100
0100
0000
3010
0000
,
1000
0100
1000
0100
0001
0100
0001
0100
,
1000
0000
0010
0100
0001
0000
0010
0000
0110
0000
0000
0000
1001
0000
0000
0000
,
0001
0100
0001
0100
1000
0100
1000
0100
,
0001
0000
0010
0100
1000
0000
0010
0000
0110
0000
0000
0000
1001
0000
0000
0000
,
1000
0010
1000
0000
0010
0000
0100
0000
1000
0000
0100
0000
0001
0000
1000
0000
,
0001
0010
0001
0000
0010
0000
0100
0000
0001
0000
0100
0000
1000
0000
0001
0000
,
1000
0010
1000
0010
0100
0010
0100
0010
1000
0001
0100
0001
1000
0001
0100
0001
,
0020
0000
0000
0100
0000
0000
0100
0000
0200
0000
0000
0000
0330
0000
0000
0000
,
2001
0000
0000
0000
3000
0100
0000
0010
,
0002
0000
0003
0200
0000
0000
0300
0000
,
0010
0000
0020
0000
0030
1000
0000
0001
,
0020
0000
0030
0200
0000
0300
2000
0000
,
3002
0000
0100
0000
0003
1000
0000
1000
,
0020
0000
0130
0200
0000
0300
0001
0000
,
2000
0000
3002
0000
0013
0100
0010
0000
,
0220
0000
0330
0000
,
2010
0001
0100
0001
,
0010
0000
0000
0000
0001
0000
0000
0000
0100
0000
0000
0000
3001
0010
0100
1000
,
0002
1000
0100
1000
,
0010
1000
0100
0013
,
0110
0000
1000
0000
0010
0000
1000
0000
1100
0000
0000
0011
0000
0000
1001
0000
,
0110
0000
0001
0000
0010
0000
0001
0000
0100
0010
0000
0110
0000
0000
1000
0000
,
0100
0000
0010
0001
0100
0000
0010
1000
0100
0010
0100
0010
0001
1000
0010
0100
,
0002
0000
0000
0000
0003
0000
0010
0010
,
1001
0000
1000
0010
0000
0100
0010
0000
1000
0100
0000
0001
0100
0000
1000
0010
,
0100
0000
0001
0010
0000
0100
0010
0000
0001
0100
0000
1000
0100
0010
0100
0001
,
1000
0000
0100
0010
0000
0001
0010
0000
0100
1000
0000
0010
0100
0001
0010
0100
,
1000
0000
0001
0010
0000
0001
1000
0000
0100
0001
0000
0100
1000
0000
0000
0000
,
1001
0000
0001
0010
0000
0100
0010
0000
0001
0100
0000
1000
0100
0000
0001
0010
,
0100
0000
1000
0010
0000
0100
0010
0000
1000
0100
0000
0001
0100
0010
0100
1000
,
0001
0000
0100
0010
0000
1000
0010
0000
0100
0001
0000
0010
0100
1000
0010
0100
,
0001
0000
0000
0011
0000
0000
0110
0000
0000
1100
0000
0000
0010
0000
0000
0000
,
1001
0000
1000
0100
0010
0000
0100
0000
1000
0010
0100
0000
0001
0010
0100
1000
,
0001
0000
0100
0001
0010
0000
0100
0000
0010
0001
1000
0000
0010
0100
0001
1000
,
0010
0000
1000
0100
0010
0000
0100
0000
1000
0001
0100
0000
0010
0000
1000
0000
,
0001
0000
0010
0001
0000
0100
0010
0000
1000
0100
0000
0001
0200
0000
0000
0000
,
0310
0000
0001
0100
0010
0000
0100
0001
0010
0000
0001
0100
0010
0000
0110
0000
,
1001
0000
1000
0100
0010
0000
0100
1000
0010
0000
1000
0100
0010
0001
0010
0000
,
0001
0100
0001
0100
0010
0100
0001
0100
0010
1000
0001
0100
0010
0100
0001
1000
,
0100
0000
0000
0001
0000
0000
1000
0000
0000
0010
0000
0000
0001
0000
0100
0000
,
1001
0000
0000
0000
;

//--------------- dance-double - forcednature ----------------
#NOTEDATA:;
#STEPSTYPE:dance-double;
#DESCRIPTION:forcednature;
#DIFFICULTY:Easy;
#METER:6;
#RADARVALUES:0,0,0,0,0;
#CREDIT:forcednature;
#NOTES:
00000000
00000000
00000000
00000000
,
00000000
00000000
00000000
00000000
,
00000000
00000000
00000000
00000000
,
00000000
00000000
00000000
00000000
,
00000000
00000000
00000000
00000000
,
00000000
00000000
00000000
00000000
,
00000000
00000000
00000000
00000000
,
00001000
00000000
00000000
00000000
,
00001000
00000000
01000000
00000000
,
00010000
00000000
00000000
00000000
,
00010000
00000000
10000000
10000000
,
00020000
00000000
10000000
00000000
,
10000000
00000000
10030000
00000000
,
20000000
00000000
00010000
00000000
,
00010000
00000000
30010000
00000000
,
10000000
00000000
00100000
00000000
,
01000000
00000000
00010000
00000000
,
00100000
00000000
00100000
00000000
,
00002000
00000000
00003000
00000000
,
00010000
00000000
00010000
00000000
,
00000010
00000000
00000000
00000000
,
00001000
00000000
00001000
00000000
,
00000100
00000000
00000100
00000000
,
00000010
00000000
00000010
00000000
,
00000001
00000000
00000000
00000000
,
00000100
00000000
00000100
00000000
,
00000000
00000000
00000010
00000000
,
00001000
00000000
00001000
00000000
,
00000100
00000000
00000000
00000000
,
00010000
00000000
00001000
00000000
,
00010000
00000000
00001000
00000000
,
01000000
00000000
01000000
00000000
,
00010000
00000000
00000000
00000000
,
10000000
00000000
10000000
00000000
,
01000000
00000000
00000000
00000000
,
01100000
00000000
00000000
00000000
,
00100000
00000000
00000000
00000000
,
00001000
00000000
00001000
00000000
,
00001000
00000000
00000000
00000000
,
00011000
00000000
00000000
00000000
,
00010000
00000000
00000000
00000000
,
00000010
00000000
00000010
00000000
,
00000010
00000000
00000000
00000000
,
00001001
00000000
00000000
00000000
,
00001000
00000000
00000100
00000000
,
00001000
00000000
00000000
00000000
,
00000100
00000000
00010000
00000000
,
00000100
00000000
00000000
00000000
,
00010000
00000000
00001000
00000000
,
00010000
00000000
00010000
00000000
,
00001000
00000000
00000000
00000000
,
01000000
00000000
00000000
00000000
,
00010000
00000000
00000000
00000000
,
10000000
00000000
00000000
00000000
,
00010000
00000000
00100000
00000000
,
00001000
00000000
00000000
00000000
,
00010000
00000000
00000000
00000000
,
00000010
00000000
00000000
00000000
,
00002002
00000000
00003003
00000000
,
00000002
00000000
00000100
00000000
,
00000100
00000000
00000103
00000000
,
00002000
00000000
00000100
00000000
,
00000100
00000000
00003100
00000000
,
00001001
00000000
00000010
00000000
,
00000110
00000000
00000100
00000000
,
00001000
00001000
00001000
00000000
,
00002002
00000000
00003003
00000000
,
00001000
00000000
00000100
00000000
,
00010000
00000000
00001000
00000000
,
01000000
00010000
01000000
00000000
,
00010000
01000000
00010000
00000000
,
10000000
00000000
00100000
00000000
,
10000000
00000000
01000000
00000000
,
00100000
00010000
00100000
00000000
,
00010000
00100000
00010000
00000000
,
01000000
00000000
01000000
00000000
,
00001000
00010000
00001000
00000000
,
00010000
00000000
00010000
00000000
,
00000100
00001000
00000100
00000000
,
00000010
00000000
00000010
00000000
,
00000001
00001000
00000001
00000000
,
00000100
00000000
00000010
00000000
,
00010000
00001000
00010000
00000000
,
00011000
00000000
00000000
00000000
;

//--------------- dance-double - forcednature ----------------
#NOTEDATA:;
#STEPSTYPE:dance-double;
#DESCRIPTION:forcednature;
#DIFFICULTY:Medium;
#METER:11;
#RADARVALUES:0,0,0,0,0;
#CREDIT:forcednature;
#NOTES:
00000000
00000000
00000000
00000000
,
00000000
00000000
00000000
00000000
,
00000000
00000000
00000000
00000000
,
00000000
00000000
00000000
00000000
,
00000000
00000000
00000000
00000000
,
00000000
00000000
00000000
00000000
,
00000000
00000000
00000000
00000000
,
00001000
00010000
01000000
10000000
,
00100000
01000000
10010000
00000000
,
01000000
00001000
00010000
00000100
,
00001001
00000000
00000100
00000100
,
00021000
00000100
00001000
00000100
,
00001000
00000100
00001000
00030010
,
00012000
01000000
00010000
01000000
,
00010000
01000000
00010000
00103000
,
00011000
01000000
00001000
00010000
,
00011000
00000100
00010000
00001000
,
00101000
00010000
00010010
00001000
,
00022000
00000000
00000000
00000000
00033000
00000000
00001000
00010000
,
00001000
00000100
00000001
00000010
,
00000100
00001000
00000010
00010000
,
01001000
10000000
01000000
00100000
,
00001000
00010000
00100000
00000000
,
00010000
00001010
00010000
00001100
,
00001000
01010000
00001000
00110000
,
00021000
00000000
00000100
00000000
00030010
00010000
00001000
00000000
,
01000000
00000000
00000000
01000000
00000000
00000000
01000000
00000000
00010000
00000000
00000000
00000000
10000000
00000000
10000000
00000000
,
01000000
00010000
00001000
00000100
,
00000001
00000000
00001000
00000000
00000010
00000000
00010000
00001000
,
00010000
00110000
00010000
00010010
,
00001000
00001010
00010000
00000000
,
00001000
00000000
00000000
01000000
00000000
00000000
00010000
00000000
00000000
10000000
00000000
00000000
01000000
00000000
00000000
00000000
,
00100000
00000000
00000000
00001000
00000000
00000000
00010000
00000000
00000000
00000100
00000000
00000000
00001000
00000000
00000000
00000000
,
00000001
00000100
00000001
00000100
00001000
00010000
00001000
00010000
,
02000000
00000000
03000000
00000000
00100000
00100000
00100000
00000000
,
00010000
01000000
00001000
00010000
00000100
00001000
00000010
00000000
,
00010000
00001000
00100000
00010000
01000000
00001000
00010000
00000000
,
00100000
01000000
00001000
00010000
,
00000100
00000010
00001000
00000000
,
00010000
00000010
00001000
00000100
00010000
00001000
01000000
00000000
,
00100000
01000000
00010000
00100000
00001000
00010000
00000010
00000000
,
00000100
00001000
00010000
01000000
,
00100000
00001000
00010000
00000010
00010000
00001000
01000000
00000000
,
00100000
00010000
00001000
00000010
,
00000100
00001000
00000010
00010000
00001000
00010000
00000010
00000000
,
00000100
00001000
00010000
01000000
,
00100000
00001000
00010000
00100000
01000000
00001000
00010000
00000000
,
02002000
00000000
03003000
00000000
,
00020200
00000000
00030300
00000000
,
00020020
00030030
00202000
00303000
,
00022000
00000000
00033000
00000000
,
00002000
00000000
00003000
00000000
,
00020000
00000000
00030000
02000000
00000000
00000000
03000000
00000000
,
20000000
00000000
30000000
00000000
,
00020000
00000000
00030000
02000000
00000000
03000000
00002000
00000000
,
00023000
00000000
00030000
00000000
,
00000020
00000000
00000030
00002000
00000000
00000000
00003000
00000000
,
00000002
00000000
00000000
00000000
,
00002003
00000000
00003010
00000010
,
00000010
00000100
00001000
00010000
,
00100000
01000000
00001000
00012000
,
00003010
00000100
00010000
00001000
,
01000000
00100000
00010000
00021000
,
00130000
00000000
00000000
00000000
10000000
00000000
00000000
00000000
01000000
00000000
00000000
00010000
00000000
00000000
00001000
00000000
,
00000010
00000000
00000000
00000000
00000001
00000000
00000000
00000000
00000100
00000000
00000000
00001000
00000000
00000000
00010000
00000000
,
00100000
00000000
01000000
00000000
00001000
00010000
00001000
00010000
,
00000200
00000000
00000000
00000000
00000300
00000000
00000010
00000010
,
00000001
00000000
00000000
00000100
00000000
00000000
00000010
00000000
00000000
00001000
00000000
00000000
00000100
00000000
00000000
00000000
,
00000010
00000000
00000000
00001000
00000000
00000000
00010000
00000000
00000000
01000000
00000000
00000000
00100000
00000000
00000000
00000000
,
00001000
00000000
00000000
00010000
00000000
00000000
00100000
00000000
00000000
10000000
00000000
00000000
00010000
00000000
00000000
00000000
,
00100000
00000000
00000000
01000000
00000000
00000000
00010000
00000000
00000000
00001000
00000000
00000000
00000010
00000000
00000000
00000000
,
00000100
00000000
00000000
00001000
00000000
00000000
00000001
00000000
00000000
00000100
00000000
00000000
00001000
00000000
00000000
00000000
,
00010000
00000000
00000000
00000100
00000000
00000000
00001000
00000000
00000000
00000010
00000000
00000000
00000100
00000000
00000000
00000000
,
00001000
00000000
00000000
00010000
00000000
00000000
01000000
00000000
00000000
00100000
00000000
00000000
00001000
00000000
00000000
00000000
,
00000100
00000000
00000000
00000100
00000000
00000000
00000100
00000000
00000000
00000100
00000000
00000000
00000010
00000000
00000000
00000000
,
00001000
00000000
00000000
00000100
00000000
00000000
00010000
00000000
00000000
00001000
00000000
00000000
01000000
00000000
00010000
00000000
,
10000000
00000000
00000000
00100000
00000000
00000000
10000000
00000000
00000000
01000000
00000000
00000000
00100000
00000000
00001000
00000000
,
00010000
00000000
00000000
00100000
00000000
00000000
00010000
00000000
00000000
00001000
00000000
00000000
00000010
00000000
00000100
00000000
,
00001000
00000000
00000000
00000001
00000000
00000000
00000100
00000000
00000000
00001000
00000000
00000000
00010000
00000000
00000000
00000000
,
00100000
10000000
00100000
10000000
01000000
10000000
01000000
10000000
,
01000000
00010000
01000000
00010000
00001000
00010000
00001000
00010000
,
00001000
00000010
00001000
00000010
00000001
00000010
00000001
00000010
,
00000001
00000000
00000000
00000100
00000000
00000000
00001000
00000000
00000000
00010000
00000000
00000000
01000000
00000000
10000000
00000000
,
00010000
00000000
00000000
00000000
;

//--------------- dance-double - forcednature ----------------
#NOTEDATA:;
#STEPSTYPE:dance-double;
#DESCRIPTION:forcednature;
#DIFFICULTY:Hard;
#METER:14;
#RADARVALUES:0,0,0,0,0;
#CREDIT:forcednature;
#NOTES:
00000000
00000000
00000000
00000000
,
00000000
00000000
00000000
00000000
,
00000000
00000000
00000000
00000000
,
00000000
00000000
00000000
00000000
,
00000000
00000000
00000000
00000000
,
00000000
00000000
00000000
00000000
,
00000000
00000000
00000000
00000000
,
00011000
00000000
01000000
00000000
00100000
10000000
01000000
00000000
,
00010000
00010000
00001000
00000000
00000010
00000001
00000100
00000000
,
00000010
00000000
00010000
00000000
00001000
01000000
00010000
10000000
,
11000000
00000000
00110000
00011000
,
01002000
00010000
00000010
00010000
,
01000000
00010000
00000010
00013000
,
00020100
00001000
00100000
00001000
,
00000100
00001000
00100000
00031000
,
00010000
00001000
00000010
00000001
00000100
00000010
00000100
00001000
,
00011000
00010000
00100000
10000000
01000000
00100000
10000000
00100000
,
00010000
10000000
00010000
00000000
01000000
00000000
00010000
00000000
00001000
00000100
00001000
00000100
00000010
00000001
00000010
00000001
,
00000200
00000000
00000000
00000000
00001300
00000000
00010000
00001000
,
00011000
00000000
00000000
00000000
01000000
00000000
00010000
00000000
10000000
00000000
00000000
00100000
00000000
00000000
00010000
00000000
,
00001000
00000000
00000000
00000000
00100000
00000000
01000000
00000000
00010000
00000000
00000000
00001000
00000000
00000000
00000010
00000000
,
00000100
00001000
00000001
00000100
00001000
00000100
00000010
00000000
,
00010000
00000000
00001000
00000000
00010000
00000000
01000000
00000000
00100000
00000000
00010000
10000000
00000000
00000000
00100000
00000000
,
01000000
00000000
00000000
00000000
00010000
00000000
00100000
00000000
00001000
00000000
00000000
00010000
00000010
00000000
00000100
00000000
,
00000001
00000000
00000000
00000000
00000010
00000000
00000100
00000000
00010000
00000000
00000000
00001000
00010000
00000000
01000000
00000000
,
21000000
00000000
00010000
00000000
30100000
00010000
00001000
00000000
,
00100000
00000000
00000000
00100000
00000000
00000000
00001000
00000000
00010000
00000000
00000100
00000000
00000010
00000000
00000010
00000000
,
00000110
00000000
00000000
00000001
00000000
00000000
00000100
00000000
00000000
00001000
00000000
00000000
00010000
00000000
00100000
10000000
,
00100000
00000000
00000000
10000000
00000000
00000000
01000000
00000000
00000000
00010000
00000000
00000000
00001000
00000000
00000010
00000001
,
00000010
00000100
00010000
00001000
00000100
00000010
00001000
00000000
,
00100000
00000000
00010000
00000000
00000010
00000000
00010000
00000000
00001000
00000000
00100000
00010000
00000000
00000000
10000000
00000000
,
01000000
00010000
00001000
00000010
00001000
00010000
00001000
00000100
,
00000001
00001000
00000010
00010000
00001000
00000100
00001000
00010000
,
01000000
10000000
01000000
00000000
00100000
00000000
00001000
00000000
00010000
00000010
00010000
00000000
00001000
00000000
01000000
00000000
,
00200000
00000000
00000000
00300000
00000000
00000000
00010000
00001000
00010000
00001000
00000000
00000000
,
00000100
00000010
00001000
00000001
00000010
00001000
00010000
01000000
,
00100000
00010000
10000000
00100000
00010000
00100000
01000000
00010000
,
10000000
00010000
00001000
00000001
,
00000100
00001000
00010000
01000000
00010000
00000000
00011000
00000000
,
00000010
00001000
00000001
00000100
00001000
00010000
00100000
10000000
,
01000000
00010000
00001000
00000010
00000001
00001000
00000010
00000100
,
00000001
00001000
00010000
10000000
,
01000000
00100000
00001000
00010000
00100000
00000000
01100000
00000000
,
10000000
00010000
00001000
00000001
,
00000100
00000010
00010000
00001000
00000010
00000000
00000110
00000000
,
00000001
00001000
00010000
10000000
,
01000000
00100000
00001000
00010000
00100000
00000000
01100000
00000000
,
10000000
01000000
00100000
00001000
01000000
00010000
00001000
00000100
,
00000010
00000001
00000100
00001000
00010000
01000000
00100000
00001000
,
00010000
00100000
00010000
00000000
00001000
00000000
00000010
00000000
00000100
00001000
00000100
00000000
00010000
00000000
00001000
00000000
,
02000000
00000000
00000000
00010000
00000000
00000000
10000000
00000000
00200000
00000000
00000000
00000000
03300000
00000000
00000000
00000000
,
20000000
00000000
00000000
00000000
30000000
01000000
00000000
00010000
,
00002000
00000000
00003000
00000020
00000000
00000000
00000030
00000000
,
00000002
00000000
00000203
00000000
00000300
00001000
00000000
00010000
,
02000000
00000000
03000000
00200000
00000000
00300000
00002000
00000000
,
00023000
00000000
00000000
00000000
00030000
00100000
00000000
10000000
,
00020000
00000000
00030000
00200000
00000000
00000000
00300000
00000000
,
00002000
00000000
00003020
00000000
00000030
00000001
00000000
00000100
,
00001000
00001000
00001000
00000000
00010000
00000000
00000010
00000000
,
00020100
00100000
00000100
00100000
,
00000100
00100000
00000100
00031000
,
01002000
00000010
01000000
00000010
,
01000000
00000010
01000000
00013000
,
00001000
00000000
00010000
00000000
01000000
00000000
10000000
00000000
00100000
00000000
00000000
00100000
00000000
00000000
00100000
00000000
,
00010000
00000000
00001000
00000000
00000010
00000000
00000100
00000000
00001000
00000001
00000000
00001000
00000000
00000000
00001000
00000000
,
00000010
00000000
00010000
00000000
00001000
00000000
01000000
00000000
00001000
00010000
00001000
00000000
00100000
00010000
00100000
00000000
,
02000000
00000000
00000000
00000000
03000000
00000000
00010000
00010000
,
00011000
00000000
00000000
00001000
00000000
00000000
00000010
00000000
00000000
00000100
00000000
00000000
00001000
00000000
00000001
00000000
,
00000100
00000000
00000000
00001000
00000000
00000000
00010000
00000000
00000000
00100000
00000000
00000000
01000000
00010000
10000000
00100000
,
01000000
00000000
00000000
00001000
00000000
00000000
00010000
00000000
00000000
00000100
00000000
00000000
00001000
00000100
00000010
00000001
,
00001000
00000000
00000000
00000010
00000000
00000000
00000100
00000000
00000000
00001000
00000000
00000000
00010000
00000000
00000000
00000000
,
01100000
00000000
00000000
10000000
00000000
00000000
00010000
00000000
00000000
00100000
00000000
00000000
01000000
00000000
00010000
00000000
,
00001000
00000000
00000000
00000010
00000000
00000000
00000100
00000000
00000000
00001000
00000000
00000000
00000001
00000100
00000010
00001000
,
00000001
00000000
00000000
00000010
00000000
00000000
00001000
00000000
00000000
00010000
00000000
00000000
01000000
10000000
00010000
00100000
,
01000000
00000000
00000000
01010000
00000000
00000000
00011000
00000000
00000000
00001010
00000000
00000000
00000100
00000000
00000000
00000000
,
00011000
00000000
00000000
00010000
00000100
00000000
00001000
00000000
00000001
00000100
00000000
00000000
00000001
00000010
00000100
00001000
,
00000010
00000000
00000000
00010000
00001000
00000000
00100000
00000000
01000000
10000000
00000000
00000000
00010000
01000000
00100000
10000000
,
00010000
00000000
00000000
01000000
00001000
00000000
00010000
00000000
00000100
00001000
00000000
00000000
00000010
00000000
00000001
00000000
,
00000010
00000000
00000000
00001000
00000100
00000000
00010000
00000000
00001000
01000000
00000000
00000000
00200000
00000000
00000000
00000000
,
00310000
00001000
00000010
00000100
00001000
00000001
00000010
00001000
,
00011000
00010000
00100000
01000000
00001000
00010000
01000000
10000000
,
00010000
01000000
00010000
00000000
00100000
00000000
00001000
00000000
00010000
00000100
00010000
00000000
00001000
00000000
00000100
00000000
,
00000001
00000000
00000000
00000010
00000000
00000000
00001000
00000000
00000000
00010000
00000000
00000000
00100000
00000000
10000000
00000000
,
01000000
00000000
00000000
00000000
;

//--------------- dance-double - forcednature ----------------
#NOTEDATA:;
#STEPSTYPE:dance-double;
#DESCRIPTION:forcednature;
#DIFFICULTY:Challenge;
#CREDIT:forcednature;
#METER:17;
#RADARVALUES:0,0,0,0,0;
#NOTES:
00000000
00000000
00000000
00000000
,
00000000
00000000
00000000
00000000
,
00000000
00000000
00000000
00000000
,
00000000
00000000
00000000
00000000
,
00000000
00000000
00000000
00000000
,
00000000
00000000
00000000
00000000
,
00000000
00000000
00000000
00000000
,
00021000
00000000
00130000
00000000
00010000
00001000
00000010
00000000
,
00000100
00001000
00000001
00000000
00000100
00001000
00010000
00000000
,
00012000
00000000
00003010
00000000
00001000
00010000
00100000
00000000
,
10200000
10000000
10300000
00000000
11000000
00000000
00110000
00000000
,
10000000
01000000
00010000
01000000
10000000
01000000
00010000
01000000
,
10000000
01000000
00010000
00001000
00000010
00000000
00001001
00000000
,
00000001
00000100
00001000
00000100
00000001
00000100
00001000
00000100
,
00000001
00000100
00001000
00010000
00100000
00000000
01100000
00000000
,
10010000
00000000
00000000
00000000
10000000
00000000
00100000
00000000
00010000
00000000
00001000
00000000
00000100
00000000
00000001
00001000
,
00000010
00000000
00001000
00000000
00000001
00000000
00000010
00000000
00001000
00000000
00010000
00000000
01000000
00000000
00100000
00010000
,
10000000
00000000
00100000
10000000
00100000
00000000
01000000
00100000
01000000
00010000
01000000
00010000
00100000
00001000
00010000
00000100
,
00002000
00000000
00000000
00000000
00003010
00000000
00000110
00000100
,
00001001
00000000
00000001
00000000
00000010
00000000
00000100
00000000
00000010
00000001
00000000
00000010
00000001
00000000
00000100
00000000
,
00001000
00000000
00010000
00000000
00100000
00000000
01000000
00000000
00010000
10000000
00000000
00010000
10000000
00000000
00100000
00000000
,
00000000
00000000
01000000
00010000
00100000
00000000
01000000
10000000
00100000
00000000
01000000
00010000
00200000
00000000
00000000
00000000
,
01300000
00000000
00010000
00000000
00001000
00000000
00010000
00000000
00001000
00000000
00001000
00000010
00000000
00000000
00000001
00000000
,
00000100
00000000
00001000
00000000
00000100
00000000
00000001
00000000
00001000
00000010
00000000
00001000
00000010
00000000
00010000
00000000
,
00001000
00000000
00100000
00000000
00001000
00000000
00010000
00000000
00100000
01000000
00000000
00100000
01000000
00000000
00010000
00000000
,
20010000
00000000
30100000
00000000
10000000
01000000
00010000
00000000
,
00011000
00000000
00000000
00011000
00000000
00000000
00000010
00000000
00001000
00000100
00000000
00000100
00001000
00000000
00001000
00000000
,
00000001
00000010
00000000
00000100
00000010
00000000
00000001
00000010
00000000
00000100
00000010
00000000
00000100
00000000
00001000
00000100
,
00010000
00001000
00000000
00100000
00001000
00000000
00010000
00001000
00000000
00100000
00001000
00000000
00010000
00000000
00001000
01000000
,
00010000
00200000
01000000
01000000
00010000
00010000
02300000
00000000
,
13000000
00000000
00100000
00000000
10000000
00000000
00100000
00000000
10000000
00000000
10000000
01000000
00000000
00000000
00010000
00000000
,
00011000
00000000
00000010
00001000
00000000
00000010
00000100
00000000
00000010
00001000
00000000
00000010
00000100
00000000
00001000
00010000
,
00001000
00000000
00100000
00010000
00000000
00100000
01000000
00000000
00100000
00010000
00000000
00100000
01000000
00000000
00010000
00001000
,
00100000
00010000
00100000
00010000
00100000
01000000
00100000
00010000
00100000
00001000
00010000
00000010
00001000
00000010
00000100
00000001
,
00002000
00000000
00000000
00000000
00000000
00000000
00003000
00000000
00000010
00000100
00000010
00000100
00000001
00000000
00000000
00000000
,
00000010
00000000
00000001
00000100
00001000
00000000
00010000
00000000
00100000
00000000
01000000
00000000
00010000
00000000
10000000
00000000
,
00100000
00000000
10000000
01000000
00010000
00000000
00001000
00000000
00000010
00000000
00000100
00000000
00000110
00000000
00000000
00000000
,
00000001
00000100
00000000
00000000
00001000
00000100
00000000
00000000
00000001
00000010
00000000
00000000
00000001
00000010
00000000
00000000
,
00001000
00010000
00100000
00010000
00011000
00000000
00010000
00000000
,
00100000
00000000
10000000
01000000
00010000
00000000
00001000
00000000
00000010
00000000
00000100
00000000
00001000
00000000
00000001
00000000
,
00000010
00000000
00000001
00000100
00001000
00000000
00010000
00000000
00100000
00000000
01000000
00000000
01100000
00000000
00000000
00000000
,
10000000
01000000
00000000
00000000
00010000
01000000
00000000
00000000
10000000
00100000
00000000
00000000
10000000
00100000
00000000
00000000
,
00010000
00001000
00000010
00001000
00021000
00000000
00130000
00000000
,
00010000
00001000
00010000
01000000
00010000
00001000
00010000
00100000
,
10000000
00000000
01000000
00010000
00001000
00000000
00000010
00000000
00000110
00000000
00000000
00000000
00010100
00000000
00000000
00000000
,
00001000
00010000
00001000
00000100
00001000
00010000
00001000
00000010
,
00000001
00000000
00000100
00001000
00010000
00000000
00100000
00000000
01100000
00000000
00000000
00000000
10010000
00000000
00000000
00000000
,
10000000
00100000
10000000
00000000
00100000
00000000
01000000
00000000
10000000
00000000
01000000
00000000
00010000
00000000
00100000
00000000
,
00001000
00010000
00001000
00000000
00000010
00000000
00000100
00000000
00001000
00000000
00000010
00000000
00001000
00000000
00000001
00000000
,
00001000
00000100
00001000
00000100
00010000
00001000
00010000
00001000
00100000
00010000
10000000
00010000
01000000
00010000
10000000
00010000
,
00200000
00000000
00000000
01000000
00000000
00000000
01000000
00000000
02000000
00000000
00000000
00000000
03300000
00000000
00000000
00000000
,
20010000
00000000
00000000
00000000
30000000
01000000
00000000
00010000
,
00002000
00000000
00003000
00000020
00000000
00000000
00000030
00000000
,
00000001
00000000
00000002
00000000
00000003
00000100
00000000
00001000
,
00020000
00000000
00030000
00200000
00000000
00300000
20000000
00000000
,
30020000
00000000
01000000
00000000
00030000
10000000
00000000
10000000
,
00200000
00000000
00310000
00020000
00000000
00030000
00001000
00000000
,
00000020
00000000
00000230
00000000
00001300
00000001
00000010
00000000
,
00000220
00000000
00000330
00000000
,
00002001
00000100
00000001
00000010
,
00000001
00000000
00000100
00000000
00000001
00000000
00003010
00001000
,
00020000
01000000
10000000
00100000
,
10000000
01000000
10000000
00130000
,
01100000
00000000
00000000
00000000
10000000
00000000
01000000
00000000
00010000
00000000
00000000
00011000
00000000
00000000
00000010
00000000
,
00001010
00000000
00000000
00000000
00000001
00000000
00000100
00000000
00001000
00010000
00000000
00011000
00000000
00000000
00100000
00000000
,
00010000
00000000
01000000
00100000
10000000
00000000
01000000
00100000
00010000
01000000
00010000
01000000
00001000
00010000
00000010
00001000
,
00000200
00000000
00000000
00000000
00000300
00000000
00000010
00000010
,
00001001
00000000
00001000
00000100
00000000
00010000
00001000
00000000
00100000
00010000
00000000
00100000
01000000
00000000
10000000
00000000
,
00100000
00000000
01000000
00010000
00000000
01000000
00100000
00000000
10000000
01000000
00000000
00100000
01000000
00100000
00010000
00100000
,
00001000
00000000
00010000
00000010
00000000
00001000
00000010
00000000
00000100
00000001
00000000
00000010
00000100
00001000
00000100
00010000
,
00001000
00000000
00100000
00010000
00000000
00100000
01000000
00000000
10000000
00100000
00000000
01000000
00010000
00000000
00000000
00000000
,
10010000
00000000
00010000
00100000
00000000
00001000
00010000
00000000
00000010
00001000
00000000
00000010
00000100
00000000
00000001
00000000
,
00000010
00000000
00000100
00001000
00000000
00000100
00000010
00000000
00000001
00000100
00000000
00000010
00001000
00000010
00001000
00000100
,
00010000
00000000
00001000
00100000
00000000
00010000
00100000
00000000
01000000
00100000
00000000
00010000
10000000
01000000
10000000
00010000
,
00100000
00000000
00000000
00110000
00000000
00000000
00011000
00000000
00000000
00001100
00000000
00000000
00000010
00000000
00000000
00000000
,
00001001
00000000
00000001
00000100
00001000
00000000
00000100
00000000
00000001
00001000
00000010
00000000
00010000
00001000
00100000
00000000
,
00010000
00000000
10000000
01000000
00010000
00000000
01000000
00000000
10000000
00010000
00100000
00000000
00001000
00010000
00000010
00000000
,
00001000
00000000
00000001
00000010
00001000
00000000
00000010
00000000
00000001
00001000
00000100
00000000
00010000
00001000
00100000
00000000
,
00010000
00000000
10000000
00100000
00000000
01000000
00100000
00000000
01000000
00010000
00000000
00100000
20000000
00000000
00000000
00000000
,
30100000
00000000
00010000
00100000
00001000
00000000
00010000
00000100
00001000
00000000
00000010
00000100
00000001
00000000
00001001
00000000
,
00000110
00000000
00001000
00000010
00010000
00000000
00001000
01000000
00010000
00000000
00100000
01000000
10000000
00000000
10010000
00000000
,
00010000
00100000
00010000
00100000
00001000
00010000
00001000
00010000
00000010
00001000
00000001
00000100
00000001
00001000
00000010
00001000
,
00000001
00000000
00000000
00000010
00000000
00000000
00001000
00000000
00000000
00010000
00000000
00000000
01000000
00000000
00100000
00000000
,
10010000
00000000
00000000
00000000
;
