#VERSION:0.83;
#TITLE:SPEED DEMON;
#SUBTITLE:;
#ARTIST:GUHROOVY feat. NO+CHIN;
#TITLETRANSLIT:;
#SUBTITLETRANSLIT:;
#ARTISTTRANSLIT:;
#GENRE:HARDTEK;
#CREDIT:;
#MUSIC:SPEED DEMON.ogg;
#BANNER:SPEED DEMON.png;
#BACKGROUND:SPEED DEMON-bg.png;
#CDTITLE:./CDTitles/bm IIDX 25 CANNON BALLERS.png;
#SAMPLESTART:91.938;
#SAMPLELENGTH:15.000;
#SELECTABLE:YES;
#OFFSET:0.259;
#BPMS:0.000=190.000;
#STOPS:;
#BGCHANGES:0.000=SPEED DEMON.mp4=1.000=0=0=0=StretchNoLoop====,
99999.000=-nosongbg-=1.000=0=0=0=StretchNoLoop====
;
#FGCHANGES:;

//--------------- dance-single - forcednature ----------------
#NOTEDATA:;
#STEPSTYPE:dance-single;
#DESCRIPTION:forcednature;
#DIFFICULTY:Beginner;
#METER:3;
#RADARVALUES:0,0,0,0,0;
#CREDIT:forcednature;
#NOTES:
0000
0000
0000
0000
,
0000
0000
0000
0000
,
0000
0000
0000
0000
,
0000
0000
0000
0000
,
0000
0000
0000
0000
,
0000
0000
0000
0000
,
0000
0000
0000
0000
,
0000
0000
0000
0000
,
0010
0000
0000
0000
,
1001
0000
0000
0000
,
1000
0000
0000
0000
,
0001
0000
0000
0000
,
0100
0000
0000
0000
,
0010
0000
0000
0000
,
1000
0000
0000
0000
,
0001
0000
0000
0000
,
0010
0000
0000
0000
,
0110
0000
0000
0000
,
0100
0000
0100
0000
,
0100
0000
0000
0000
,
0010
0000
0010
0000
,
0010
0000
0000
0000
,
0001
0000
1000
0000
,
0001
0000
1000
0000
,
0020
0000
0030
0000
,
0110
0000
0000
0000
,
0001
0000
0000
0000
,
1000
0000
0000
0000
,
0100
0000
0000
0000
,
1000
0000
0000
0000
,
0010
0000
0000
0000
,
0100
0000
0000
0000
,
0001
0000
0000
0000
,
1001
0000
0000
0000
,
1000
0000
0000
0000
,
0001
0000
0000
0000
,
0010
0000
0000
0000
,
0100
0000
0000
0000
,
1000
0000
0000
0000
,
0001
0000
0000
0000
,
0100
0000
0000
0000
,
0110
0000
0000
0000
,
0010
0000
0000
0000
,
1000
0000
0000
0000
,
0001
0000
0001
0000
,
0010
0000
0000
0000
,
0100
0000
0000
0000
,
1000
0000
0000
0000
,
0010
0000
0010
0000
,
0000
0110
0000
0000
,
1000
0000
0000
0000
,
0001
0000
0000
0000
,
0010
0000
0010
0000
,
0100
0000
0000
0000
,
1000
0000
0000
0000
,
0001
0000
0000
0000
,
0100
0000
0010
0000
,
2002
0000
0000
0000
,
0000
0000
0000
0000
,
0000
0000
0000
0000
,
3003
0000
0000
0000
,
1000
0000
1000
0000
,
0000
0000
1000
0000
,
0001
0000
0001
0000
,
0000
0000
0001
0000
,
1001
0000
0000
0000
,
0100
0000
0000
0000
,
0110
0000
0000
0000
,
0010
0000
0000
0000
,
1000
0000
1000
0000
,
0001
0000
0001
0000
,
0010
0000
0010
0000
,
0100
0000
0000
0000
,
0000
1000
0000
0000
,
0000
1000
0000
0000
,
0000
0001
0000
0100
,
0000
0001
0000
0100
,
0000
0001
0000
0000
,
0000
0001
0000
0000
,
0000
1000
0000
0100
,
0000
0010
0000
0000
,
0000
0001
0000
0001
,
0000
0100
0000
0100
,
0000
0010
1000
0010
,
0000
1000
0010
1000
,
0000
0001
0000
0001
,
0000
0010
0000
0010
,
0000
0100
1000
0100
,
0000
0020
0000
0030
,
0000
0000
0000
0000
,
0000
0000
0000
0000
,
0000
0000
0000
0000
,
0001
0000
1000
0000
;

//--------------- dance-single - forcednature ----------------
#NOTEDATA:;
#STEPSTYPE:dance-single;
#DESCRIPTION:forcednature;
#DIFFICULTY:Easy;
#METER:8;
#RADARVALUES:0,0,0,0,0;
#CREDIT:forcednature;
#NOTES:
0000
0000
0000
0000
,
0000
0000
0000
0000
,
0000
0000
0000
0000
,
0000
0000
0000
0000
,
0000
0000
0000
0000
,
0000
0000
0000
0000
,
0000
0000
0000
0000
,
0000
0000
0000
0000
,
0001
0100
0010
1000
,
1001
0000
0110
0000
,
0001
0010
1000
0000
,
0010
0000
0110
0000
,
1000
0100
0001
0100
,
0010
0000
1001
0000
,
0001
0100
1000
0000
,
0100
0010
1000
0001
,
0010
0100
1001
0000
,
0110
1000
1000
0001
,
0001
0100
0100
0010
,
0110
0001
0001
1000
,
1000
0100
0220
0330
,
1001
1000
0001
0100
,
1001
0001
1000
0100
,
0110
0010
0001
1000
,
0020
0030
0200
0302
0003
0000
0010
0000
,
0110
0100
1000
0100
,
1000
0001
1000
0010
,
0110
0100
0001
0100
,
0001
1000
0001
0010
,
0110
0100
1000
0100
,
1000
0001
1000
0010
,
0110
0100
0001
0100
,
0010
1000
0001
0010
,
1001
1000
0010
1000
,
0001
1000
0100
0010
,
1001
0001
0010
0001
,
1000
0001
0100
0010
,
1001
1000
0010
1000
,
0001
1000
0100
0010
,
1001
0001
0010
0001
,
0100
0000
0010
0000
1000
0000
0001
0010
,
0001
0100
0020
0000
,
1030
0100
0020
0000
,
0031
0100
0020
0000
,
2030
3000
0002
0003
,
1000
0010
0200
0000
,
0301
0010
0200
0000
,
1300
0010
0200
0000
,
0301
0000
1000
0000
0001
0000
1000
0100
,
0000
0010
0002
0100
,
1003
0010
2000
0100
,
3001
0010
0001
0100
,
0010
0001
0010
1000
,
0000
0100
2000
0010
,
3001
0100
0002
0010
,
1003
0001
0100
0010
,
1000
0000
0100
0000
0010
0000
0001
1000
,
0002
0000
0000
0000
,
0000
0000
0000
0000
,
0000
0000
0000
0000
,
0000
0000
0000
0003
,
0100
0001
1000
0010
,
0000
1000
0001
0000
,
0010
0001
1000
0100
,
0000
0010
0220
0330
,
1000
1000
0010
0010
,
0100
0100
0001
0001
,
1000
0100
0010
0001
,
1000
0100
0010
0001
,
0100
0010
0100
0010
,
1000
0001
1000
0001
,
0010
0100
1000
0001
,
0200
0000
0000
0300
,
0000
0100
0001
0000
1000
0000
0010
0000
,
0000
0100
0001
0000
1000
0000
0010
0000
,
0000
0010
0100
0000
0010
0000
0100
0010
,
0000
1000
0001
0000
1000
0000
0001
1000
,
0000
0001
0010
0000
0100
0000
1000
0000
,
0000
0001
0010
0000
0100
0000
1000
0000
,
0000
0001
1000
0000
0001
0000
1000
0001
,
0000
0000
0100
0000
0001
0000
0000
1000
,
0000
0010
1000
0000
0001
0000
0100
0000
,
0000
0010
1000
0000
0001
0000
0100
0000
,
0000
0001
1000
0000
0001
0000
1000
0001
,
0000
0100
0010
0000
0100
0000
0010
0100
,
0000
0001
0010
0000
0100
0000
1000
0000
,
0000
0001
0010
0000
0100
0000
1000
0000
,
0000
0010
0100
0000
0010
0000
0100
0010
,
0000
2000
0000
0000
0000
0000
3002
0000
,
0000
0000
0000
0000
,
0000
0000
0000
0000
,
0000
0000
0000
0000
,
0013
0010
0100
2002
,
3003
0000
0000
0000
;

//--------------- dance-single - forcednature ----------------
#NOTEDATA:;
#STEPSTYPE:dance-single;
#DESCRIPTION:forcednature;
#DIFFICULTY:Medium;
#METER:12;
#RADARVALUES:0,0,0,0,0;
#CREDIT:forcednature;
#NOTES:
0000
0000
0000
0000
,
0000
0000
0000
0000
,
0000
0000
0000
0000
,
0000
0000
0000
0000
,
0000
0000
0000
0000
,
0000
0000
0000
0000
,
0000
0000
0000
0000
,
0000
0000
0000
0000
,
1000
0100
1000
0100
0010
0000
0001
0000
,
0202
0303
2020
3030
,
0022
0033
2000
3020
,
0032
0023
0230
0302
,
2003
3000
0100
0010
,
0022
0033
0202
0303
,
2020
3030
2000
3200
,
0302
0203
0320
0032
,
1003
0000
0001
0100
0020
0000
0030
0000
,
1001
1000
0001
0001
,
0100
0000
0100
0000
0010
1000
0010
0000
,
1001
0001
1000
1000
,
0100
0110
2002
3003
,
1100
0000
0100
1000
0001
1000
0010
0000
,
0101
0000
0100
0001
1000
0001
0010
0000
,
1001
0000
0001
0100
0010
1000
0001
0010
,
0200
0300
2000
3002
0103
0100
0010
0000
,
1010
0000
0001
0000
1000
0010
1000
0000
,
0001
0010
0100
1000
0100
0000
0010
0000
,
0011
0000
1000
0000
0001
0010
0001
0000
,
1000
0010
0100
0001
0100
0000
0010
0000
,
1100
0000
0001
0000
1000
0100
1000
0000
,
0001
0100
0010
1000
0010
0000
0100
0000
,
0101
0000
1000
0000
0001
0100
0001
0000
,
1000
0100
0010
0001
0010
0001
0100
0000
,
0110
0101
0010
0101
,
0001
0010
0100
1000
0010
0000
0100
0000
,
0010
0110
1100
0110
,
1000
0010
0100
0001
0010
0000
0100
0000
,
1000
0110
1010
0110
,
0001
0100
0010
1000
0100
0000
0010
0000
,
0101
0110
1000
0110
,
1000
0100
0010
0001
0010
0001
0100
0000
,
0001
0000
0100
0010
2000
0000
0100
0000
,
0001
0000
3010
1000
0002
0000
0100
0000
,
1000
0000
0013
0001
2000
0000
3100
1000
,
0010
0101
0010
1100
,
0001
0000
0100
0010
2000
0000
0100
0000
,
0001
0000
3010
1000
0002
0000
0100
0000
,
1000
0000
0013
0001
1000
0000
0010
0000
,
0100
0000
0100
0001
0100
0001
1000
0000
,
0001
0000
1000
0100
0020
0000
1000
0000
,
0100
0000
0031
0010
0200
0000
0001
0000
,
0010
0000
1300
0100
0010
0000
0001
0100
,
0010
0000
1100
0000
0001
0000
1000
0100
,
0010
0000
0001
0100
0020
0000
0001
0000
,
0100
0000
1030
0010
0200
0000
1000
0000
,
0010
0000
0301
0100
0010
0000
1000
0100
,
0010
0001
0100
0010
0100
0010
1000
0000
,
0020
0000
0000
0000
,
0000
0000
0000
0000
,
0230
0000
0000
0000
,
0000
0000
0000
0300
,
0001
0010
0001
0010
0100
0000
2200
0000
,
3300
1000
0000
0001
1000
0000
0000
0000
,
0001
0010
0001
0010
0100
0000
2200
0000
,
3300
1000
0000
0001
0200
0000
0000
0000
,
0310
1010
1001
1100
,
0010
0011
1001
0101
,
1000
0100
0010
0000
0001
0010
0100
0000
,
1000
0010
0100
0000
0001
0100
0010
0000
,
1000
0100
1000
0100
0010
0000
0011
0000
,
0001
0100
0001
0100
0010
0000
1010
0000
,
1000
0100
0010
0001
0100
0000
0110
0000
,
2002
0000
0000
3003
,
0001
1000
0010
0000
0101
0000
0001
0100
,
0000
0001
0010
0000
1100
0000
1000
0100
,
0000
1000
0010
1000
0001
0100
1000
0100
,
0000
0001
0010
0001
1000
0100
0001
0100
,
0000
1000
0100
0000
0011
0000
0001
0010
,
0000
0001
0100
0000
1010
0000
1000
0010
,
0000
1000
0100
1000
0001
0010
1000
0010
,
0000
0001
0100
0001
0100
0000
0010
1000
,
0100
0010
0001
0000
0110
0000
1000
0001
,
0100
0010
1000
0000
0110
0000
0001
1000
,
0000
0010
0001
0010
1000
0001
1000
0100
,
0000
0010
1000
0010
0001
1000
0001
0100
,
0000
0010
1000
0000
0110
0000
0001
1000
,
0100
0010
0001
0000
0110
0000
1000
0001
,
0010
0100
0010
0001
0100
0010
0100
0001
,
0000
1000
0010
0000
0001
0010
1000
0200
,
0000
0000
0000
0000
,
0000
0000
0000
0000
,
0000
0000
0000
0300
,
0010
0001
0010
0001
0100
0000
2002
0000
,
3003
0000
0000
0000
;

//--------------- dance-single - forcednature ----------------
#NOTEDATA:;
#STEPSTYPE:dance-single;
#DESCRIPTION:forcednature;
#DIFFICULTY:Hard;
#METER:15;
#RADARVALUES:0,0,0,0,0;
#CREDIT:forcednature;
#NOTES:
0000
0000
0000
0000
,
0000
0000
0000
0000
,
0000
0000
0000
0000
,
0000
0000
0000
0000
,
0000
0000
0000
0000
,
0000
0000
0000
0000
,
0000
0000
0000
0000
,
0000
0000
0000
0000
,
0001
0100
0010
1000
0002
0000
0013
0000
,
0110
0000
0100
0100
1000
0000
0001
0100
,
0000
0010
1000
1000
0002
0003
0020
0030
,
0200
0300
2000
3000
0002
0003
0200
0300
,
0010
1000
0001
0001
0010
0000
0100
0000
,
1000
0000
0010
0010
0100
0000
0001
1000
,
0000
0100
1000
1000
0020
0030
0200
0300
,
0002
0003
2000
3000
0200
0300
0020
0030
,
0001
0100
0001
1000
0020
0000
0030
0000
,
1100
0000
0000
0000
1000
0000
0100
0000
1000
0000
0001
0000
1000
0010
1000
0000
,
0100
0000
0010
0001
0010
0000
0100
0000
,
1001
0000
0000
0000
0001
0000
0100
0000
0001
0000
1000
0000
0001
0010
0001
0000
,
0100
0000
0010
1000
0010
0000
0100
0000
0002
0000
0000
0000
0003
0000
0000
0000
,
1100
0000
1000
0100
0010
0001
1000
0000
,
0101
0000
0001
0100
0010
1000
0001
0000
,
1000
0100
0010
0100
0001
0100
1000
0001
,
0010
0000
0100
0010
0100
0000
1000
0000
0001
0010
0100
1000
0001
0000
0001
0000
,
0200
0000
0000
0000
0310
0000
1000
0000
0001
0000
0010
0100
0000
1000
0000
0000
,
0001
0000
0100
0000
0010
0000
1000
0000
0001
0000
1000
0100
0000
0000
0010
0000
,
0002
0000
0000
0000
0103
0000
0001
0000
1000
0000
0010
1000
0000
0001
0000
0000
,
0010
0000
0001
0000
0010
0000
0100
0000
1000
0000
0001
0100
0000
0000
1000
0000
,
0200
0000
0000
0000
0310
0000
1000
0000
0001
0000
0010
0100
0000
1000
0000
0000
,
0010
0000
0100
0000
0001
0000
0100
0000
0010
0000
1000
0001
0000
0000
0010
0000
,
0200
0000
0000
0000
0301
0000
0100
0000
1000
0000
0100
0010
0000
0001
0000
0000
,
1000
0000
1000
0000
0010
0100
0010
0000
0100
0001
0100
0000
0010
0000
0010
0000
,
1002
0000
0000
0000
1003
0000
0010
0000
0100
0000
0001
0010
0000
0100
0010
0000
,
0001
0000
1000
0000
0010
0000
1000
0000
0100
0000
0010
0001
0000
0001
0100
0000
,
0020
0000
0000
0000
0130
0000
0001
0000
1000
0000
0001
0010
0000
0001
1000
0000
,
0010
0000
0100
0000
0001
0000
0100
0000
0010
0000
1000
0100
0000
0100
0010
0000
,
0002
0000
0000
0000
1003
0000
0010
0000
0100
0000
0001
1000
0000
0100
1000
0000
,
0010
0000
0100
0000
0001
0000
0100
0000
0010
0000
1000
0100
0000
0100
0010
0000
,
0002
0000
0000
0000
0103
0000
0010
0000
1000
0000
0001
0010
0000
0100
0010
0000
,
0001
0000
0001
0000
0010
0100
0010
0000
0100
1000
0100
0000
0010
0000
0010
0000
,
2001
0000
3100
1000
0020
0000
0001
0000
,
2030
0000
0000
0000
3010
0000
0100
0001
0020
0000
0000
0000
1000
0000
0000
0000
,
0032
0000
0000
0000
0103
0000
0010
1000
0002
0000
0000
0000
0013
0000
0100
0000
,
1000
0000
0000
0001
0020
0000
0000
0000
0031
0000
0000
1000
0010
0000
0100
0001
,
2000
0000
0000
0000
3100
0000
0010
0001
0200
0000
0000
0000
1000
0000
0000
0000
,
0302
0000
0000
0000
0013
0000
0100
1000
0020
0000
0000
0000
0001
0000
0000
0000
,
2030
0000
0000
0000
3001
0000
0100
0001
0020
0000
0000
0000
0130
0000
1000
0000
,
0001
0100
0000
0100
0010
0000
1000
0000
0001
0010
0001
0010
0100
0000
0100
0000
,
1000
0000
0000
0000
1001
0000
0001
0100
0010
0000
1000
0000
0001
0000
1000
0100
,
0010
0000
0001
0000
1000
0000
0010
0100
0001
0000
0010
0000
0100
0000
1000
0000
,
0001
0100
0020
0000
0032
0000
1003
0100
,
0001
1000
0200
0000
0302
0000
1003
0010
,
0001
0000
0100
0000
0001
0000
1000
0010
0100
0000
0001
0000
1000
0000
0001
0010
,
0100
0000
1000
0000
0001
0000
0100
0001
1000
0000
0100
0000
0010
0000
1000
0000
,
0001
0100
2000
0000
3020
0000
0031
0010
,
0100
0000
0100
0000
0001
1000
0001
0000
1000
0100
1000
0000
0010
0000
0010
0000
,
2002
0000
0000
0000
,
0000
0000
0000
0000
,
0000
0000
0000
0000
,
0000
0000
0000
3003
,
1000
0100
0010
0001
0011
0000
1000
1000
,
0000
0100
0010
0001
0010
0000
0100
1000
,
0001
0100
0010
1000
1010
0000
0001
0001
,
0000
0100
0010
1000
0002
0000
0003
0000
,
1100
0000
1001
0000
1010
0000
0100
0001
,
0101
0000
1001
0000
0011
0000
0100
1000
,
0001
0100
1000
0100
0010
1000
0001
0000
,
1000
0100
0001
0100
1000
0001
0010
0000
,
0001
0100
1000
0100
0001
0010
1000
0010
,
0001
0100
1000
0100
0001
0010
1000
0010
,
0100
0001
0100
1000
0010
0001
0010
1000
,
0200
0000
0000
0310
,
0001
0010
0100
0000
1200
0000
0301
0100
,
1000
0010
0100
0000
0201
0000
1300
0100
,
0010
0000
1000
0001
0010
0000
0100
0000
1000
0010
1000
0000
0001
0100
0001
0000
,
0010
0000
0100
1000
0001
0000
0100
0000
0001
0010
0001
0000
1000
0100
1000
0000
,
0010
0100
0001
0000
0021
0000
1030
0010
,
0001
0100
0010
0000
1020
0000
0031
0010
,
1000
0000
0001
0010
0100
0000
1000
0000
0001
0100
0001
0000
1000
0010
1000
0000
,
0100
0000
0100
0000
1000
0001
1000
0000
0001
0100
0001
0000
0010
0000
0100
0000
,
1000
0000
0001
0100
0010
0000
1000
0000
0001
0010
0001
0000
1000
0000
0010
0000
,
0100
0000
0001
1000
0100
0000
0010
0000
0001
1000
0001
0000
0100
0000
0010
0000
,
1000
0000
0100
0010
0001
0000
1000
0000
0001
0100
0010
0000
1000
0010
0100
0000
,
0001
0000
1000
0001
0100
0000
0010
0000
1000
0100
0010
0000
0001
0010
0100
0000
,
1000
0000
0001
0100
0010
0000
1000
0000
0001
0010
0001
0000
0100
0000
0010
0000
,
1000
0000
0100
0010
0001
0000
0100
0000
0010
1000
0010
0000
0100
0000
0001
0000
,
1000
0100
1000
0000
0001
0010
0001
0000
1000
0010
1000
0000
0001
0100
0001
0000
,
0000
1000
0200
0000
0310
0001
0100
0020
,
0000
0000
1000
0000
1000
0000
0000
0100
,
0000
0100
0000
0000
0001
0000
0001
0000
,
0000
0100
0100
0000
,
1030
0100
0010
0001
0100
0000
2002
0000
,
3003
0000
0000
0000
;

//--------------- dance-double - forcednature ----------------
#NOTEDATA:;
#STEPSTYPE:dance-double;
#DESCRIPTION:forcednature;
#DIFFICULTY:Easy;
#METER:8;
#RADARVALUES:0,0,0,0,0;
#CREDIT:forcednature;
#NOTES:
00000000
00000000
00000000
00000000
,
00000000
00000000
00000000
00000000
,
00000000
00000000
00000000
00000000
,
00000000
00000000
00000000
00000000
,
00000000
00000000
00000000
00000000
,
00000000
00000000
00000000
00000000
,
00000000
00000000
00000000
00000000
,
00000000
00000000
00000000
00000000
,
00001000
00000000
00010000
00000000
,
00011000
00000000
00001000
00000000
,
01000000
00000000
00010000
10000000
,
00010000
00000000
00100000
00000000
,
01000000
00000000
10000000
00010000
,
10000000
00000000
00100000
00000000
,
01000000
00000000
00001000
00010000
,
00001000
00000000
00010000
00000000
,
00000100
00000000
00000110
00000000
,
00002002
00000000
00000000
00000000
,
00000000
00000000
00003003
00000000
,
00000220
00000000
00000000
00000000
,
00000000
00000000
00000330
00000000
,
00022000
00000000
00033000
00000000
,
02200000
00000000
03300000
00000000
,
20020000
00000000
30030000
00000000
,
00020000
20030000
30000000
00010000
,
00100000
00000000
01000000
00100000
,
01000000
00000000
00010000
00000000
,
00011000
00000000
00010000
00000100
,
00010000
00000000
00000100
00000000
,
00000110
00000000
00000010
00000001
,
00000010
00000000
00000001
00000000
,
00001001
00000000
00001000
00000010
,
00001000
00000000
00000100
00000000
,
00011000
00000000
00001000
01000000
,
00001000
00000000
00100000
00000000
,
01100000
00000000
01000000
10000000
,
01000000
00000000
00100000
00000000
,
10010000
00000000
00010000
01000000
,
00010000
00000000
00100000
00000000
,
00011000
00000000
00010000
00000000
,
00000100
00000000
00000010
00000000
,
00000000
00000001
00000100
00000001
,
00000000
00000100
00001000
00000100
,
00000000
00001000
00010000
00001000
,
00000000
00010000
00000000
00100000
,
00000000
10000000
01000000
10000000
,
00000000
01000000
00010000
01000000
,
00000000
00010000
00000000
00001000
,
00000000
00000010
00000100
00000010
,
00000000
00000001
00000100
00000001
,
00000000
00000100
00001000
00000100
,
00000000
00001000
00010000
00001000
,
00000000
00010000
00100000
00010000
,
00000000
00100000
10000000
00100000
,
00000000
10000000
01000000
10000000
,
00000000
01000000
00010000
01000000
,
00000000
00010000
00000000
00022000
,
00000000
00000000
00000000
00000000
,
00000000
00000000
00000000
00000000
,
00000000
00000000
00000000
00000000
,
00000000
00000000
00033000
00000000
,
00010000
00000000
00001100
00000000
,
00000000
00000000
00001100
00000000
,
00001000
00000000
01010000
00000000
,
00000000
00000000
01010000
00000000
,
10000000
00000000
01000000
10000000
,
01000000
00000000
00010000
00000000
,
00001000
00010000
00001000
00000000
,
00010000
00001000
00010000
00000000
,
00000100
00001000
00000100
00000000
,
00000010
00000100
00000010
00000000
,
00000001
00000010
00000001
00000000
,
00002002
00000000
00000000
00003003
,
00001000
00000010
00000100
00000001
,
00000010
00000100
00010000
00001000
,
00010000
00000010
00001000
00000010
,
00000100
00001000
00010000
00001000
,
01000000
00010000
00100000
01000000
,
10000000
00100000
10000000
01000000
,
00100000
00010000
01000000
00001000
,
00020000
00000000
00000000
00030000
,
00000100
00001000
00001001
00000001
,
00000100
00000010
00000110
00000100
,
00000010
00010000
00011000
00001000
,
00100000
01000000
01100000
00100000
,
00010000
10000000
10010000
00010000
,
01000000
00001000
00011000
00010000
,
00000100
00001000
00001001
00000001
,
00000200
00000000
00000000
00000320
,
00000000
00000000
00000000
00000000
,
00000000
00000000
00000000
00000000
,
00000000
00000000
00000000
00000000
,
00001030
00000000
00000002
00000023
,
00000030
00000000
00000000
00000000
;

//--------------- dance-double - forcednature ----------------
#NOTEDATA:;
#STEPSTYPE:dance-double;
#DESCRIPTION:forcednature;
#DIFFICULTY:Medium;
#METER:12;
#RADARVALUES:0,0,0,0,0;
#CREDIT:forcednature;
#NOTES:
00000000
00000000
00000000
00000000
,
00000000
00000000
00000000
00000000
,
00000000
00000000
00000000
00000000
,
00000000
00000000
00000000
00000000
,
00000000
00000000
00000000
00000000
,
00000000
00000000
00000000
00000000
,
00000000
00000000
00000000
00000000
,
00000000
00000000
00000000
00000000
,
00001000
00010000
00000000
00010000
00001000
00000000
00100000
00000000
,
01100000
01000000
11000000
00000000
,
00110000
00100000
00002000
00003020
,
00000032
00000203
00002300
00003200
,
00000302
00000003
00000010
00000100
,
00010100
00010000
00011000
00000000
,
01010000
01000000
00002000
00203000
,
02300000
03020000
02030000
03200000
,
00301000
00000000
00010000
00000100
00020000
00000000
00030000
00000000
,
00011000
00000000
00001000
00000000
00100000
00000000
01000000
00100000
,
01000000
00100000
00001000
00010000
,
00011000
00000000
00010000
00000000
00000010
00000000
00000100
00000010
,
00000100
00000110
00002002
00003003
,
00001001
00000000
00001000
00000000
00000100
00010000
00001000
00000000
,
00011000
00000000
00001000
00000000
01000000
00010000
10000000
00000000
,
10010000
00000000
10000000
00000000
01000000
00100000
01000000
00100000
,
00002000
00003000
00002000
00023000
00030000
00000000
00011000
00000000
,
00000000
00000000
00000100
00001000
00000100
00000000
00000010
00000000
,
00000001
00000100
00000001
00000000
00001000
00000010
00001000
00000000
,
00000100
00000000
00010000
00001000
00010000
00000000
00100000
00000000
,
01000000
00010000
01000000
00000000
00100000
10000000
00100000
00000000
,
10000000
00000000
01000000
00100000
01000000
00000000
00010000
00000000
,
00001000
00100000
00001000
00000000
00010000
00000100
00010000
00000000
,
00001000
00000000
00000010
00000001
00000010
00000000
00000100
00000000
,
00002000
00000000
00000010
00000000
00000001
00000000
00003100
00001000
,
00000001
00000000
00000100
00000010
00001000
00000000
00000100
00010000
,
00001000
00000000
01000000
00010000
00100000
00000000
01100000
00000000
,
10010000
00000000
00010000
01000000
00001000
00000000
00010000
00000100
,
00001000
00000000
00000001
00000100
00000010
00000000
00000110
00000000
,
00001001
00000000
00001000
00000100
00010000
00000000
00001000
00100000
,
00010000
00000000
10000000
00100000
01000000
00000000
01100000
00000000
,
10010000
00000000
10000000
01000000
00100000
00000000
00001000
00000000
,
00020000
00000000
00100000
00000000
00001000
00000000
00030100
00010000
,
00001000
00000010
00000110
00001100
,
00010000
00001000
01001000
01010000
,
00010000
00100000
01100000
11000000
,
10000000
00100000
01000000
00000000
00100000
10000000
01000000
00000000
,
00100000
00001000
00011000
00010100
,
00000100
00001000
00001010
00000110
,
00000100
00000000
00000001
00000010
00000100
00000000
00000010
00000000
,
00000001
00000000
00000100
00001000
00010000
00000000
00001000
00010000
,
00100000
01100000
01010000
00110000
,
01000000
11000000
10100000
01010000
,
00001000
00010000
00000100
00000000
00000110
00000000
00000010
00000000
,
00000001
00000100
00000010
00000000
00000110
00000000
00000100
00000000
,
00000001
00001100
00010100
00010010
,
00010000
00101000
00110000
01100000
,
10000000
00010000
10000000
00000000
00100000
00000000
01000000
00000000
,
00001000
00010000
00001000
00000000
00000010
00000000
00000110
00000000
,
00002002
00000000
00000000
00000000
,
00000000
00000000
00000000
00000000
,
00000000
00000000
00000000
00000000
,
00000000
00000000
00000000
00003003
,
00000001
00000100
00001000
00010000
,
00000000
00010000
00011000
00000000
,
00001000
00010000
01000000
10000000
,
00000000
00100000
00000000
01000000
00100000
00000000
00000000
00000000
,
10000000
00010000
10000000
00000000
01000000
00000000
00010000
00000000
,
00001000
00010000
00001000
00000000
00000100
00000000
00000001
00000000
,
00000010
00000100
00000010
00000000
00000100
00001000
00000100
00000000
,
00010000
00001000
00010000
00000000
00001000
01000000
00001000
00000000
,
00010000
00000010
00001000
00000000
00001100
00000000
00010100
00000000
,
00001000
00100000
00010000
00000000
01010000
00000000
01001000
00000000
,
00010000
00000010
00001000
00000000
00001100
00000000
00000110
00000000
,
00000002
00000000
00000000
00000103
,
00000001
00000010
00000100
00000000
00000110
00000000
00000010
00000100
,
00000000
00010000
00001000
00000000
00011000
00000000
00001000
00100000
,
00000000
00010000
01000000
00000000
00100000
10000000
01000000
10000000
,
00000000
00100000
01000000
00000000
00010000
00100000
00010000
01000000
,
00000000
00001000
00010000
00000000
00011000
00000000
00010000
00000100
,
00000000
00001000
00000001
00000000
00001001
00000000
00000001
00000100
,
00000000
00000010
00001000
00000000
00000100
00000010
00000100
00010000
,
00000000
00000000
00002000
00000000
02003000
00000000
00000000
03010000
,
00000000
10000000
00100000
00000000
01100000
00000000
01000000
00001000
,
00000000
00010000
00000100
00000000
00000110
00000000
00000010
00000001
,
00000000
00000100
00000010
00000000
00001000
00000100
00000010
00000100
,
00000000
00010000
00001000
00000000
01000000
00010000
00100000
01000000
,
00000000
00100000
00001000
00000000
00011000
00000000
00010000
00000010
,
00000000
00001000
00000100
00000000
00000110
00000000
00000010
00000001
,
00000000
00000100
00001000
00000000
00010000
00001000
01000000
00010000
,
00000000
00100000
00001000
00000000
00010000
00000010
00010000
00002000
,
00000000
00000000
00000000
00000000
,
00000000
00000000
00000000
00000000
,
00000000
00000000
00000000
00000000
,
00103000
00100000
00000000
01000000
01000000
00000000
20020000
00000000
,
30030000
00000000
00000000
00000000
;

//--------------- dance-double - forcednature ----------------
#NOTEDATA:;
#STEPSTYPE:dance-double;
#DESCRIPTION:forcednature;
#DIFFICULTY:Hard;
#METER:16;
#RADARVALUES:0,0,0,0,0;
#CREDIT:forcednature;
#NOTES:
00000000
00000000
00000000
00000000
,
00000000
00000000
00000000
00000000
,
00000000
00000000
00000000
00000000
,
00000000
00000000
00000000
00000000
,
00000000
00000000
00000000
00000000
,
00000000
00000000
00000000
00000000
,
00000000
00000000
00000000
00000000
,
00000000
00000000
00000000
00000000
,
00001000
00010000
00001000
00000010
00000200
00000000
00001300
00000000
,
00000011
00000000
00000001
00000100
00001000
00000000
00000100
00000001
,
00000000
00000100
00001000
00010000
00001000
00000000
00100000
00000000
,
01000000
00000000
00010000
00001000
00010000
00000000
00100000
01000000
,
00000000
00100000
10000000
01000000
00010000
00000000
01000000
10000000
,
00100000
00000000
10000000
01000000
00010000
00000000
00001000
00010000
,
00000000
01000000
10000000
00100000
00010000
00000000
00001000
00010000
,
00001000
00000000
00000010
00000001
00000100
00000000
00001000
00010000
,
00100000
01100000
20020000
30030000
,
11000000
00000000
10000000
01000000
00010000
00001000
00000100
00000001
,
00000010
00000000
00000100
00001000
00000010
00000000
00000100
00000000
,
00000101
00000000
00000001
00000100
00001000
00010000
01000000
10000000
,
00100000
01100000
20020000
30030000
,
10000000
01000000
00010000
00001000
00000100
00000001
00000010
00000000
,
00000001
00000100
00001000
00010000
01000000
10000000
00100000
00000000
,
10000000
01000000
00100000
00010000
00001000
00000100
00000010
00000001
,
00000200
00000000
00000300
00000000
00000010
00000000
00000010
00000000
00001000
00000001
00001000
00000001
00000010
00000000
00000010
00000000
,
00002000
00000000
00103000
00001000
00010000
00100000
01000000
00010000
,
10000000
01000000
00010000
00001000
00100000
01000000
00010000
00001000
,
00000020
00000000
00000130
00010000
00000010
00000100
00000001
00000010
,
00000001
00000100
00001000
00010000
00000010
00001000
00000100
00000010
,
00002000
00000000
00013000
01000000
00100000
00001000
00010000
00100000
,
10000000
01000000
00010000
00001000
01000000
00100000
00010000
00001000
,
00000020
00000000
00000130
00010000
00001000
00000100
00000001
00000000
,
00000010
00000100
00010000
00001000
00100000
01000000
01100000
00000000
,
00200000
00000000
00000000
00000000
00301000
00000000
00010000
00000000
00100000
00000000
01000000
00100000
01000000
00000000
00010000
00000000
,
10000000
00000000
01000000
10000000
01000000
00000000
00010000
00000000
00001000
00000000
00100000
00001000
00100000
00000000
01000000
00000000
,
00020000
00000000
00000000
00000000
00031000
00000000
00000010
00000000
00000100
00000000
00001000
00000100
00001000
00000000
00000001
00000000
,
00000100
00000000
00000010
00000100
00000010
00000000
00010000
00000000
00001000
00000000
01000000
00001000
01000000
00000000
00100000
00000000
,
20000000
00000000
00000000
00000000
31000000
00000000
00010000
00000000
00001000
00000000
01000000
00001000
01000000
00000000
00010000
00000000
,
00100000
00000000
01000000
00100000
01000000
00000000
00010000
00000000
00001000
00000000
00100000
00001000
00100000
00000000
01000000
00000000
,
00020000
00000000
00000000
00000000
00031000
00000000
00000100
00000000
00000001
00000000
00001000
00000001
00001000
00000000
00000000
00000000
,
00000010
00000100
00001000
00010000
01000000
00100000
01100000
00000000
,
00011000
00000000
00010000
01000000
10000000
00100000
00010000
00000000
,
00011000
00000000
00001000
00000100
00000001
00000010
00001000
00000000
,
00011000
00000000
00010000
01000000
10000000
00100000
00010000
00000000
,
00001000
00000010
00001000
00000000
00010000
00100000
00010000
00000000
,
00011000
00000000
00001000
00000100
00000001
00000010
00001000
00000000
,
00011000
00000000
00010000
01000000
10000000
00100000
00010000
00000000
,
00011000
00000000
00001000
00000100
00000002
00000000
00000103
00001000
,
00020000
00000000
00000000
00000000
00130000
00000000
10000000
00000000
00010000
00100000
00010000
00100000
01000000
00000000
00000000
00000000
,
00020000
00000000
00031000
00000010
00000001
00000100
00001000
01000000
,
00002000
00000000
00013000
00100000
10000000
01000000
00010000
00000100
,
00020000
00000000
00031000
00000100
00000001
00000010
00001000
00100000
,
00002000
00000000
00013000
01000000
10000000
00100000
00010000
00000010
,
00020000
00000000
00031000
00000100
00000001
00000010
00001000
01000000
,
00002000
00000000
00013000
01000000
10000000
00100000
00010000
00000100
,
00020000
00000000
00031000
00000100
00000001
00000010
00001000
01000000
,
00002000
00000000
00003010
00000100
00010000
00000010
00000110
00000000
,
00001002
00000000
00000103
00000000
00001000
00000000
00000000
00010000
,
00000000
00100000
00000000
00000000
10000000
00000000
00010000
00000000
,
10000000
00000000
01000000
00000000
00010000
00000000
00000000
00001000
,
00000000
00000010
00000000
00000000
00000001
00000000
00000100
00000000
,
00001000
00010000
01000000
00100000
00001000
00000000
00012000
00000000
,
00003000
00100000
01000000
00010000
01000000
00000000
10000000
00100000
,
00010000
00001000
00000100
00000010
00010000
00000000
00021000
00000000
,
00030000
00000010
00000100
00001000
00000200
00000000
00000300
00000000
,
00001000
01000000
00010000
00100000
01000000
00010000
00001000
00000010
,
00000000
00000100
00010000
00000010
00000100
00000001
00000010
00000100
,
00000000
00010000
01000000
00010000
00001000
00000100
00001000
00010000
,
00000000
00001000
00000010
00001000
00010000
00100000
00010000
00001000
,
00000000
00010000
01000000
10000000
00100000
10000000
01000000
00010000
,
00000000
00001000
00000100
00000001
00000010
00000001
00000100
00001000
,
00000000
00010000
01000000
10000000
00100000
00010000
00001000
00000100
,
00000002
00000000
00000000
00000013
,
00000001
00000100
00001000
00000000
00012000
00000000
01003000
00100000
,
10000000
01000000
00010000
00000000
00021000
00000000
00030100
00000010
,
00000000
00000000
00000100
00001000
00000100
00000000
00010000
00000000
00001000
00100000
00001000
00000000
00010000
00000000
00000100
00000000
,
00000000
00000000
01000000
00010000
01000000
00000000
00001000
00000000
00010000
00000010
00010000
00000000
00000100
00000000
00001000
00000000
,
00000000
00000010
00000100
00000000
00021000
00000000
00130000
01000000
,
00010000
00100000
01000000
00000000
00012000
00000000
00003010
00000100
,
00000000
00000000
00001000
00000010
00001000
00000000
00000100
00000000
00010000
00001000
00010000
00000000
00001000
00000000
01000000
00000000
,
00020000
00000000
00000000
00000000
00130000
00010000
00100000
00000000
01000000
00100000
01000000
00000000
10000000
00000000
00100000
00000000
,
00000000
00000000
10000000
01000000
00100000
00000000
01000000
00000000
00100000
00001000
00010000
00000000
00000100
00000000
00001000
00000000
,
00000000
00000000
00000001
00000100
00000010
00000000
00000100
00000000
00000010
00010000
00001000
00000000
01000000
00000000
00010000
00000000
,
00000000
00000000
00100000
01000000
00100000
00000000
00001000
00000000
00010000
00000100
00010000
00000000
00001000
00100000
00001000
00000000
,
00010000
00000000
00000010
00000100
00000010
00000000
00010000
00000000
00001000
01000000
00001000
00000000
00010000
00000010
00010000
00000000
,
00000000
00000000
00000001
00000100
00000010
00000000
00001000
00000000
00000100
00000010
00000100
00000000
00010000
00000000
00001000
00000000
,
00000000
00000000
10000000
01000000
00100000
00000000
00010000
00000000
01000000
00100000
01000000
00000000
00001000
00000000
00010000
00000000
,
00011000
00000000
00000000
00000000
00010000
00000100
00010000
00000000
00000100
00001000
00000001
00000000
00000010
00000001
00000010
00000000
,
00000000
00000001
00000200
00000000
00001300
00010000
01000000
00200000
,
00000000
00000000
00001000
00000000
00001000
00000000
00000000
00010000
,
00000000
00010000
00000000
00000000
10000000
00000000
10000000
00000000
,
00000000
00000000
00010000
00000000
00010000
00000000
00000000
00300000
,
00001000
00000010
00000100
00010000
00001000
00000000
00022000
00000000
,
00033000
00000000
00000000
00000000
;
