#VERSION:0.83;
#TITLE:SPARK IN THE NIGHT;
#SUBTITLE:;
#ARTIST:BEMANI Sound Team "L.E.D.-G";
#TITLETRANSLIT:;
#SUBTITLETRANSLIT:;
#ARTISTTRANSLIT:L.E.D.-G;
#GENRE:EUPHORIC HARDSTYLE;
#CREDIT:;
#MUSIC:SPARK IN THE NIGHT.ogg;
#BANNER:SPARK IN THE NIGHT.png;
#BACKGROUND:SPARK IN THE NIGHT-bg.png;
#CDTITLE:./CDTitles/bm IIDX 29 CastHour.png;
#SAMPLESTART:89.369;
#SAMPLELENGTH:14.000;
#SELECTABLE:YES;
#OFFSET:0.631;
#BPMS:0.000=160.000;
#STOPS:;
#BGCHANGES:0.000=../BGAs/21he.mp4=1.000=0=0=0=StretchNoLoop====,
99999.000=-nosongbg-=1.000=0=0=0=StretchNoLoop====
;
#FGCHANGES:;

//--------------- dance-single - forcednature ----------------
#NOTEDATA:;
#STEPSTYPE:dance-single;
#DESCRIPTION:forcednature;
#DIFFICULTY:Beginner;
#METER:2;
#RADARVALUES:0,0,0,0,0;
#CREDIT:forcednature;
#NOTES:
0000
0000
0000
0000
,
0000
0000
0000
0000
,
0000
0000
0000
0000
,
0000
0000
0000
0000
,
0000
0000
0000
0000
,
0000
0000
0000
0000
,
1000
0000
0000
0000
,
0000
0000
0000
0000
,
0001
0000
0000
0000
,
1000
0000
0000
0000
,
0010
0000
0000
0000
,
0000
0000
0000
0000
,
0000
0000
0000
0000
,
0000
0000
0000
0000
,
0100
0000
0000
0000
,
0000
0000
0000
0000
,
0001
0000
0000
0000
,
0000
0000
0000
0000
,
0010
0000
0000
0000
,
0000
0000
0000
0000
,
0001
0000
0000
0000
,
0000
0000
0000
0000
,
1000
0000
0000
0000
,
1000
0000
0000
0000
,
0010
0000
0000
0000
,
0010
0000
0000
0000
,
0100
0000
0000
0000
,
0001
0000
0000
0000
,
1001
0000
0000
0000
,
0000
0000
0000
0000
,
1000
0000
0000
0000
,
0000
0000
0000
0000
,
0001
0000
0000
0000
,
0000
0000
0000
0000
,
0100
0000
0000
0000
,
0010
0000
0000
0000
,
0100
0000
0010
0000
,
0100
0000
0010
0000
,
1001
0000
0000
0000
,
0000
0000
0000
0000
,
0001
0000
0000
0000
,
0100
0000
0000
0000
,
0001
0000
0000
0000
,
1000
0000
0000
0000
,
0010
0000
0000
0000
,
0100
0000
0000
0000
,
0001
0000
0000
0000
,
1000
0000
1000
0000
,
1000
0000
0000
0000
,
0100
0000
0000
0000
,
0010
0000
0000
0000
,
0001
0000
0000
0000
,
0100
0000
0000
0000
,
0010
0000
0000
0000
,
1000
0000
0001
0000
,
1000
0000
0001
0000
,
0010
0000
0000
0000
,
0000
0000
0000
0000
,
0100
0000
0000
0000
,
0000
0000
0000
0000
,
2002
0000
0000
0000
,
0000
0000
0000
0000
,
0000
0000
0000
0000
,
0000
0000
0000
0000
,
3003
0000
0000
0000
,
0001
0000
0001
0000
,
0001
0000
0000
0000
,
0100
0000
0000
0000
,
0010
0000
0000
0000
,
1000
0000
0000
0000
,
0100
0000
0000
0000
,
0010
0000
0010
0000
,
0001
0000
0001
0000
,
0100
0000
0000
0000
,
0001
0000
0000
0000
,
1000
0000
0000
0000
,
0010
0000
0000
0000
,
1001
0000
0000
0000
,
0100
0000
0000
0000
,
1001
0000
0010
0000
,
0100
0000
0010
0000
,
1001
0000
0000
0000
;

//--------------- dance-single - forcednature ----------------
#NOTEDATA:;
#STEPSTYPE:dance-single;
#DESCRIPTION:forcednature;
#DIFFICULTY:Easy;
#METER:6;
#RADARVALUES:0,0,0,0,0;
#CREDIT:forcednature;
#NOTES:
0000
0000
0000
0000
,
0000
0000
0000
0000
,
0000
0000
0000
0000
,
0000
0000
0000
0000
,
0000
0000
0000
0000
,
0000
0000
0000
0000
,
1000
0000
1000
0000
,
0001
0000
0100
0100
,
0001
0000
0001
0000
,
1000
0000
0100
0100
,
0020
0000
0000
0000
,
0000
0000
0000
0000
,
0000
0000
0000
0000
,
0000
0000
0000
0030
,
0001
0000
0000
0000
,
0100
0000
0000
0000
,
0010
0000
1000
0000
,
0010
0000
0000
0000
,
1000
0000
0000
0000
,
0100
0000
0000
0000
,
0220
0000
0000
0000
,
0330
0000
0000
0000
,
0001
0000
0001
0000
,
0100
0000
0001
0000
,
1000
0000
1000
0000
,
0100
0000
1000
0000
,
0010
0000
0010
0100
,
0010
0000
0100
0000
,
2002
0000
0000
0000
,
0000
0000
3003
0000
,
1000
0000
0000
0000
,
0100
0000
0000
0000
,
0010
0000
0000
0000
,
0001
0000
0001
0000
,
0001
0000
0000
0000
,
0100
0000
0000
0000
,
0010
0000
0010
0000
,
1000
1000
0001
0001
,
0020
0000
0000
0000
,
0000
0000
0000
0030
,
0100
1000
0100
1000
,
0001
0010
0100
0000
,
1000
0010
1000
0010
,
0100
0001
1000
0000
,
0010
0100
0010
0100
,
0001
0010
0001
0010
,
0100
1000
0100
1000
,
1001
0000
0000
0001
,
0100
0010
0100
0010
,
1000
0001
1000
0001
,
0010
0100
0010
0100
,
1000
0010
1000
0100
,
0110
0000
0010
0001
,
1001
0000
1000
1000
,
0020
0030
0200
0300
,
0001
1001
1000
1001
,
0020
0000
0000
0000
,
0000
0000
0000
0000
,
0000
0000
0000
0000
,
0000
0000
0000
0030
,
2002
0000
0000
3003
,
0220
0000
0000
0330
,
2002
3003
0220
0330
,
1000
0001
0100
0020
,
0000
0000
0000
0130
,
1001
0010
0010
0000
,
0110
0000
1000
0001
,
1001
0000
1000
0100
,
0010
0100
1000
0001
,
1001
0000
0001
0100
,
0110
0000
1000
0100
,
0110
0000
1000
1000
,
0001
0001
0100
0010
,
1001
0000
0001
0010
,
0100
0010
0001
1000
,
1001
0000
1000
0010
,
0100
0010
1000
0001
,
2002
0000
0000
3003
,
0220
0000
0330
0001
,
0001
1000
1000
0010
,
0000
0100
0001
0010
,
2002
0000
0000
0000
,
3003
0000
0000
0000
;

//--------------- dance-single - forcednature ----------------
#NOTEDATA:;
#STEPSTYPE:dance-single;
#DESCRIPTION:forcednature;
#DIFFICULTY:Medium;
#METER:10;
#RADARVALUES:0,0,0,0,0;
#CREDIT:forcednature;
#NOTES:
0000
0000
0000
0000
,
0000
0000
0000
0000
,
0000
0000
0000
0000
,
0000
0000
0000
0000
,
0000
0000
0000
0000
,
0000
0000
0000
0000
,
1100
0000
0001
0000
0010
0000
0001
0100
,
0001
0000
1000
0000
0010
0010
0100
0000
,
0001
0000
0010
0000
0001
0000
1000
0100
,
1000
0000
0010
0000
0100
0100
0001
0000
,
2002
0000
0000
0000
,
0000
0000
0000
0000
,
0000
0000
0000
0000
,
0000
3003
1000
0100
,
2000
0000
3001
0100
,
0002
0000
0013
0100
,
2000
0000
3010
0100
,
0002
0003
0010
0001
,
0020
0000
0130
1000
,
0002
0003
0100
0010
,
2002
0000
0000
0000
,
3003
0000
1000
0100
,
0120
0001
0001
0130
,
2100
0001
0001
3010
,
0120
1000
1000
0130
,
0102
1000
1000
0013
,
1001
0000
1000
0100
1000
0000
0010
0000
,
1001
0000
0001
0100
0001
0000
0010
0000
,
0220
0000
0000
0000
,
0000
0000
0330
0000
,
1000
1000
0100
1000
,
0010
0100
0001
0010
,
0001
0001
0100
0001
,
0010
0100
1000
0010
,
1001
1000
0010
0100
,
1001
0000
0001
0000
0010
0000
0100
1000
,
1000
0000
0001
0010
0010
0000
0001
1000
,
1000
0010
0100
0010
1000
0001
0100
0001
,
0020
0000
0000
0000
,
0000
0000
0000
0030
,
1000
0000
0100
0000
1000
0001
0010
0000
,
0101
0000
0101
0000
1010
0000
1000
1000
,
0001
0000
0100
0000
0001
1000
0010
0000
,
1100
1100
0011
0001
,
0100
0000
0100
0010
1000
0000
1000
1000
,
0100
0000
0000
0000
0100
0000
0010
0000
0001
0000
0000
0001
0000
0000
0001
0000
,
0100
0000
0010
0000
1000
0001
1000
0001
,
0020
0000
0000
0000
0030
0000
0001
1000
,
0001
0000
0100
0000
0001
1000
0010
0000
,
1100
0000
1100
0000
0011
0000
0001
0001
,
1000
0000
0100
0000
1000
0001
0010
0000
,
0101
0101
1010
1000
,
0100
0000
0100
0010
0001
0000
0001
0001
,
0100
0000
0100
0010
1000
1000
1000
0000
,
0220
0000
0330
0000
1001
0000
0001
1000
,
0010
0000
0000
0010
0000
0000
0010
0000
0100
0000
0000
0100
0000
0000
0001
0000
,
2000
0000
0000
0000
,
0000
0000
0000
0000
,
0000
0000
0000
0000
,
0000
0000
0000
3000
,
0022
0000
0000
0033
,
2200
0000
0000
0000
0000
3300
0000
0001
,
0200
0000
0300
0010
2000
0000
3000
0001
,
0100
0000
0110
0000
1000
0001
1000
0002
,
0000
0000
0000
0000
0000
0010
0013
0000
,
0110
0000
0100
0100
1000
0100
0000
1000
,
0001
0001
0010
0001
0000
1000
0010
0000
,
0110
0000
0100
0001
1000
0000
0010
1000
,
0001
0000
0010
0000
0100
0100
0100
0000
,
1001
0000
1000
0010
0100
0000
0001
0010
,
0100
0000
1000
0001
0100
0000
0001
1000
,
0010
0000
0110
0000
0100
0001
0100
0000
,
0010
0000
0010
0000
0010
0000
0000
0000
1000
0000
0000
1000
0000
0000
0001
0000
,
0010
0000
0100
1000
0100
0000
0010
0001
,
0010
0000
0001
1000
0010
0000
0110
0000
,
1001
0000
1000
0010
1000
0000
0001
0010
,
0001
0000
0100
0000
0010
0010
0010
0000
,
2002
0000
0000
3003
,
0220
0000
0000
0000
0330
0000
1000
1000
,
0001
0100
0001
0000
1000
0010
1000
0010
,
0000
0000
0100
0000
0100
0000
0001
0000
1000
0000
0000
1000
0000
0000
0001
0000
,
0020
0000
0000
0000
,
0030
0000
0000
0000
;

//--------------- dance-single - forcednature ----------------
#NOTEDATA:;
#STEPSTYPE:dance-single;
#DESCRIPTION:forcednature;
#DIFFICULTY:Hard;
#METER:15;
#RADARVALUES:0,0,0,0,0;
#CREDIT:forcednature;
#NOTES:
0000
0000
0000
0000
,
0000
0000
0000
0000
,
0000
0000
0000
0000
,
0000
0000
0000
0000
,
0000
0000
0000
0000
,
0000
0000
0000
0000
,
1000
0000
0100
0000
0001
0000
0000
0000
1100
0000
0000
0000
1000
0000
0001
0010
,
0100
0000
0000
0000
0010
0000
1001
0000
0001
0000
0001
0100
0010
0000
1000
0000
,
0001
0100
1000
0000
0101
0000
0001
1000
,
0010
0000
0010
0000
0100
0000
0010
0000
1000
0001
1000
0001
1000
0000
0001
1000
,
0020
0000
0000
0000
,
0000
0000
0000
0000
,
0000
0000
0000
0000
,
0000
0030
0100
0010
,
2001
0000
3200
0320
,
0032
0000
0100
1000
,
0020
0033
2100
3010
,
0220
0330
0001
0100
,
0120
0000
1030
0001
,
0021
0030
0001
1000
,
1020
0000
0100
0100
,
0230
0000
1000
0010
,
0301
0101
0110
0010
,
1000
1100
0110
0010
,
0110
0000
1001
0000
1000
0100
0010
0000
,
0110
0000
1001
0000
0001
0100
0010
0000
,
1010
0000
0001
0100
0001
0010
0001
0100
,
1001
0000
0000
0000
1000
0000
0001
0000
0100
0010
0100
0010
0100
0000
0000
0000
,
0220
0000
0000
0000
,
0000
0000
0330
0000
,
0001
0001
0100
0100
,
0001
0001
1000
0010
,
1000
1000
0100
0100
,
1000
1000
0001
0010
,
0110
0000
1000
0100
1000
0010
1000
0100
,
0110
0000
0001
0100
0001
0010
0001
0101
,
0110
0000
1000
1100
0110
0000
0001
1001
,
1000
0000
1100
0000
0001
0000
0101
0000
0010
0000
0110
0000
0001
0000
1000
0010
,
0200
0000
0000
0000
,
0000
0000
0000
0000
,
0301
0000
1000
0010
0000
0100
0010
0000
1000
0001
0000
0100
0001
0000
1000
0000
,
0100
0000
0010
0001
0000
0001
1000
0000
0100
0010
0000
0001
0010
0000
0001
0000
,
1000
0000
0001
0100
0000
0001
1000
0000
0010
0100
0000
0010
1000
0000
0001
0000
,
0010
0000
0100
1000
0000
1000
0010
0000
0100
0001
0000
0010
0001
0000
0100
0000
,
0010
0000
0001
1000
0000
0010
1000
0000
0100
0000
0010
0001
0000
1000
0001
0000
,
0100
0000
0010
1000
0000
0001
1000
0000
0100
0000
0010
0100
0010
0000
0001
0010
,
0001
0000
1000
0010
0000
0100
0010
0000
1000
0000
1000
0001
0010
0000
0100
0000
,
0220
0000
0000
0000
0000
0330
0000
0000
0001
0000
0000
0001
1000
0000
0001
0100
,
0010
0000
1000
0100
0000
0010
0100
0000
1000
0001
0000
0010
0001
0000
1000
0000
,
0010
0000
0100
0001
0000
0001
0010
0000
0001
0100
0000
1000
0100
0000
0001
0000
,
1000
0000
0010
0100
0000
0001
0100
0000
0010
1000
0000
0001
1000
0000
0100
0000
,
0010
0000
0001
1000
0000
1000
0010
0000
0100
1000
0000
0100
0001
0000
1000
0000
,
1001
0000
0000
0001
0010
0000
0100
0000
1000
0000
0010
0100
0001
0000
0001
1000
,
0010
0000
0000
0100
0001
0000
0010
0000
0001
1000
0100
0000
0010
0000
0100
1000
,
0020
0000
0000
0100
0000
0000
0130
0000
0001
0000
0000
0001
1000
0000
1000
0001
,
0010
0000
0000
0110
0000
0000
1001
0000
0001
0100
0000
0110
0000
0000
0010
1000
,
0002
0000
0000
0000
,
0000
0000
0000
0000
,
0023
0000
0000
0000
,
0200
0000
0000
0330
,
1002
0100
1000
0013
,
2001
0000
0100
0000
0001
0000
3010
1000
,
1200
0000
0310
0001
0201
0000
0310
1000
,
1100
0000
0001
0000
0101
0000
1000
0000
1001
0000
0010
0000
0110
0000
0001
2000
,
0000
0000
0000
0000
0000
0000
0000
0000
0000
0000
3010
0100
0001
0000
0000
0000
,
0110
0000
0000
0000
0010
1000
0001
0100
0010
0000
1010
0000
0000
0000
0001
0000
,
1000
0100
1000
0001
0010
0000
0110
0000
0000
0000
0010
0000
0001
1000
0001
0100
,
0010
0000
1000
0000
0001
1000
0100
0000
0010
0000
0001
0000
0100
0000
0100
0010
,
1000
0000
0001
0000
0010
0000
0001
0000
1000
0000
1000
0100
0010
0000
0010
0001
,
1000
0000
0100
1000
0000
0100
0010
0001
0010
0000
0001
0100
0000
0010
0100
0010
,
1000
0000
0001
0010
0000
0001
1000
0100
1000
0000
1000
0000
0010
0000
1000
0001
,
0010
0000
0100
1000
0010
0000
0100
0001
0010
0000
0010
0100
1000
0000
1000
0001
,
0100
0000
0110
0000
0110
0000
0010
1000
0001
0000
0000
1001
0000
0000
1000
0100
,
0010
0000
0001
0000
0100
0010
1000
0001
0100
0000
0010
0000
1000
0000
0001
0010
,
0100
0000
0010
0000
0001
0000
1000
0010
0100
0000
0001
0000
0010
0000
0010
0100
,
1000
0000
0010
0000
1000
0100
0010
0001
1000
0000
0010
0000
0100
0000
0001
0010
,
0100
0000
0010
0000
0001
0000
1000
0001
0100
0000
0001
1000
0010
0000
1000
0100
,
0002
0000
0000
0000
0000
0000
0000
0000
0103
0000
0000
0100
0000
0000
0100
0000
,
1000
0000
0000
1000
0000
0000
1000
0000
0010
0000
0000
0100
0001
0000
0001
1000
,
0010
0000
1000
0001
0100
0000
0100
0001
0010
0000
0001
1000
0100
0000
0100
0010
,
0000
0000
0110
0000
0110
0000
0110
0000
1001
0000
0000
1001
0000
0000
0010
0000
,
0220
0000
0000
0000
,
0330
0000
0000
0000
;

//--------------- dance-double - forcednature ----------------
#NOTEDATA:;
#STEPSTYPE:dance-double;
#DESCRIPTION:forcednature;
#DIFFICULTY:Easy;
#METER:6;
#RADARVALUES:0,0,0,0,0;
#CREDIT:forcednature;
#NOTES:
00000000
00000000
00000000
00000000
,
00000000
00000000
00000000
00000000
,
00000000
00000000
00000000
00000000
,
00000000
00000000
00000000
00000000
,
00000000
00000000
00000000
00000000
,
00000000
00000000
00000000
00000000
,
00001000
00000000
00001000
00000000
,
00010000
00000000
00001000
00001000
,
01000000
00000000
01000000
00000000
,
00010000
00000000
10000000
10000000
,
00200000
00000000
00000000
00000000
,
00000000
00000000
00000000
00000000
,
00000000
00000000
00000000
00000000
,
00000000
00000000
00000000
00300000
,
10000000
00000000
00000000
00000000
,
01000000
00000000
00000000
00000000
,
00100000
00000000
00100000
00000000
,
00010000
00000000
00000000
00000000
,
00100000
00000000
00000000
00000000
,
00001000
00000000
00000000
00000000
,
00022000
00000000
00000000
00000000
,
00033000
00000000
00000000
00000000
,
00000010
00000000
00000010
00000000
,
00001000
00000000
00001000
00000000
,
00000001
00000000
00000001
00000000
,
00000010
00000000
00000100
00000000
,
00010000
00000000
00010000
00001000
,
00010000
00000000
00001000
00000000
,
00022000
00000000
00000000
00000000
,
00000000
00000000
00033000
00000000
,
01000000
00000000
00000000
00000000
,
01000000
00000000
00010000
00000000
,
00100000
00000000
00000000
00000000
,
00100000
00000000
01000000
00000000
,
10000000
00000000
10000000
10000000
,
01000000
00000000
01000000
01000000
,
00100000
00000000
00100000
00000000
,
00001000
00001000
00010000
00010000
,
00022000
00000000
00000000
00000000
,
00000000
00000000
00033000
00000000
,
00001000
00010000
00001000
00010000
,
00000100
00001000
00000100
00000000
,
00000010
00000001
00000010
00000001
,
00001000
00000100
00001000
00000000
,
00000100
00010000
00001000
00010000
,
00001000
00100000
00010000
00100000
,
01000000
10000000
00010000
10000000
,
00100000
00000000
00000000
01000000
,
00010000
00100000
00010000
00100000
,
00001000
00010000
00000100
00001000
,
00000010
00000100
00000010
00000100
,
00000001
00000010
00000100
00001000
,
00000010
00000010
00010000
00001000
,
00010000
00010000
00001000
01000000
,
00020000
00030000
20000000
30000000
,
01000000
01100000
00100000
10010000
,
00200000
00000000
00000000
00000000
,
00000000
00000000
00000000
00000000
,
00000000
00000000
00000000
00000000
,
00000000
00000000
00000000
00300000
,
00022000
00000000
00000000
00033000
,
00022000
00000000
00000000
00033000
,
00022000
00033000
00022000
00033000
,
00010000
00010000
00001000
00002000
,
00000000
00000000
00000000
00103000
,
10010000
00000000
10000000
00000000
,
01000000
01000000
00100000
00000000
,
10010000
00000000
00010000
01000000
,
00010000
01000000
00001000
00000000
,
00011000
00000000
00010000
00001000
,
00011000
00000000
00001000
00010000
,
00011000
00000000
00000100
00000100
,
00001000
00001000
00000001
00000010
,
00001001
00000000
00001000
00000100
,
00010000
00001000
00100000
00010000
,
10000000
00000000
00010000
01000000
,
00001000
00010000
00000010
00001000
,
00002002
00000000
00000000
00003003
,
00000220
00000000
00000330
00000001
,
00000001
00001000
00001000
00000100
,
00000000
00010000
00001000
00001000
,
00022000
00000000
00000000
00000000
,
00033000
00000000
00000000
00000000
;

//--------------- dance-double - forcednature ----------------
#NOTEDATA:;
#STEPSTYPE:dance-double;
#DESCRIPTION:forcednature;
#DIFFICULTY:Medium;
#METER:10;
#RADARVALUES:0,0,0,0,0;
#CREDIT:forcednature;
#NOTES:
00000000
00000000
00000000
00000000
,
00000000
00000000
00000000
00000000
,
00000000
00000000
00000000
00000000
,
00000000
00000000
00000000
00000000
,
00000000
00000000
00000000
00000000
,
00000000
00000000
00000000
00000000
,
00011000
00000000
00100000
00000000
00010000
00000000
01000000
00010000
,
01000000
00000000
00100000
00000000
10000000
10000000
00010000
00000000
,
00100000
00000000
00001000
00000000
00010000
00000000
00000100
00001000
,
00000100
00000000
00000010
00000000
00000001
00000001
00000100
00000000
,
00002002
00000000
00000000
00000000
,
00000000
00000000
00000000
00000000
,
00000000
00000000
00000000
00000000
,
00000000
00003003
00001000
00000100
,
00020000
00000000
00031000
00100000
,
00020000
00000000
01030000
00010000
,
20000000
00000000
30100000
01000000
,
00020000
00030000
00100000
00001000
,
00020000
00000000
00030010
00001000
,
00000002
00000003
00000010
00000100
,
00002002
00000000
00000000
00000000
,
00003003
00000000
00001000
00000100
,
00020000
00001000
00001000
00031000
,
02000000
00010000
00010000
03010000
,
00200000
10000000
10000000
10300000
,
00020000
01000000
01000000
01030000
,
00011000
00000100
00001000
00000010
,
00011000
01000000
00010000
00100000
,
02200000
00000000
00000000
00000000
,
00000000
00000000
03300000
00000000
,
01000000
01000000
10000000
01000000
,
00100000
00010000
00100000
00001000
,
00010000
00010000
00001000
00010000
,
00000100
00001000
00000100
00000010
,
00001001
00001000
00000100
00010000
,
00011000
00000000
00001000
00000000
01000000
00000000
00010000
10000000
,
10000000
00000000
00010000
00100000
00100000
00000000
00010000
01000000
,
01000000
00000000
01100000
00000000
00100000
10000000
00010000
01000000
,
00200000
00000000
00000000
00000000
,
00000000
00000000
00000000
00300000
,
10000000
00000000
01000000
00000000
00010000
00001000
00010000
00000000
,
00000100
00000000
00001100
00000000
00010000
00000000
00001000
00001000
,
00010000
00000000
00000010
00000000
00001000
00000001
00000100
00000000
,
00000010
00000110
00000100
00001001
,
00001000
00000000
00000100
00001000
00000100
00000000
00010000
00010000
,
00001000
00000000
00000000
00000000
00100000
00000000
00010000
00000000
10000000
00000000
00000000
10000000
00000000
00000000
10000000
00000000
,
00100000
00000000
01000000
00000000
00010000
10000000
00010000
10000000
,
00200000
00000000
00000000
00000000
00300000
00000000
01000000
00010000
,
01000000
00000000
00001000
00000000
00010000
00000010
00001000
00000000
,
00000100
00000000
00001001
00000000
00000010
00000000
00000001
00000001
,
00001000
00000000
00000010
00000000
00010000
00001000
01000000
00000000
,
00100000
10010000
01000000
10010000
,
10000000
00000000
10000000
01000000
00100000
00000000
00100000
00100000
,
00001000
00000000
00010000
00000000
00000100
00000100
00000100
00000000
,
00000220
00000000
00000330
00000000
00001001
00000000
00001000
00000100
,
00010000
00000000
00000000
00010000
00000000
00000000
00010000
00000000
00001000
00000000
00000000
00001000
00000000
00000000
01000000
00000000
,
00020000
00000000
00000000
00000000
,
00000000
00000000
00000000
00000000
,
00000000
00000000
00000000
00000000
,
00000000
00000000
00000000
00030000
,
02200000
00000000
00000000
03300000
,
00022000
00000000
00000000
00000000
00000000
00033000
00000000
00000010
,
00000200
00000000
00000300
00001000
00020000
00000000
00030000
00100000
,
01000000
00000000
01100000
00000000
10000000
00010000
10000000
00020000
,
00000000
00000000
00000000
00000000
00000000
00100000
00130000
00000000
,
01100000
00000000
01000000
01000000
10000000
01000000
00000000
00010000
,
00001000
00001000
00010000
00001000
00000000
00000010
00000100
00000000
,
00000110
00000000
00000010
00000001
00000100
00000000
00000010
00001000
,
00000100
00000000
00010000
00000000
00001000
00001000
00001000
00000000
,
00011000
00000000
01000000
00010000
10000000
00000000
00100000
10000000
,
00010000
00000000
00100000
00001000
00010000
00000000
00000100
00001000
,
00000001
00000000
00000110
00000000
00001000
00000100
00010000
00000000
,
00001000
00000000
00001000
00000000
00001000
00000000
00000000
00000000
00100000
00000000
00000000
00100000
00000000
00000000
00010000
00000000
,
10000000
00000000
00100000
01000000
00100000
00000000
01000000
00010000
,
01000000
00000000
00001000
00010000
00000010
00000000
00000100
00000000
,
00001001
00000000
00001000
00000100
00001000
00000000
00000100
00010000
,
00001000
00000000
00100000
00000000
00010000
00010000
00010000
00000000
,
20020000
00000000
00000000
30030000
,
02200000
00000000
00000000
00000000
03300000
00000000
10000000
10000000
,
00010000
01000000
00010000
00000000
00100000
00001000
00010000
00000100
,
00000000
00000000
00001000
00000000
00001000
00000000
00001000
00000000
00000001
00000000
00000000
00000001
00000000
00000000
00000100
00000000
,
00000020
00000000
00000000
00000000
,
00000030
00000000
00000000
00000000
;

//--------------- dance-double - forcednature ----------------
#NOTEDATA:;
#STEPSTYPE:dance-double;
#DESCRIPTION:forcednature;
#DIFFICULTY:Hard;
#METER:15;
#RADARVALUES:0,0,0,0,0;
#CREDIT:forcednature;
#NOTES:
00000000
00000000
00000000
00000000
,
00000000
00000000
00000000
00000000
,
00000000
00000000
00000000
00000000
,
00000000
00000000
00000000
00000000
,
00000000
00000000
00000000
00000000
,
00000000
00000000
00000000
00000000
,
00001000
00000000
00010000
00000000
01000000
00000000
00010000
00000000
00001000
00000000
00100000
00000000
00010000
00000000
10000000
01000000
,
00100000
00000000
00000000
00000000
01000000
00000000
10010000
00000000
00010000
00000000
00010000
01000000
00100000
00000000
10000000
00000000
,
01000000
00010000
00001000
00010000
00001000
00000010
00000001
00000100
,
00000001
00000000
00000001
00000000
00000100
00000000
00000010
00000000
00001000
00000001
00001000
00000001
00001000
00000000
00000001
00001000
,
00000020
00000000
00000000
00000000
,
00000000
00000000
00000000
00000000
,
00000000
00000000
00000000
00000000
,
00000000
00000030
00000100
00001000
,
00020000
00000000
00130000
00010000
,
00002000
00000000
01003000
00010000
,
20000000
00000000
31000000
00010000
,
00022000
00033000
00001000
00000010
,
00000002
00000000
00000103
00000001
,
00000020
00000000
00001030
00010000
,
00022000
00000000
00000000
00000000
,
00033000
00000000
00010000
00001000
,
01001000
01010000
10000000
00100000
,
11000000
01100000
00100000
00001000
,
00011000
00010100
00000100
00001000
,
00001010
00000110
00000001
00001000
,
00001001
00000000
00000001
00000100
00001000
00010000
01000000
10000000
,
00100000
00000000
00000000
00000000
10000000
00000000
00010000
00000000
00100000
01000000
00100000
01000000
00100000
00000000
00000000
00000000
,
02200000
00000000
00000000
00000000
,
00000000
00000000
03300000
00000000
,
10000000
10000000
01000000
10000000
,
01000000
00010000
00001000
00000010
,
00000001
00000001
00000100
00000001
,
00000100
00001000
00010000
00100000
,
01100000
00000000
01000000
00010000
00100000
00001000
00010000
00000010
,
00001000
00000000
00000100
00001000
00000010
00010000
00001000
00011000
,
00101000
00000000
00010000
00011000
00010010
00000000
00001000
00011000
,
00010000
00000000
00010100
00000000
00001000
00000000
01001000
00000000
00010000
00000000
00010010
00000000
00001000
00000000
01000000
00010000
,
00200000
00000000
00000000
00000000
,
00000000
00000000
00000000
00300000
,
01000000
00000000
10000000
01000000
00000000
00100000
01000000
00000000
00100000
00010000
00000000
00100000
00001000
00000000
00010000
00000000
,
00000010
00000000
00001000
00000001
00000000
00000100
00000001
00000000
00001000
00000010
00000000
00000100
00000010
00000000
00001000
00000000
,
00000001
00000000
00000010
00000100
00000000
00001000
00000100
00000000
00010000
00001000
00000000
00100000
00010000
00000000
00100000
00000000
,
00010000
00000000
10000000
00100000
00000000
01000000
00100000
00000000
10000000
00010000
00000000
01000000
00010000
00000000
10000000
00000000
,
01000000
00000000
00010000
00001000
00000000
00010000
00001000
00000000
00100000
00000000
00010000
00100000
00000000
00001000
00010000
00000000
,
00000010
00000000
00001000
00000010
00000000
00010000
00001000
00000000
01000000
00000000
00010000
01000000
00010000
00000000
01000000
00100000
,
10000000
00000000
01000000
10000000
00000000
01000000
00100000
00000000
00010000
00000000
00010000
00100000
00001000
00000000
00010000
00000000
,
00022000
00000000
00000000
00000000
00000000
00033000
00000000
00000000
00010000
00000000
00000000
00010000
00001000
00000000
00010000
00000100
,
00001000
00000000
00000100
00000010
00000000
00000001
00000010
00000000
00000100
00001000
00000000
00000100
00010000
00000000
00001000
00000000
,
01000000
00000000
00010000
10000000
00000000
00100000
10000000
00000000
00010000
00100000
00000000
01000000
00100000
00000000
00100000
00000000
,
00001000
00000000
00010000
00000100
00000000
00001000
00000100
00000000
00010000
00001000
00000000
00010000
00000010
00000000
00001000
00000000
,
00000001
00000000
00000010
00000100
00000000
00001000
00000100
00000000
00010000
00001000
00000000
01000000
00010000
00000000
00100000
00000000
,
01100000
00000000
01000000
10000000
01000000
00000000
00100000
00000000
00010000
00000000
00100000
00001000
00010000
00000000
00010000
00000100
,
00001000
00000000
00000000
00000001
00000100
00000000
00000010
00000000
00000100
00000001
00001000
00000000
00000010
00000000
00000010
00010000
,
00002000
00000000
00000000
01000000
00000000
00000000
01003000
00000000
00001000
00000000
00000000
00001000
00010000
00000000
00010000
00001000
,
00100000
00000000
00000000
00110000
00000000
00000000
11000000
00000000
10000000
00100000
00000000
01100000
00000000
00000000
01000000
00010000
,
20000000
00000000
00000000
00000000
,
00000000
00000000
00000000
00000000
,
32000000
00000000
00000000
00000000
,
03200000
00000000
00000000
00300000
,
10020000
01000000
10000000
00100000
,
00032000
00000000
00000100
00000000
00000001
00000000
00003010
00001000
,
00020000
00000000
00130000
00010000
00002000
00000000
00003010
00001000
,
00010000
00000000
01000000
00000000
10010000
00000000
00100000
00000000
01100000
00000000
01000000
00000000
10010000
00000000
10000000
02000000
,
00000000
00000000
00000000
00000000
00000000
00000000
00000000
00000000
00000000
00000000
03100000
00001000
00010000
00000000
00000000
00000000
,
00011000
00000000
00000000
00000000
00001000
00010000
00000100
00001000
00000010
00000000
00000110
00000000
00000000
00000000
00000100
00000000
,
00000001
00000010
00000100
00001000
00000010
00000000
00001001
00000000
00000000
00000000
00001000
00000000
00000100
00010000
00001000
00100000
,
00010000
00000000
01000000
00000000
00100000
10000000
00010000
00000000
00100000
00000000
01000000
00000000
10000000
00000000
01000000
00010000
,
00001000
00000000
00100000
00000000
00010000
00000000
00100000
00000000
00001000
00000000
00001000
00000010
00000001
00000000
00000001
00001000
,
00000010
00000000
00000100
00000001
00000000
00000100
00001000
00010000
00001000
00000000
00010000
00100000
00000000
10000000
00100000
10000000
,
01000000
00000000
00010000
01000000
00000000
00010000
00001000
00010000
00001000
00000000
00000010
00000000
00000001
00000000
00000001
00000100
,
00001000
00000000
00010000
00001000
00010000
00000000
00001000
00100000
00010000
00000000
00010000
01000000
10000000
00000000
10000000
01000000
,
00010000
00000000
00110000
00000000
01100000
00000000
01000000
10000000
00100000
00000000
00000000
01010000
00000000
00000000
10000000
01000000
,
00010000
00000000
00001000
00000000
00010000
00000100
00001000
00000010
00000100
00000000
00000001
00000000
00000010
00000000
00000100
00001000
,
00000001
00000000
00000100
00000000
00000010
00000000
00000100
00001000
00010000
00000000
00100000
00000000
01000000
00000000
01000000
00010000
,
10000000
00000000
01000000
00000000
10000000
00010000
00100000
00001000
00010000
00000000
00000010
00000000
00001000
00000000
00000001
00000100
,
00001000
00000000
00000100
00000000
00000001
00000000
00000010
00000100
00001000
00000000
00001000
00000010
00010000
00000000
00010000
00100000
,
02000000
00000000
00000000
00000000
00000000
00000000
00000000
00000000
03010000
00000000
00000000
00010000
00000000
00000000
00010000
00000000
,
00100000
00000000
00000000
00100000
00000000
00000000
00100000
00000000
00001000
00000000
00000000
00001000
00010000
00000000
00010000
00000100
,
00001000
00000000
00001000
00000010
00010000
00000000
00001000
01000000
00010000
00000000
00010000
00100000
00001000
00000000
00010000
00000100
,
00000000
00000000
00000110
00000000
00000110
00000000
00000110
00000000
00001001
00000000
00000000
00001001
00000000
00000000
00010000
00000000
,
00022000
00000000
00000000
00000000
,
00033000
00000000
00000000
00000000
;
