#VERSION:0.83;
#TITLE:SOUND OF GIALLARHORN;
#SUBTITLE:;
#ARTIST:L.E.D.-G;
#TITLETRANSLIT:;
#SUBTITLETRANSLIT:;
#ARTISTTRANSLIT:;
#GENRE:FREEFORM HARDCORE;
#CREDIT:;
#MUSIC:SOUND OF GIALLARHORN.ogg;
#BANNER:SOUND OF GIALLARHORN.png;
#BACKGROUND:SOUND OF GIALLARHORN-bg.png;
#CDTITLE:./CDTitles/bm IIDX 15 DJ TROOPERS.png;
#SAMPLESTART:34.046;
#SAMPLELENGTH:15.000;
#SELECTABLE:YES;
#OFFSET:1.158;
#BPMS:0.000=184.000;
#STOPS:332.000=0.978;
#TIMESIGNATURES:0.000=4=4,
328.000=5=4,
333.000=4=4
;
#BGCHANGES:0.000=SOUND OF GIALLARHORN.mp4=1.000=0=0=0=StretchNoLoop====,
99999.000=-nosongbg-=1.000=0=0=0=StretchNoLoop====
;
#FGCHANGES:;

//--------------- dance-single - forcednature ----------------
#NOTEDATA:;
#STEPSTYPE:dance-single;
#DESCRIPTION:forcednature;
#DIFFICULTY:Beginner;
#METER:3;
#RADARVALUES:0,0,0,0,0;
#CREDIT:forcednature;
#NOTES:
0000
0000
0000
0000
,
0000
0000
0000
0000
,
0000
0000
0000
0000
,
0000
0000
0000
0000
,
0000
0000
0000
0000
,
0000
0000
0000
0000
,
0000
0000
0000
0000
,
0000
0000
0000
0000
,
0000
0000
0000
0000
,
0000
0000
0000
0000
,
0000
0000
0000
0000
,
1000
0000
0000
0000
,
0000
0000
0000
0000
,
0001
0000
0000
0000
,
0000
0000
0000
0000
,
0100
0000
0000
0000
,
0000
0000
0000
0000
,
0010
0000
0000
0000
,
0000
0000
0000
0000
,
2002
0000
0000
0000
,
0000
0000
0000
0000
,
0000
0000
0000
0000
,
3003
0000
0000
0000
,
1000
0000
0000
0000
,
0001
0000
0000
0000
,
0100
0000
0100
0000
,
0010
0010
0010
0000
,
1000
0000
0000
0000
,
0100
0000
0000
0000
,
0010
0000
0000
0000
,
0001
0000
0000
0000
,
0100
0000
0000
0000
,
0001
0000
0000
0000
,
1000
0000
0000
0000
,
0010
0000
0000
0000
,
1000
0000
0000
0000
,
0100
0000
0000
0000
,
1000
0000
0000
0000
,
0001
0000
0000
0000
,
0100
0000
0000
0000
,
0010
0000
0000
0000
,
0100
0000
0000
0000
,
0001
0000
0000
0000
,
0010
0000
0000
0000
,
0100
0000
0000
0000
,
1000
0000
0000
0000
,
0001
0000
0000
0000
,
0100
0000
0000
0000
,
0010
0000
0000
0000
,
1000
0000
0000
0000
,
0100
0000
0000
0000
,
1000
0000
0000
0000
,
0001
0000
0000
0000
,
0100
0000
0000
0000
,
0001
0000
0000
0000
,
0010
0000
0000
0000
,
0100
0000
0000
0000
,
0010
0000
0010
0000
,
0001
0000
0001
0000
,
1000
0000
0000
0000
,
0010
0000
0000
0000
,
1000
0000
0000
0000
,
0100
0000
0000
0000
,
0010
0000
0000
0000
,
0001
0000
0000
0000
,
0100
0000
0000
0000
,
0010
0000
0000
0000
,
1000
0000
0000
0000
,
0100
0000
0000
0000
,
1000
0000
0000
0000
,
0001
0000
0000
0000
,
0100
0000
0000
0000
,
0010
0000
0000
0000
,
1000
0000
0000
0000
,
0001
0000
0000
0000
,
2002
0000
0000
0000
,
0000
0000
0000
0000
,
0000
0000
0000
0000
,
3003
0000
0000
0000
,
0001
0000
0000
0000
,
1000
0000
0000
0000
,
0001
0000
1000
0000
,
0010
0010
0100
0010
,
0000
1000
0000
0000
,
0000
0100
0000
1000
,
0000
0100
0000
0000
,
0000
0010
0000
0001
,
0000
0010
0000
0000
,
0000
0001
0000
0100
,
0000
0001
0000
0000
,
0000
1000
0000
0010
,
0000
0100
0000
0000
,
0000
0001
0000
1000
,
0000
0100
0000
0000
,
0000
0010
0000
0001
,
0000
0100
0000
0001
,
0000
1000
0000
0001
,
0000
0010
0000
0010
,
0000
0100
1000
0100
,
1000
0002
0000
0000
,
0000
0000
0000
0000
,
0000
0003
0000
0000
;

//--------------- dance-single - forcednature ----------------
#NOTEDATA:;
#STEPSTYPE:dance-single;
#DESCRIPTION:forcednature;
#DIFFICULTY:Easy;
#METER:8;
#RADARVALUES:0,0,0,0,0;
#CREDIT:forcednature;
#NOTES:
0000
0000
0000
0000
,
0000
0000
0000
0000
,
0000
0000
0000
0000
,
0000
0000
0000
0000
,
0000
0000
0000
0000
,
0000
0000
0000
0000
,
0000
0000
0000
0000
,
0000
0000
0000
0000
,
0000
0000
0000
0000
,
0000
0000
0000
0000
,
0000
0000
0000
0000
,
2000
0000
0000
0000
,
3002
0000
0000
0203
0000
0000
0302
0000
,
0023
0000
0000
0000
,
0230
0000
2300
3020
,
0230
0000
0000
0000
,
0302
0000
0000
0000
2003
0000
0000
3000
,
0200
0000
0000
0000
,
0320
0000
0000
0000
0000
0000
0000
0000
0032
0000
0000
0000
0000
0003
0000
0000
,
2002
0000
0000
0000
,
0000
0000
0000
0000
,
0000
0000
0000
0000
,
0000
0000
0000
0000
0000
3003
0000
0000
,
1000
0000
0000
0000
,
0001
0000
0000
0000
,
0100
0000
0010
0000
,
1000
0001
1000
0001
,
0010
0100
1000
0100
,
0010
0100
1000
0001
,
0100
0010
0100
0001
,
1000
0100
1000
0010
,
0100
0001
0010
0100
,
0010
0001
1000
0010
,
0100
0001
1000
0100
,
1000
0001
0100
0010
,
1000
0001
0010
0001
,
0100
0010
1000
0001
,
0010
0100
1000
0010
,
0100
0010
1000
0100
,
0010
0001
0100
0001
,
1000
0010
1000
0001
,
0010
0100
1000
0001
,
0200
0000
0000
0000
,
0310
0010
1000
0001
,
0010
0010
0001
1000
,
0010
0010
1000
0001
,
0010
0100
1000
0001
,
0100
0100
0001
1000
,
0100
0100
1000
0001
,
0100
0100
0001
1000
,
0100
0010
0001
1000
,
0001
0001
0010
0100
,
1000
1000
0010
0100
,
0001
0001
0010
0100
,
1000
0010
0100
0001
,
1000
1000
0100
0010
,
0001
0001
0100
0010
,
1000
0100
1000
0010
,
0100
0001
0010
0001
,
0100
1000
0100
0001
,
0100
1000
0100
0001
,
0010
1000
0010
0001
,
0010
1000
0010
0001
,
0100
1000
0100
0001
,
0100
1000
0100
0001
,
0010
1000
0010
0001
,
0010
1000
0010
0001
,
0100
1000
0100
0001
,
0010
1000
0010
0001
,
0100
1000
0100
0001
,
0010
1000
0010
0001
,
1000
0010
0001
0010
,
1000
0100
0001
0100
,
1000
0010
0001
0010
,
0100
0100
0001
1000
,
0200
0000
0000
0000
,
0000
0000
0000
0000
,
0320
0000
0000
0000
,
0000
0000
0032
0000
,
1003
0000
0000
0000
,
0001
0000
0000
0000
,
0100
0000
0010
0000
,
1000
0100
0010
0001
,
0200
0300
0000
0000
0010
0000
0000
0000
1000
0000
0000
0000
0001
0000
0000
0000
,
0010
0100
1000
0001
,
0100
0010
0001
0010
,
1000
0001
0010
0100
,
0001
0100
1000
0001
,
0100
0010
1000
0100
,
1000
0010
0100
0001
,
0010
1000
0010
0100
,
1000
1001
0001
0100
,
0010
0001
0010
1000
,
0100
0110
0010
0001
,
1000
0010
0100
1000
,
0100
0110
1000
0001
,
0010
0110
0001
1000
,
0010
0110
1000
0001
,
0100
1001
0010
1001
,
0100
2002
0000
0000
,
0000
0000
0000
0000
,
0000
3003
0000
0000
;

//--------------- dance-single - forcednature ----------------
#NOTEDATA:;
#STEPSTYPE:dance-single;
#DESCRIPTION:forcednature;
#DIFFICULTY:Medium;
#METER:13;
#RADARVALUES:0,0,0,0,0;
#CREDIT:forcednature;
#NOTES:
0000
0000
0000
0000
,
0000
0000
0000
0000
,
0000
0000
0000
0000
,
0000
0000
0000
0000
,
0000
0000
0000
0000
,
0000
0000
0000
0000
,
0000
0000
0000
0000
,
0000
0000
0000
0000
,
0000
0000
0000
0000
,
0000
0000
0000
0000
,
0000
0000
0000
0000
,
2000
0000
0000
0000
,
3002
0000
0000
0203
0000
0000
0320
0000
,
2030
0000
0000
0000
,
3002
0000
0023
0230
,
2300
0000
0000
0000
,
3020
0000
0000
0000
0230
0000
0000
0300
,
0002
0000
0000
0000
,
0023
0000
0000
0000
0000
0000
0000
0000
0230
0000
0000
0000
0000
0300
0000
0000
,
2002
0000
0000
0000
,
0000
0000
0000
0000
,
0000
0000
0000
0000
,
0000
0000
0000
0000
0000
3003
0000
0010
,
0010
0000
0000
0000
0000
0000
0000
0100
,
0100
0000
0000
0000
0000
0000
0000
1000
,
1000
0000
0000
0001
0001
0000
0000
1000
,
0100
1000
0010
0100
0001
0010
0000
0010
,
0001
0100
0010
1000
0010
0100
0001
0100
,
0010
1000
0010
0100
0001
0100
0010
0000
,
1000
0100
0010
0001
0010
0100
1000
0100
,
0010
0001
1000
0001
0100
0001
1000
0000
,
0010
0100
0001
0010
0100
1000
0010
0100
,
0001
0010
0001
1000
0010
1000
0100
0000
,
0010
0001
0100
0010
1000
0100
0010
0001
,
0100
0010
1000
0100
1000
0010
0100
0000
,
0001
0010
0001
0100
0010
1000
0100
1000
,
0001
0010
0001
0100
0010
1000
0100
0000
,
1000
0001
0100
0010
1000
0001
0010
0100
,
1000
0001
0100
0010
1000
0001
0010
0000
,
0100
1000
0100
0010
0001
0100
0001
0010
,
0100
1000
0100
0010
0001
0100
0001
0000
,
1000
0010
1000
0001
0010
0100
1000
0001
,
0200
0000
0000
0300
,
0010
1000
0100
0010
0100
1000
0001
0000
,
0100
0001
0010
0001
0100
0010
1000
0000
,
0001
0010
0100
1000
0010
0100
0001
0000
,
1000
0000
0000
0100
0000
0000
1000
0000
0000
0010
0000
0000
0100
0000
0001
0000
,
0010
0001
0100
0010
1000
0001
0010
0000
,
0100
1000
0001
0100
0001
1000
0100
0000
,
0010
0000
0000
0001
0000
0000
0100
0000
0000
0001
0000
0000
0010
0000
0010
0000
,
0100
0000
0000
1000
0000
0000
0001
0000
0000
0000
0100
0000
0010
0000
1000
0000
,
0001
0010
0001
0100
0010
0100
0001
0010
,
0100
1000
0001
0100
0001
1000
0100
0010
,
0001
0100
0010
1000
0100
1000
0010
0100
,
0010
0000
0000
1000
0000
0000
0001
0000
0000
0010
0000
0000
0100
0000
1000
0000
,
0001
0100
0010
0100
0001
1000
0010
1000
,
0100
0010
0001
0010
0100
1000
0001
0100
,
0010
0000
0000
0110
0000
0000
1001
0000
0000
0000
1000
0000
0100
0000
1000
0000
,
0001
0100
0001
0010
0100
1000
0010
0000
,
0100
0100
0001
0010
0001
0001
1000
0000
,
0100
0100
1000
0010
1000
1000
0001
0000
,
0100
0100
0010
1000
0001
0001
0010
0000
,
0100
0100
0010
0001
2000
0000
3010
0100
,
0001
0001
0010
0100
0010
0010
0001
0000
,
1000
1000
0010
0100
0010
0010
1000
0000
,
0001
0001
0100
0010
0100
0100
0001
0000
,
1000
0100
0010
0001
0100
0010
0000
0100
,
0001
0001
0010
0001
0100
0001
0010
0001
,
1000
1000
0010
1000
0100
1000
0010
1000
,
0100
0100
0010
0100
1000
0000
0001
0100
,
0001
0010
0001
1000
0010
0000
0100
0100
,
0001
0010
0001
0100
0001
0010
0001
0000
,
1000
0010
1000
0100
1000
0010
1000
0000
,
0001
0100
0001
0010
0100
1000
0010
1000
,
0100
0010
0001
1000
0010
0100
0001
0000
,
1002
0000
0000
0000
,
0000
0000
0000
0000
,
0203
0000
0000
0000
,
0000
0000
0000
0000
0000
0000
0000
0000
0320
0000
0000
0000
0000
0030
0000
0000
,
1001
0000
0000
0000
0000
0000
0000
0010
,
0010
0000
0000
0000
0000
0000
0000
0100
,
0100
0000
0000
0001
0001
0000
0000
1000
,
1000
0100
1000
0010
1000
0001
0000
0001
,
0020
0030
0000
0000
0100
0000
1000
0000
0100
0000
0010
0000
0001
0000
0010
0000
,
0100
1000
0100
0010
0001
0010
0100
1000
,
0001
1000
0010
0100
0001
0100
0010
1000
,
0010
0100
0001
0010
0100
1000
0100
0010
,
0001
1000
0100
1000
0001
0100
0001
1000
,
0100
1000
0010
0100
0001
0010
0001
0100
,
0010
1000
0100
0010
0001
0100
0010
1000
,
0100
0010
0001
1000
0010
1000
0001
0010
,
0100
1000
0001
0100
0010
0100
0001
0010
,
0100
0010
0001
0100
0010
0100
0001
1000
,
0010
1000
0100
0010
0100
1000
0010
0100
,
0010
1000
0001
0010
0100
1000
0010
0100
,
0001
1000
0100
0100
0010
0001
1000
1000
,
0010
0100
0001
0001
1000
0100
0010
0010
,
0001
1000
0010
0100
1000
0100
0001
0100
,
0010
1000
0001
0010
0001
0100
0010
1000
,
0100
1000
0020
0000
0000
0000
0000
0000
,
0000
0000
0000
0000
,
0000
0030
0000
0000
;

//--------------- dance-single - forcednature ----------------
#NOTEDATA:;
#STEPSTYPE:dance-single;
#DESCRIPTION:forcednature;
#DIFFICULTY:Hard;
#METER:15;
#RADARVALUES:0,0,0,0,0;
#CREDIT:forcednature;
#NOTES:
0000
0000
0000
0000
,
0000
0000
0000
0000
,
0000
0000
0000
0000
,
0000
0000
0000
0000
,
0000
0000
0000
0000
,
0000
0000
0000
0000
,
0000
0000
0000
0000
,
0000
0000
0000
0000
,
0000
0000
0000
0000
,
0000
0000
0000
0000
,
0000
0000
0000
0000
,
1000
0100
1000
0010
0000
0100
0001
0000
,
0020
0000
0100
0230
0000
1300
0001
0100
,
0010
1000
0100
1000
0000
0001
0010
0001
,
0200
0000
0010
0000
0302
0000
1003
0100
,
0020
0000
0001
0001
0000
0100
0100
0000
,
0032
0000
1003
0001
0100
0010
1000
0000
,
0200
0000
0010
0000
0001
0001
0001
0000
,
1300
0010
0100
0001
1000
0001
0010
0000
,
0220
0000
0000
0000
,
0000
0000
0000
0000
,
0000
0000
0000
0000
,
0000
0000
0000
0000
0000
0330
0000
0100
,
1001
0000
0000
0000
0000
0000
0000
0010
,
1001
0000
0000
0000
0000
0000
0000
1000
,
0110
0000
0000
0001
0110
0000
0000
0010
,
0001
0100
0001
0000
1000
0100
1000
0000
0010
0000
0100
0001
0100
0000
0010
1000
,
0010
0100
1000
0100
0010
1000
0010
0100
,
1000
0100
0010
1000
0001
0010
0100
1000
,
0001
0100
0010
0001
0010
0100
0001
0010
,
0100
1000
0001
0100
1000
0100
0010
0010
,
1000
0100
0010
0001
0100
0010
0001
0010
,
0100
0001
1000
0010
1000
0100
0001
0100
,
0010
0001
0100
0010
0100
0001
0010
0100
,
1000
0000
0010
0000
0100
0000
0010
0000
1000
0000
0001
0010
0001
0000
0100
0000
,
0010
1000
0100
0010
0100
1000
0010
0100
,
0010
1000
0100
0010
0001
0100
0010
1000
,
0001
0010
0100
0001
0100
0010
0001
0100
,
0010
0001
0010
0100
0001
1000
0010
0010
,
1000
0100
0001
0100
1000
0001
0100
1000
,
0100
0010
1000
0001
0010
0100
1000
0001
,
0100
0001
0010
0100
1000
0010
0100
0100
,
0220
0000
0000
0330
,
0010
1000
0000
0010
1000
0000
0001
0100
0000
0001
0100
0000
0001
0000
0001
0000
,
1000
0100
0000
1000
0100
0000
0010
0001
0000
0010
0001
0000
0100
0000
0100
0000
,
0010
1000
0000
0010
1000
0000
0001
0010
0000
0001
0010
0000
0100
0000
0100
0000
,
0010
0001
0000
0001
0100
0000
0010
1000
0000
1000
0100
0000
0010
0000
0010
0000
,
0001
0100
0000
0001
1000
0000
0001
0010
0000
0001
1000
0000
0010
0000
0010
0000
,
1000
0100
0000
1000
0001
0000
1000
0010
0000
1000
0010
0000
1000
0000
0001
0000
,
0100
0001
0000
0100
0010
0000
1000
0001
0000
0010
0100
0000
1000
0000
1000
0000
,
0020
0000
0000
0100
0000
0000
1030
0000
0010
0000
0100
0001
0100
0000
0010
0000
,
1000
0100
0000
0010
0001
0000
1000
0100
0000
0010
0001
0000
1000
0000
1000
0000
,
0001
0100
0000
0010
1000
0000
0001
0100
0000
0010
1000
0000
0001
0000
0001
0000
,
0010
0100
0000
1000
0001
0000
0100
0010
0000
1000
0001
0000
0010
0000
0010
0000
,
0100
1000
0000
1000
0010
0000
0100
0001
0000
0001
0010
0000
0100
0000
0100
0000
,
1000
0010
1000
0000
0100
0000
1000
0000
0001
0000
0010
0000
0100
0000
1000
0000
,
0001
0010
0001
0000
1000
0000
0010
0000
0100
0000
0001
0000
1000
0010
1000
0010
,
0100
0000
0000
0101
0000
0000
0011
0000
0000
0000
0001
0000
1000
0000
0010
0100
,
0010
0000
1000
0001
0000
0010
0001
0000
0100
0000
0010
0000
1000
0000
0001
0000
,
0010
0100
0010
0000
0001
0000
0100
0010
0100
0000
0001
0000
0010
0100
1000
0000
,
0010
0100
0010
0000
1000
0000
0100
0010
0100
0000
1000
0000
0010
0100
0001
0000
,
0010
0100
0010
0000
0001
0000
0100
0010
0100
0000
0001
0000
0010
0100
1000
0000
,
0010
0100
0010
0000
1000
0000
0100
0010
0100
0000
0000
0100
1000
0000
1000
0000
,
0010
0100
0010
0000
1000
0000
0100
0010
0100
0000
1000
0000
0010
0100
0001
0000
,
0010
0100
0010
0000
0001
0000
0100
0010
0100
0000
0001
0000
0010
0100
1000
0000
,
0010
0100
0010
0000
1000
0000
0100
0010
0100
0000
1000
0000
0010
0100
0001
0000
,
0010
0100
0010
0000
0001
0000
0100
0010
0100
0000
1001
0000
0000
0000
0010
0000
,
1000
0100
0010
0000
0001
0000
1000
0010
0100
0000
0001
0000
1000
0001
0010
0000
,
0001
0100
0010
0000
1000
0000
0001
0010
0100
0000
1000
0000
0001
1000
0010
0000
,
0100
0001
0010
0000
0100
0000
0010
0001
0100
0001
0100
0000
0010
1000
0000
0001
,
0010
0000
0100
1000
0100
0000
0010
0000
0001
1000
0001
0000
0100
0000
0100
0000
,
0010
1000
0010
0000
0100
0000
0100
0000
0001
0000
0001
0000
1000
0000
0100
0000
,
0010
0001
0010
0000
0100
0000
0100
0000
1000
0000
1000
0000
0001
0000
0100
0000
,
0001
0010
0001
0000
1000
0000
0100
0000
1000
0010
1000
0000
0001
0000
0100
0000
,
0010
0000
1000
0001
0010
0000
0001
1000
0010
0000
0010
0000
0100
0001
1000
0000
,
1002
0000
0000
0000
,
0000
0000
0000
0000
,
0023
0000
0000
0000
,
0000
0000
0000
0000
0000
0000
0000
0000
0230
0000
0000
0000
0000
0300
0000
0000
,
1001
0000
0000
0000
0000
0000
0000
0010
,
0110
0000
0000
0000
0000
0000
0000
0100
,
1001
0000
0000
0010
1001
0000
0000
1000
,
0001
0100
0001
0000
1000
0100
1000
0000
0010
0000
0100
0001
1000
0000
0100
1000
,
0002
0003
0000
0000
1000
0000
0100
0000
0001
0000
1000
0000
0010
0000
0001
0000
,
1000
0100
0001
1000
0010
0001
1000
0010
,
0001
0010
0100
1000
0001
0010
1000
0001
,
0100
1000
0001
0010
0100
0001
0010
0100
,
0001
1000
0010
0001
1000
0100
0001
1000
,
0010
0001
1000
0010
0001
0010
0100
1000
,
0001
0010
0100
0001
1000
0100
0001
1000
,
0010
0001
0100
1000
0001
0010
0100
0001
,
1000
0000
1000
0100
0010
0000
0001
0100
0001
0000
0010
0000
0100
1000
0100
0000
,
0010
0000
0001
0100
0001
0000
0010
0000
0100
1000
0100
0000
0010
0000
0001
0100
,
0001
0000
1000
0000
0010
0000
1000
0100
1000
0000
0010
0000
0100
0001
0100
0000
,
0010
0000
1000
0000
0100
0000
0010
0001
0010
0000
0100
0000
1000
0010
1000
0000
,
0100
0000
0100
0000
0010
0001
0010
0000
0100
0000
0100
0000
1000
0000
1000
0000
,
0001
0000
0100
0000
0010
1000
0010
0000
0100
0000
0100
0000
0001
0000
0001
0000
,
1000
0000
0100
0000
0010
0001
1000
0000
0100
0000
1000
0001
0010
0000
0100
0000
,
0010
0001
1000
0000
0001
0100
0001
0000
0100
0010
0100
0000
0010
1000
0010
0000
,
1000
0001
1000
0000
2002
0000
0000
0000
0000
0000
0000
0000
0000
0000
0000
0000
,
0000
0000
0000
0000
,
0000
3003
0000
0000
;

//--------------- dance-double - forcednature ----------------
#NOTEDATA:;
#STEPSTYPE:dance-double;
#DESCRIPTION:forcednature;
#DIFFICULTY:Easy;
#METER:8;
#RADARVALUES:0,0,0,0,0;
#CREDIT:forcednature;
#NOTES:
00000000
00000000
00000000
00000000
,
00000000
00000000
00000000
00000000
,
00000000
00000000
00000000
00000000
,
00000000
00000000
00000000
00000000
,
00000000
00000000
00000000
00000000
,
00000000
00000000
00000000
00000000
,
00000000
00000000
00000000
00000000
,
00000000
00000000
00000000
00000000
,
00000000
00000000
00000000
00000000
,
00000000
00000000
00000000
00000000
,
00000000
00000000
00000000
00000000
,
00002000
00000000
00000000
00000000
,
02003000
00000000
00000000
03020000
00000000
00000000
00230000
00000000
,
00302000
00000000
00000000
00000000
,
00023000
00000000
00030020
00002030
,
00003200
00000000
00000000
00000000
,
00020300
00000000
00000000
00000000
00032000
00000000
00000000
00003000
,
02000000
00000000
00000000
00000000
,
03020000
00000000
00000000
00000000
00000000
00000000
00000000
00000000
20030000
00000000
00000000
00000000
00000000
30000000
00000000
00000000
,
20020000
00000000
00000000
00000000
,
00000000
00000000
00000000
00000000
,
00000000
00000000
00000000
00000000
,
00000000
00000000
00000000
00000000
00000000
30030000
00000000
00000000
,
00010000
00000000
00000000
00000000
,
01000000
00000000
00000000
00000000
,
00001000
00000000
00010000
00000000
,
00000100
00001000
00000100
00001000
,
00000010
00010000
00001000
00010000
,
00000100
00001000
00000100
00000010
,
00000001
00000100
00000001
00000010
,
00000100
00010000
00001000
00100000
,
01000000
00100000
00010000
10000000
,
00100000
01000000
00100000
10000000
,
00010000
00100000
00001000
00010000
,
00000010
00001000
00000100
00000010
,
00000001
00000100
00000001
00000010
,
00000100
00010000
00001000
00100000
,
00010000
01000000
00010000
10000000
,
01000000
00100000
01000000
10000000
,
00010000
01000000
00001000
00010000
,
00000100
00001000
00000010
00000100
,
00000001
00000010
00000001
00000100
,
00000020
00000000
00000000
00000000
,
00010030
00010000
00001000
00100000
,
00010000
00010000
01000000
00001000
,
00010000
00010000
00000100
00001000
,
00000010
00010000
00001000
00100000
,
01000000
01000000
00100000
00010000
,
01000000
01000000
00100000
10000000
,
01000000
01000000
00010000
00001000
,
00000100
00000010
00001000
00000001
,
00000010
00000010
00000100
00001000
,
00000010
00000010
00000100
00001000
,
00010000
00010000
00100000
01000000
,
00010000
10000000
00010000
00100000
,
01000000
01000000
10000000
00100000
,
01000000
01000000
00010000
00100000
,
00001000
00010000
00000010
00010000
,
00001000
00000010
00000100
00000010
,
00000001
00000100
00001000
00000100
,
00001000
00010000
01000000
00010000
,
01000000
10000000
00010000
10000000
,
00100000
00010000
00001000
00010000
,
00001000
00000010
00000001
00000010
,
00000100
00010000
00001000
00100000
,
01000000
00100000
00001000
00010000
,
00100000
10000000
00100000
00010000
,
00001000
00000010
00000001
00000010
,
00001000
00010000
01000000
10000000
,
01000000
00010000
00001000
00000100
,
00000001
00000100
00001000
00010000
,
00100000
10000000
01000000
00010000
,
00001000
00000100
00000001
00000010
,
00001000
00010000
00100000
01000000
,
00010000
00010000
10000000
01000000
,
00200000
00000000
00000000
00000000
,
00000000
00000000
00000000
00000000
,
00302000
00000000
00000000
00000000
,
00000000
00000000
00023000
00000000
,
00030010
00000000
00000000
00000000
,
00001000
00000000
00000000
00000000
,
00000001
00000000
00000010
00000000
,
00000100
00010000
00001000
00100000
,
02000000
03000000
00000000
00000000
00100000
00000000
00000000
00000000
00010000
00000000
00000000
00000000
10000000
00000000
00000000
00000000
,
00100000
01000000
00001000
00010000
,
00000010
00010000
00001000
00000010
,
00000100
00001000
00000001
00000100
,
00000001
00000010
00000100
00010000
,
00001000
01000000
00010000
00100000
,
00010000
10000000
00100000
10000000
,
01000000
00010000
00001000
00000100
,
00000001
00001001
00001000
00000100
,
00010000
00001000
01000000
00010000
,
00100000
01100000
01000000
10000000
,
00010000
01000000
00001000
00010000
,
00000100
00000110
00000010
00000001
,
00001000
00001001
00000001
00000100
,
00000010
00000110
00000100
00001000
,
00010000
01000000
01100000
00100000
,
01100000
20020000
00000000
00000000
,
00000000
00000000
00000000
00000000
,
00000000
30030000
00000000
00000000
;

//--------------- dance-double - forcednature ----------------
#NOTEDATA:;
#STEPSTYPE:dance-double;
#DESCRIPTION:forcednature;
#DIFFICULTY:Medium;
#METER:13;
#RADARVALUES:0,0,0,0,0;
#CREDIT:forcednature;
#NOTES:
00000000
00000000
00000000
00000000
,
00000000
00000000
00000000
00000000
,
00000000
00000000
00000000
00000000
,
00000000
00000000
00000000
00000000
,
00000000
00000000
00000000
00000000
,
00000000
00000000
00000000
00000000
,
00000000
00000000
00000000
00000000
,
00000000
00000000
00000000
00000000
,
00000000
00000000
00000000
00000000
,
00000000
00000000
00000000
00000000
,
00000000
00000000
00000000
00000000
,
00002000
00000000
00000000
00000000
,
00023000
00000000
00000000
00030200
00000000
00000000
00002300
00000000
,
00003002
00000000
00000000
00000000
,
00000203
00000000
00002300
00023000
,
00230000
00000000
00000000
00000000
,
20300000
00000000
00000000
00000000
30020000
00000000
00000000
00030000
,
00200000
00000000
00000000
00000000
,
00302000
00000000
00023000
00030000
,
00020200
00000000
00000000
00000000
,
00000000
00000000
00000000
00000000
,
00000000
00000000
00000000
00000000
,
00000000
00000000
00000000
00000000
00000000
00030300
00000000
00000100
,
00000100
00000000
00000000
00000000
00000000
00000000
00000000
00010000
,
00010000
00000000
00000000
00000000
00000000
00000000
00000000
00001000
,
00001000
00000000
00000000
01000000
01000000
00000000
00000000
00010000
,
00100000
00001000
00010000
00000010
00001000
00000100
00000000
00000100
,
00000010
00000001
00000100
00000010
00001000
00000100
00010000
00001000
,
01000000
00010000
00100000
01000000
10000000
01000000
00100000
00000000
,
00010000
01000000
00001000
00010000
00000010
00010000
00001000
00100000
,
00001000
00010000
00000100
00001000
00000010
00000100
00000001
00000000
,
00000010
00000100
00010000
00001000
00100000
01000000
00100000
00001000
,
00010000
00000010
00000100
00000010
00010000
00001000
01000000
00000000
,
00100000
10000000
01000000
00100000
00001000
00010000
00000010
00001000
,
00000100
00010000
00001000
01000000
00010000
00100000
01000000
00000000
,
00100000
00001000
00010000
00100000
01000000
00010000
10000000
01000000
,
00100000
00001000
00010000
00000010
00010000
00001000
00000010
00000000
,
00000100
00001000
00000001
00000100
00000010
00010000
00001000
00100000
,
01000000
00100000
00001000
00010000
00000010
00001000
00000001
00000000
,
00000100
00001000
00010000
00001000
01000000
00010000
01000000
00100000
,
10000000
01000000
00100000
00010000
01000000
00001000
00010000
00000000
,
00000010
00001000
00000100
00001000
00000001
00000100
00001000
00010000
,
00000200
00000000
00000000
00000300
,
00010000
00001000
01000000
00000000
00010000
00000000
00100000
00000000
,
01000000
10000000
00010000
00000000
01000000
00000000
00001000
00000000
,
00010000
00000100
00001000
00000000
00000010
00000000
00000100
00000000
,
00000001
00000000
00000000
00000010
00000000
00000000
00000001
00000000
00000000
00000100
00000000
00000000
00001000
00000000
00000000
00000000
,
00010000
00001000
01000000
00000000
00010000
00000000
10000000
00000000
,
01000000
00100000
00001000
00000000
00010000
00000000
00000010
00000000
,
00001000
00000000
00000000
00000100
00000000
00000000
00000010
00000000
00000000
00000100
00000000
00000000
00010000
00000000
00000000
00000000
,
00001000
00000000
00000000
01000000
00000000
00000000
00010000
00000000
00000000
00000000
10000000
00000000
00100000
00000000
10000000
00000000
,
01000000
00100000
00010000
00000000
01000000
00001000
00010000
00000000
,
00000100
00001000
00000010
00000000
00000100
00000001
00001000
00000000
,
00000100
00010000
00001000
00000000
01000000
00010000
00100000
00000000
,
01000000
00000000
00000000
10000000
00000000
00000000
00010000
00000000
00000000
10000000
00000000
00000000
00100000
00000000
00000000
00000000
,
01000000
00010000
01000000
00001000
00010000
00000010
00001000
00000000
,
00000100
00001000
00000100
00010000
00001000
00100000
00010000
00000000
,
01000000
00000000
00000000
01100000
00000000
00000000
10010000
00000000
00000000
00000000
10000000
00000000
10000000
00000000
00000000
00000000
,
01000000
00100000
00001000
00010000
00000100
00000010
00000001
00000000
,
00000100
00001000
00000100
00001000
00000100
00000010
00001000
00000000
,
00000100
00010000
00000100
00010000
00001000
01000000
00010000
00000000
,
00100000
01000000
00100000
01000000
10000000
00010000
01000000
00000000
,
00001000
00010000
00001000
00010000
00000200
00000000
00000310
00000000
,
00000001
00000100
00000001
00000100
00001000
00000100
00000010
00000000
,
00010000
00001000
00010000
00001000
00100000
01000000
00100000
00000000
,
00010000
01000000
00010000
01000000
10000000
01000000
00100000
00000000
,
10000000
01000000
00100000
00001000
00010000
00000100
00000000
00000100
,
00001000
00000010
00001000
00000100
00010000
00001000
00100000
00000000
,
00010000
01000000
00010000
00100000
00001000
00010000
00000010
00000000
,
00001000
00000100
00000001
00000100
00000010
00000000
00000001
00000100
,
00000001
00000010
00000100
00010000
00001000
00000000
00100000
00000000
,
01000000
10000000
01000000
00100000
00001000
00010000
00000010
00000000
,
00000100
00000001
00000100
00000010
00010000
00001000
00100000
00000000
,
01000000
10000000
01000000
00010000
00001000
00100000
00001000
00010000
,
00000010
00001000
00000100
00000000
00000010
00000001
00000100
00000000
,
00002010
00000000
00000000
00000000
,
00000000
00000000
00000000
00000000
,
00003200
00000000
00000000
00000000
,
00000000
00000000
00000000
00000000
00000000
00000000
00000000
00000000
00020300
00000000
00000000
00000000
00000000
00030000
00000000
00000000
,
00011000
00000000
00000000
00000000
00000000
00000000
00000000
01000000
,
01000000
00000000
00000000
00000000
00000000
00000000
00000000
00010000
,
00010000
00000000
00000000
10000000
10000000
00000000
00000000
01000000
,
01000000
00100000
00010000
00100000
00001000
00010000
00000000
00010000
,
00000020
00000030
00000000
00000000
00000100
00000000
00000001
00000000
00001000
00000000
00000100
00000000
00010000
00000000
00001000
00000000
,
01000000
00010000
10000000
01000000
00100000
00010000
01000000
00001000
,
00010000
00000010
00001000
00000100
00000010
00000100
00001000
00000001
,
00000100
00000010
00010000
00001000
00100000
01000000
00100000
00010000
,
10000000
00100000
10000000
01000000
00010000
01000000
00100000
00001000
,
00010000
00000010
00001000
00000100
00000010
00000001
00000100
00001000
,
00000100
00000001
00000010
00000100
00010000
00001000
01000000
00010000
,
00100000
01000000
00100000
00001000
00010000
00100000
01000000
00010000
,
10000000
00000000
01000000
00010000
01000000
00100000
00001000
00010000
,
00000010
00001000
00000100
00000010
00001000
00000010
00000100
00001000
,
00000001
00000100
00001000
00010000
00001000
00100000
01000000
00100000
,
00010000
10000000
00100000
01000000
00001000
00010000
00000010
00000100
,
00000001
00000000
00001000
00001000
00000100
00010000
00001000
00100000
,
00010000
10000000
00100000
00100000
01000000
00001000
00010000
00000010
,
00001000
00000100
00000010
00001000
00000010
00000100
00010000
00001000
,
01000000
00100000
00010000
00100000
10000000
00010000
10000000
01000000
,
00010000
00001000
00000020
00000000
00000000
00000000
00000000
00000000
,
00000000
00000000
00000000
00000000
,
00000000
00000030
00000000
00000000
;

//--------------- dance-double - forcednature ----------------
#NOTEDATA:;
#STEPSTYPE:dance-double;
#DESCRIPTION:forcednature;
#DIFFICULTY:Hard;
#METER:16;
#RADARVALUES:0,0,0,0,0;
#CREDIT:forcednature;
#NOTES:
00000000
00000000
00000000
00000000
,
00000000
00000000
00000000
00000000
,
00000000
00000000
00000000
00000000
,
00000000
00000000
00000000
00000000
,
00000000
00000000
00000000
00000000
,
00000000
00000000
00000000
00000000
,
00000000
00000000
00000000
00000000
,
00000000
00000000
00000000
00000000
,
00000000
00000000
00000000
00000000
,
00000000
00000000
00000000
00000000
,
00000000
00000000
00000000
00000000
,
00012000
00000000
00000000
00000000
,
02003000
00000000
00000000
03020000
00000000
00000000
00230000
00000000
,
02300000
00000000
00000000
00000000
,
03020000
00000000
00032000
00003200
,
00000320
00000000
00000000
00000000
,
00002030
00000000
00000000
00000000
00003002
00000000
00000000
00000003
,
00000020
00000000
00000000
00000000
,
00000230
00000000
00020300
00030000
,
00022000
00000000
00000000
00000000
,
00000000
00000000
00000000
00000000
,
00000000
00000000
00000000
00000000
,
00000000
00000000
00000000
00000000
00000000
00033000
00000000
00100000
,
00101000
00000000
00000000
00000000
00000000
00000000
00000000
00000010
,
00010010
00000000
00000000
00000000
00000000
00000000
00000000
01000000
,
01001000
00000000
00000000
00000100
00010100
00000000
00000000
00010000
,
00001000
01000000
00001000
00000000
01000000
00010000
01000000
00000000
00100000
00000000
10000000
00010000
10000000
00000000
01000000
00000000
,
00100000
00001000
00010000
00000010
00010000
00001000
00000100
00001000
,
00010000
01000000
00010000
00001000
00000010
00000100
00001000
00000001
,
00000100
00001000
00010000
00100000
00010000
00001000
00010000
01000000
,
10000000
00100000
00010000
00001000
00000010
00000001
00000100
00000100
,
00000010
00001000
00010000
01000000
00010000
00100000
01000000
00010000
,
00001000
00000010
00000100
00010000
00001000
00000100
00001000
01000000
,
00010000
00100000
01000000
00010000
00001000
00000010
00000100
00010000
,
00001000
00000000
00000100
00000000
00000001
00000000
00000010
00000000
00000100
00000000
00000000
00000100
00010000
00000000
00001000
00000000
,
00000100
00001000
00010000
01000000
00010000
00001000
00000010
00001000
,
00010000
00100000
00010000
00001000
00010000
01000000
10000000
00100000
,
00010000
00001000
00000100
00001000
00010000
01000000
00010000
00001000
,
00000010
00000100
00001000
00000010
00000100
00000001
00000010
00000010
,
00000100
00010000
01000000
00100000
00010000
10000000
00100000
01000000
,
10000000
01000000
00001000
00010000
00001000
00100000
00010000
00001000
,
00000100
00000010
00001000
00000010
00000001
00000100
00001000
00010000
,
00022000
00000000
00000000
00033000
,
01000000
00010000
00000000
00010000
00100000
00000000
00100000
01000000
00000000
01000000
10000000
00000000
00100000
00000000
00000000
00000000
,
01000000
00001000
00000000
00001000
00010000
00000000
00010000
00000100
00000000
00000100
00001000
00000000
00000010
00000000
00000000
00000000
,
00000100
00000001
00000000
00000001
00000010
00000000
00000010
00000100
00000000
00000100
00010000
00000000
00001000
00000000
00000000
00000000
,
02000000
00000000
00000000
03200000
00000000
00000000
00320000
00000000
00000000
00032000
00000000
00000000
00103000
00000000
01000000
00000000
,
00100000
00010000
00000000
00010000
01000000
00000000
01000000
00001000
00000000
00001000
00010000
00000000
00000100
00000000
00000000
00000000
,
00001000
00000010
00000000
00000010
00000100
00000000
00000100
00000001
00000000
00000001
00000010
00000000
00000100
00000000
00000000
00000000
,
00010000
00000100
00000000
00010000
00001000
00000000
00010000
00000010
00000000
00010000
00001000
00000000
01000000
00000000
00000000
00000000
,
00020000
00000000
00000000
00100000
00000000
00000000
10000000
00000000
01030000
00000000
00010000
00100000
00010000
00000000
01000000
00000000
,
00001000
00010000
00000000
00010000
00000100
00000000
00001000
00000010
00000000
00000010
00000100
00000000
00001000
00000000
00000100
00000000
,
00000001
00000010
00000000
00000010
00000100
00000000
00010000
00001000
00000000
00001000
01000000
00000000
00010000
00000000
00010000
00000000
,
00100000
01000000
00000000
01000000
10000000
00000000
00010000
01000000
00000000
01000000
00100000
00000000
00010000
00000000
00010000
00000000
,
00001000
00000010
00000000
00000100
00000010
00000000
00000001
00001000
00000001
00000000
00000100
00000000
00000010
00000000
00001000
00000000
,
00010000
01000000
00010000
00000000
00100000
00000000
01000000
00000000
00010000
00000000
00001000
00000000
00000010
00000000
00000001
00000000
,
00001000
00000100
00001000
00000000
00000010
00000000
00000100
00000000
00001000
00000000
00010000
00000000
00100000
01000000
00100000
01000000
,
00010000
00000000
00000000
00110000
00000000
00000000
10010000
00000000
00000000
00000000
10000000
00000000
01000000
00000000
00010000
00000000
,
00001000
00000000
00000010
00000100
00000000
00001000
00000001
00001000
00000001
00000000
00000100
00000000
00001000
00000000
00010000
00000000
,
00100000
01000000
00100000
00000000
10000000
00000000
01000000
00000000
00010000
00000000
00001000
00000000
00000100
00000000
00000001
00000000
,
00000010
00000100
00000010
00000000
00000001
00000000
00000100
00000000
00001000
00000000
00010000
00000000
01000000
00000000
10000000
00000000
,
00100000
01000000
00100000
00000000
10000000
00000000
01000000
00000000
00010000
00000000
00001000
00000000
00000100
00000000
00000001
00000000
,
00000010
00000100
00000010
00000000
00000001
00000000
00000100
00000000
00001000
00000000
00000000
00001000
00010000
00000000
00010000
00000000
,
01000000
00100000
01000000
00000000
10000000
00000000
00100000
00000000
00010000
00000000
00001000
00000000
00000010
00000000
00000001
00000000
,
00000100
00000010
00000100
00000000
00000001
00000000
00000010
00000000
00001000
00000000
00010000
00000000
00100000
00000000
10000000
00000000
,
01000000
00100000
01000000
00000000
10000000
00000000
00100000
00000000
00010000
00000000
00001000
00000000
00000010
00000000
00000001
00000000
,
00000100
00000010
00000100
00000000
00000001
00000000
00000010
00000100
00000010
00000000
00001000
00000000
00000000
00000000
00010000
00000000
,
00100000
01000000
00100000
00000000
00010000
00000000
00001000
00000000
00000010
00000000
00000100
00000000
00010000
00000000
00001000
00000000
,
00000010
00000100
00000010
00000000
00001000
00000000
00010000
00000000
00100000
00000000
01000000
00000000
00001000
00000000
00010000
00000000
,
01000000
00100000
01000000
00000000
00010000
00000000
00001000
00000000
00000100
00000000
00000010
00000000
00010000
00000000
00001000
00000000
,
00000100
00000010
00000100
00000000
00001000
00000000
00010000
00000000
01000000
00000000
00100000
00000000
00001000
00000000
00010000
00000000
,
00100000
10000000
00100000
00000000
10000000
00000000
01000000
00000000
00010000
00000000
00001000
00000000
00000100
00000000
00000001
00000000
,
00000010
00000001
00000010
00000000
00000001
00000000
00000100
00000000
00001000
00000000
00010000
00000000
01000000
00000000
10000000
00000000
,
00010000
01000000
00001000
00000000
00010000
00000000
00000010
00000000
00001000
00000100
00010000
00000000
00001000
00000000
00100000
00000000
,
01000000
00000000
10000000
00010000
10000000
00000000
01000000
00100000
01000000
00000000
00010000
00000000
00001000
00000000
00000100
00000000
,
00000120
00000000
00000000
00000000
,
00000000
00000000
00000000
00000000
,
00020030
00000000
00000000
00000000
,
00000000
00000000
00000000
00000000
00000000
00000000
00000000
00000000
00032000
00000000
00000000
00000000
00000000
00003000
00000000
00000000
,
01001000
00000000
00000000
00000000
00000000
00000000
00000000
00000100
,
00010100
00000000
00000000
00000000
00000000
00000000
00000000
00100000
,
00101000
00000000
00000000
00000010
00010010
00000000
00000000
00010000
,
00001000
01000000
00001000
00000000
01000000
00010000
01000000
00000000
00100000
00000000
10000000
01000000
10000000
00000000
01000000
00100000
,
00020000
00030000
00000000
00000000
01000000
00000000
00100000
00000000
00010000
00000000
00001000
00000000
00000010
00000000
00000100
00000000
,
00000010
00001000
00010000
00100000
01000000
00100000
00010000
00001000
,
00000010
00000100
00001000
00000010
00000001
00001000
00000100
00000001
,
00000010
00000100
00010000
00100000
01000000
00010000
00100000
01000000
,
00010000
00001000
01000000
10000000
01000000
00010000
00100000
00010000
,
00001000
00000100
00001000
00000010
00000100
00001000
00010000
01000000
,
00100000
00001000
00010000
00100000
10000000
00010000
01000000
10000000
,
00010000
00100000
00010000
00000100
00001000
00010000
00100000
00001000
,
00010000
00000000
00010000
00000010
00001000
00000000
00000100
00000000
00000001
00000000
00001000
00000000
00000010
00000000
00001000
00000000
,
00010000
01000000
10000000
00010000
01000000
00010000
00100000
01000000
,
00010000
00001000
00000100
00000010
00010000
00000100
00000010
00001000
,
00010000
01000000
00100000
00001000
00010000
00100000
01000000
00001000
,
00010000
00000000
00000100
00000000
00000010
00000001
00000010
00000000
00000100
00000000
00010000
00000000
00001000
00000000
00100000
00000000
,
00010000
00000000
01000000
00000000
00100000
10000000
00100000
00000000
01000000
00000000
00001000
00000000
00010000
00000000
00000010
00000000
,
00001000
00000000
00000100
00000000
00000010
00000001
00000010
00000000
00000100
00000000
00010000
00000000
00001000
00000000
00000100
00000000
,
00001000
00000000
01000000
00000000
00010000
00100000
00010000
00000000
00100000
01000000
00100000
00000000
01000000
00000000
10000000
00000000
,
01000000
00010000
00022000
00000000
00000000
00000000
00000000
00000000
,
00000000
00000000
00000000
00000000
,
00000000
00033000
00000000
00000000
;
