#VERSION:0.83;
#TITLE:SOLID WYVERN;
#SUBTITLE:;
#ARTIST:BEMANI Sound Team "L.E.D.";
#TITLETRANSLIT:;
#SUBTITLETRANSLIT:;
#ARTISTTRANSLIT:L.E.D.;
#GENRE:HARDPSY;
#CREDIT:;
#MUSIC:SOLID WYVERN.ogg;
#BANNER:SOLID WYVERN.png;
#BACKGROUND:SOLID WYVERN-bg.png;
#CDTITLE:./CDTitles/bm IIDX 29 CastHour.png;
#SAMPLESTART:23.538;
#SAMPLELENGTH:15.000;
#SELECTABLE:YES;
#OFFSET:0.454;
#BPMS:0.000=165.000;
#STOPS:;
#BGCHANGES:0.000=../BGAs/26he.mp4=1.000=0=0=0=StretchNoLoop====,
99999.000=-nosongbg-=1.000=0=0=0=StretchNoLoop====
;
#FGCHANGES:;

//--------------- dance-single - forcednature ----------------
#NOTEDATA:;
#STEPSTYPE:dance-single;
#DESCRIPTION:forcednature;
#CREDIT:forcednature;
#DIFFICULTY:Beginner;
#METER:3;
#RADARVALUES:0.256535,0.334411,0.137429,0.018324,0,196,181,15,2,0,0,0.256535,0.334411,0.137429,0.018324,0,196,181,15,2,0,0;
#NOTES:
0000
0000
0000
0000
,
0000
0000
0000
0000
,
0000
0000
0000
0000
,
0000
0000
0000
0000
,
0000
0000
0000
0000
,
1000
0000
0000
0000
,
0000
0000
0000
0000
,
0001
0000
0000
0000
,
0100
0000
0000
0000
,
0010
0000
0000
0000
,
0000
0000
0000
0000
,
1000
0000
0000
0000
,
0001
0000
0000
0000
,
0010
0000
0000
0000
,
0100
0000
0000
0000
,
1000
0000
0000
0000
,
0000
0000
0000
0000
,
1001
0000
0000
0000
,
0001
0000
0001
0000
,
0001
0000
0000
0000
,
1000
0000
1000
0000
,
1000
0000
0000
0000
,
0010
0000
0100
0000
,
0010
0000
0000
0000
,
1000
0000
0001
0000
,
1000
0000
0000
0000
,
0100
0000
0100
0000
,
0100
0000
0000
0000
,
0010
0000
0010
0000
,
0010
0000
0000
0000
,
0001
0000
0100
0000
,
0001
0000
0000
0000
,
1000
0000
0100
0000
,
1000
0000
0000
0000
,
0010
0000
0000
0000
,
0100
0000
0100
0000
,
0100
0000
0000
0000
,
0001
0000
0000
0000
,
0010
0000
0000
0000
,
0100
0000
0100
0000
,
0100
0000
0000
0000
,
1000
0000
0000
0000
,
0001
0000
0000
0000
,
0100
0000
0000
0000
,
0001
0000
0001
0000
,
0010
0000
0000
0000
,
0100
0000
0000
0000
,
1000
0000
0000
0000
,
0100
0000
0100
0000
,
1000
0000
0000
0000
,
1000
0000
0010
0000
,
0010
0000
0000
0000
,
0100
0000
0001
0000
,
0001
0000
0000
0000
,
0010
0000
0100
0000
,
0100
0000
0000
0000
,
1001
0000
0000
0000
,
1000
0000
0000
0000
,
0010
0000
0000
0000
,
1000
0000
1000
0000
,
1000
0000
0000
0000
,
0001
0000
0000
0000
,
0010
0000
0000
0000
,
0001
0000
0001
0000
,
0001
0000
0000
0000
,
0100
0000
0100
0000
,
0100
0000
0000
0000
,
0010
0000
0010
0000
,
0010
0000
0000
0000
,
1000
0000
1000
0000
,
0001
0000
0001
0000
,
0010
0000
0100
0000
,
0010
0010
0010
0000
,
1001
0000
0000
0000
;

//--------------- dance-single - forcednature ----------------
#NOTEDATA:;
#STEPSTYPE:dance-single;
#DESCRIPTION:forcednature;
#CREDIT:forcednature;
#DIFFICULTY:Easy;
#METER:7;
#RADARVALUES:0.427994,0.549717,0.284021,0.219887,0.210725,327,296,31,24,0,0,0.427994,0.549717,0.284021,0.219887,0.210725,327,296,31,24,0,0;
#NOTES:
0000
0000
0000
0000
,
0000
0000
0000
0000
,
0000
0000
0000
0000
,
0000
0000
0000
0000
,
0000
0000
0000
0000
,
2000
0000
0000
3000
,
0200
0000
0000
0300
,
0020
0000
0000
0030
,
0002
0000
0000
0003
,
0200
0000
0000
0000
,
0000
0000
0000
0300
,
0020
0000
0000
0030
,
2000
0000
0000
3000
,
0001
0001
0001
0000
,
0010
0010
0010
0000
,
0100
1000
0100
1000
,
0020
0000
0130
0100
,
1001
0000
1000
0001
,
0100
0001
1000
0001
,
0010
0000
0100
1000
,
0001
1000
0010
1000
,
0001
0000
0010
0100
,
1000
0100
0010
0100
,
1000
0000
0010
0100
,
0001
0100
0010
0100
,
0001
0000
1000
0100
,
0010
0100
1000
0001
,
0010
0000
0001
0100
,
0010
1000
0001
0100
,
0010
0000
1000
0001
,
0010
0001
0100
0001
,
1000
0000
0010
1000
,
0100
1000
0001
0100
,
0010
0010
1000
1000
,
0001
0010
0100
0000
,
0020
0030
0020
0030
,
0020
0032
2003
3000
,
0010
0010
0100
0100
,
0001
1000
0100
0000
,
0020
0030
0020
0030
,
2002
0000
3003
0000
,
1000
0010
1000
0000
,
1000
0100
1000
0000
,
0001
0010
0001
0000
,
0100
0100
0001
0001
,
1000
0100
1000
0000
,
0001
0100
0001
0000
,
0010
0100
0010
0000
,
0001
0100
0010
1000
,
0100
0100
0010
0010
,
0001
1000
1001
0000
,
0100
0100
0010
0010
,
0100
0110
0000
1001
,
0000
1000
0100
1000
,
0001
1000
0010
0110
,
0000
0100
0001
1000
,
2002
0000
3003
0000
,
0001
0000
1001
0000
,
1000
0000
1001
0000
,
0010
0000
0110
0000
,
0100
0100
0010
0010
,
1000
0100
0010
0100
,
1000
0001
0010
0001
,
0100
0001
0100
0010
,
1000
1000
0001
0010
,
0100
0000
0010
0001
,
1000
0001
0100
0010
,
0110
0000
0100
0001
,
1000
0001
0000
0010
,
0110
0000
0100
1000
,
1001
0000
0001
0100
,
0110
0000
1001
0000
,
1000
1000
0001
0010
,
2002
0000
0000
0000
,
0000
0000
0000
0000
,
3003
0000
0000
0000
;

//--------------- dance-single - forcednature ----------------
#NOTEDATA:;
#STEPSTYPE:dance-single;
#DESCRIPTION:forcednature;
#CREDIT:forcednature;
#DIFFICULTY:Medium;
#METER:12;
#RADARVALUES:0.564115,0.721504,0.366478,0.146591,0.398545,431,391,40,16,0,0,0.564115,0.721504,0.366478,0.146591,0.398545,431,391,40,16,0,0;
#NOTES:
0000
0000
0000
0000
,
0000
0000
0000
0000
,
0000
0000
0000
0000
,
0000
0000
0000
0000
,
0000
0000
0000
0000
,
0002
0000
0000
0003
,
0200
0000
0000
0300
,
0020
1000
1000
1000
,
2000
0000
0000
3030
,
2002
0000
0000
0000
,
0000
0000
0000
3003
,
0220
0000
0000
0330
,
2002
0000
0000
3003
,
0102
0100
1000
0013
,
2100
0100
0001
3010
,
1001
0100
0110
0100
,
2002
0000
0000
0000
3003
0010
0010
0000
,
1001
0000
1000
0100
1000
0010
0100
0000
,
0001
0010
0100
0000
1000
0100
0010
0000
,
1001
0000
0001
0100
0001
1000
0010
0000
,
0100
0001
1000
0000
0100
1000
0001
0000
,
1001
0000
1000
0010
0100
0100
0001
0001
,
1000
0000
0100
0100
0010
0010
0100
0000
,
1001
0000
0001
0010
0001
0001
1000
1000
,
0010
0100
0010
0110
,
1001
0000
1000
0100
1000
0010
0100
0000
,
0001
0010
0100
0000
0010
0001
0100
0010
,
1000
0000
0001
0100
0010
1000
0100
0000
,
0010
0100
1000
0000
0010
0100
0001
0010
,
0001
0000
1000
0010
0100
0001
0010
0000
,
0100
1000
0001
0000
0100
0001
1000
0010
,
1000
0000
0100
0010
0100
1000
0010
0000
,
0110
0000
0000
0110
0000
0000
0110
0000
0000
1000
0001
1000
,
0001
0000
0001
0100
0000
0100
0010
0000
0000
1000
0000
0100
,
1000
0000
0100
1000
0000
0100
1000
0000
0000
0010
0100
0010
,
0100
0000
0000
0001
1000
0100
0010
0000
0000
0100
1000
0001
,
0100
0000
0000
0100
0000
0000
0010
1000
0001
0010
0000
0000
,
0110
0000
0001
0010
0000
0001
0010
0000
0000
0001
0000
0100
,
0001
0000
1000
0010
0000
1000
0001
0000
0000
1000
0100
0010
,
0001
0000
0000
0100
0010
1000
0001
0000
0000
0010
0000
0010
,
0200
0000
0300
0000
1000
1000
0001
0001
,
0100
0000
0000
0100
0000
0000
0100
0000
0001
0000
0000
0001
0000
0000
0001
0000
,
1000
0000
0000
1000
0000
0000
1000
0000
0010
0000
0000
0010
0000
0000
0010
0000
,
1000
0000
0000
1000
0000
0000
1000
0000
0100
0000
0000
0100
0010
0000
0010
0000
,
0001
0000
0000
1000
0000
0000
0001
0000
1000
0000
0010
0000
0100
0001
0100
0000
,
0010
0000
0000
1000
0000
0000
0001
0000
0010
0000
0000
0001
0000
0000
1000
0000
,
0010
0000
0000
0100
0000
0000
0001
0000
0010
0000
0000
0100
0000
0000
1000
0000
,
0001
0000
0000
0100
0000
0000
0001
0000
1000
0000
0000
0100
0000
0000
1000
0000
,
0010
0000
0010
0000
0100
0001
1000
0000
,
1001
0000
0000
0001
0000
0010
0100
0000
1000
0100
0000
0010
,
0001
0000
0000
0001
0000
0000
1001
0000
0000
1000
0010
0100
,
0001
0000
0000
0010
0000
0010
0100
0000
0100
1000
0000
1000
,
0010
0000
0000
0010
0000
0000
0100
0001
1000
0100
0000
0000
,
0110
0000
0000
0010
0000
0010
0001
0000
0001
1000
0000
0000
,
0010
0000
0000
0100
0000
0100
0001
0000
0000
1001
0000
0000
,
0110
0000
0000
0001
0000
0001
1000
0000
0000
0110
0000
0000
,
1001
0000
0000
0000
0000
0000
0000
0000
1000
0000
0100
0000
0010
0001
0010
0000
,
0100
0000
0000
1000
0000
0000
0001
0000
0100
0000
0000
0001
0000
0000
1000
0000
,
0010
0000
0000
1000
0000
0000
0001
0000
0010
0000
0000
0001
0000
0000
1000
0000
,
0010
0000
0000
0100
0000
0000
0001
0000
0010
0000
0000
0100
0000
0000
1000
0000
,
1100
0000
0000
1000
0000
0000
1010
0000
0101
0000
0000
0001
0000
0000
0011
0000
,
1000
0000
0000
0001
0000
0000
0100
0000
0010
0000
0000
1000
0000
0000
0001
0000
,
0010
0000
0000
0100
0000
0000
1000
0000
0010
0000
0000
0100
0000
0000
0001
0000
,
0110
0000
0000
1000
0000
0000
0001
0000
1000
0000
0000
0010
0000
0000
0100
0000
,
1001
0000
0000
1001
0000
0000
1001
0000
0100
0000
0000
0100
0010
0000
0100
0000
,
0110
0000
0000
0001
0100
0000
0100
0000
0001
0000
0000
1000
0100
0000
0100
0000
,
1000
0000
0000
0001
0010
0000
0010
0000
0000
0000
1001
0000
0000
0110
0000
0000
,
0001
0000
0000
1000
0010
0000
0010
0000
1000
0000
0000
0001
0010
0000
0010
0000
,
0100
0000
0000
1000
0010
0000
0010
0000
0000
0000
0110
0000
0000
0001
0000
1000
,
0001
0000
0000
1000
0100
0000
0010
0000
0001
0000
0000
1000
0010
0000
0100
0000
,
0110
0000
0000
0001
0100
0000
0010
0000
1000
0000
0000
0001
0010
0000
0100
0000
,
0110
0000
0000
0001
1000
0000
0010
0000
1001
0000
0000
1000
0001
0000
0010
0000
,
0100
0000
1000
0000
0001
0000
0100
0000
0010
0000
1000
0000
0001
0010
0001
0010
,
0200
0000
0000
0000
,
0000
0000
0000
0000
,
0300
0000
0000
0000
;

//--------------- dance-single - forcednature ----------------
#NOTEDATA:;
#STEPSTYPE:dance-single;
#DESCRIPTION:forcednature;
#CREDIT:forcednature;
#DIFFICULTY:Hard;
#METER:15;
#RADARVALUES:0.64919,0.858933,0.403126,0.256535,0.572622,496,452,44,28,0,0,0.64919,0.858933,0.403126,0.256535,0.572622,496,452,44,28,0,0;
#NOTES:
0000
0000
0000
0000
,
0000
0000
0000
0000
,
0000
0000
0000
0000
,
0000
0000
0000
0000
,
0000
0000
0000
0000
,
0001
0000
0100
0000
0001
1000
0010
1000
,
1000
0000
0100
0000
0010
0100
1000
0000
,
0010
0010
0100
0100
,
2002
0000
0000
3003
,
0220
0000
0000
0000
,
0000
0000
0000
0330
,
0202
0000
0000
0303
,
2200
0000
0000
3300
,
1002
0100
1000
0013
,
2001
0100
0001
3010
,
0001
0100
0001
0010
0100
1000
0010
1000
,
0200
0000
0000
0000
0000
0000
0000
0000
0310
0000
0100
0000
1000
0001
1000
0001
,
0100
0000
1001
0000
0001
0100
0010
1000
,
0001
1000
0100
0000
0010
0001
0100
0100
,
0000
0010
1000
0001
1000
0100
0010
0000
,
0100
0000
1000
0000
0001
0000
0100
0000
0010
0000
0000
0010
1000
0000
0001
0000
,
1001
0000
0001
0000
0010
1000
0010
0100
,
0010
0001
0010
0100
0010
1000
0010
0010
,
0000
0001
1000
0000
0010
0001
0010
0100
,
0010
1000
0010
0100
0010
0001
0010
0010
,
0110
0000
0000
0000
0001
0000
1000
0000
0010
0000
0000
0100
0001
0000
1000
0000
,
0100
0000
0000
0010
0100
0000
1000
0000
0010
0000
0000
0100
0001
0000
0001
0000
,
0010
0000
0000
0000
0001
0000
1000
0000
0001
0000
0000
0100
0010
0000
1000
0000
,
0001
0000
0000
1000
0010
0000
0100
0000
0001
0000
0010
0100
1000
0000
0001
0000
,
0200
0000
0300
0000
1001
0000
0000
0000
1000
0000
0000
0010
0100
0000
0010
0000
,
1000
0000
0000
0100
0010
0000
0001
0000
1000
0000
0001
0100
0010
0000
0010
0000
,
1001
0000
0000
0000
1000
0000
0010
0000
0001
0000
0000
0010
0100
0000
0100
0000
,
1001
0000
0000
0110
0000
0000
1001
0000
0000
0001
1000
0001
,
1000
0000
1000
0001
0010
0100
1000
0000
0000
0001
0000
0001
,
0100
0000
0100
0010
0000
0010
1000
0000
0001
0010
0001
0100
,
0001
0000
0000
0010
0100
1000
0001
0000
0000
1000
0010
0100
,
0001
0000
0010
0001
0000
0010
0001
0100
0010
1000
0000
0000
,
1001
0000
1000
0001
0100
0001
1000
0000
1000
0100
0000
0100
,
0010
0000
0010
0001
0000
0001
1000
0000
0000
0010
1000
0001
,
0100
0000
0100
0010
1000
0001
0010
0000
0000
0100
0000
0000
,
2002
0000
0000
0000
3003
0000
0000
0000
0001
0100
0001
0000
1000
0100
1000
0000
,
0010
0000
0000
0100
0000
0000
0001
0000
0010
0000
0000
0100
0000
0000
0001
0000
,
0100
0000
0000
1000
0000
0000
0001
0000
1000
0000
0000
0010
0000
0000
0100
0000
,
0001
0000
0000
0010
0000
0000
0100
0000
0010
0000
0000
0001
1000
0000
1000
0000
,
1001
0000
0000
0001
0000
0000
0010
0000
0100
0000
0100
0000
1000
0001
1000
0001
,
1000
0000
0000
0010
0000
0000
1000
0000
0100
0000
0000
0001
0000
0000
0100
0000
,
1000
0000
0000
0001
0000
0000
0100
0000
1000
0000
0000
0100
0000
0000
0010
0000
,
0110
0000
0000
1000
0000
0000
0001
0000
0010
0000
0000
0100
0000
0000
0010
0000
,
0001
0000
0000
0100
0000
0000
0001
0000
0000
0000
0000
0000
1000
0000
0000
0100
0000
0000
1000
0000
0000
0000
0000
0000
0010
0000
0000
0000
0000
0000
0010
0000
0000
0000
0000
0000
1000
0000
0000
0000
0001
0000
0000
0000
1000
0000
0000
0000
,
0001
0000
0001
0010
0000
0010
0100
0000
0100
1000
0000
1000
,
0001
0000
0000
0000
0001
0000
0100
0000
0000
0000
0100
0000
0020
0000
0000
0030
0000
0000
1000
0000
0001
0000
1000
0000
,
0001
0000
0000
0010
0000
0010
0001
0000
0001
0100
0000
0100
,
0020
0000
0000
0030
0000
0000
0020
0000
0000
0030
0000
0000
0100
0000
0001
0000
1000
0000
0020
0000
0000
0030
0000
0000
,
1001
0000
0000
1000
0000
1000
0001
0000
0001
0100
0000
0100
,
1000
0000
0000
0000
1000
0000
0100
0000
0000
0000
0100
0000
0001
0000
0000
0000
0001
0000
0020
0000
0000
0030
0000
0000
,
0110
0000
0000
1000
0000
1000
0001
0000
0001
0100
0000
0000
,
2002
0000
0000
0000
3003
0000
0000
0000
0001
0000
0001
0000
1000
0001
1000
0001
,
2000
0000
0000
0100
0000
0000
0100
0000
3002
0000
0000
0100
0000
0000
0100
0000
,
2003
0000
0000
0010
0000
0000
0010
0000
3002
0000
0000
0010
0000
0000
0010
0000
,
2003
0000
0000
0100
0000
0000
0010
0000
3002
0000
0000
0100
0000
0000
0013
0000
,
1001
0000
0000
0100
0000
0000
0010
0000
0110
0000
0000
0001
0000
0000
1000
0000
,
1001
0000
0000
0001
0100
0000
0010
0000
1000
0000
0000
1000
0100
0000
0010
0000
,
0100
0000
0000
0100
1000
0000
0001
0000
0100
0000
0000
0100
0010
0000
0010
0000
,
0110
0000
0000
1000
0001
0000
1000
0000
0100
0000
0000
0010
0001
0000
1000
0000
,
1001
0000
0000
1001
0000
0000
1001
0000
0100
0000
0110
0000
0001
1000
0001
1000
,
0001
0000
0000
0100
0000
0000
0101
0000
1000
0000
0000
0100
0000
0000
1100
0000
,
0001
0000
0000
0010
0000
0000
0011
0000
0000
0000
1000
0000
0000
0001
0010
0100
,
1000
0000
0000
0010
0000
0000
1010
0000
0001
0000
0000
0010
0000
0000
0011
0000
,
0100
0000
0000
0010
0000
0000
0110
0000
0000
0000
1001
0000
0000
0001
0000
0001
,
1000
0000
0000
1000
0100
0000
0110
0000
0001
0000
0000
0001
0100
0000
0110
0000
,
1000
0000
0000
1000
0010
0000
0110
0000
0001
0000
0000
0001
0010
0000
0110
0000
,
1100
0000
0000
0010
0001
0000
0011
0000
0101
0000
0000
0010
1000
0000
1010
0000
,
0001
0100
0001
0000
1000
0100
1000
0000
0010
0000
0100
0000
0001
1000
0001
1000
,
0200
0000
0000
0000
,
0000
0000
0000
0000
,
0300
0000
0000
0000
;

//--------------- dance-single - forcednature ----------------
#NOTEDATA:;
#STEPSTYPE:dance-single;
#DESCRIPTION:forcednature;
#CREDIT:forcednature;
#DIFFICULTY:Challenge;
#METER:17;
#RADARVALUES:0,0,0,0,0;
#NOTES:
0000
0000
0000
0000
,
0000
0000
0000
0000
,
0000
0000
0000
0000
,
0000
0000
0000
0000
,
0000
0000
0000
0000
,
0002
0000
0000
0000
,
0203
0000
0000
0000
,
0320
0000
0000
0000
,
2030
0000
0000
3000
,
2002
0000
0000
0000
,
0000
0000
0000
0003
,
0200
0000
0000
3000
,
0020
0000
0000
0330
,
0102
1000
0010
1003
,
2100
0001
0010
3001
,
0101
0001
1000
0010
1100
1000
0001
0010
,
0200
0000
0000
0000
0000
0000
0000
0000
1300
0001
1000
0000
0010
0100
0001
0100
,
0010
0000
1000
0100
1000
0000
0001
0000
0010
0000
0001
0100
0001
0000
1000
0000
,
0010
0000
1000
0100
1000
0000
0001
0000
0010
0000
0001
0100
0001
0000
0010
0000
,
0210
0000
0000
0000
1300
0000
0001
0000
0010
0000
0001
0100
0001
0000
1000
0000
,
0010
0000
1000
0100
1000
0000
0001
0000
0010
0000
0001
0100
0001
0000
0101
0000
,
1020
0000
0000
0000
1030
0000
0100
0000
0010
0001
0010
0000
0100
1000
0100
0000
,
0010
0001
0010
0000
0100
1000
0100
0000
0010
0001
0010
0000
0001
0100
0010
1000
,
0001
0000
0000
0000
1000
0000
0001
0000
0100
0001
0100
0000
0010
1000
0010
0000
,
0100
0001
0100
0000
0010
1000
0010
0000
0100
0001
0010
0100
1000
0000
1100
0000
,
0011
0000
0001
1000
0001
0000
0100
0000
0010
0000
1000
0001
1000
0000
0100
0000
,
0010
0000
0001
1000
0001
0000
0100
0000
0010
0000
1000
0001
1000
0000
1100
0000
,
1010
0000
0001
0100
0010
0000
1000
0000
0001
0000
0010
0100
1000
0000
0001
0000
,
0100
0000
0010
1000
0001
0000
1000
0000
0100
0000
0010
0001
0100
0000
0100
0000
,
0002
0000
0003
0000
1010
0000
1000
0000
0100
0000
0010
0001
1000
0000
0010
0000
,
0100
0000
0001
1000
0100
0000
0010
0000
0001
0000
0100
0010
1000
0000
1010
0000
,
0101
0000
0000
0001
0010
0000
0100
0000
1000
0000
0001
0100
0010
0000
0110
0000
,
1001
0000
0000
0110
0000
0000
1001
0000
0000
1000
0100
0010
,
0011
0000
0010
0001
0100
1000
0200
0000
0310
1000
0100
0010
,
0001
0100
1000
0100
0001
0100
0010
0000
1000
0001
0100
0001
,
0010
0000
0001
0100
0100
1000
0010
0000
1000
0100
0100
0001
,
0010
0000
0001
1000
0001
0000
0100
0000
0010
0000
1000
0000
0100
0000
0010
0000
0100
0000
0110
0000
0000
0000
0000
0000
,
1001
0000
1000
0100
0010
0001
2000
0000
3010
0100
0001
1000
,
0010
0000
0100
0001
0100
0000
0010
0000
1000
0000
0100
0000
0010
0000
1000
0000
0010
0000
0001
0000
0100
0000
0001
0000
,
0101
0000
1000
0010
0010
0001
0100
0000
0001
0010
0010
1000
,
2002
0000
0000
0000
0000
0000
3003
0000
0001
0100
0010
1000
0001
1000
0100
0010
,
0001
0000
0100
0001
1000
0000
0010
0000
1000
0000
0100
0010
0001
0000
0100
0000
,
0010
0000
1000
0001
0010
0000
0100
0000
1000
0000
0001
0100
0010
0000
0010
0000
,
0110
0000
0100
0001
1000
0000
0100
0000
0010
0000
0001
1000
0010
0000
1010
0000
,
0101
0000
0000
0000
0000
0000
0000
0000
0000
1001
0000
0000
0000
0000
0000
0000
0000
0000
0011
0000
0000
0000
0000
0000
1100
0000
0000
0000
0000
0000
1001
0000
0000
0000
0000
0000
1000
0000
0010
0000
0100
0000
0001
0000
0100
0000
0010
0000
,
1000
0000
0100
0010
0001
0000
0100
0000
0010
0000
1000
0001
0010
0000
0100
0000
,
1000
0000
0001
0100
0010
0000
1000
0000
0001
0000
0010
0100
0010
0000
0010
0000
,
1001
0000
0001
0100
0010
0000
1000
0000
0100
0000
0010
0001
1000
0000
0010
0000
,
0100
0000
0000
0001
0000
0000
1000
0000
0000
0100
0000
0000
1000
0000
0000
0010
0000
0000
0100
0000
0000
0001
0000
0000
0010
0000
0000
0000
0000
0000
0110
0000
0000
0000
0000
0000
0001
0000
0000
0000
1000
0000
0000
0000
0001
0000
0000
0000
,
1000
0000
0001
0100
1000
0100
0010
1000
0001
1000
0100
0001
,
0100
0000
0010
0000
0001
0000
1000
0000
0010
0000
0100
0000
0202
0000
0000
0303
0000
0000
0010
0000
0010
0000
0010
0000
,
1001
0000
1000
0100
0001
0100
1000
0001
0100
0010
0001
0010
,
2020
0000
0000
3030
0010
0000
2020
0000
0000
3030
0001
0000
0100
0000
0100
0000
0100
0000
2002
0000
0000
3003
0000
0000
,
0110
0000
0001
1000
0010
0001
0010
0100
0001
1000
0100
0001
,
0100
0000
0010
0000
0001
0000
0100
0000
0010
0000
1000
0000
0001
0000
0010
0000
0100
0000
0220
0000
0000
0330
0000
0000
,
1001
0000
1000
0100
1000
0010
0100
0001
0010
0110
0000
0000
,
2002
0000
0000
0000
0000
0000
0000
0000
0000
3003
0000
0000
0100
0000
0000
0110
0000
0000
0001
0010
0100
1000
0100
0010
,
0001
0000
1000
0010
0100
0001
0100
0000
0001
0000
1000
0100
0010
0001
0010
0000
,
0001
0000
1000
0010
0100
0001
0100
0000
0001
0000
1000
0100
0010
0000
0010
0000
,
1001
0000
0001
0010
0100
1000
0100
0000
1000
0000
0001
0100
0010
1000
0010
0000
,
1100
0000
0000
1001
0000
0000
1010
0000
0101
0000
0000
1001
0000
0000
0011
0000
,
0110
0000
1000
0001
0100
0010
1000
0001
0010
0000
0100
1000
0001
1000
0010
0100
,
0001
0000
0010
0001
1000
0100
0010
0001
0100
0000
0010
1000
0001
1000
0100
0000
,
0110
0000
0010
0001
1000
0001
0100
0010
1000
0000
0001
0010
0100
1000
0001
0100
,
0010
0000
0000
0000
0000
0000
0000
0000
0000
1010
0000
0000
0000
0000
0000
0000
0000
0000
0101
0000
0000
0000
0000
0000
0010
0000
0000
0000
0000
0000
1001
0000
0000
0000
0000
0000
0001
0000
0100
0000
0010
0000
1000
0000
0001
0000
0100
0000
,
0010
0000
1000
0100
0010
0100
1000
0001
0100
0000
0010
1000
0001
0010
0100
0010
,
0001
0000
1000
0010
0100
0001
0010
0100
0000
0000
1100
0000
0000
1100
0000
0001
,
0010
0000
0001
0100
0010
1000
0001
1000
0100
0000
0010
0001
0100
0010
1000
0001
,
0010
0000
0100
1000
0001
0100
0010
1000
0000
0000
0101
0000
0000
0101
0000
0001
,
1000
0000
0100
0010
0100
1000
0001
0100
0010
0000
1000
0001
0010
0001
0100
0010
,
1000
0000
0001
0010
0100
1000
0001
0100
0010
0000
1000
0100
0010
0001
0100
0010
,
1000
0000
0001
0010
0001
0100
1000
0100
0010
0000
1000
0010
1000
0100
0001
0100
,
0010
0001
1000
0001
0100
0010
1000
0001
0010
0000
0110
0000
0100
0001
0100
1000
,
0200
0000
0000
0000
,
0000
0000
0000
0000
,
0300
0000
0000
0000
;

//--------------- dance-double - forcednature ----------------
#NOTEDATA:;
#STEPSTYPE:dance-double;
#DESCRIPTION:forcednature;
#CREDIT:forcednature;
#DIFFICULTY:Easy;
#METER:7;
#RADARVALUES:0,0,0,0,0;
#NOTES:
00000000
00000000
00000000
00000000
,
00000000
00000000
00000000
00000000
,
00000000
00000000
00000000
00000000
,
00000000
00000000
00000000
00000000
,
00000000
00000000
00000000
00000000
,
00002000
00000000
00000000
00003000
,
00020000
00000000
00000000
00030000
,
00000200
00000000
00000000
00000300
,
00002000
00000000
00000000
00003000
,
00000002
00000000
00000000
00000000
,
00000000
00000000
00000000
00000003
,
00000020
00000000
00000000
00000030
,
00000200
00000000
00000000
00000300
,
00010000
00010000
00010000
00000000
,
00001000
00001000
00001000
00000000
,
01000000
00010000
01000000
00010000
,
20000000
00000000
31000000
01000000
,
01100000
00000000
00100000
00010000
,
00100000
00001000
00010000
00000010
,
00001000
00000000
00001000
00000100
,
00010000
00001000
01000000
00010000
,
01000000
00000000
00100000
10000000
,
01000000
10000000
00100000
10000000
,
01000000
00000000
00100000
00010000
,
01000000
00010000
00100000
00010000
,
01000000
00000000
00001000
00010000
,
00000100
00001000
00000100
00000010
,
00000001
00000000
00001000
00000010
,
00010000
00001000
00100000
00010000
,
00100000
00000000
01000000
10000000
,
00010000
10000000
00100000
01000000
,
00010000
00000000
01000000
00001000
,
00010000
00001000
00100000
00001000
,
00010000
00010000
00000010
00000010
,
00001000
00000010
00000100
00000000
,
00000002
00000003
00000002
00000003
,
00000002
00000023
00000230
00000300
,
00001000
00001000
00000010
00000010
,
00010000
00001000
00100000
00000000
,
00020000
00030000
20000000
30000000
,
20020000
00000000
30030000
00000000
,
10000000
01000000
10000000
00000000
,
10000000
00010000
10000000
00000000
,
00010000
01000000
00010000
00000000
,
00100000
00100000
00001000
00001000
,
00010000
00000010
00010000
00000000
,
00010000
00001000
00010000
00000000
,
00010000
00000100
00010000
00000000
,
00001000
00010000
00000100
00001000
,
00000100
00000100
00000010
00000010
,
00000001
00001000
00001001
00000000
,
00000001
00000001
00000100
00000100
,
00000010
00000110
00000000
00001001
,
00000000
00001000
00000100
00010000
,
00001000
01000000
00010000
10010000
,
00000000
10000000
01000000
00100000
,
20020000
00000000
30030000
00000000
,
10000000
00000000
01000000
00000000
,
00100000
00000000
00010000
00000000
,
00001000
00000000
00000100
00000000
,
00000010
00000010
00000001
00000001
,
00000100
00000000
00000010
00001000
,
00000010
00000100
00000010
00010000
,
00001000
00000000
00100000
00010000
,
00100000
00100000
01000000
10000000
,
00010000
00000000
00010000
01000000
,
00001000
00010000
00000000
00010000
,
00001000
00000000
00010000
00000100
,
00001000
00000001
00000000
00000001
,
00001000
00000000
00001000
00000010
,
00010000
00000000
00001000
00100000
,
00010000
00000000
10010000
00000000
,
10000000
10000000
00010000
01000000
,
20020000
00000000
00000000
00000000
,
00000000
00000000
00000000
00000000
,
30030000
00000000
00000000
00000000
;

//--------------- dance-double - forcednature ----------------
#NOTEDATA:;
#STEPSTYPE:dance-double;
#DESCRIPTION:forcednature;
#CREDIT:forcednature;
#DIFFICULTY:Medium;
#METER:13;
#RADARVALUES:0,0,0,0,0;
#NOTES:
00000000
00000000
00000000
00000000
,
00000000
00000000
00000000
00000000
,
00000000
00000000
00000000
00000000
,
00000000
00000000
00000000
00000000
,
00000000
00000000
00000000
00000000
,
00020000
00000000
00000000
00030000
,
00002000
00000000
00000000
00003000
,
02000000
00010000
00010000
00010000
,
00002000
00000000
00000000
03003000
,
00022000
00000000
00000000
00000000
,
00000000
00000000
00000000
00033000
,
00020200
00000000
00000000
00030300
,
02002000
00000000
00000000
03003000
,
00012000
01000000
00010000
00103000
,
00021000
00000100
00001000
00030010
,
00010100
00001000
01001000
00010000
,
00022000
00000000
00033000
00000000
,
01000000
00010000
00100000
01000000
10000000
00100000
01000000
00000000
,
00001000
00010000
00000100
00000000
00010000
00001000
00000100
00000000
,
00000010
00001000
00000100
00000010
00000001
00001000
00000010
00000000
,
00010000
00001000
01000000
00000000
00001000
00010000
01000000
00000000
,
01100000
00000000
00100000
00001000
00010000
00100000
01000000
00010000
,
10000000
01000000
00010000
00001000
00010000
00000100
00001000
00000001
,
00000000
00000000
00000100
00000001
00001000
00000010
00010000
00000010
,
00000100
00000000
00001000
00000000
00010000
00000000
01000000
00100000
,
00010000
10000000
00100000
10000000
01000000
00100000
00010000
01000000
,
00001000
00010000
00000100
00000000
00010000
00000100
00001000
00000010
,
00010000
00000100
00001000
00000001
00000100
00000010
00001000
00000010
,
00010000
00001000
00100000
00000000
01000000
10000000
01000000
00100000
,
00000000
00000000
00010000
01000000
00001000
00010000
00000100
00001000
,
00000100
00010000
00001000
00000000
01000000
00010000
10000000
00100000
,
10000000
01000000
00100000
00010000
01000000
00001000
00010000
00000100
,
00001000
00000000
00000000
00001010
00000000
00000000
00001010
00000000
00000000
00000001
00000010
00000100
,
00001000
00000000
00001000
00000100
00000000
00000100
00010000
00000000
00000000
00001000
00000000
01000000
,
00010000
00000000
00010000
10000000
00000000
00010000
10000000
00000000
00000000
01000000
00100000
01000000
,
00100000
00000000
00000000
00010000
00100000
00001000
00010000
00000000
00000000
00000010
00001000
00000001
,
00000010
00000000
00000000
00000010
00000000
00000000
00000100
00001000
00000100
00010000
00000000
00000000
,
00011000
00000000
00001000
01000000
00000000
00001000
01000000
00000000
00000000
00010000
00000000
00010000
,
10000000
00000000
10000000
01000000
00000000
01000000
00100000
00000000
00000000
00001000
00010000
00000100
,
00001000
00000000
00000000
00000100
00010000
00001000
00010000
00000000
00000000
00000010
00000000
00000010
,
00002000
00000000
00003000
00000000
00000100
00000100
00000010
00000010
,
00000001
00000000
00000000
00000001
00000000
00000000
00000001
00000000
00000100
00000000
00000000
00000100
00000000
00000000
00000100
00000000
,
00001000
00000000
00000000
00001000
00000000
00000000
00001000
00000000
00010000
00000000
00000000
00010000
00000000
00000000
00010000
00000000
,
01000000
00000000
00000000
01000000
00000000
00000000
01000000
00000000
10000000
00000000
00000000
10000000
00100000
00000000
00100000
00000000
,
01000000
00000000
00000000
00001000
00000000
00000000
00010000
00000000
00000100
00000000
00001000
00000000
00000001
00000010
00000001
00000000
,
00000100
00000000
00000000
00000001
00000000
00000000
00001000
00000000
00000100
00000000
00000000
00010000
00000000
00000000
00001000
00000000
,
01000000
00000000
00000000
00010000
00000000
00000000
00100000
00000000
01000000
00000000
00000000
10000000
00000000
00000000
00100000
00000000
,
01000000
00000000
00000000
00001000
00000000
00000000
00010000
00000000
00000100
00000000
00000000
00001000
00000000
00000000
00000100
00000000
,
00000010
00000000
00000010
00000000
00000001
00000100
00001000
00000000
,
00011000
00000000
00000000
00010000
00000000
00010000
00001000
00000000
00001000
01000000
00000000
01000000
,
00010000
00000000
00000000
10000000
00000000
00000000
01100000
00000000
00000000
10000000
01000000
00100000
,
00010000
00000000
00000000
00100000
00000000
00100000
00001000
00000000
00001000
00010000
00000000
00010000
,
00000010
00000000
00000000
00000010
00000000
00000000
00000100
00000001
00001000
00000100
00000000
00000000
,
00000110
00000000
00000000
00000010
00000000
00000010
00000001
00000000
00000001
00000100
00000000
00000100
,
00001000
00000000
00001000
00010000
00000000
00010000
01000000
00000000
00000000
01100000
00000000
00000000
,
10010000
00000000
00000000
10000000
00000000
10000000
01000000
00000000
00000000
00110000
00000000
00000000
,
00101000
00000000
00000000
00000000
00000000
00000000
00000000
00000000
00001000
00000000
00010000
00000000
00000010
00001000
00000010
00000000
,
00000100
00000000
00000000
00000001
00000000
00000000
00001000
00000000
00000001
00000000
00000000
00000010
00000000
00000000
00000100
00000000
,
00010000
00000000
00000000
00001000
00000000
00000000
00100000
00000000
00010000
00000000
00000000
10000000
00000000
00000000
00100000
00000000
,
01000000
00000000
00000000
00010000
00000000
00000000
10000000
00000000
01000000
00000000
00000000
00100000
00000000
00000000
00010000
00000000
,
00101000
00000000
00000000
00001000
00000000
00000000
00010000
00000000
00010010
00000000
00000000
00010000
00000000
00000000
00001000
00000000
,
00011000
00000000
00000000
00010000
00000000
00000000
00000100
00000000
00001000
00000000
00000000
00000001
00000000
00000000
00000100
00000000
,
00001000
00000000
00000000
00010000
00000000
00000000
00100000
00000000
10000000
00000000
00000000
00010000
00000000
00000000
10000000
00000000
,
10010000
00000000
00000000
00010000
00000000
00000000
00100000
00000000
00001000
00000000
00000000
00010000
00000000
00000000
00000010
00000000
,
00000110
00000000
00000000
00000110
00000000
00000000
00000110
00000000
00001000
00000000
00000001
00000000
00001000
00000001
00001000
00000000
,
00000100
00000000
00000000
00000100
00010000
00000000
00001000
00000000
01000000
00000000
00000000
01000000
00001000
00000000
00010000
00000000
,
00000100
00000000
00000000
00000100
00010000
00000000
00001000
00000000
00000000
00000000
00100000
00001000
00000000
00100000
00001000
00000000
,
00010000
00000000
00000000
00010000
00001000
00000000
01000000
00000000
00001000
00000000
00000000
00001000
00010000
00000000
00000100
00000000
,
00010000
00000000
00000000
00010000
00001000
00000000
00100000
00000000
00000000
00000000
01100000
00000000
00000000
10010000
00000000
10000000
,
01000000
00000000
00000000
00100000
00010000
00000000
01000000
00000000
00010000
00000000
00000000
00100000
00001000
00000000
00010000
00000000
,
00011000
00000000
00000000
00001000
00010000
00000000
00000100
00000000
00001000
00000000
00000000
00000010
00000100
00000000
00000001
00000000
,
00001001
00000000
00000000
00001000
00000100
00000000
00010000
00000000
00011000
00000000
00000000
00001000
01000000
00000000
00010000
00000000
,
00100000
00000000
10000000
00000000
00100000
00000000
00010000
00000000
01000000
00000000
00001000
00000000
00010000
00000100
00010000
00000100
,
00002000
00000000
00000000
00000000
,
00000000
00000000
00000000
00000000
,
00003000
00000000
00000000
00000000
;

//--------------- dance-double - forcednature ----------------
#NOTEDATA:;
#STEPSTYPE:dance-double;
#DESCRIPTION:forcednature;
#CREDIT:forcednature;
#DIFFICULTY:Hard;
#METER:15;
#RADARVALUES:0,0,0,0,0;
#NOTES:
00000000
00000000
00000000
00000000
,
00000000
00000000
00000000
00000000
,
00000000
00000000
00000000
00000000
,
00000000
00000000
00000000
00000000
,
00000000
00000000
00000000
00000000
,
00010000
00000000
00001000
00000000
00010000
01000000
10000000
00010000
,
01000000
00000000
00001000
00000000
00010000
00000100
00001000
00000000
,
00000010
00000010
00000100
00000100
,
00002002
00000000
00000000
00003003
,
00020200
00000000
00000000
00000000
,
00000000
00000000
00000000
00030300
,
02002000
00000000
00000000
03003000
,
20020000
00000000
00000000
30030000
,
01002000
00010000
00100000
00013000
,
00020100
00001000
00000010
00031000
,
00010000
00001000
00000100
00000001
00000010
00000100
00001000
00010000
,
00200000
00000000
00000000
00000000
00000000
00000000
00000000
00000000
01300000
00000000
10000000
00000000
00010000
01000000
00010000
01000000
,
00100000
00000000
10010000
00000000
10000000
01000000
00010000
00001000
,
01000000
00010000
00100000
00000000
01000000
00010000
00001000
00000010
,
00000000
00000100
00001000
00000001
00000100
00001000
00010000
00000000
,
00001000
00000000
00000010
00000000
00000100
00000000
00001000
00000000
00000001
00000000
00000000
00000001
00000100
00000000
00000010
00000000
,
00000110
00000000
00001000
00000000
00000100
00000001
00000100
00001000
,
00000100
00010000
00001000
01000000
00010000
01000000
10000000
01000000
,
00000000
00010000
00010000
00000000
01000000
10000000
01000000
00010000
,
01000000
00001000
00010000
00000100
00001000
00000100
00000001
00000100
,
00000110
00000000
00000000
00000000
00000001
00000000
00001000
00000000
00000010
00000000
00000000
00010000
00001000
00000000
00100000
00000000
,
00010000
00000000
00000000
00100000
01000000
00000000
10000000
00000000
00010000
00000000
00000000
01000000
00001000
00000000
00001000
00000000
,
00010000
00000000
00000000
00000000
00000100
00000000
00000001
00000000
00000100
00000000
00000000
00000100
00000010
00000000
00000001
00000000
,
00001000
00000000
00000000
00000010
00001000
00000000
00010000
00000000
01000000
00000000
00010000
10000000
01000000
00000000
00100000
00000000
,
00002000
00000000
00003000
00000000
00011000
00000000
00000000
00000000
00000100
00000000
00000000
00000100
00001000
00000000
00000001
00000000
,
00000100
00000000
00000000
00000010
00001000
00000000
00010000
00000000
01000000
00000000
00010000
10000000
01000000
00000000
01000000
00000000
,
01100000
00000000
00000000
00000000
10000000
00000000
01000000
00000000
00010000
00000000
00000000
00001000
00010000
00000000
00000010
00000000
,
00001010
00000000
00000000
00011000
00000000
00000000
00110000
00000000
00000000
10000000
01000000
00100000
,
00010000
00000000
00010000
01000000
00010000
00100000
00001000
00000000
00000000
00010000
00000000
00010000
,
00000100
00000000
00000100
00000001
00000000
00000001
00000100
00000000
00000100
00001000
00000010
00001000
,
00010000
00000000
00000000
00100000
00010000
01000000
00010000
00000000
00000000
00001000
00000010
00001000
,
00000100
00000000
00000010
00000100
00000000
00010000
00000100
00010000
00001000
01000000
00000000
00000000
,
01100000
00000000
10000000
01000000
00100000
00010000
10000000
00000000
10000000
00100000
00000000
00100000
,
00010000
00000000
00010000
00001000
00000000
00001000
00000010
00000000
00000000
00000100
00001000
00000001
,
00000100
00000000
00000100
00001000
00010000
01000000
00100000
00000000
00000000
00010000
10000000
00100000
,
02000000
00000000
00000000
00000000
03000000
00000000
00000000
00000000
00010000
00100000
00010000
00100000
01000000
10000000
01000000
10000000
,
00100000
00000000
00000000
01000000
00000000
00000000
00010000
00000000
00100000
00000000
00000000
01000000
00000000
00000000
00010000
00000000
,
00001000
00000000
00000000
00000100
00000000
00000000
00000010
00000000
00001000
00000000
00000000
00000100
00000000
00000000
00000001
00000000
,
00000100
00000000
00000000
00000010
00000000
00000000
00000001
00000000
00000100
00000000
00000000
00001000
00010000
00000000
00010000
00000000
,
00011000
00000000
00000000
00001000
00000000
00000000
00100000
00000000
01000000
00000000
01000000
00000000
10000000
00010000
10000000
00010000
,
10000000
00000000
00000000
00100000
00000000
00000000
00010000
00000000
00001000
00000000
00000000
00000010
00000000
00000000
00000001
00000000
,
00000100
00000000
00000000
00001000
00000000
00000000
00010000
00000000
01000000
00000000
00000000
00010000
00000000
00000000
00001000
00000000
,
00011000
00000000
00000000
00000100
00000000
00000000
00001000
00000000
00000010
00000000
00000000
00010000
00000000
00000000
00001000
00000000
,
00100000
00000000
00000000
00010000
00000000
00000000
00100000
00000000
00000000
00000000
00000000
00000000
01000000
00000000
00000000
10000000
00000000
00000000
01000000
00000000
00000000
00000000
00000000
00000000
00100000
00000000
00000000
00000000
00000000
00000000
00100000
00000000
00000000
00000000
00000000
00000000
00001000
00000000
00000000
00000000
00010000
00000000
00000000
00000000
00001000
00000000
00000000
00000000
,
00010000
00000000
00010000
00000100
00000000
00000100
00000010
00000000
00000010
00000001
00000000
00000001
,
00000100
00000000
00000000
00000000
00000100
00000000
00001000
00000000
00000000
00000000
00001000
00000000
00020000
00000000
00000000
00030000
00000000
00000000
00100000
00000000
10000000
00000000
01000000
00000000
,
10000000
00000000
00000000
00100000
00000000
00100000
00010000
00000000
00010000
00001000
00000000
00001000
,
00000020
00000000
00000000
00000030
00000000
00000000
00000020
00000000
00000000
00000030
00000000
00000000
00000001
00000000
00001000
00000000
00000100
00000000
00000020
00000000
00000000
00000030
00000000
00000000
,
00001001
00000000
00000000
00000001
00000000
00000001
00000100
00000000
00000100
00001000
00000000
00001000
,
00010000
00000000
00000000
00000000
00010000
00000000
01000000
00000000
00000000
00000000
01000000
00000000
10000000
00000000
00000000
00000000
10000000
00000000
00200000
00000000
00000000
00300000
00000000
00000000
,
01100000
00000000
00000000
00010000
00000000
00010000
00001000
00000000
00001000
00010000
00000000
00000000
,
00000220
00000000
00000000
00000000
00000330
00000000
00000000
00000000
00000001
00000000
00000001
00000000
00001000
00000100
00001000
00000100
,
00020000
00000000
00000000
00000100
00000000
00000000
00000010
00000000
00032000
00000000
00000000
01000000
00000000
00000000
00100000
00000000
,
00023000
00000000
00000000
00000100
00000000
00000000
00000010
00000000
00032000
00000000
00000000
01000000
00000000
00000000
00100000
00000000
,
00023000
00000000
00000000
00000010
00000000
00000000
00000100
00000000
00032000
00000000
00000000
00100000
00000000
00000000
01000000
00000000
,
00013000
00000000
00000000
00011000
00000000
00000000
00010100
00000000
00001100
00000000
00000000
00010010
00000000
00000000
00011000
00000000
,
00010000
00000000
00000000
00010000
01000000
00000000
10000000
00000000
00010000
00000000
00000000
00010000
01000000
00000000
00100000
00000000
,
10000000
00000000
00000000
10000000
01000000
00000000
00010000
00000000
00001000
00000000
00000000
00001000
00000100
00000000
00000100
00000000
,
00000110
00000000
00000000
00000001
00001000
00000000
00000001
00000000
00000010
00000000
00000000
00000100
00001000
00000000
00000100
00000000
,
00010100
00000000
00000000
00011000
00000000
00000000
01001000
00000000
01000000
00000000
01010000
00000000
00010000
10000000
00010000
10000000
,
01000000
00000000
00000000
00010000
00000000
00000000
00011000
00000000
00000100
00000000
00000000
00001000
00000000
00000000
00011000
00000000
,
00100000
00000000
00000000
00010000
00000000
00000000
00011000
00000000
00000000
00000000
00000110
00000000
00000000
00000001
00000010
00000100
,
00001000
00000000
00000000
00000010
00000000
00000000
00011000
00000000
00000100
00000000
00000000
00010000
00000000
00000000
00011000
00000000
,
01000000
00000000
00000000
00001000
00000000
00000000
00011000
00000000
00000000
00000000
01100000
00000000
00000000
10000000
01000000
10000000
,
00100000
00000000
00000000
00100000
00010000
00000000
00001000
00000000
00000010
00000000
00000000
00000010
00001000
00000000
00010000
00000000
,
01000000
00000000
00000000
01000000
00010000
00000000
00001000
00000000
00000100
00000000
00000000
00000100
00001000
00000000
00010000
00000000
,
00011000
00000000
00100000
00010000
01000000
00000000
00001000
00000000
00011000
00000000
00000010
00001000
00000100
00000000
00010000
00000000
,
00001000
01000000
00001000
01000000
00010000
10000000
00010000
10000000
01000000
00000000
00010000
00000000
00001000
00010000
00001000
00010000
,
00000200
00000000
00000000
00000000
,
00000000
00000000
00000000
00000000
,
00000300
00000000
00000000
00000000
;

//--------------- dance-double - forcednature ----------------
#NOTEDATA:;
#STEPSTYPE:dance-double;
#DESCRIPTION:forcednature;
#CREDIT:forcednature;
#DIFFICULTY:Challenge;
#METER:17;
#RADARVALUES:0,0,0,0,0;
#NOTES:
00000000
00000000
00000000
00000000
,
00000000
00000000
00000000
00000000
,
00000000
00000000
00000000
00000000
,
00000000
00000000
00000000
00000000
,
00000000
00000000
00000000
00000000
,
00020000
00000000
00000000
00000000
,
00032000
00000000
00000000
00000000
,
00003020
00000000
00000000
00000000
,
00000230
00000000
00000000
00000300
,
00002002
00000000
00000000
00000000
,
00000000
00000000
00000000
00003000
,
00000200
00000000
00000000
00000003
,
00002000
00000000
00000000
00003300
,
00021000
00100000
00001000
00030100
,
00012000
00000010
00010000
01003000
,
00001000
01000000
00010000
00100000
00001000
00000010
00000001
00000100
,
00002000
00000000
00000000
00000000
00000000
00000000
00000000
00000000
00013000
00001000
00010000
00000000
00100000
10000000
00010000
10000000
,
01000000
00000000
00100000
00010000
00100000
00000000
00001000
00000000
00010000
00000000
00000010
00001000
00000010
00000000
00010000
00000000
,
00001000
00000000
00100000
00010000
00100000
00000000
00001000
00000000
00010000
00000000
00000010
00001000
00000010
00000000
00010000
00000000
,
00000200
00000000
00000000
00000000
00001300
00000000
00000010
00000000
00010000
00000000
00001000
01000000
00001000
00000000
00100000
00000000
,
00001000
00000000
00010000
00000100
00010000
00000000
00000010
00000000
00010000
00000000
00001000
01000000
00001000
00000000
00100000
00000000
,
02100000
00000000
13000000
00010000
01000000
00001000
00000010
00001000
,
01000000
00000000
00001000
00000000
00000010
00000000
00001000
00000000
01000000
00000000
00001000
00000000
00010000
00000100
00010000
00000100
,
00002000
00000000
00003010
00001000
00000100
00010000
00100000
00010000
,
00000100
00000000
00010000
00000000
00100000
00000000
00010000
00000000
00001000
01000000
00001000
01000000
00010000
00000000
10000000
00000000
,
10010000
00000000
00000000
10000000
01000000
00000000
00010000
00000000
00001000
00000000
00000000
00001000
00000100
00000000
00000001
00000000
,
00000001
00000000
00000000
00000001
00000100
00000000
00001000
00000000
00010000
00000000
00000000
00010000
01000000
00000000
10000000
00000000
,
00100000
00000000
00000000
00100000
00010000
00000000
00001000
00000000
00000010
00000000
00000000
00000010
00001000
00000000
00010000
00000000
,
01000000
00000000
00000000
01000000
00010000
00000000
00001000
00000000
00000100
00000000
00000000
00000100
00001000
00000000
00010000
00000000
,
00000000
00000000
00000000
00000000
01100000
00000000
10000000
00000000
01000000
00000000
00010000
00001000
00010000
00000000
00000010
00000000
,
00000100
00000000
00001000
00010000
00001000
00000000
00100000
00000000
01000000
00000000
00010000
00001000
00010000
00000000
00000010
00000000
,
00000110
00000000
00000000
00000100
00000001
00000000
00001000
00000000
00000001
00000000
00000010
00000100
00001000
00000000
00000010
00000000
,
00000110
00000000
00000000
00011000
00000000
00000000
01100000
00000000
00000000
10000000
01000000
00100000
,
00010000
00000000
00001000
00000100
00001000
00000010
00000200
00000000
00001300
00000100
00000001
00001000
,
00000100
00010000
00001000
01000000
00001000
00010000
00000010
00000000
00000100
00001000
00010000
00001000
,
00100000
00000000
01000000
00010000
00001000
00010000
00000010
00000000
00000100
00001000
00010000
00001000
,
00100000
00000000
01000000
10000000
01000000
00000000
00100000
00000000
00010000
00000000
10000000
00000000
00010000
00000000
01000000
00000000
00100000
00000000
10000000
00000000
00000000
00000000
00000000
00000000
,
10010000
00000000
10000000
01000000
00010000
00001000
00020000
00000000
00031000
00010000
00000100
00001000
,
00000010
00000000
00000100
00000001
00000100
00000000
00000010
00000000
00010000
00000000
00001000
00000000
00100000
00000000
00001000
00000000
00010000
00000000
00100000
00000000
01000000
00000000
00100000
00000000
,
10000000
00000000
01000000
00010000
00001000
00000010
00000001
00000000
00000100
00001000
00010000
00100000
,
20000000
00000000
00000000
00000000
00000000
00000000
30000000
00000000
01000000
00100000
01000000
00100000
00010000
10000000
00010000
10000000
,
00100000
00000000
01000000
00001000
00010000
00000000
00000100
00000000
00000010
00000000
00000100
00010000
00001000
00000000
01000000
00000000
,
00100000
00000000
00010000
00001000
00010000
00000000
00000100
00000000
00000010
00000000
00001000
00010000
00001000
00000000
00001000
00000000
,
01000000
00000000
00100000
01000000
00001000
00000000
00010000
00000000
00000100
00000000
00000010
00000100
00010000
00000000
00001000
00000000
,
00011000
00000000
00000000
00000000
00000000
00000000
00000000
00000000
00000000
00010100
00000000
00000000
00000000
00000000
00000000
00000000
00000000
00000000
00101000
00000000
00000000
00000000
00000000
00000000
00100000
00000000
00000000
00000000
00000000
00000000
01000000
00000000
00000000
00000000
00000000
00000000
10000000
00000000
00010000
00000000
10000000
00000000
00010000
00000000
10000000
00000000
00010000
00000000
,
10000000
00000000
01000000
00010000
00001000
00000000
00000010
00000000
00000001
00000000
00000100
00001000
00010000
00000000
00100000
00000000
,
10000000
00000000
01000000
00010000
00001000
00000000
00000010
00000000
00000001
00000000
00000100
00001000
00010000
00000000
00001000
00000000
,
00011000
00000000
00010000
01000000
00100000
00000000
01000000
00000000
10000000
00000000
00100000
01000000
00010000
00000000
00100000
00000000
,
00001000
00000000
00000000
00010000
00000000
00000000
00000100
00000000
00000000
00001000
00000000
00000000
00000100
00000000
00000000
00000010
00000000
00000000
00000001
00000000
00000000
00001000
00000000
00000000
00000001
00000000
00000000
00000000
00000000
00000000
00001001
00000000
00000000
00000000
00000000
00000000
00001000
00000000
00000000
00000000
00000100
00000000
00000000
00000000
00010000
00000000
00000000
00000000
,
00001000
00000000
00001000
01000000
00010000
01000000
00100000
10000000
00010000
10000000
01000000
00010000
,
00001000
00000100
00000001
00001000
00000100
00000010
00000002
00000000
00000003
00000100
00001000
00000100
,
00000010
00000000
00010000
00001000
00100000
00001000
00010000
00100000
01000000
00100000
10000000
00010000
,
00200000
00000000
00000000
00300000
00000000
00000000
00000020
00000000
00000000
00000030
00000000
00000000
00010000
00000000
00001000
00000000
00010000
00000000
00002000
00000000
00000000
00003000
00000000
00000000
,
00011000
00000000
00010000
00000100
00010000
00001000
01000000
00001000
00010000
00000010
00010000
00001000
,
00000010
00000000
00000100
00000000
00000010
00000000
00000001
00000000
00001000
00000000
00000001
00000000
00000100
00000000
00001000
00000000
00010000
00000000
00200000
00000000
00000000
00300000
00000000
00000000
,
10010000
00000000
10000000
01000000
00010000
00001000
00000100
00000001
00000010
00000100
00000000
00000000
,
00002002
00000000
00000000
00000000
00000000
00000000
00000000
00000000
00000000
00003003
00000000
00000000
00000001
00000000
00000000
00001000
00000000
00000000
00000001
00000100
00000001
00000100
00000001
00000100
,
00000010
00000000
00010000
00001000
00100000
00010000
00100000
00000000
01000000
00000000
10000000
01000000
10000000
00100000
01000000
00000000
,
00010000
00000000
00100000
00001000
00010000
00000010
00010000
00000000
00001000
00000000
00000010
00000100
00000010
00000000
00000010
00000000
,
00001001
00000000
00000001
00000100
00000010
00001000
00000010
00000000
00010000
00000000
00001000
00100000
00010000
00100000
01000000
00000000
,
10000000
00000000
00000000
00010000
00000000
00000000
00001000
00000000
00000001
00000000
00000000
00001000
00000000
00000000
00010000
00000000
,
10000000
00000000
00010000
01000000
00001000
00010000
00001000
00100000
00010000
00000000
01000000
00001000
00010000
00000100
00001000
00000100
,
00000010
00000000
00000001
00001000
00000001
00000100
00000010
00001000
00000010
00000000
00010000
00001000
00100000
00010000
00100000
00000000
,
01100000
00000000
01000000
10000000
00010000
10000000
00100000
01000000
00010000
00000000
00100000
00001000
00010000
00000010
00001000
00000010
,
00000100
00000000
00000000
00000000
00000000
00000000
00000000
00000000
00000000
00001000
00000000
00000000
00000000
00000000
00000000
00000000
00000000
00000000
01000000
00000000
00000000
00000000
00000000
00000000
00100000
00000000
00000000
00000000
00000000
00000000
10000000
00000000
00000000
00000000
00000000
00000000
00010000
00000000
10000000
00000000
00010000
00000000
10000000
00000000
00010000
00000000
10000000
00000000
,
01000000
00000000
00100000
00010000
00100000
00001000
00010000
00000010
00001000
00000000
00000100
00000010
00000001
00001000
00000001
00000100
,
00000010
00000000
00001000
00000100
00010000
00001000
01000000
00010000
00000000
00000000
10010000
00000000
00000000
10010000
00000000
10000000
,
01000000
00000000
00100000
00010000
00100000
00001000
00010000
00000010
00001000
00000000
00000100
00000010
00000001
00000010
00000100
00001000
,
00000010
00000000
00010000
00001000
00100000
00010000
00100000
01000000
00000000
00000000
01100000
00000000
00000000
01100000
00000000
10000000
,
00010000
00000000
01000000
00010000
01000000
00001000
00010000
00000100
00001000
00000000
00000010
00010000
00001000
00010000
00000100
00001000
,
00000100
00000000
00010000
00001000
01000000
00010000
10000000
00010000
00100000
00000000
01000000
10000000
00010000
01000000
00010000
00100000
,
00001000
00000000
00010000
00000010
00010000
00000100
00001000
00000100
00000010
00000000
00000001
00001000
00000001
00000100
00000010
00010000
,
00001000
01000000
00001000
00010000
00001000
00100000
00010000
00100000
01000000
00000000
01100000
00000000
01000000
10000000
00010000
01000000
,
20000000
00000000
00000000
00000000
,
00000000
00000000
00000000
00000000
,
30000000
00000000
00000000
00000000
;
