#VERSION:0.83;
#TITLE:SHION -sublimation mix-;
#SUBTITLE:;
#ARTIST:BlackY feat. Risa Yuzuki;
#TITLETRANSLIT:;
#SUBTITLETRANSLIT:;
#ARTISTTRANSLIT:;
#GENRE:;
#CREDIT:;
#MUSIC:SHION -sublimation mix-.ogg;
#BANNER:SHION -sublimation mix-.png;
#BACKGROUND:SHION -sublimation mix--bg.png;
#CDTITLE:./CDTitles/SDVX EXCEED GEAR.png;
#SAMPLESTART:45.464;
#SAMPLELENGTH:15.000;
#SELECTABLE:YES;
#OFFSET:-0.000;
#BPMS:0.000=186.000;
#STOPS:143.500=0.323;
#TIMESIGNATURES:0.000=4=4,
144.000=3=4,
147.000=4=4
;
#BGCHANGES:0.000=../BGAs/07tr.mp4=1.000=0=0=0=StretchNoLoop====,
99999.000=-nosongbg-=1.000=0=0=0=StretchNoLoop====
;
#FGCHANGES:;

//--------------- dance-single - forcednature ----------------
#NOTEDATA:;
#STEPSTYPE:dance-single;
#DESCRIPTION:forcednature;
#DIFFICULTY:Beginner;
#METER:4;
#RADARVALUES:0,0,0,0,0;
#CREDIT:forcednature;
#NOTES:
0000
0000
0000
0000
,
0000
0000
0000
0000
,
0000
0000
0000
0000
,
0000
0000
0000
0000
,
0000
0000
0000
0000
,
0000
0000
0000
0000
,
0000
0000
0000
0000
,
0000
0000
0000
0000
,
0000
0000
0000
0000
,
0000
0000
0000
0000
,
0200
0000
0000
0000
,
0000
0000
0000
0000
0000
0000
0000
0300
,
0000
1001
0000
0000
,
0001
0000
0000
0000
,
0100
0000
0000
0000
,
0010
0000
0010
0000
,
0000
1001
0000
0000
,
1000
0000
0000
0000
,
0001
0000
0000
0000
,
0010
0000
0000
0000
,
0110
0000
0000
0000
,
0100
0000
0000
0000
,
1000
0000
0000
0000
,
0001
0000
0000
0000
,
0100
0000
0000
0000
,
0010
0000
0000
0000
,
1000
0000
0001
0000
,
1000
0000
0000
0000
,
1001
0000
0000
0000
,
0000
0001
0000
0000
,
0000
1000
0000
0000
,
0000
0100
0000
0000
,
0110
0000
0000
0000
,
1001
0000
0000
0000
,
0001
0000
0100
0000
,
0001
0000
0000
0000
,
0000
0000
1000
0000
,
0001
0000
0000
0100
,
0000
0010
0000
0100
,
0000
0000
0000
0001
,
0000
0001
0000
1000
,
0000
0000
0000
0100
,
0000
0010
0000
0100
,
0000
0010
0000
0000
,
1001
0000
0001
0000
,
0100
0000
0000
0010
,
0000
1000
0000
0001
,
0000
0000
0000
1001
,
0000
1000
0000
0100
,
0000
0010
0000
0001
,
0000
0001
0000
0000
0001
0000
0000
0000
,
0000
0000
0000
1001
,
0000
0000
0000
1000
,
0000
0000
0000
0010
,
0000
0000
0000
0100
,
0000
0100
0000
0001
,
0000
0000
0000
0010
,
0000
0000
0000
0100
,
0000
0000
0000
1000
,
0000
0001
0000
0000
,
1001
0000
0000
1000
,
0000
0010
0000
1000
,
0000
0000
0000
0001
,
0000
0010
0000
0001
,
0000
0001
0000
0100
,
0000
0000
0000
0000
0000
2002
0000
0000
,
0000
0000
0000
0000
,
0000
0000
0000
3003
,
0000
0000
0000
1000
,
0000
0000
0000
0000
,
0000
0000
0000
0001
,
0000
0000
0000
0000
,
0000
0000
0000
0100
,
0000
0000
0000
0000
,
0000
0000
0000
0010
,
0000
0000
0000
0000
0000
1001
0000
0000
,
0000
0000
0000
0000
0000
0110
0000
0000
,
0000
0000
1000
0000
,
0001
0000
0100
0000
,
0000
0001
0000
0010
,
0000
0100
0000
1000
,
0000
0000
0000
0010
,
0000
0100
0000
0010
,
0010
0010
0000
1001
,
0000
1000
0000
0001
,
0000
0100
0000
0001
,
0010
0001
0000
1000
,
0010
1000
0000
0100
,
0000
0010
0000
0001
,
1000
0001
0000
0100
,
0000
0100
0000
0000
0200
0000
0000
0000
,
0000
0300
0000
0000
0000
2002
0000
0000
,
0000
0000
0000
0000
,
0000
0000
0000
3003
;

//--------------- dance-single - forcednature ----------------
#NOTEDATA:;
#STEPSTYPE:dance-single;
#DESCRIPTION:forcednature;
#DIFFICULTY:Easy;
#METER:7;
#RADARVALUES:0,0,0,0,0;
#CREDIT:forcednature;
#NOTES:
0000
0000
0000
0000
,
0000
0000
0000
0000
,
0000
0000
0000
0000
,
0000
0000
0000
0000
,
0000
0000
0000
0000
,
0000
0000
0000
0000
,
0000
0000
0000
0000
,
0000
0000
0000
0000
,
0000
0000
0000
0000
,
0000
0000
0000
0000
,
0200
0000
0000
0000
,
0000
0000
0000
0000
0000
0000
0000
0300
,
0000
0110
0000
1000
,
0001
0100
0001
1000
,
0010
0000
1000
0100
,
0010
0001
0100
0100
,
0000
1001
0000
0001
,
0010
0001
1000
0010
,
0100
0000
0000
0001
0000
0000
0100
0000
,
0010
0000
0000
0010
0000
0000
0010
0000
0000
0000
0000
0000
0000
0000
0000
0000
,
1001
0000
1000
0000
,
0100
0010
0001
0000
,
0100
0010
1000
0001
,
0000
0010
0100
1000
,
0001
0000
0100
0001
,
0010
0000
0100
1000
,
0001
0000
0100
0010
,
1000
1000
0001
0000
,
1001
0000
0000
0000
0100
0000
0000
0010
,
0000
0110
0000
1000
,
0001
0010
0001
0000
,
0100
0010
1000
0000
,
1001
0000
0001
0010
,
0100
1000
0001
0000
,
0100
0000
0000
0010
0000
0010
0000
0010
,
0000
0000
2002
0000
0000
0000
0000
3003
,
0110
0000
0001
1000
,
0010
0100
0001
1000
,
0100
0010
0001
0100
,
0010
0000
1000
0000
0000
1001
0000
0000
,
0110
0000
0001
0010
,
0100
1000
0001
0100
,
0001
0010
0100
1000
,
0010
0000
0000
0000
0100
0000
0000
0100
0000
0000
0100
0000
0000
0000
0000
0000
,
1001
0000
0001
0010
,
0001
1000
0010
1000
,
0100
0010
0001
0100
,
0010
1000
0001
1001
,
0000
0001
0100
0010
,
0010
1000
0001
0010
,
0000
0100
0000
0000
1000
0000
0000
0001
,
0000
0100
0000
0110
,
0000
0010
1000
0001
,
1000
0100
0000
0010
,
0000
0001
0000
0100
,
0000
0010
0000
1000
,
0000
0001
0000
0010
,
0100
0010
0000
0001
,
1000
0010
0000
0100
,
0001
0010
0010
0000
,
0110
0000
0100
1000
,
0001
1000
0000
0010
,
0100
0001
0000
0010
,
0100
1000
0000
1001
,
0000
0001
0100
0010
,
1000
0000
0001
0000
0000
2002
0000
0000
,
0000
0000
0000
0000
,
0000
0000
3003
1000
,
0000
0000
0000
0001
,
0000
0000
0000
0100
,
0000
0010
0000
0100
,
0000
0000
0000
0001
,
0000
0000
0000
1000
,
0000
0000
0000
0100
,
0000
0010
0000
0100
,
0000
0000
0000
0000
0000
2002
0000
0000
,
0000
3003
0000
0000
0000
0110
0000
0000
,
0001
1000
0010
0100
,
0001
1000
0100
0010
,
0001
0100
0000
0110
,
0000
0010
1000
0001
,
1000
0100
0010
0110
,
0000
0100
0000
0000
1000
0000
0000
0001
,
0000
0100
0000
0110
,
0000
0010
1000
0001
,
1000
0100
0010
0001
,
0000
0100
0010
0100
,
0001
0010
0010
0110
,
0000
0100
1000
0001
,
1000
0010
1000
0100
,
0000
0100
0000
0000
0100
0000
0020
0000
,
0000
0000
0000
0030
0000
2002
0000
0000
,
0000
0000
0000
0000
,
0000
0000
0000
3003
;

//--------------- dance-single - forcednature ----------------
#NOTEDATA:;
#STEPSTYPE:dance-single;
#DESCRIPTION:forcednature;
#DIFFICULTY:Medium;
#METER:12;
#RADARVALUES:0,0,0,0,0;
#CREDIT:forcednature;
#NOTES:
0000
0000
0000
0000
,
0000
0000
0000
0000
,
0000
0000
0000
0000
,
0000
0000
0000
0000
,
0000
0000
0000
0000
,
0000
0000
0000
0000
,
0000
0000
0000
0000
,
0000
0000
0000
0000
,
0000
0000
0000
0000
,
0000
0000
0000
0000
,
2002
0000
0000
0000
,
0000
0000
0000
0000
0000
0000
0000
3003
,
0000
0000
0110
0000
0001
0100
0010
1000
,
0000
0001
0000
0010
0000
0100
1000
0100
,
0010
0000
0001
0000
1000
0010
0100
0001
,
0000
0000
1000
0000
0000
0000
0100
0000
1000
0000
0000
1000
0000
0000
0010
0000
,
0000
0000
0101
0000
0001
0010
0100
1000
,
0000
0001
0100
0001
0000
0010
0100
1000
,
0010
0000
0000
0100
0000
0000
1000
0000
0000
0100
0000
0000
0001
0000
0000
0000
,
0110
0000
0000
0110
0000
0000
0220
0000
0000
0000
0000
0000
0330
0000
0000
0000
,
1001
0000
0001
0100
0000
0010
1000
0000
,
0001
0000
0010
0100
0000
0010
0000
0001
,
1000
0000
0010
0000
0100
0001
1000
0000
,
0100
0000
0000
0000
0010
0000
0100
0000
0000
0100
0000
0000
1000
0000
0001
0000
,
2000
0000
0000
0000
0000
0000
0000
0000
0000
0000
0000
0000
0000
0000
0000
0000
0000
0000
0000
0000
0000
0000
0000
0000
0000
0000
0000
0000
0000
0000
0000
0000
0000
0000
0000
0000
0000
0000
0000
0000
0000
0000
0000
0000
0000
0000
0000
0000
0010
0000
0000
0000
0000
0000
0000
0000
0000
0000
0000
0000
0000
0000
0000
0000
0000
0000
0000
0000
0000
0000
0000
0000
0000
0000
0000
0000
0000
0000
0000
0000
0000
0000
0000
0000
0000
0000
0000
0000
0000
0000
0000
0000
0000
0000
0000
3000
0001
0000
0000
0000
0000
0000
0000
0000
0000
0000
0000
0000
0000
0000
0000
0000
0000
0000
0000
0000
0000
0000
0000
0000
1000
0000
0000
0000
0000
0000
0000
0000
0000
0000
0000
0000
0000
0000
0000
0000
0000
0000
0000
0000
0000
0000
0000
0000
0100
0000
0000
0000
0000
0000
0000
0000
0000
0000
0000
0000
0000
0000
0000
0000
0000
0000
0000
0000
0000
0000
0000
0000
0010
0000
0000
0000
0000
0000
0000
0000
0000
0000
0000
0000
0000
0000
0000
0000
0000
0000
0000
0000
0000
0000
0000
0000
,
0100
0000
0000
0100
0000
0000
1000
0000
0000
0000
0001
0000
0100
0000
0000
0000
,
0002
0000
0013
0020
0000
0130
0200
0000
,
1300
0000
0000
0000
0010
0000
0000
0000
0100
0000
0000
0100
0000
0000
0001
0000
,
0020
0000
0100
0000
0001
0031
0000
1001
,
0000
1000
0010
0001
0000
0010
0100
0001
,
2000
0000
3100
0020
0000
0032
0000
0203
,
0000
0000
0000
0000
0010
0000
0000
0000
1300
0000
0000
0100
0000
0000
0001
0000
,
0011
0000
0001
0010
0100
0000
1000
0010
,
1010
0000
0000
0000
0001
0000
1000
0000
0100
0000
0000
0010
0000
0000
0100
0000
,
0110
0000
0000
1001
0000
0110
0000
1001
,
0000
0000
0000
0000
0010
0000
0000
0000
0110
0000
0000
0000
0000
0000
0000
0000
1000
0000
0000
0000
0000
0000
0000
0000
0001
0000
0000
0000
0200
0300
0000
0000
,
1010
0000
0001
0010
0100
1000
0001
0000
,
0100
0000
0010
1000
0001
0010
0100
0000
,
0010
0001
1000
0010
0000
0110
0000
0100
,
0001
0000
1000
0100
0010
0110
0000
0000
,
1001
0000
0001
0100
0001
0010
0100
0000
,
1000
0001
0000
0100
0010
1000
0001
0000
,
0010
0100
0000
1000
0010
0010
0010
0000
,
0110
0000
0000
0000
1001
0000
0000
0110
0000
0000
1001
0000
0000
0000
1000
0001
,
1000
0000
0001
0100
0001
0010
0100
0000
,
0010
0001
0000
1000
0010
0100
0001
0000
,
1000
0100
0000
0010
0100
1000
0000
0001
,
0100
0000
0000
0000
0010
0000
0000
0010
0000
0000
1000
0000
1001
0000
0000
0000
,
0101
0000
1001
0000
0011
0000
0010
0100
,
1000
0000
0010
0100
0001
0000
1001
0000
,
1000
0100
0001
0000
0100
0100
0000
0010
,
0000
1000
0000
0000
0010
0000
0000
0001
0000
0000
1000
0000
0010
0000
0000
0000
,
0100
0000
0001
1000
0100
1000
0010
0010
,
0100
0000
0001
0000
0010
0100
2000
0000
,
3001
0200
0000
2300
0000
3200
0000
0310
,
1000
0001
0010
0100
0000
1000
0002
0000
,
0103
2000
0000
3100
0020
0000
2030
0000
,
3100
0000
0020
0000
0000
0000
0032
0000
0000
0203
0000
0000
0320
0000
0000
0000
,
1030
0000
0002
0000
0000
0000
0023
0000
0000
0000
0130
0000
1000
0000
0000
1010
,
0000
0000
1010
0000
0000
0001
0000
0000
0010
0000
0010
0000
0000
0000
0000
0000
,
0110
0000
0100
0000
1000
0001
0100
0000
,
1000
0000
0100
0001
0010
0100
1000
0000
,
0010
0000
0100
0000
0001
0000
0000
1000
0000
0000
0100
0000
0010
0000
0000
0001
,
0000
0000
0100
0000
0000
0001
0000
0000
1000
0000
0000
0000
0001
0000
0100
0000
,
0001
0100
0010
1000
0010
1000
0001
0010
,
0000
0010
0100
1000
0000
2002
0000
0000
,
0000
0000
0000
0000
,
0000
0000
3003
0002
,
0000
0000
0003
0200
,
0000
0000
0300
0020
,
0000
2030
0000
0000
3002
0000
0023
0000
,
0230
2300
3002
0203
,
0000
0320
2030
3002
,
0013
0200
0000
2300
0000
3020
0000
0000
,
0230
0000
0302
0000
0000
0023
0000
0000
,
0230
0000
2300
0000
3001
0200
0000
0000
,
0000
0000
0000
0300
0000
1001
0000
1000
,
0010
0000
0100
0001
0010
0100
1000
0000
,
0001
0100
0000
0010
1000
0001
0000
0010
,
0100
0000
0000
0000
1000
0000
0000
1000
0000
0000
0001
0000
0101
0000
0000
0000
,
1000
0010
1000
0000
0001
0010
0001
0000
,
0100
0010
1000
0001
0100
0000
0110
0000
,
0010
1000
0001
0000
0010
0100
0000
1000
,
0000
0010
0000
0000
0001
0000
0000
0010
0000
0000
0100
0000
0001
0000
0000
0000
,
1000
0000
0100
0010
0001
0100
0000
0010
,
0000
1000
0000
0001
0010
0100
1000
0000
,
0001
0000
0100
0010
1000
0001
0000
0010
,
0000
0000
0001
0000
0100
0000
0000
0100
0000
0000
0010
0000
1000
0000
0100
0000
,
1000
0000
0001
0100
0001
0000
0010
0100
,
1000
0000
0001
0000
0100
0000
0010
0000
1000
0000
0001
0000
0010
0000
0000
1000
,
0000
0000
0010
0000
0000
0001
0000
0000
1000
0000
0010
0000
0100
0000
0000
0000
,
1000
0000
0010
0000
0000
0202
0000
0000
,
0000
0000
0000
0000
,
0000
0000
0000
0303
;

//--------------- dance-single - forcednature ----------------
#NOTEDATA:;
#STEPSTYPE:dance-single;
#DESCRIPTION:forcednature;
#DIFFICULTY:Hard;
#METER:16;
#RADARVALUES:0,0,0,0,0;
#CREDIT:forcednature;
#NOTES:
0000
0000
0000
0000
,
0000
0000
0000
0000
,
0000
0000
0000
0000
,
0000
0000
0000
0000
,
0000
0000
0000
0000
,
0000
0000
0000
0000
,
0000
0000
0000
0000
,
0000
0000
0000
0000
,
0000
0000
0000
0000
,
0000
0000
0000
0000
,
0200
0000
0000
0000
,
0000
0000
0000
0000
0000
0000
0000
0310
,
0000
0000
1001
0001
0010
0100
0001
0100
,
1000
0000
0001
0000
0010
0000
0001
0000
0100
0000
0010
1000
0001
0000
0100
0000
,
0010
0000
1000
0000
0010
0000
0100
0000
0001
0000
0010
0000
0100
0010
0100
0000
,
1000
0000
0010
0100
0001
0000
1000
0000
0100
0000
0010
0001
0000
0100
0001
0000
,
0000
0000
0000
0000
1010
0000
0001
0000
0010
0000
0001
0000
0100
0010
1000
0000
,
0001
0000
0010
0000
0100
1000
0100
0000
0010
0000
0001
0000
0100
0000
0010
0000
,
1000
0000
0001
0100
0000
0001
0010
0000
0100
1000
0000
0010
1000
0000
0100
0000
,
0010
0000
0000
0110
0000
0000
2002
0000
0000
0000
0000
0000
3003
0000
0000
0000
,
0201
0000
1300
0000
0100
0001
0010
0100
,
1000
0010
0001
0010
0100
0001
1000
0001
,
0020
0000
0100
0000
1000
1000
0100
0000
,
0001
0000
0000
0000
0130
0000
0010
0000
0000
0010
0001
0000
1000
0000
0001
0000
,
0200
0000
0010
0000
1300
0100
0001
0010
,
0100
0000
0000
1000
0100
0000
0010
0000
0000
0000
0001
0000
1000
0000
0010
0000
,
0201
0000
0000
0000
1000
0000
0310
0000
0000
0010
0100
0000
0001
0000
0010
0000
,
0210
0000
0000
0000
2300
0000
0000
0000
3001
0000
0000
0101
0000
0000
1010
0000
,
0001
0000
0000
0000
0010
0000
0000
0000
0100
1000
0100
1000
0000
0000
1001
0000
,
0000
0010
0110
0000
0001
0100
0010
1000
,
0200
0000
0302
2003
0000
3020
0000
0031
,
0100
0000
0001
0000
1000
0000
0000
0000
0010
0000
0000
0010
0100
0000
0001
0000
,
0011
0000
0000
0000
0010
0000
0100
0000
1000
0000
0000
0000
0010
0000
0100
0001
,
0100
0000
0010
0000
1000
0000
0001
0000
0010
0000
0001
1000
0001
0000
0010
0000
,
0110
0000
0000
1100
0000
0101
0000
1001
,
0000
0010
0220
0000
0000
0000
0000
0330
,
1001
0001
0100
1000
0100
0010
1000
0001
,
0010
0000
0100
0000
1000
0000
0001
0100
0001
0000
1000
0000
0010
0000
0001
0000
,
0010
0000
0100
0001
0100
0000
0010
1000
0010
0000
1000
0100
0010
0000
0001
0000
,
1000
0000
0010
0000
0100
0000
0001
0010
0001
0000
0101
0000
0000
0000
0000
0000
,
1010
1000
0100
0010
0001
1000
0010
0100
,
0001
0000
1000
0000
0100
0000
0010
0001
0010
0000
0100
0000
1000
0000
0001
0000
,
0100
0000
0010
1000
0010
0000
0100
0001
0100
0000
0001
0010
0100
0000
0000
0100
,
1000
0000
0000
0000
1010
0000
0000
0101
0000
0000
1001
0000
1000
0000
1000
0100
,
0001
0000
0100
0010
0001
1000
0010
0100
,
1000
0000
0100
0000
0001
0000
0010
0100
1000
0000
0001
0000
0100
0000
0010
0000
,
1000
0000
0001
0010
0001
0000
0010
0100
0010
0000
0100
1000
0010
0000
0100
0000
,
0001
0000
1000
0000
0100
0000
0000
0100
0010
0000
0001
0000
2001
0000
0000
0000
,
0100
0000
0001
0000
3010
1000
1001
0001
,
0100
0001
0000
0010
0001
0000
1000
0100
0000
1000
0010
0000
0110
0000
0000
0000
,
0100
1001
0010
0000
0100
0110
0000
1100
,
0000
0101
0000
0000
0011
0000
0000
1010
0000
0000
0001
0010
0100
0000
1000
0000
,
0001
0100
0001
0010
0001
0200
0000
1300
,
0100
0000
0001
0000
0010
0000
0100
0000
1000
0000
0010
0100
0002
0000
0000
0000
,
2003
0000
3020
0000
0000
0000
0230
0000
0000
0000
2300
0000
0000
0000
3100
0001
,
0100
0001
1000
0000
0100
0000
0010
0001
1000
0000
0010
0000
0210
0000
0000
0000
,
0301
2000
0000
3100
0020
0000
0031
0001
,
1000
0000
0020
0000
0000
0000
0032
0000
0000
2003
0000
0000
3100
0000
0100
0000
,
0001
0000
0020
0000
0000
0000
0230
0000
0000
0000
1300
0000
0011
0000
0000
0101
,
0000
0000
0001
0000
0010
0100
1000
0001
0010
0000
0100
0000
0000
0000
1000
0000
,
0011
0000
0001
0000
0100
0000
0010
0000
1000
0100
1000
0000
0001
0000
0100
0001
,
0000
0001
1000
0000
1000
0010
0000
0010
0100
0000
1000
0000
0100
0000
0001
0000
,
0010
0100
0010
0000
0001
0000
1000
0010
1000
0000
0001
0000
0010
0000
0010
0100
,
0000
0100
1000
0000
1000
0010
0000
0010
0100
0000
0001
0000
0010
0000
1000
0000
,
0010
0000
0001
0000
0010
0000
1000
0000
0010
0000
0001
0000
1000
0000
0100
1000
,
0010
0000
0100
0001
1000
0100
1000
0100
0010
0000
2002
0000
0000
0000
0000
0000
,
0000
0000
0000
3003
,
0001
0000
0100
0100
0010
1000
0001
0000
,
0010
0100
1000
0000
0001
0100
0010
0000
,
1000
0100
0010
0001
0100
0010
1000
0000
,
0001
0010
1000
0000
0011
0000
0001
0100
,
1000
0000
0000
0000
0100
0000
0000
0000
0010
0000
1000
0010
1000
0000
0000
0000
,
0001
0010
0100
0001
0100
1000
0002
0000
,
0203
2300
0000
3002
0013
1000
0001
0000
,
1000
0100
0010
0001
0100
0010
2000
0000
,
3200
0000
0302
0000
0103
0110
0000
0010
,
0001
1000
0001
1000
0010
0000
0100
0000
0001
0000
0110
0000
0000
0000
1000
0000
,
1100
0000
0001
0000
0100
0000
0010
1000
0001
0000
0010
0000
0100
0000
1000
0000
,
0001
0000
0100
0001
0100
0000
0010
0100
0010
0000
1000
0001
0010
0000
0100
0000
,
1000
0000
0010
0000
0001
0000
0000
0010
0100
0000
0001
0000
0101
0000
1000
0010
,
1000
0000
0001
0000
0010
0000
0100
1000
0001
0000
0100
0000
1010
0000
0001
0000
,
0010
0100
0000
1000
0010
0000
0100
0001
0000
0010
0100
0000
0110
0000
0000
0000
,
0010
1001
0100
0000
0110
0110
0000
1100
,
0000
0101
0000
0000
0011
0000
0000
1010
0000
0000
0001
0010
0100
0000
1000
0000
,
0100
0001
0100
0010
0001
1000
0010
0001
,
0010
0000
0100
0000
0001
0000
1000
0100
1000
0000
0001
0000
1000
0000
0010
0100
,
0001
0000
0010
0001
0100
0000
0010
0000
0001
0000
0010
0000
1000
0000
0001
0010
,
0100
0000
1000
0000
0010
0000
0100
0001
0000
0010
0100
0000
1100
0000
0001
0000
,
0010
0000
0010
0000
0101
0000
1000
0000
0010
0000
0010
0000
0100
0001
0100
0000
,
0010
1000
0010
0000
0100
0000
0001
0010
0100
0000
1000
0100
1000
0000
0000
1010
,
0000
0000
0011
0000
0000
0101
0000
0000
1000
0100
0010
0001
0100
0000
0010
0000
,
0000
0000
1000
0001
0010
0000
0100
0000
0000
0000
2002
0000
0000
0000
0000
0000
,
0000
0000
0000
0000
,
0000
0000
0000
3003
;

//--------------- dance-double - forcednature ----------------
#NOTEDATA:;
#STEPSTYPE:dance-double;
#DESCRIPTION:forcednature;
#DIFFICULTY:Easy;
#METER:7;
#RADARVALUES:0,0,0,0,0;
#CREDIT:forcednature;
#NOTES:
00000000
00000000
00000000
00000000
,
00000000
00000000
00000000
00000000
,
00000000
00000000
00000000
00000000
,
00000000
00000000
00000000
00000000
,
00000000
00000000
00000000
00000000
,
00000000
00000000
00000000
00000000
,
00000000
00000000
00000000
00000000
,
00000000
00000000
00000000
00000000
,
00000000
00000000
00000000
00000000
,
00000000
00000000
00000000
00000000
,
00002000
00000000
00000000
00000000
,
00000000
00000000
00000000
00000000
00000000
00000000
00000000
00003000
,
00000000
00011000
00000000
00010000
,
00100000
01000000
00100000
10000000
,
00010000
00000000
00100000
01000000
,
10000000
01000000
00010000
00010000
,
00000000
00011000
00000000
00000100
,
00001000
00000010
00001000
00000001
,
00000010
00000000
00000000
00000100
00000000
00000000
00010000
00000000
,
00001000
00000000
00000000
00001000
00000000
00000000
00010000
00000000
00000000
00000000
00000000
00000000
00000000
00000000
00000000
00000000
,
00011000
00000000
01000000
00000000
,
00010000
00100000
01000000
00000000
,
00100000
00001000
00010000
00000010
,
00000000
00000010
00001000
00000001
,
00000010
00000000
00000100
00010000
,
00001000
00000000
01000000
00010000
,
10000000
00000000
01000000
00010000
,
00001000
00001000
00010000
00000000
,
00001100
00000000
00000000
00000000
00000010
00000000
00000000
00000001
,
00000000
00001001
00000000
00001000
,
00000010
00010000
00001000
00000000
,
00100000
00010000
01000000
00000000
,
01100000
00000000
00100000
10000000
,
00010000
10000000
01000000
00000000
,
00010000
00000000
00000000
00001000
00000000
00001000
00000000
00001000
,
00000000
00000000
00022000
00000000
00000000
00000000
00000000
00033000
,
00010100
00000000
00000100
00001000
,
00000010
00001000
00000001
00000010
,
00000100
00010000
00001000
01000000
,
00010000
00000000
00100000
00000000
00000000
01100000
00000000
00000000
,
10010000
00000000
10000000
00100000
,
01000000
00001000
00010000
00000100
,
00001000
00000010
00000100
00000001
,
00000010
00000000
00000000
00000000
00000100
00000000
00000000
00000100
00000000
00000000
00000100
00000000
00000000
00000000
00000000
00000000
,
00001001
00000000
00001000
00000010
,
00010000
00001000
00100000
00010000
,
01000000
00100000
10000000
01000000
,
10000000
00100000
00010000
00011000
,
00000000
00000100
00001000
00000010
,
00000010
00001000
00000001
00000010
,
00000000
00000100
00000000
00000000
00010000
00000000
00000000
00001000
,
00000000
01000000
00000000
01100000
,
00000000
00100000
10000000
00010000
,
00100000
00001000
00000000
00010000
,
00000000
00000010
00000000
00001000
,
00000000
00000100
00000000
00000110
,
00000000
00000010
00000000
00000001
,
00000100
00001000
00000000
00010000
,
00100000
10000000
00000000
00010000
,
10000000
01000000
01000000
00000000
,
01100000
00000000
00100000
00001000
,
00010000
00000010
00000000
00001000
,
00000001
00000010
00000000
00000100
,
00010000
00001000
00000000
00011000
,
00000000
00010000
00001000
01000000
,
00010000
00000000
00100000
00000000
00000000
02200000
00000000
00000000
,
00000000
00000000
00000000
00000000
,
03300000
00000000
00000000
10000000
,
00000000
00000000
00000000
00010000
,
00000000
00000000
00000000
01000000
,
00000000
00001000
00000000
00010000
,
00000000
00000000
00000000
00000100
,
00000000
00000000
00000000
00001000
,
00000000
00000000
00000000
00000010
,
00000000
00000100
00000000
00000001
,
00000000
00000000
00000000
00000000
00000000
00002002
00000000
00000000
,
00000000
00003003
00000000
00000000
00000000
00000110
00000000
00000000
,
00001000
00000000
00000100
00010000
,
00001000
01000000
00010000
00100000
,
01000000
10000000
00000000
10010000
,
00000000
00010000
01000000
00001000
,
00010000
00000100
00001000
00001010
,
00000000
00000001
00000000
00000000
00000010
00000000
00000000
00000100
,
00000000
00010000
00000000
00011000
,
00000000
00001000
01000000
00010000
,
10000000
01000000
00100000
00001000
,
00000000
00010000
00000010
00001000
,
00000001
00000010
00000010
00000110
,
00000000
00000100
00010000
00001000
,
01000000
00010000
00100000
01000000
,
00000000
01000000
00000000
00000000
01000000
00000000
20000000
00000000
,
00000000
00000000
00000000
30000000
00000000
20020000
00000000
00000000
,
00000000
00000000
00000000
00000000
,
00000000
00000000
00000000
30030000
;

//--------------- dance-double - forcednature ----------------
#NOTEDATA:;
#STEPSTYPE:dance-double;
#DESCRIPTION:forcednature;
#DIFFICULTY:Medium;
#METER:12;
#RADARVALUES:0,0,0,0,0;
#CREDIT:forcednature;
#NOTES:
00000000
00000000
00000000
00000000
,
00000000
00000000
00000000
00000000
,
00000000
00000000
00000000
00000000
,
00000000
00000000
00000000
00000000
,
00000000
00000000
00000000
00000000
,
00000000
00000000
00000000
00000000
,
00000000
00000000
00000000
00000000
,
00000000
00000000
00000000
00000000
,
00000000
00000000
00000000
00000000
,
00000000
00000000
00000000
00000000
,
00022000
00000000
00000000
00000000
,
00000000
00000000
00000000
00000000
00000000
00000000
00000000
00033000
,
00000000
00000000
01001000
00000000
01000000
00010000
00100000
00010000
,
00000000
01000000
00000000
00001000
00000000
00010000
00000100
00001000
,
00000100
00000000
00000010
00000000
00000001
00000100
00000010
00000100
,
00000000
00000000
00001000
00000000
00000000
00000000
00010000
00000000
00100000
00000000
00000000
00100000
00000000
00000000
01000000
00000000
,
00000000
00000000
10010000
00000000
10000000
01000000
00100000
00010000
,
00000000
01000000
00001000
00010000
00000000
00000100
00001000
00000010
,
00001000
00000000
00000000
00000100
00000000
00000000
00000001
00000000
00000000
00000100
00000000
00000000
00000010
00000000
00000000
00000000
,
00000110
00000000
00000000
00000110
00000000
00000000
00002002
00000000
00000000
00000000
00000000
00000000
00003003
00000000
00000000
00000000
,
00000110
00000000
00000001
00001000
00000000
00000100
00010000
00000000
,
00001000
00000000
01000000
00010000
00000000
00100000
00000000
01000000
,
10000000
00000000
00010000
00000000
01000000
00001000
00010000
00000000
,
00000100
00000000
00000000
00000000
00001000
00000000
00000010
00000000
00000000
00000010
00000000
00000000
00000100
00000000
00000001
00000000
,
00000200
00000000
00000010
00000000
00000301
00001000
00000100
00001000
,
00000010
00000000
00000000
00000010
00000000
00000000
00010000
00000000
00000000
00000000
00001000
00000000
00100000
00000000
00000000
00000000
,
02000000
00000000
13000000
20000000
00000000
30100000
00200000
00000000
,
01300000
00000000
00000000
00000000
00001000
00000000
00000000
00000000
00010000
00000000
00000000
00010000
00000000
00000000
00000100
00000000
,
00002000
00000000
00000001
00000000
00000010
00003010
00000000
00010100
,
00000000
00010000
00001000
01000000
00000000
00010000
00100000
01000000
,
20000000
00000000
31000000
00020000
00000000
00032000
00000000
00003020
,
00000000
00000000
00000000
00000000
00000100
00000000
00000000
00000000
00000031
00000000
00000000
00000010
00000000
00000000
00001000
00000000
,
00011000
00000000
00010000
00100000
01000000
00000000
00010000
10000000
,
10100000
00000000
00000000
00000000
10000000
00000000
01000000
00000000
00010000
00000000
00000000
00001000
00000000
00000000
00010000
00000000
,
00010100
00000000
00000000
01001000
00000000
00010010
00000000
00101000
,
00000000
00000000
00000000
00000000
00001000
00000000
00000000
00000000
00020000
00000000
00000000
00000000
00000000
00000000
00000000
00000000
00230000
00000000
00000000
00000000
00000000
00000000
00000000
00000000
02300000
00000000
00000000
00000000
03020000
00030000
00000000
00000000
,
10100000
00000000
10000000
01000000
00010000
00001000
00100000
00000000
,
00001000
00000000
00010000
00000010
00001000
00000010
00000100
00000000
,
00000001
00000010
00000100
00010000
00000000
00011000
00000000
00001000
,
01000000
00000000
00010000
00100000
01000000
01100000
00000000
00000000
,
00101000
00000000
00001000
00010000
00000010
00010000
00001000
00000000
,
00000010
00000100
00000000
00001000
00000010
00000001
00000010
00000000
,
00000100
00001000
00000000
00010000
00001000
00001000
00100000
00000000
,
01000000
00000000
00000000
00000000
01100000
00000000
00000000
01100000
00000000
00000000
10010000
00000000
00000000
00000000
10000000
01000000
,
10000000
00000000
00010000
01000000
00001000
00010000
00000100
00000000
,
00001000
00000010
00000000
00000001
00000010
00000100
00000001
00000000
,
00000010
00000100
00000000
00010000
00001000
00100000
00000000
00010000
,
01000000
00000000
00000000
00000000
00100000
00000000
00000000
00100000
00000000
00000000
10000000
00000000
10010000
00000000
00000000
00000000
,
01001000
00000000
00010100
00000000
00001001
00000000
00000001
00000010
,
00000100
00000000
00001000
00000010
00010000
00000000
00011000
00000000
,
00001000
00100000
01000000
00000000
10000000
10000000
00000000
00100000
,
00000000
01000000
00000000
00000000
00100000
00000000
00000000
00010000
00000000
00000000
00001000
00000000
00010000
00000000
00000000
00000000
,
00000100
00000000
00001000
00000010
00000100
00000010
00000001
00000001
,
00000010
00000000
00000100
00000000
00000001
00001000
00000020
00000000
,
00010030
00002000
00000000
00203000
00000000
02300000
00000000
13000000
,
00010000
01000000
00001000
00010000
00000000
00000100
00002000
00000000
,
00003010
00000002
00000000
00000013
00000200
00000000
00000302
00000000
,
00000013
00000000
00000200
00000000
00000000
00000000
00020300
00000000
00000000
00032000
00000000
00000000
02003000
00000000
00000000
00000000
,
03010000
00000000
20000000
00000000
00000000
00000000
32000000
00000000
00000000
00000000
03010000
00000000
00001000
00000000
00000000
00011000
,
00000000
00000000
00011000
00000000
00000000
00000100
00000000
00000000
00001000
00000000
00001000
00000000
00000000
00000000
00000000
00000000
,
00000011
00000000
00000001
00000000
00000100
00001000
00010000
00000000
,
00100000
00000000
01000000
00010000
10000000
00010000
00100000
00000000
,
01000000
00000000
00010000
00000000
00001000
00000000
00000000
00100000
00000000
00000000
00001000
00000000
00010000
00000000
00000000
00000010
,
00000000
00000000
00010000
00000000
00000000
00001000
00000000
00000000
00000010
00000000
00000000
00000000
00000100
00000000
00001000
00000000
,
00000100
00010000
00001000
01000000
00010000
01000000
00100000
10000000
,
00000000
10000000
01000000
00010000
00000000
00022000
00000000
00000000
,
00000000
00000000
00000000
00000000
,
00000000
00000000
00033000
00000200
,
00000000
00000000
00000300
00002000
,
00000000
00000000
00003000
00000002
,
00000000
00000203
00000000
00000000
00000320
00000000
00002030
00000000
,
00003200
00020300
00032000
02003000
,
00000000
03020000
00230000
02300000
,
13000000
00200000
00000000
02300000
00000000
03002000
00000000
00000000
,
00023000
00000000
00030200
00000000
00000000
00002300
00000000
00000000
,
00003002
00000000
00000203
00000000
00000310
00020000
00000000
00000000
,
00000000
00000000
00000000
00030000
00000000
00011000
00000000
00001000
,
00100000
00000000
01000000
10000000
01000000
00010000
00001000
00000000
,
00100000
00001000
00000000
00010000
00000010
00010000
00000000
00001000
,
00000010
00000000
00000000
00000000
00000100
00000000
00000000
00000100
00000000
00000000
00001000
00000000
00001010
00000000
00000000
00000000
,
00000001
00000100
00000001
00000000
00000010
00000100
00010000
00000000
,
00001000
01000000
00100000
10000000
00010000
00000000
00110000
00000000
,
00100000
01000000
10000000
00000000
00100000
01000000
00000000
00100000
,
00000000
00010000
00000000
00000000
00001000
00000000
00000000
00010000
00000000
00000000
00000100
00000000
00001000
00000000
00000000
00000000
,
00000010
00000000
00010000
00001000
00010000
00000100
00000000
00000010
,
00000000
00000001
00000000
00000100
00001000
00010000
00100000
00000000
,
01000000
00000000
00010000
10000000
00010000
00100000
00000000
01000000
,
00000000
00000000
00010000
00000000
00001000
00000000
00000000
00001000
00000000
00000000
00000010
00000000
00000100
00000000
00001000
00000000
,
00000010
00000000
00000100
00000001
00000100
00000000
00001000
00010000
,
00100000
00000000
01000000
00000000
00100000
00000000
10000000
00000000
00010000
00000000
00100000
00000000
01000000
00000000
00000000
10000000
,
00000000
00000000
01000000
00000000
00000000
00010000
00000000
00000000
00001000
00000000
00000100
00000000
00000020
00000000
00000000
00000000
,
00001000
00000000
00000031
00000000
00000000
00002002
00000000
00000000
,
00000000
00000000
00000000
00000000
,
00000000
00000000
00000000
00003003
;

//--------------- dance-double - forcednature ----------------
#NOTEDATA:;
#STEPSTYPE:dance-double;
#DESCRIPTION:forcednature;
#DIFFICULTY:Hard;
#METER:16;
#RADARVALUES:0,0,0,0,0;
#CREDIT:forcednature;
#NOTES:
00000000
00000000
00000000
00000000
,
00000000
00000000
00000000
00000000
,
00000000
00000000
00000000
00000000
,
00000000
00000000
00000000
00000000
,
00000000
00000000
00000000
00000000
,
00000000
00000000
00000000
00000000
,
00000000
00000000
00000000
00000000
,
00000000
00000000
00000000
00000000
,
00000000
00000000
00000000
00000000
,
00000000
00000000
00000000
00000000
,
00022000
00000000
00000000
00000000
,
00000000
00000000
00000000
00000000
00000000
00000000
00000000
00033000
,
00000000
00000000
00010000
00000100
00001000
00000010
00000001
00000010
,
00000100
00000000
00000001
00000000
00000010
00000000
00000001
00000000
00001000
00000000
00000010
00010000
00001000
00000000
01000000
00000000
,
00010000
00000000
00100000
00000000
10000000
00000000
00100000
00000000
01000000
00000000
10000000
00000000
00010000
01000000
00010000
00000000
,
00100000
00000000
00001000
00010000
00000010
00000000
00000100
00000000
00001000
00000000
00000100
00000001
00000000
00000010
00000001
00000000
,
00000000
00000000
00000000
00000000
00011000
00000000
00001000
00000000
00100000
00000000
00010000
00000000
01000000
00100000
10000000
00000000
,
01000000
00000000
00010000
00000000
00001000
00100000
00001000
00000000
00010000
00000000
00000010
00000000
00000100
00000000
00001000
00000000
,
00000100
00000000
00000001
00000010
00000000
00000100
00000010
00000000
00001000
00010000
00000000
00000100
00010000
00000000
00001000
00000000
,
01000000
00000000
00000000
01100000
00000000
00000000
20020000
00000000
00000000
00000000
00000000
00000000
30030000
00000000
00000000
00000000
,
12000000
00000000
03010000
00000000
01000000
00100000
00001000
00010000
,
00000100
00000010
00000001
00000100
00000001
00000010
00000100
00010000
,
00002000
00000000
01000000
00000000
00010000
00010000
01000000
00000000
,
00010000
00000000
00000000
00000000
01003000
00000000
00001000
00000000
00000000
00001000
00100000
00000000
01000000
00000000
10000000
00000000
,
00020000
00000000
01000000
00000000
00130000
00010000
00001000
00000100
,
00010000
00000000
00000000
00010000
00001000
00000000
00000010
00000000
00000000
00000000
00000100
00000000
00001000
00000000
00000001
00000000
,
00000201
00000000
00000000
00000000
00000010
00000000
00001300
00000000
00000000
00000100
00000001
00000000
00000010
00000000
00000100
00000000
,
00020100
00000000
00000000
00000000
00032000
00000000
00000000
00000000
00103000
00000000
00000000
01100000
00000000
00000000
10010000
00000000
,
10000000
00000000
00000000
00000000
00100000
00000000
00000000
00000000
01000000
00010000
01000000
00001000
00000000
00000000
00011000
00000000
,
00000000
00000100
00010100
00000000
00010000
00000010
00001000
00000010
,
00000200
00000000
00002300
00023000
00000000
02030000
00000000
03100000
,
00010000
00000000
10000000
00000000
00100000
00000000
00000000
00000000
01000000
00000000
00000000
01000000
00001000
00000000
00010000
00000000
,
00010100
00000000
00000000
00000000
00000100
00000000
00001000
00000000
00000010
00000000
00000000
00000000
00000100
00000000
00000001
00001000
,
00000001
00000000
00000010
00000000
00000100
00000000
00010000
00000000
00001000
00000000
00100000
00010000
00100000
00000000
01000000
00000000
,
11000000
00000000
00000000
10100000
00000000
00110000
00000000
00011000
,
00000000
00000100
00000220
00000000
00000000
00000000
00000000
00000330
,
00001001
00001000
00000010
00010000
00001000
00100000
00010000
01000000
,
10000000
00000000
01000000
00000000
00100000
00000000
10000000
00010000
10000000
00000000
01000000
00000000
00010000
00000000
00001000
00000000
,
00010000
00000000
00000100
00001000
00000100
00000000
00000010
00000001
00000010
00000000
00000100
00010000
00001000
00000000
01000000
00000000
,
00010000
00000000
00100000
00000000
01000000
00000000
10000000
00100000
10000000
00000000
01010000
00000000
00000000
00000000
00000000
00000000
,
00011000
00000100
00001000
00000010
00000100
00001000
00000100
00000001
,
00000010
00000000
00000100
00000000
00010000
00000000
00001000
00100000
00001000
00000000
00010000
00000000
00100000
00000000
01000000
00000000
,
00100000
00000000
10000000
00010000
10000000
00000000
00010000
00100000
00010000
00000000
01000000
00001000
00010000
00000000
00000000
00010000
,
00000100
00000000
00000000
00000000
00000110
00000000
00000000
00001001
00000000
00000000
00000001
00000000
00000001
00000000
00000001
00000100
,
00001000
00000000
00010000
00100000
01000000
00100000
10000000
00010000
,
00100000
00000000
01000000
00000000
00010000
00000000
00001000
00100000
00010000
00000000
01000000
00000000
00001000
00000000
00010000
00000000
,
00000100
00000000
00001000
00000010
00001000
00000000
00000001
00000100
00000001
00000000
00000010
00000100
00001000
00000000
00000010
00000000
,
00010000
00000000
00001000
00000000
00100000
00000000
00000000
00100000
01000000
00000000
10000000
00000000
10020000
00000000
00000000
00000000
,
01000000
00000000
00100000
00000000
01030000
00001000
00011000
00010000
,
00000100
00001000
00000000
00000010
00001000
00000000
00000001
00000010
00000000
00000100
00000010
00000000
00001100
00000000
00000000
00000000
,
00010000
00001000
01000000
00000000
00100000
01100000
00000000
01001000
,
00000000
00011000
00000000
00000000
00010100
00000000
00000000
00001100
00000000
00000000
00001000
00000001
00000010
00000000
00000100
00000000
,
00000010
00001000
00010000
00100000
01000000
00200000
00000000
10300000
,
01000000
00000000
00010000
00000000
00001000
00000000
00000100
00000000
00000001
00000000
00000010
00000100
00002000
00000000
00000000
00000000
,
00003020
00000000
00020030
00000000
00000000
00000000
00032000
00000000
00000000
00000000
00203000
00000000
00000000
00000000
01300000
10000000
,
01000000
10000000
00010000
00000000
01000000
00000000
00001000
00010000
00000100
00000000
00000010
00000000
00000210
00000000
00000000
00000000
,
00001300
00000002
00000000
00000103
00002000
00000000
00013000
00010000
,
00100000
00000000
20000000
00000000
00000000
00000000
30020000
00000000
00000000
00230000
00000000
00000000
01300000
00000000
01000000
00000000
,
00010000
00000000
00002000
00000000
00000000
00000000
00003020
00000000
00000000
00000000
00000130
00000000
00001100
00000000
00000000
00001010
,
00000000
00000000
00000001
00000000
00000010
00000100
00001000
00000100
00010000
00000000
00001000
00000000
00000000
00000000
01000000
00000000
,
01010000
00000000
00010000
00000000
00100000
00000000
00010000
00000000
10000000
00100000
10000000
00000000
01000000
00000000
00010000
00001000
,
00000000
00001000
00000010
00000000
00000010
00000100
00000000
00000100
00001000
00000000
00000001
00000000
00000100
00000000
00000010
00000000
,
00001000
00000001
00001000
00000000
00000100
00000000
00001000
00000010
00010000
00000000
00001000
00000000
00100000
00000000
00100000
01000000
,
00000000
01000000
10000000
00000000
10000000
00100000
00000000
00100000
00010000
00000000
00001000
00000000
00100000
00000000
01000000
00000000
,
00100000
00000000
00001000
00000000
00010000
00000000
00000010
00000000
00000100
00000000
00000010
00000000
00001000
00000000
00000001
00000010
,
00000100
00000000
00001000
00000100
00010000
00001000
00010000
00001000
01000000
00000000
20020000
00000000
00000000
00000000
00000000
00000000
,
00000000
00000000
00000000
30030000
,
10000000
00000000
01000000
01000000
00010000
00001000
00000010
00000000
,
00000100
00001000
00000001
00000000
00000100
00001000
00010000
00000000
,
00100000
01000000
00100000
10000000
00010000
00100000
00001000
00000000
,
00010000
00000010
00001000
00000000
00001100
00000000
00001000
00000010
,
00000001
00000000
00000000
00000000
00000010
00000000
00000000
00000000
00001000
00000000
00000100
00001000
00000100
00000000
00000000
00000000
,
00010000
00001000
00100000
00010000
01000000
10000000
02000000
00000000
,
03200000
00320000
00000000
00032000
00003100
00000010
00000100
00000000
,
00000001
00000010
00000100
00010000
00001000
00100000
02000000
00000000
,
03020000
00000000
00030200
00000000
00001300
00001001
00000000
00000001
,
00000100
00000010
00000100
00000010
00001000
00000000
00000100
00000000
00010000
00000000
01000000
00000000
00000000
00000000
00100000
00000000
,
01100000
00000000
01000000
00000000
10000000
00000000
00010000
01000000
00001000
00000000
00010000
00000000
00000100
00000000
00001000
00000000
,
00000010
00000000
00000100
00000001
00000100
00000000
00000010
00000100
00000010
00000000
00001000
00000001
00000010
00000000
00000100
00000000
,
00010000
00000000
00001000
00000000
01000000
00000000
00000000
01000000
00010000
00000000
00100000
00000000
01100000
00000000
01000000
10000000
,
01000000
00000000
00010000
00000000
00001000
00000000
00100000
00001000
00010000
00000000
00000010
00000000
00001010
00000000
00001000
00000000
,
00000001
00000010
00000000
00000100
00001000
00000000
00000010
00000100
00000000
00001000
00010000
00000000
00011000
00000000
00000000
00000000
,
01000000
01010000
00100000
00000000
10100000
10100000
00000000
11000000
,
00000000
01010000
00000000
00000000
00011000
00000000
00000000
00001010
00000000
00000000
00000010
00000001
00001000
00000000
00000010
00000000
,
00000001
00000010
00000100
00001000
00010000
01000000
00100000
00001000
,
00010000
00000000
00100000
00000000
10000000
00000000
00010000
00100000
00010000
00000000
01000000
00000000
00100000
00000000
00010000
00001000
,
00100000
00000000
00010000
00100000
00001000
00000000
00010000
00000000
00000010
00000000
00000100
00000000
00001000
00000000
00000100
00000001
,
00000010
00000000
00000100
00000000
00010000
00000000
00001000
01000000
00000000
00010000
00100000
00000000
01100000
00000000
00010000
00000000
,
00001000
00000000
00000010
00000000
00000110
00000000
00001000
00000000
00010000
00000000
00100000
00000000
01000000
00010000
01000000
00000000
,
00100000
10000000
00100000
00000000
01000000
00000000
00001000
00010000
00000100
00000000
00001000
00000010
00001000
00000000
00001000
00000100
,
00000000
00000100
00010000
00000000
00010000
00001000
00000000
00001000
01000000
00010000
01000000
00100000
10000000
00000000
01000000
00000000
,
00000000
00000000
00010000
00001000
00010000
00000000
00000010
00000000
00000000
00000000
00002002
00000000
00000000
00000000
00000000
00000000
,
00000000
00000000
00000000
00000000
,
00000000
00000000
00000000
00003003
;
