#VERSION:0.83;
#TITLE:SHELTER OF THE MIND;
#SUBTITLE:;
#ARTIST:YURiCa/花たん;
#TITLETRANSLIT:;
#SUBTITLETRANSLIT:;
#ARTISTTRANSLIT:YURiCa/Hanatan;
#GENRE:ROCKIN'DRUM&BASS;
#CREDIT:;
#MUSIC:SHELTER OF THE MIND.ogg;
#BANNER:SHELTER OF THE MIND.png;
#BACKGROUND:SHELTER OF THE MIND-bg.png;
#CDTITLE:./CDTitles/bm IIDX 23 copula.png;
#SAMPLESTART:53.525;
#SAMPLELENGTH:14.797;
#SELECTABLE:YES;
#OFFSET:0.293;
#BPMS:0.000=185.000;
#STOPS:;
#TIMESIGNATURES:0.000=4=4;
#BGCHANGES:0.000=SHELTER OF THE MIND.mp4=1.000=0=0=0=StretchNoLoop====,
99999.000=-nosongbg-=1.000=0=0=0=StretchNoLoop====
;
#FGCHANGES:;

//--------------- dance-single - forcednature ----------------
#NOTEDATA:;
#STEPSTYPE:dance-single;
#DESCRIPTION:forcednature;
#CREDIT:forcednature;
#DIFFICULTY:Beginner;
#METER:5;
#RADARVALUES:0,0,0,0,0;
#NOTES:
0000
0000
0000
0000
,
0000
0000
0000
0000
,
0000
0000
0000
0000
,
0000
0000
0000
0000
,
0000
0000
0000
0000
,
0000
0000
0000
0000
,
1001
0000
0000
0000
,
0001
0000
0000
0000
,
0100
0000
0010
0000
,
0100
0000
0001
0000
,
1000
0000
0000
0000
,
1000
0000
0100
0000
,
0010
0000
0000
0000
,
0100
0000
0010
0000
,
0001
0000
0000
0000
,
0001
0000
0100
0000
,
0010
0000
0000
0000
,
0100
0000
0010
0000
,
1000
0000
0000
0000
,
0100
0000
0000
0000
,
1000
0000
0010
0000
,
1000
0000
0010
0000
,
0100
0000
0000
0000
,
0001
0000
0000
0000
,
0010
0000
0001
0000
,
0010
0000
0100
0000
,
1000
0000
0001
0000
,
0000
0000
0001
0001
,
0010
0000
0100
0000
,
0000
0000
0100
0100
,
1000
0000
0010
0000
,
0000
0000
0010
0010
,
0100
0000
0001
0000
,
0000
0000
0001
0001
,
0010
0000
0001
0000
,
0000
0000
0100
0100
,
0010
0000
1000
0000
,
0000
0000
0100
0100
,
0000
1000
0000
0010
,
0000
1000
0000
0000
,
1001
0000
0110
0000
,
1001
0000
0100
0000
,
0110
0000
0001
0000
,
1000
0000
0000
0000
,
0100
0000
1000
0000
,
0001
0000
0010
0000
,
0001
0000
0000
0000
,
0100
0000
0001
0000
,
1001
0000
0110
0000
,
1001
0000
1000
0000
,
0010
0000
1000
0000
,
0001
0000
0000
0000
,
0010
0000
0100
0000
,
1000
0000
0100
0000
,
0010
0000
0000
0000
,
0001
0000
0100
0000
,
1001
0000
0100
0000
,
0010
0000
1000
0000
,
0001
0000
0000
0000
,
0010
0000
0000
0000
,
0100
0000
0000
0000
,
1000
0000
0001
0000
,
1000
0000
0000
0000
,
0010
0000
0000
0000
,
0100
0000
0001
0000
,
0100
0000
0000
0000
,
0020
0000
0000
0000
,
0000
0000
0000
0030
,
2000
0000
0000
0000
,
0000
0000
0000
3000
,
0001
0000
0001
0000
,
0010
0000
0010
0000
,
0100
0000
1000
0000
,
0010
0000
0100
0000
,
0000
0000
0000
0000
,
0001
0000
1000
0000
,
0100
0000
0000
0000
,
1000
0000
0000
0000
,
0010
0000
0000
0000
,
0100
0000
0001
0000
,
1001
0000
1000
0000
,
0100
0000
1000
0000
,
1001
0000
0110
0000
,
1001
0000
0001
0000
,
0100
0010
0100
0000
,
0001
0000
1000
0000
,
0100
0010
0100
0000
,
1000
0000
0001
0000
,
0010
0100
0010
0000
,
0001
0000
1000
0000
,
0010
0000
0000
0100
0000
0000
0001
0000
,
0000
0000
1000
0000
,
1001
0000
1000
0000
,
0100
0000
1000
0000
,
0001
0000
0100
0000
,
0001
0000
0010
0000
,
1001
0000
1000
0000
,
0001
0000
0100
0000
,
0110
0000
1001
0000
,
1000
0000
0001
0000
,
0100
0000
0100
0000
0010
0000
0000
1001
;

//--------------- dance-single - forcednature ----------------
#NOTEDATA:;
#STEPSTYPE:dance-single;
#DESCRIPTION:forcednature;
#CREDIT:forcednature;
#DIFFICULTY:Easy;
#METER:11;
#RADARVALUES:0,0,0,0,0;
#NOTES:
0000
0000
0000
0000
,
0000
0000
0000
0000
,
0000
0000
0000
0000
,
0000
0000
0000
0000
,
0000
0000
0000
0000
,
0000
0000
0000
0000
,
0101
0000
1000
0100
0000
1000
0010
0000
,
0100
0001
0000
0010
0000
0100
0010
0000
,
0011
0100
1010
0100
,
1001
0000
0001
0100
0010
1000
0001
1000
,
0100
0100
0000
0000
0000
0110
0000
1001
,
0000
0001
1000
0000
0010
0100
0001
0000
,
0010
0010
0100
0000
0010
0000
0001
0000
,
0101
1000
1100
0001
,
0010
0010
0000
0000
0000
1001
0000
0110
,
0000
1000
0010
0000
0100
0001
1000
0000
,
0100
0100
0010
0000
0100
0000
1000
0000
,
0101
0000
1000
0010
0000
1000
0001
0000
,
0010
0100
0010
0000
0001
1000
0001
0000
,
0100
0001
0100
0001
0000
1000
0010
0000
,
1000
0100
1000
0000
0001
0010
0001
0000
,
0100
0000
1000
0100
0000
0001
0100
0000
,
0110
0000
0001
0000
1000
0100
0010
0000
,
0100
1000
0100
0000
0010
0001
0010
0000
,
1001
0000
0001
0000
1000
0010
1000
0000
,
0110
0000
0001
1000
0000
0100
0010
0000
,
0100
1000
0010
0000
1001
0000
0000
0001
,
0000
0100
0001
0000
0011
0000
0011
0000
,
0100
1000
0010
0000
1001
0000
0000
1000
,
0000
0010
0100
0000
0101
0000
0101
0000
,
0001
1000
0100
0000
0110
0000
0000
0010
,
0000
0001
1000
0000
0110
0000
0110
0000
,
1000
0001
0100
0000
1010
0000
0000
0001
,
0000
0010
0100
0000
0011
0000
0011
0000
,
1000
0001
0100
0000
1010
0000
0000
0001
,
0000
1000
0100
0000
0011
0000
1100
0000
,
1000
0010
0100
0000
1001
0000
0000
0001
,
0000
0010
0100
0000
0010
0010
0010
0000
,
0100
1000
0100
1000
0001
1000
0001
0000
,
0100
0001
0100
0001
1000
0001
1000
0000
,
1010
0100
0011
0100
,
2002
0000
3003
0000
0001
0100
0010
1000
,
0001
1000
0000
0100
0000
0010
0001
0200
,
0000
0000
0300
0000
0010
1000
0001
1000
,
0000
0100
0000
0001
0000
0100
0010
0001
,
0000
0100
0010
1000
0000
0001
0010
0001
,
0100
0010
1000
0000
0100
1000
0000
0001
,
0100
0100
0100
0000
0010
0010
0010
0000
,
2200
3300
0202
0303
,
2002
0000
3003
0000
0001
1000
0100
0010
,
0000
0100
0000
1000
0000
0010
0100
0002
,
0000
0000
0003
0000
0010
0100
0010
0001
,
0000
0100
0000
0010
0000
1000
0100
0001
,
0000
0100
0010
0001
1000
0001
0100
0000
,
0010
1000
0001
0000
1000
0100
0010
0000
,
0001
0001
0001
0000
1000
1000
1000
0000
,
1001
0000
0000
0110
0000
0000
1001
0000
,
0110
0000
1000
0000
0001
0100
1000
0000
,
0110
0001
1000
0010
,
1000
0001
0010
0100
,
0010
0001
0000
0001
,
1000
0000
0010
0000
1000
0001
1000
0000
,
1001
1000
0000
0010
,
0100
0000
0001
0000
0010
0100
0010
0000
,
0011
0100
1010
0100
,
2002
0000
3003
0000
1000
0100
0010
0001
,
0200
0000
0000
0320
0000
0000
2030
0000
,
0000
3002
0000
0023
0000
0230
0000
0000
,
2300
0000
0000
3020
0000
0000
0230
0000
,
0000
0302
0000
0023
0000
0230
0000
0000
,
0310
0001
0010
0001
0010
0001
0010
0001
,
1000
0010
1000
0010
1000
0010
1000
0010
,
2000
3000
0002
0003
,
0220
0330
2002
3003
,
0000
0000
0000
0000
,
0000
0000
0000
0000
1000
0002
0000
0203
,
0000
0320
0000
2030
0000
3002
0000
0023
,
0000
0000
0030
0000
0100
1000
0100
2000
,
0000
3002
0000
0203
0000
0320
0000
2030
,
0000
3002
0000
2003
0000
3200
0000
0300
,
0110
0000
0010
0000
0001
1000
0001
0000
,
0100
0000
0010
0000
1000
0001
1000
0000
,
2020
3030
0022
0033
,
2002
0000
3003
0000
0001
0100
0010
1000
,
0001
1000
0000
0100
0000
0010
0100
2000
,
0000
0000
3000
0000
0010
0100
0001
1000
,
0000
0001
0000
0010
0000
0100
0010
0001
,
0000
0100
0010
1000
0001
1000
0100
0000
,
0110
0000
0010
0000
0001
1000
0010
0000
,
0100
0001
0100
0001
1000
0010
1000
0010
,
1000
0000
0000
1001
0000
0000
0110
0000
,
1001
0000
0001
0000
0100
0010
0100
0000
,
1001
0000
0001
0000
0010
0100
0010
0000
,
0100
1000
0010
0000
,
0100
0000
1000
0000
0100
0010
0100
0000
,
0001
1000
0100
0000
,
0110
0000
0010
0000
0001
1000
0001
0000
,
1000
0010
0100
0000
,
0011
0100
1010
0100
,
1001
0000
0010
0000
1000
0001
1000
0001
,
0010
0100
0010
0100
0010
0000
0001
0001
;

//--------------- dance-single - forcednature ----------------
#NOTEDATA:;
#STEPSTYPE:dance-single;
#DESCRIPTION:forcednature;
#CREDIT:forcednature;
#DIFFICULTY:Medium;
#METER:14;
#RADARVALUES:0,0,0,0,0;
#NOTES:
0000
0000
0000
0000
,
0000
0000
0000
0000
,
0000
0000
0000
0000
,
0000
0000
0000
0000
,
0000
0000
0000
0000
,
0000
0000
0000
0000
,
0101
0000
0001
1000
0100
0010
0100
0000
,
1000
1000
0001
0100
0010
1000
0001
0000
,
0011
0100
1010
0100
,
1001
0000
0001
0100
1000
0100
0010
1000
,
0000
0001
0010
0100
1000
0010
0000
0110
,
0000
0100
0001
0000
1000
0100
0001
0000
,
0110
0000
0001
1000
0010
1000
0001
0200
,
0000
0001
0000
0320
0000
1000
0000
0130
,
0000
0010
1000
0001
0010
0100
0000
0110
,
0000
0010
0001
0000
1000
0010
0001
0000
,
0110
0000
0001
1000
0100
0010
0100
1000
,
0001
0100
1000
0100
0000
0010
1000
0001
,
0010
0010
0200
0000
0310
0010
0200
0000
,
0310
0001
1000
0020
0000
0130
0001
1000
,
0100
0010
0100
0010
0001
1000
0001
1000
,
0020
0000
0130
0002
0000
1003
0100
0010
,
0000
0100
1000
0010
1000
0001
0100
0001
,
0010
0100
0010
0100
1000
0001
1000
0001
,
0000
0010
1000
0010
0100
0010
0001
1000
,
0001
0100
1000
0100
0000
0010
1000
0001
,
0010
0100
0010
0000
0110
0000
0010
0001
,
0000
1000
0010
0000
0110
0000
0110
0000
,
0100
0001
1000
0000
1001
0000
0001
0010
,
0000
0100
1000
0000
1010
0000
1010
0000
,
0010
0100
0001
0000
1001
0000
1000
0100
,
0000
0010
0001
0000
0101
0000
0101
0000
,
0100
0010
1000
0000
1001
0000
0001
0010
,
0000
0100
1000
0000
1010
0000
0101
0000
,
0100
0001
1000
0000
1001
0000
0001
0010
,
0100
1000
0010
0000
0110
0000
1001
0000
,
0001
0010
0100
0000
0110
0000
0010
0001
,
1000
0010
0100
0000
0001
1000
0001
1000
,
0100
0001
0100
0010
0100
1000
0100
0000
,
0010
0001
1000
0010
1000
0001
0010
0000
,
2100
3010
0102
0013
,
1001
0000
0000
0000
0001
0000
0100
0000
0010
1000
0010
1000
0010
0000
0100
0000
,
0001
1000
0001
0010
0100
0010
0001
0200
,
0000
0000
0300
0000
0010
1000
0001
1000
,
0000
1100
0000
0011
0000
0001
0100
2000
,
0000
3100
0010
2000
0000
3001
0010
0100
,
0010
0001
0100
0000
0010
1000
0001
1000
,
0100
0001
0100
0001
0100
1000
0100
1000
,
0010
1000
1001
0000
0010
0001
1001
0000
,
0001
0000
0100
0000
0010
0000
1000
0000
0001
0010
0001
0010
0001
0000
0100
0000
,
0010
1000
0001
1000
0100
0010
0100
2000
,
0000
0000
3000
0000
0010
0100
0001
0010
,
0000
0110
0000
1100
0000
0010
1000
0002
,
0000
0103
1000
0100
0010
1000
0001
0010
,
0100
1000
0020
0000
0000
0000
0030
0110
,
0000
0001
1000
0010
1000
0001
0010
0100
,
1100
0000
0000
0101
0000
0000
1001
0000
,
0110
0000
0001
0100
1000
0100
0010
1000
,
0001
0010
0200
0000
1000
0000
0010
0000
,
0001
0010
1000
0310
,
0100
1000
0001
0000
0100
0010
1000
0000
,
0001
0010
0100
1000
0010
0100
0001
0000
,
1001
0000
1000
0000
0010
1000
0001
0000
,
0100
1000
0100
0010
0100
0001
0100
0000
,
1001
0010
1001
0100
,
1001
0000
0000
0000
0001
0000
0100
0000
0010
0000
1000
0000
0001
1000
0001
0000
,
1000
0100
0010
0002
0000
0003
1000
0010
,
0100
0002
0000
0023
0000
0230
0000
1300
,
0001
0100
0010
2000
0000
3000
0001
0010
,
0100
2000
0000
3020
0000
0230
0000
0301
,
1000
0100
1000
0100
0010
0001
0010
0001
,
1000
0010
1000
0010
0100
0001
0100
0001
,
1002
0103
2001
3100
,
1000
0000
0100
0000
0010
0000
0001
0000
1000
0100
1000
0000
0001
0100
0001
0000
,
0000
0000
0000
0000
,
0010
0010
0010
0000
0001
0020
0000
0230
,
0000
2300
0000
3020
0000
0130
0001
2000
,
0000
0000
3000
0000
0100
0010
0001
0200
,
0000
2300
0000
3200
0000
0310
1000
0002
,
0000
0013
1000
0010
0100
0100
1000
0001
,
1000
0010
0100
0000
0001
1000
0000
1000
,
0001
0010
0100
0010
1000
0010
0100
0010
,
0001
0100
0110
0000
1000
0100
0110
0000
,
1001
0000
0000
0000
0110
0000
0000
0000
0001
0000
1000
0000
0001
1000
0001
1000
,
0001
0100
0010
0100
1000
0100
0010
2000
,
0000
0000
3000
0000
0100
0010
0001
0100
,
0000
0101
0000
1100
0000
0010
1000
0002
,
0000
0013
1000
0010
0100
1000
0001
1000
,
0010
0100
1000
0000
0100
0001
0010
0000
,
0100
0000
0100
0000
1000
0000
1000
0000
0001
0000
1000
0000
0001
0100
0001
0100
,
0001
0000
0000
1001
0000
0000
0110
0000
,
1001
0000
0000
0000
1000
0000
0100
0000
0010
0000
0001
0000
1000
0010
1000
0000
,
0100
0010
0100
0001
0100
1000
0010
1000
,
0001
0010
0100
0010
0001
1000
0010
0000
,
0100
1000
0100
0010
0100
0001
1000
0100
,
0010
0001
1000
0010
0001
0010
1000
0000
,
0001
0010
1000
0010
0100
1000
0001
0100
,
1000
0100
0010
1000
0001
0010
0100
0000
,
1100
1000
0010
0000
0101
0001
0010
0000
,
1001
0000
0000
0000
0001
0000
0100
0000
1000
0000
0100
0000
0010
1000
0010
1000
,
0010
0010
0100
0001
1000
0000
0100
0110
;

//--------------- dance-single - forcednature ----------------
#NOTEDATA:;
#STEPSTYPE:dance-single;
#DESCRIPTION:forcednature;
#CREDIT:forcednature;
#DIFFICULTY:Hard;
#METER:16;
#RADARVALUES:0,0,0,0,0;
#NOTES:
0000
0000
0000
0000
,
0000
0000
0000
0000
,
0000
0000
0000
0000
,
0000
0000
0000
0000
,
0000
0000
0000
0000
,
0000
0000
0000
0000
,
1100
0000
1000
0001
0100
1000
0100
0000
,
0010
1000
0001
0010
0100
1000
0010
0000
,
0101
0001
1000
0000
1100
1000
0001
0000
,
1001
0000
1000
0000
0001
0000
1000
0010
1000
0010
0100
0001
0100
0001
1000
0100
,
0010
0010
0001
0100
0001
0011
0000
1100
,
0000
1000
0002
0000
0103
1000
0100
0000
,
0010
1000
0001
0010
1000
0010
0100
2000
,
0000
0010
0000
3002
0000
0100
0000
1003
,
0001
0001
0010
0100
0010
0110
0000
1001
,
0000
1000
0200
0000
0310
0001
1000
0000
,
0001
0100
1000
0100
0010
1000
0001
1000
,
0100
0000
0001
0000
0100
0000
0010
0000
0100
1000
0100
1000
0001
0100
0001
0100
,
0010
1000
0200
0000
0310
0001
0200
0000
,
1300
1000
0100
0002
0000
0013
0100
0001
,
0100
1000
0100
1000
0001
0010
0001
0010
,
1000
0000
0010
0000
0100
0000
1000
0000
0000
0000
0001
0100
0010
0000
1000
0100
,
0010
0001
1000
0001
0100
0010
1000
0100
,
0001
0100
0001
0100
1000
0010
1000
0010
,
0100
0001
0100
0000
0001
0000
0010
0000
0100
0000
1000
0010
0100
0000
0001
0000
,
0010
0000
0100
1000
0100
1000
0010
0000
0100
0001
1000
0010
0100
0010
1000
0001
,
1000
1000
0100
0000
0110
0000
0010
0001
,
0000
0000
1000
0000
0010
0100
0001
0000
0011
0000
0000
0000
0011
0000
0000
0000
,
0001
0001
0100
0000
0110
0000
0010
1000
,
0000
0000
0001
0000
0010
0100
1000
0000
1010
0000
0000
0000
1010
0000
0000
0000
,
1000
0100
0001
0000
1100
0000
0001
0100
,
0000
0000
1000
0000
0100
0010
1000
0000
1001
0000
0000
0000
1001
0000
0000
0000
,
0001
0100
1000
0000
0101
0000
1000
0100
,
0000
0000
0001
0000
0100
0010
0001
0000
1001
0000
0000
0000
1001
0000
0000
0000
,
1000
0010
0100
0001
0011
0000
1000
1000
,
0000
0000
0100
0000
0010
0001
1000
0000
1010
0000
0000
0000
1010
0000
0000
0000
,
0001
0010
0100
1000
1010
0000
0001
0001
,
0000
0000
0100
0000
0010
1000
0001
0000
0010
0000
0010
0000
0100
0000
0100
0000
,
1000
0000
0010
0000
0001
0000
0010
0000
0100
0000
0010
1000
0001
0000
0010
0000
,
0100
0000
0001
0000
0100
0000
1000
0000
0001
0000
0010
0100
1000
0000
0010
0000
,
0100
0001
0100
0000
0010
0000
1000
0000
0100
1000
0100
0000
0010
0000
0001
0000
,
0100
0000
0001
1000
0001
1000
0001
0000
1000
0100
0010
0001
1000
0001
0100
0010
,
1000
0000
0001
0100
0001
0000
1000
0100
1000
0000
0001
0010
0100
0000
1000
0000
,
0010
0000
0010
0000
0100
0000
0000
0000
0001
0000
1000
0000
0010
0000
0100
0001
,
0100
0000
0010
1000
0010
0000
1000
0100
0010
0000
0001
0000
1000
0000
0010
0100
,
0010
0000
1000
0001
0010
0000
0100
0000
0001
0000
0100
1000
0001
0000
1000
0010
,
0100
0000
0001
0000
0010
0000
0000
0000
0100
0000
1000
0001
1000
0000
0010
0000
,
0100
0000
1000
0000
0100
0000
0001
0000
0010
0000
0100
1000
0001
0000
0100
0000
,
1010
1000
1100
0000
0011
0001
0101
0000
,
1001
0000
1000
0000
0001
0100
0010
1000
0001
1000
0100
0010
0001
0000
0100
0001
,
0100
0000
0010
1000
0001
0000
1000
0100
0010
0000
0100
1000
0001
0000
0100
0000
,
0010
0000
0010
0000
1000
0000
0001
0000
0010
0000
1000
0000
0010
0000
0100
1000
,
0100
0000
1000
0001
0100
0000
0010
1000
0001
0000
0010
0000
0100
0000
1000
0010
,
1000
0000
0001
0000
0010
0000
0100
0001
0100
1000
0100
0000
0010
0000
0010
0000
,
0110
0000
1000
0000
0001
0000
0000
0000
0100
0000
0010
1000
0010
0000
0100
0001
,
0010
0000
0100
0000
0001
0000
0100
0000
1000
0000
0001
0100
0010
0000
0100
0000
,
0101
0001
0010
1100
1000
0010
0110
0000
,
1001
0000
0001
0000
0100
0000
1000
0000
0100
0000
0010
0000
1000
0100
0010
0001
,
0100
0001
0020
0000
1000
0000
0100
0000
,
0001
0100
1000
0100
,
0031
0001
0100
0000
0010
1000
0001
0000
,
1000
0000
0100
0000
0010
0000
0001
0000
0100
0000
0010
1000
0010
0000
0010
0000
,
0110
0100
0001
0000
1000
0100
0010
0000
,
0100
0000
1000
0000
0001
0000
0100
0010
1000
0000
0100
0000
0010
0000
0000
0000
,
0011
0001
0100
0000
1010
1000
0100
0000
,
1001
0000
0001
0000
0100
0000
0010
1000
0010
1000
0001
0100
0001
0100
0001
0010
,
0100
1000
0100
2000
0000
3000
0001
0100
,
0001
0200
0000
0320
0000
2030
0000
3001
,
0010
0100
0010
0200
0000
0300
1000
0001
,
1000
0002
0000
0203
0000
2300
0000
3100
,
0010
0010
1000
1000
0001
0001
0010
0010
,
0100
0100
0001
0001
0100
0100
1000
1000
,
0001
0100
0001
0100
0010
1000
0010
0000
1000
0100
1000
0100
0010
0001
0010
0000
,
0001
1000
0001
1000
0010
0100
0001
1000
0001
1000
0100
0010
0001
0100
0010
1000
,
0000
0000
0000
0000
,
0001
0000
0001
0000
0010
0000
0100
0010
0001
1000
0010
1000
0001
0010
0100
0010
,
0001
0200
0000
0320
0000
1030
0001
2000
,
0000
0000
3000
0100
0010
0001
0100
2000
,
0000
3200
0000
0320
0000
1030
0100
0002
,
0000
0000
0103
0000
0010
0000
0001
0000
1000
0010
0100
0001
1000
0100
0010
0001
,
0100
0000
0100
0000
0010
0000
0000
0000
1000
0000
0100
0010
0001
0000
0100
0000
,
0010
0000
0001
0000
0010
0000
1000
0000
0001
0000
0010
0100
1000
0000
0001
0000
,
0101
0100
1010
0000
1100
0100
0011
0000
,
1001
0000
1000
0000
0001
0000
0100
0000
0010
1000
0001
1000
0100
0010
0001
0100
,
0001
0000
0010
0100
1000
0000
0001
1000
0010
0000
0100
0001
1000
0000
0100
0000
,
0010
0000
0010
0000
0001
0000
0000
0000
0100
0000
0010
1000
0010
0000
0100
0001
,
1000
0000
0100
0010
0001
0000
1000
0010
0100
0000
0001
0000
0010
0000
0100
1000
,
0001
0000
0100
0000
0010
0000
1000
0100
0010
0001
1000
0001
0100
0000
0100
0000
,
0101
0000
0001
0000
0010
0000
0000
0000
0100
0000
1000
0001
0100
0000
0010
1000
,
0001
0000
0010
0000
0100
0000
0001
0000
0100
0000
1000
0001
1000
0010
0100
0001
,
0010
0000
0100
0000
1000
0000
1001
0000
0001
0000
0100
0000
0010
1000
0001
0010
,
0100
0000
0000
0000
1000
0000
0001
0100
0001
0100
0010
1000
0001
0010
0100
1000
,
0010
0000
0100
0000
0001
0000
1000
0100
1000
0000
0010
0000
0100
0000
0001
0000
,
0010
0000
0100
0000
1000
0000
0001
0100
0001
0000
1000
0000
0010
0000
0000
0000
,
0001
0000
0010
0000
0100
0000
0001
0010
0001
0000
1000
0000
0100
0000
0001
0000
,
0100
0000
1000
0000
0010
0000
1000
0001
1000
0000
0100
0010
0001
0000
0001
0000
,
0101
0000
0100
0000
0010
0000
1000
0001
0010
0000
0100
0000
1000
0000
0010
0000
,
0001
0000
0010
0000
0100
0000
0001
1000
0100
0000
0010
0000
0011
0000
0000
0000
,
1001
0000
1000
0000
0010
0000
0100
0000
0001
0010
0001
0000
0100
0000
0000
0000
,
0110
0000
0010
0000
1000
0000
0001
0010
0100
1000
0001
1000
0010
0100
0001
1000
,
0100
0000
0100
0000
0100
0010
0001
1000
0001
0000
0000
0000
0100
0000
0110
0000
;

//--------------- dance-double - forcednature ----------------
#NOTEDATA:;
#STEPSTYPE:dance-double;
#DESCRIPTION:forcednature;
#CREDIT:forcednature;
#DIFFICULTY:Easy;
#METER:11;
#RADARVALUES:0,0,0,0,0;
#NOTES:
00000000
00000000
00000000
00000000
,
00000000
00000000
00000000
00000000
,
00000000
00000000
00000000
00000000
,
00000000
00000000
00000000
00000000
,
00000000
00000000
00000000
00000000
,
00000000
00000000
00000000
00000000
,
00011000
00000000
00001000
00000000
01000000
00010000
00100000
00000000
,
01000000
10000000
00010000
00000000
01000000
00000000
00001000
00000000
,
00011000
00000100
00001100
00001000
,
00001001
00000000
00000001
00000100
00000001
00001000
00000010
00000000
,
00000100
00000100
00000000
00000000
00000000
00000110
00000000
00000110
,
00000000
00000010
00010000
00000000
00001000
00000000
00100000
00000000
,
10010000
00000000
00010000
00000000
01000000
00001000
00010000
00000000
,
00011000
00000100
00001100
00001000
,
00000001
00000001
00000000
00000000
00000000
00000110
00000000
00000110
,
00000000
00001000
00000001
00000000
00001000
00000100
00001000
00000000
,
00001010
00000000
00000010
00000000
00010000
00001000
00010000
00000000
,
00011000
00000000
00001000
00000000
01000000
00010000
01000000
00000000
,
00100000
01100000
01000000
01100000
,
00010000
10000000
00010000
10000000
00000000
00000000
01000000
00000000
,
00100000
00100000
00001000
00001000
,
00010000
00000000
00000010
00000000
00001000
00000001
00001000
00000000
,
00001001
00000001
00000100
00000010
,
00010000
00010000
00001000
00001000
,
00011000
00000000
00010000
00000000
01000000
00100000
01000000
00000000
,
01100000
00000000
00100000
00000000
00010000
10000000
00010000
00000000
,
10000000
00010000
10000000
00000000
10010000
00000000
00000000
00001000
,
00000000
01000000
00001000
00000000
00011000
00000000
00011000
00000000
,
00010000
00000100
00010000
00000000
00010100
00000000
00000000
00000100
,
00000000
00001000
00000100
00000000
00000110
00000000
00000110
00000000
,
00000010
00000001
00000010
00000000
00000011
00000000
00000000
00000001
,
00000000
00001000
00000001
00000000
00001001
00000000
00001001
00000000
,
00001000
00000010
00001000
00000000
00001010
00000000
00000000
00000010
,
00000000
00010000
00000010
00000000
00010010
00000000
00010010
00000000
,
00010000
00001000
00100000
00000000
00110000
00000000
00000000
00010000
,
00000000
10000000
00010000
00000000
10010000
00000000
10010000
00000000
,
10000000
01000000
00100000
00000000
01100000
00000000
00000000
01000000
,
00000000
10000000
00010000
00000000
01000000
00010000
01000000
00000000
,
00001000
00010000
00001000
00000000
00000100
00000001
00000100
00000000
,
00000010
00001000
00000010
00000000
00010000
00001000
00010000
00000000
,
00020200
00030300
02002000
03003000
,
00022000
00000000
00033000
00000000
00001000
00010000
00000000
00100000
,
00000000
01100000
00000000
10010000
00000000
10000000
01000000
00200000
,
00000000
00000000
00300000
00000000
01000000
10000000
01000000
10000000
,
00000000
00010000
00000000
01000000
00000000
00001000
00010000
00001000
,
00000000
00000010
00000100
00000010
00000000
00000001
00000000
00001000
,
00000001
00000100
00000001
00000000
00001000
00000010
00001000
00000000
,
00000100
00000000
00000100
00000000
00010000
00001000
00010000
00000000
,
00020020
00030030
00202000
00303000
,
00022000
00000000
00033000
00000000
00001000
00010000
00000000
00011000
,
00000000
00001000
00000000
01000000
00000000
00010000
10000000
02000000
,
00000000
00000000
03000000
00100000
00010000
00100000
00010000
00100000
,
00000000
00001000
00000000
00010000
00000000
00000010
00001000
00000010
,
00000000
00000100
00000001
00000100
00000010
00000000
00001000
00000000
,
00001001
00000000
00000001
00000000
00000010
00000100
00001000
00000000
,
00000010
00000000
00010000
00000000
00001000
00100000
00010000
00000000
,
10010000
00000000
00000000
01100000
00000000
00000000
10010000
00000000
,
10000000
00000000
01000000
00000000
00010000
00001000
00010000
00000000
,
00011000
00000100
00001000
00000001
,
00000100
00000010
00010000
00001000
,
00100000
00010000
01000000
00100000
,
10000000
01000000
00100000
01100000
,
10010000
00010000
01000000
00001000
,
00010000
00000100
00001000
00000001
,
00001001
00001000
00001100
00000100
,
00010100
00000000
00010000
00000000
00001000
00010000
00001000
00000000
,
00022000
00000000
00000000
00000000
,
00000000
00000000
00000000
00000000
,
00000000
00000000
00000000
00000000
,
00000000
00000000
00000000
00033000
,
00010000
00000100
00010000
00000100
00010000
00000100
00010000
00000000
,
00001000
01000000
00001000
01000000
00001000
01000000
00001000
00000000
,
02002000
03003000
00020200
00030300
,
00202000
00303000
00020020
00030030
,
00000000
00000000
00000000
00000000
,
00000000
00000000
00000000
00000000
00001000
00010000
00000000
02000000
,
00000000
03200000
00000000
00320000
00000000
10030000
00010000
20000000
,
00000000
00000000
30000000
00000000
00100000
10000000
00100000
20000000
,
00000000
32000000
00000000
03200000
00000000
00310000
01000000
00020000
,
00000000
00130000
00001000
00200000
00000000
00301000
00100000
00010000
,
01000000
00000000
00010000
00000000
10000000
01000000
10000000
00000000
,
00100000
00000000
01000000
00000000
00001000
00010000
00001000
00000000
,
00020200
00030300
02002000
03003000
,
00022000
00000000
00033000
00000000
00000100
00010000
00000000
00001000
,
00000000
00000100
00000010
00001000
00000000
00000100
00000010
00000001
,
00000000
00000000
00000100
00000000
00000010
00001000
00000100
00000010
,
00000000
00000100
00000000
00010000
00000000
00001000
00010000
00001000
,
00000000
01000000
00010000
01000000
00100000
10000000
00100000
00000000
,
10010000
00000000
10000000
00000000
01000000
00100000
00010000
00000000
,
01000000
00000000
00001000
00000000
00010000
00000100
00010000
00000000
,
00020020
00000000
00000000
00030030
00000000
00000000
00202000
00000000
00000000
00303000
00000000
00000000
00022000
00000000
00000000
00000000
,
00033000
00000000
00001000
00010000
00001000
00010000
00001000
00000000
,
01000000
00010000
01000000
00000000
00100000
10000000
00010000
00000000
,
10000000
00000000
01000000
00000000
00100000
00001000
00010000
00000000
,
00000010
00001000
00000100
00000000
00000010
00000001
00000100
00000000
,
00000010
00000000
00010000
00000000
00001000
01000000
00010000
00000000
,
10000000
01000000
00100000
00000000
01000000
10000000
00010000
00000000
,
01000000
00000000
00001000
00000000
00010000
00000100
00001000
00000000
,
00001001
00000010
00000110
00001000
,
00010100
00000000
00010000
00001000
00010000
00001000
00010000
00000000
,
00100000
01000000
00100000
01000000
00100000
00000000
10000000
00010000
;

//--------------- dance-double - forcednature ----------------
#NOTEDATA:;
#STEPSTYPE:dance-double;
#DESCRIPTION:forcednature;
#CREDIT:forcednature;
#DIFFICULTY:Medium;
#METER:14;
#RADARVALUES:0,0,0,0,0;
#NOTES:
00000000
00000000
00000000
00000000
,
00000000
00000000
00000000
00000000
,
00000000
00000000
00000000
00000000
,
00000000
00000000
00000000
00000000
,
00000000
00000000
00000000
00000000
,
00000000
00000000
00000000
00000000
,
00001000
00010000
00000100
00001000
00000001
00000100
00000010
00010000
,
00001000
00100000
00010000
01000000
10000000
01000000
00100000
00000000
,
10000000
01000000
00100000
00000000
01000000
10000000
00010000
00000000
,
01000000
00001000
00010000
00000100
00001000
00000001
00000100
00000010
,
00000000
00001000
00000100
00000010
00000001
00000100
00000000
00001001
,
00000000
00000001
00000100
00000000
00000010
00010000
00001000
00000000
,
00100000
00010000
01000000
10000000
01000000
00010000
00100000
01100000
,
00000000
00110000
00000000
00011000
00000000
00001010
00000000
00000110
,
00000000
00000010
00001000
00000001
00000010
00000100
00000000
00000110
,
00000000
00000100
00001000
00000000
00000001
00000100
00001000
00000000
,
00010000
01000000
10000000
00010000
10000000
00100000
10000000
01000000
,
00010000
00001000
00000010
00000001
00000000
00001000
00000010
00000100
,
00000001
00000010
00000100
00000000
00010000
00000010
00000100
00000000
,
00001000
00010000
00001000
00010000
00000000
00100000
10000000
00010000
,
10000000
01000000
10000000
01000000
00010000
01000000
00010000
01000000
,
00100000
00001000
00010000
00100000
00000000
00010000
00001000
00000010
,
00000000
00000100
00001000
00000001
00000100
00000010
00001000
00000100
,
00000010
00000001
00000010
00000001
00001000
00000010
00001000
00000010
,
00000000
00000100
00001000
00010000
00000000
00100000
00000000
10000000
,
00010000
10000000
01000000
00010000
00001000
00000100
00000001
00000010
,
00000100
00000100
00000100
00000000
00000110
00000000
00000010
00000001
,
00000000
00000100
00001000
00000000
00011000
00000000
00011000
00000000
,
00010000
00100000
10000000
00000000
10010000
00000000
10000000
01000000
,
00000000
00100000
00001000
00000000
00011000
00000000
00011000
00000000
,
00010000
00000100
00001000
00000000
00001001
00000000
00000001
00000100
,
00000000
00000010
00010000
00000000
00011000
00000000
00011000
00000000
,
00001000
00100000
00010000
00000000
10010000
00000000
10000000
00100000
,
00000000
01000000
00001000
00000000
00011000
00000000
00011000
00000000
,
00010000
00000100
00001000
00000000
00001001
00000000
00000001
00000100
,
00000000
00001000
00010000
00000000
00011000
00000000
00011000
00000000
,
00001000
01000000
00010000
00000000
10010000
00000000
10000000
01000000
,
00000000
00010000
00001000
00000000
00010000
00001000
00010000
00001000
,
00000100
00000001
00001000
00000010
00001000
00000001
00000010
00000000
,
00000100
00010000
00001000
00100000
00001000
00010000
00100000
00000000
,
01000000
00010000
00100000
00000000
01000000
10000000
00100000
00000000
,
02200000
00000000
00000000
00000000
03300000
00000000
00000000
00000000
10000000
00010000
10000000
00010000
10000000
00000000
00100000
00000000
,
10000000
00010000
10000000
01000000
00100000
00010000
01000000
00001000
,
00010000
00000100
00001000
00000000
00000010
00010000
00001000
00000010
,
00000000
00000110
00000000
00001000
00000000
00000001
00000100
00001000
,
00000000
00010000
00100000
10000000
00000000
01000000
00100000
00010000
,
01000000
00001000
00010000
00000000
00000100
00010000
00001000
00000000
,
00000100
00000001
00000100
00000001
00001000
00000010
00001000
00000010
,
00001000
00000100
00010000
00000000
00001000
01000000
00010000
00000000
,
00100000
00000000
00001000
00000000
00010000
00000000
00000000
00000000
00100000
01000000
00100000
01000000
00100000
00000000
00000000
00000000
,
10000000
00010000
10000000
01000000
00100000
00010000
01000000
00001000
,
00010000
00000100
00001000
00000000
00000010
00010000
00001000
00000010
,
00000000
00000110
00000000
00001000
00000000
00000001
00000100
00000010
,
00000000
00010000
00001000
00100000
00001000
00010000
00100000
00000000
,
01000000
00010000
10000000
00000000
01000000
00100000
00010000
00000000
,
01000000
00001000
01000000
00001000
00010000
00000100
00010000
00000100
,
00010100
00000000
00000000
01001000
00000000
00000000
00011000
00000000
,
00001000
00010000
00100000
01000000
00010000
10000000
01000000
00100000
,
00010000
01000000
00002000
00000000
00010000
00000000
00100000
00000000
,
00010000
00000010
00010000
01000000
,
00013000
00001000
00010000
00000000
00000100
00001000
00000001
00000000
,
00000100
00000010
00010000
00000000
00001000
00100000
00010000
01000000
,
00010000
10000000
01000000
00000000
00100000
00010000
01000000
00000000
,
00001000
00010000
00000100
00000000
00001000
00000001
00000100
00000010
,
00010000
00001000
00100000
00000000
00001000
00010000
00000010
00000000
,
00010000
00000000
00001000
00000000
01000000
00000000
00000000
00000000
00001000
00010000
00001000
00010000
00001000
00000000
00010000
00000000
,
00022000
00000000
00000000
00000000
,
00000000
00000000
00000000
00000000
,
00000000
00000000
00000000
00000000
,
00000000
00000000
00000000
00033000
,
00001000
00010000
00001000
00010000
00000100
00010000
00000100
00010000
,
00001000
00010000
00001000
00010000
00001000
01000000
00001000
01000000
,
00100000
10000000
01000000
00010000
00001000
00000010
00000001
00000000
,
00000010
00000001
00000100
00001000
00010000
00100000
10000000
00000000
,
00000000
00000000
00000000
00000000
,
01000000
01000000
01000000
00000000
00100000
00010000
00000000
01000000
,
00000000
00001000
00000000
00010000
00000000
00000100
00001000
00000200
,
00000000
00000300
00000000
00000010
00000001
00001000
00000001
00000100
,
00000000
00000010
00000000
00010000
00000000
00001000
00100000
00002000
,
00000000
00013000
00100000
01000000
00000000
00010000
10000000
00010000
,
10000000
01000000
00100000
00000000
01000000
10000000
00100000
00000000
,
01000000
00010000
01000000
00010000
01000000
00001000
01000000
00001000
,
00010000
00000100
00001000
00000000
00000100
00010000
00001000
00000000
,
00000100
00000010
00000100
00000000
00000001
00001000
00000100
00000010
,
00000000
00000100
00000000
00001000
00000000
00000001
00000100
00001000
,
00000000
00000000
00000000
00010000
00100000
01000000
00010000
10000000
,
00000000
01000000
00100000
00010000
00000000
01000000
00001000
00010000
,
00000000
00000100
00001000
00000010
00010000
00001000
00000010
00000100
,
00001000
00001000
00000001
00000001
00000100
00000010
00001000
00000100
,
00010000
00000000
00010000
00000000
00001000
00000000
00001000
00000000
01000000
00000000
00010000
00000000
10000000
01000000
10000000
00000000
,
10010000
00000000
00000000
01100000
00000000
00000000
00011000
00000000
,
00000100
00000000
00001000
00000000
00000010
00000000
00010000
00000000
00001000
00000000
00000010
00000000
00000001
00001000
00000001
00001000
,
00000001
00000100
00000010
00001000
00000100
00000010
00000100
00001000
,
00000010
00010000
00001000
00100000
00001000
00010000
00100000
00000000
,
01000000
00010000
10000000
01000000
00100000
01000000
10000000
00010000
,
01000000
00001000
00010000
00000100
00010000
00001000
00000100
00000000
,
00000010
00010000
00001000
00000010
00000100
00001000
00000001
00000100
,
00001000
00010000
01000000
10000000
00010000
10000000
00100000
00000000
,
10000000
01000000
00010000
00000000
00001000
00000100
00000001
00000000
,
00000010
00000000
00000100
00000000
00001000
00000000
00000001
00000100
00000001
00000100
00000001
00000000
00000010
00000000
00000100
00000000
,
00010000
00000000
00010000
00000000
00000010
00001000
00000010
00000000
00010000
00000000
00000000
00000000
00001000
00000000
00011000
00000000
;

//--------------- dance-double - forcednature ----------------
#NOTEDATA:;
#STEPSTYPE:dance-double;
#DESCRIPTION:forcednature;
#CREDIT:forcednature;
#DIFFICULTY:Hard;
#METER:17;
#RADARVALUES:0,0,0,0,0;
#NOTES:
00000000
00000000
00000000
00000000
,
00000000
00000000
00000000
00000000
,
00000000
00000000
00000000
00000000
,
00000000
00000000
00000000
00000000
,
00000000
00000000
00000000
00000000
,
00000000
00000000
00000000
00000000
,
00011000
00000000
00001000
00010000
01000000
00100000
00010000
00000000
,
10000000
00100000
00010000
00001000
00000010
00000001
00000100
00000000
,
00010010
00010000
00001000
00000000
00101000
00001000
00010000
00000000
,
00011000
00000000
00001000
00000000
01000000
00000000
00010000
10000000
00010000
10000000
01000000
00100000
00010000
10000000
00010000
01000000
,
00100000
10000000
00010000
01000000
00001000
00011000
00000000
00010100
,
00000000
00000100
00000020
00000000
00000031
00000100
00000010
00000000
,
00010000
00001000
00000010
00000100
00010000
00000010
00000100
00000002
,
00000000
00000010
00000000
00002003
00000000
00000100
00000000
00003001
,
00001000
00001000
00000010
00010000
00001000
00101000
00000000
10010000
,
00000000
10000000
02000000
00000000
03010000
00001000
00010000
00000000
,
00100000
10000000
00010000
10000000
01000000
00010000
00001000
00000010
,
00000001
00000000
00001000
00000000
00000001
00000000
00000100
00000000
00001000
00010000
00001000
00010000
00000100
00001000
00000100
00000010
,
00000001
00000100
00000020
00000000
00001030
00000100
00020000
00000000
,
00031000
00001000
01000000
00020000
00000000
00130000
01000000
10000000
,
00010000
01000000
00010000
01000000
10000000
01000000
10000000
01000000
,
00100000
00000000
10000000
00000000
01000000
00000000
00010000
00000000
00000000
00000000
00001000
00010000
00000100
00000000
00001000
00000100
,
00000010
00000001
00000100
00000010
00000100
00001000
00010000
01000000
,
00100000
01000000
00100000
01000000
10000000
00100000
00010000
00100000
,
01000000
00010000
01000000
00000000
00001000
00000000
00010000
00000000
00000100
00000000
00001000
00000001
00000100
00000000
00000010
00000000
,
00010000
00000000
00001000
00100000
00001000
00100000
00010000
00000000
01000000
00010000
10000000
01000000
00100000
00010000
00100000
00001000
,
00010000
00010000
00100000
00000000
01100000
00000000
01000000
00010000
,
00000000
00000000
10000000
00000000
01000000
00100000
00010000
00000000
00101000
00000000
00000000
00000000
00101000
00000000
00000000
00000000
,
00001000
00010000
00000010
00000000
00000110
00000000
00000100
00000001
,
00000000
00000000
00001000
00000000
00000100
00000010
00000001
00000000
00001001
00000000
00000000
00000000
00001001
00000000
00000000
00000000
,
00001000
00000100
00010000
00000000
00011000
00000000
00001000
01000000
,
00000000
00000000
00100000
00000000
10000000
01000000
00100000
00000000
00110000
00000000
00000000
00000000
00110000
00000000
00000000
00000000
,
00001000
00010000
00000010
00000000
00001010
00000000
00001000
00000100
,
00000000
00000000
00000010
00000000
00000001
00000100
00000010
00000000
00000110
00000000
00000000
00000000
00000110
00000000
00000000
00000000
,
00001000
00000001
00000010
00000000
00010100
00000000
00010000
00001000
,
00000000
00000000
01000000
00000000
00010000
10000000
01000000
00000000
01100000
00000000
00000000
00000000
01100000
00000000
00000000
00000000
,
00100000
00001000
00010000
00000000
00010010
00000000
00000010
00000010
,
00000000
00000000
00000100
00000000
00000001
00001000
00000100
00000000
00010000
00000000
00010000
00000000
00010000
00000000
00010000
00000000
,
01000000
00000000
00100000
00000000
00010000
00000000
10000000
00000000
00100000
00000000
01000000
00001000
00010000
00000000
00000100
00000000
,
00001000
00000000
00000100
00000000
00000010
00000000
00000001
00000000
00000100
00000000
00000010
00001000
00000001
00000000
00000010
00000000
,
00000100
00001000
00000100
00000000
00010000
00000000
00001000
00000000
01000000
00010000
01000000
00000000
00001000
00000000
00010000
00000000
,
00100000
00000000
10000000
00010000
10000000
00010000
10000000
00000000
01000000
00100000
00010000
10000000
00010000
01000000
00001000
00010000
,
00001000
00000000
00010000
00000100
00010000
00000000
00000100
00001000
00000100
00000000
00000010
00000001
00000100
00000000
00000020
00000000
,
00000000
00000000
00000000
00000000
00000030
00000000
00000000
00000000
00010000
00000000
00001000
00000000
00100000
00000000
01000000
10000000
,
00010000
00000000
01000000
00010000
01000000
00000000
00100000
10000000
00010000
00000000
00100000
00000000
01000000
00000000
00100000
00010000
,
00100000
00000000
00001000
00010000
00000100
00000000
00001000
00000000
00000001
00000000
00000100
00000010
00001000
00000000
00000100
00000010
,
00000001
00000000
00000100
00000000
00000020
00000000
00000000
00000000
00000030
00000000
00001000
00000001
00000100
00000000
00000010
00000000
,
00001000
00000000
00010000
00000000
01000000
00000000
00100000
00000000
10000000
00000000
01000000
00100000
00010000
00000000
01000000
00000000
,
01001000
00001000
00101000
00000000
00010100
00010000
00010010
00000000
,
00011000
00000000
00001000
00000000
01000000
00010000
01000000
00010000
10000000
01000000
00100000
00010000
01000000
00000000
00001000
00010000
,
00000100
00000000
00001000
00000100
00010000
00000000
00001000
00100000
00001000
00000000
00010000
00000010
00001000
00000000
00000200
00000000
,
00000000
00000000
00000000
00000000
00000300
00000000
00000010
00000000
00000001
00000000
00000100
00000000
00000010
00000000
00001000
00000001
,
00001000
00000000
00000100
00010000
00001000
00000000
01000000
00010000
10000000
00000000
01000000
00000000
00100000
00000000
00010000
00100000
,
01000000
00000000
10000000
00000000
00010000
00000000
01000000
00001000
01000000
00001000
01000000
00000000
00010000
00000000
00010000
00000000
,
10010000
00000000
10000000
00000000
01000000
00000000
00000000
00000000
00100000
00000000
00001000
00010000
00000010
00000000
00001000
00000001
,
00000010
00000000
00000100
00000000
00001000
00000000
00000001
00000000
00000100
00000000
00000010
00010000
00001000
00000000
00100000
00000000
,
00101000
00000000
00000010
00010010
00000000
00010000
00011000
00000000
,
01000000
00000000
00010000
00000000
00100000
00000000
10000000
00000000
00100000
00000000
00010000
00000000
01000000
00001000
00010000
00001000
,
00100000
00001000
00020000
00000000
00100000
00000000
00001000
00000000
,
00000100
00001000
01000000
00001000
,
00030010
00000010
00000100
00000000
00000001
00000010
00000100
00000000
,
00010000
00000000
00001000
00000000
01000000
00000000
00100000
00000000
10000000
00000000
01000000
00100000
00010000
00000000
00010000
00000000
,
01010000
01000000
00001000
00000000
00010000
00000100
00000010
00000000
,
00000001
00000000
00000100
00000000
00001000
00000000
00010000
00000100
00001000
00000000
00000010
00000000
00010000
00000000
00000000
00000000
,
00101000
00001000
00010000
00000000
00010010
00010000
00001000
00000000
,
01001000
00000000
01000000
00000000
00010000
00000000
10000000
01000000
00100000
00010000
10000000
00010000
01000000
00001000
00010000
00001000
,
00020000
00000000
00000000
00000000
,
00000000
00000000
00000000
00000000
,
00000000
00000000
00000000
00000000
,
00000000
00000000
00000000
00030000
,
00000100
00010000
00000100
00010000
00001000
01000000
00001000
01000000
,
00100000
00010000
00001000
00000010
00001000
00010000
00100000
00000000
,
10000000
01000000
10000000
01000000
00100000
00001000
00010000
00000000
00000100
00001000
00000100
00001000
00000001
00000100
00000010
00000000
,
00010000
00001000
00010000
00001000
01000000
00001000
01000000
00001000
00010000
00000100
00010000
00000100
00010000
00001000
00010000
00001000
,
00000000
00000000
00000000
00000000
,
00010000
00000000
00010000
00000000
00000100
00000000
00001000
00000001
00001000
00000001
00000100
00000001
00001000
00000010
00010000
00001000
,
00010000
02000000
00000000
03200000
00000000
00310000
10000000
00020000
,
00000000
00000000
00030000
01000000
00001000
00010000
00001000
00000020
,
00000000
00000230
00000000
00002300
00000000
00003001
00000100
00000020
,
00000000
00000000
00010030
00000000
00001000
00000000
00100000
00000000
01000000
10000000
01000000
00100000
00010000
10000000
00010000
01000000
,
00001000
00000000
00001000
00000000
00020000
00000000
00000000
00000000
00030000
00000000
00000100
00001000
00000100
00000000
00000010
00000000
,
00001000
00000000
00010000
00000000
00001000
00000000
01000000
00000000
00010000
00000000
00100000
01000000
10000000
00000000
00010000
00000000
,
01010000
01000000
01001000
00000000
00001100
00000100
00010100
00000000
,
00011000
00000000
00010000
00000000
00000100
00000000
00001000
00000000
00000001
00000100
00000010
00001000
00000010
00010000
00001000
01000000
,
00010000
00000000
01000000
00010000
10000000
00000000
01000000
00100000
00010000
00000000
00100000
00001000
00010000
00000000
00000020
00000000
,
00000000
00000000
00000030
00000000
00000000
00000000
00000000
00000000
00000100
00000000
00000001
00001000
00000001
00000000
00000010
00000100
,
00001000
00000000
00000001
00000100
00000010
00000000
00010000
00001000
00010000
00000000
00100000
00000000
10000000
00000000
01000000
00100000
,
00010000
00000000
01000000
00000000
00001000
00000000
00010000
00000100
00001000
00000100
00000010
00000001
00000100
00000000
00000100
00000000
,
00000110
00000000
00000010
00000000
00001000
00000000
00000000
00000000
00000100
00000000
00010000
00001000
01000000
00000000
00100000
10000000
,
00010000
00000000
00100000
00000000
01000000
00000000
00010000
00000000
00001000
00000000
00010000
00000010
00001000
00000010
00000100
00000001
,
00001000
00000000
00000100
00000000
00010000
00000000
00001000
00000000
01000000
00000000
00010000
00000000
10000000
01000000
10000000
01000000
,
00100000
00000000
00000000
00000000
00001000
00000000
00010000
00000100
00001000
00000100
00000010
00000001
00000100
00000010
00001000
00000001
,
00000010
00000000
00001000
00000000
00010000
00000000
00001000
01000000
00001000
00000000
00100000
00000000
01000000
00000000
00010000
00000000
,
01000000
00000000
10000000
00000000
00010000
00000000
01000000
00001000
01000000
00000000
00010000
00000000
00100000
00000000
00000000
00000000
,
00001000
00000000
00010000
00000000
00000100
00000000
00001000
00000001
00001000
00000000
00000010
00000000
00010000
00000000
00001000
00000000
,
00010000
00000000
01000000
00000000
00100000
00000000
00010000
10000000
00010000
00000000
01000000
00100000
10000000
00000000
10000000
00000000
,
01000000
00000000
00010000
00000000
00001000
00000000
00100000
00001000
00010000
00000000
00100000
00000000
00010000
00000000
00001000
00000000
,
00000010
00000000
00000100
00000000
00001000
00000000
00000001
00000100
00000010
00000000
00010000
00000000
00001000
00000000
00000000
00000000
,
01001000
00000000
01000000
00000000
00010000
00000000
00100000
00000000
01000000
10000000
00100000
00000000
01000000
00000000
00000000
00000000
,
00011000
00000000
00010000
00000000
00000100
00000000
00001000
00000001
00001000
00000001
00000100
00000010
00001000
00000001
00000010
00000100
,
00001000
00000000
00001000
00000000
00000100
00010000
00001000
00100000
00010000
00000000
00000000
00000000
10000000
00000000
10100000
00000000
;
