#VERSION:0.83;
#TITLE:龍王の霊廟(Mausoleum Of The Primal Dragon);
#SUBTITLE:;
#ARTIST:BEMANI Sound Team "黒猫ダンジョン";
#TITLETRANSLIT:Ryuuou no reibyou(Mausoleum Of The Primal Dragon);
#SUBTITLETRANSLIT:;
#ARTISTTRANSLIT:Kuroneko Dungeon;
#GENRE:RETROSPECTIVE EPIC MUSIC;
#CREDIT:;
#MUSIC:Ryuuou no reibyou(Mausoleum Of The Primal Dragon).ogg;
#BANNER:Ryuuou no reibyou(Mausoleum Of The Primal Dragon).png;
#BACKGROUND:Ryuuou no reibyou(Mausoleum Of The Primal Dragon)-bg.png;
#CDTITLE:./CDTitles/bm IIDX 26 Rootage.png;
#SAMPLESTART:47.653;
#SAMPLELENGTH:15.000;
#SELECTABLE:YES;
#OFFSET:0.672;
#BPMS:0.000=144.000;
#STOPS:;
#TIMESIGNATURES:0.000=4=4,
276.000=7=4,
290.000=5=4,
295.000=4=4
;
#BGCHANGES:0.000=Ryuuou no reibyou(Mausoleum Of The Primal Dragon).mp4=1.000=0=0=0=StretchNoLoop====,
99999.000=-nosongbg-=1.000=0=0=0=StretchNoLoop====
;
#FGCHANGES:;

//--------------- dance-single - forcednature ----------------
#NOTEDATA:;
#STEPSTYPE:dance-single;
#DESCRIPTION:forcednature;
#CREDIT:forcednature;
#DIFFICULTY:Beginner;
#METER:4;
#RADARVALUES:0,0,0,0,0;
#NOTES:
0000
0000
0000
0000
,
0000
0000
0000
0000
,
0000
0000
0000
0000
,
0000
0000
0000
0000
,
0000
0000
0000
0000
,
0001
0001
0001
0000
,
1000
1000
1000
0000
,
0010
0010
0010
0000
,
0100
0100
0100
0000
,
0001
0010
0001
0000
,
1000
0010
1000
0000
,
0001
0100
0001
0000
,
1000
0100
1000
0000
,
0110
0000
0001
0000
,
1000
1000
1000
0000
,
0100
0000
0010
0000
,
0001
0001
0001
0000
,
0100
0000
0010
0000
,
0100
0100
0100
0000
,
0001
0000
0010
0000
,
0100
0100
0100
0000
,
0010
0000
0000
0000
,
0001
0000
0000
0000
,
1000
0000
0010
0000
,
0100
0000
0000
0000
,
0001
0001
0001
0000
,
1000
1000
1000
0000
,
0100
0000
0010
0000
,
0001
0000
0000
0000
,
1001
0000
0001
0000
,
0100
0000
0010
0000
,
1000
0000
0100
0000
,
0010
0000
0000
0000
,
0100
0000
1000
0000
,
0010
0000
0100
0000
,
0010
0000
1000
0000
,
0001
0000
0001
0000
,
0010
0000
0100
0000
,
0010
0000
0001
0000
,
0100
0000
0010
0000
,
0100
0000
0000
0000
,
0001
0000
0010
0000
,
0100
0000
1000
0000
,
0100
0000
0010
0000
,
0001
0000
0000
0000
,
1001
0000
0000
0000
,
1000
0000
0000
0000
,
0010
0000
0000
0000
,
0100
0000
0000
0000
,
0001
0000
0000
0000
,
0010
0000
0000
0000
,
0100
0000
1000
0000
,
0010
0000
0000
0000
,
0110
0000
0000
0000
,
0001
0000
0000
0000
,
1000
0000
0100
0000
,
0010
0000
0000
0000
,
0001
0000
0000
0000
,
0100
0000
0010
0000
,
1000
0000
0100
0000
,
0010
0010
0010
0000
,
1001
0000
0000
0000
,
0001
0000
0000
0000
,
0100
0000
0000
0000
,
0010
0000
0000
0000
,
1000
0000
0000
0000
,
0100
0000
0000
0000
,
0010
0000
0000
0000
,
0001
0000
1000
0000
,
1001
0000
0000
0001
0000
0000
1000
0000
,
0000
1000
0000
0000
0010
0000
0000
0100
,
0000
0000
0001
0000
0000
0010
0000
0000
,
0100
0000
0000
0000
0000
0000
0000
0000
0000
1000
0000
0000
0000
0000
0000
0001
,
0000
0000
0000
0000
0000
0100
0000
0000
0100
0000
0000
0010
0000
0000
0010
0000
,
0000
1000
0000
0001
0000
0010
0010
0000
;

//--------------- dance-single - forcednature ----------------
#NOTEDATA:;
#STEPSTYPE:dance-single;
#DESCRIPTION:forcednature;
#CREDIT:forcednature;
#DIFFICULTY:Easy;
#METER:10;
#RADARVALUES:0,0,0,0,0;
#NOTES:
0000
0000
0000
0000
,
0000
0000
0000
0000
,
0000
0000
0000
0000
,
0000
0000
0000
0000
,
0000
0000
0000
0000
,
0101
0000
0000
0000
1000
0000
0000
0000
0010
0000
0000
1000
0000
1000
0000
0000
,
0110
0000
0000
0000
0001
0000
0000
0000
0100
0000
0000
0010
0000
0010
1000
0000
,
1001
0000
0000
0000
1000
0000
0000
0000
0100
0000
0000
0010
0000
0010
0000
0000
,
0101
0000
0000
0000
1000
0000
0000
0000
0001
0000
0000
0010
0000
0010
0100
0000
,
1100
0000
0000
0010
0001
0000
0000
1000
0001
0000
0000
0100
0000
0100
0000
0000
,
1010
0000
0000
0010
1000
0000
0000
0001
0010
0000
0000
0100
0000
0100
1000
0000
,
0110
0000
0000
0001
1000
0000
0000
0001
0100
0000
0000
0010
0000
0010
0000
0000
,
1010
0000
0000
1000
0001
0000
0000
1000
0100
0000
0010
0001
0000
0001
0000
0000
,
0100
0000
0000
0100
0010
0000
0000
0000
1000
0000
0001
0000
0010
0000
0000
0000
,
0100
0001
0100
1000
0100
0010
0001
0000
,
1000
0010
1000
0100
0010
0001
0010
0000
,
0100
1000
0000
1000
0000
0000
0000
0000
0001
0000
0100
0000
0001
0000
0000
0000
,
1000
0010
1000
0001
0010
0100
1000
0000
,
0010
0000
0010
0000
0100
0001
0010
0000
,
0100
0001
0100
1000
0100
0010
0001
0000
,
1000
0010
0100
0000
0010
0000
1001
0000
,
2000
0000
0000
3200
,
0320
0000
0000
0000
,
0032
0000
0203
0000
,
0320
0000
0000
0000
,
2030
0100
0100
3100
,
0002
0100
0100
0103
,
2000
0010
0010
3010
,
0002
0000
0010
0000
0010
0010
0013
0000
,
0100
1000
0001
0000
0100
0001
1000
0000
,
0010
1000
0100
0010
0001
0100
0010
0000
,
1000
0001
0010
0000
0001
1000
0010
0000
,
0100
0001
0010
0001
0100
0010
1000
0000
,
0100
0010
0100
0000
1000
0001
0010
0000
,
0001
1000
0010
0100
0001
1000
0100
0000
,
0010
0100
1000
0000
0001
0100
0010
0000
,
1000
0001
0010
0000
0100
0000
0110
0000
,
1001
0000
0001
0100
0010
1000
0001
0000
,
1000
0100
0010
0001
0100
0010
1000
0000
,
0001
0000
0010
0100
0010
0001
0100
0000
,
0010
1000
0100
1000
0010
0100
0001
0000
,
0010
0000
0100
0010
0001
1000
0001
0000
,
0100
0010
1000
0100
1000
0010
0100
0000
,
0001
0000
0010
0100
1000
0010
0100
0000
,
0001
0001
1000
0000
0100
0000
0010
0000
,
1001
0000
1000
0100
1000
0010
0100
0000
,
0001
0000
0010
0100
0010
0001
0100
0000
,
0010
0000
1000
0001
0010
0001
0100
0000
,
0010
0000
1000
0100
0010
0100
1000
0000
,
0010
0000
0100
0000
1000
0001
0010
0000
,
0100
0000
1000
0001
0100
0001
1000
0000
,
0010
0000
0100
0001
0010
0100
1000
0000
,
0010
0000
1000
0001
0010
0000
0000
0000
,
0110
0000
0100
1000
0010
1000
0100
0010
,
0001
0100
0010
0000
1000
0001
1000
0000
,
0010
0000
0100
0001
0010
0001
1000
0100
,
1000
0010
0100
0000
0001
0010
0100
0000
,
0110
0000
0010
0001
1000
0001
0100
0000
,
0110
0000
0010
1000
0001
1000
0100
0000
,
0010
0001
1000
0010
1000
0001
0010
0000
,
0100
1000
0010
0000
0100
0000
0000
0000
,
2002
0000
0000
3003
,
2200
0000
0000
3300
,
0202
0000
0000
0000
,
0000
0000
0000
0303
,
2020
0000
0000
3030
,
0022
0000
0000
0033
,
2002
0000
0000
3003
,
0220
0000
0000
0330
,
1001
0000
0000
0001
0000
0000
0100
0000
0000
0010
0000
0000
1000
0000
0000
0100
,
0000
0000
0010
0000
0000
0100
0000
0000
1000
0000
0000
0010
0000
0000
0100
0000
,
0000
0001
0000
0000
0010
0000
0000
0100
0000
0000
0010
0000
0000
0001
0000
0000
,
0100
0000
0000
0010
0000
0000
0010
0000
0000
1000
0000
0000
0001
0000
0000
1000
,
0000
0000
0100
0000
0000
0110
0000
0000
0001
0000
0000
0110
0000
0000
1000
0000
,
0000
0001
0010
0100
1000
0010
0100
0000
;

//--------------- dance-single - forcednature ----------------
#NOTEDATA:;
#STEPSTYPE:dance-single;
#DESCRIPTION:forcednature;
#CREDIT:forcednature;
#DIFFICULTY:Medium;
#METER:14;
#RADARVALUES:0,0,0,0,0;
#NOTES:
0000
0000
0000
0000
,
0000
0000
0000
0000
,
0000
0000
0000
0000
,
0000
0000
0000
0000
,
0000
0000
0000
0000
,
1100
0000
0000
0100
0010
0000
0000
0010
0001
0000
0001
0100
0000
0100
0000
0000
,
0010
0000
0000
0010
1000
0000
0000
1000
0001
0000
0001
0010
0000
0010
0000
0000
,
0100
0000
0000
0100
1000
0000
0000
1000
0010
0000
0010
0100
0000
0100
0001
0000
,
0010
0000
0000
0010
0100
0000
0000
0100
1000
0000
0001
0100
0010
1000
0001
0000
,
1000
0000
0000
1000
0100
0000
0000
0100
0010
0000
0001
1000
0000
0001
0100
0000
,
0010
0000
0000
0010
1000
0000
0000
1000
0001
0000
0010
0100
0000
1000
0001
0000
,
0100
0000
0000
0100
0010
0000
0000
0010
1000
0000
0100
0010
0000
0001
0010
0000
,
0100
0000
0000
0100
1000
0000
0000
1000
0001
0100
0010
1000
0000
1000
0001
0000
,
0011
0000
0000
0010
0100
0000
1000
0100
0000
0010
0000
0001
1000
0000
0000
0000
,
0001
0100
0000
0010
0000
1000
0000
0001
1000
0100
0010
0000
0100
1000
0010
0000
,
0100
0001
0100
0001
1000
0100
1000
0100
0010
0001
0010
0000
0001
0100
0001
0000
,
1000
0010
0000
0010
0000
0010
0000
0010
0100
0000
0001
1000
0100
0000
0010
0000
,
0100
0000
0000
0100
1000
0000
0001
0100
0000
0010
0000
1000
0001
0000
0010
0000
,
0100
0000
0010
0001
0000
1000
0000
0001
0100
0000
0010
1000
0002
0000
0000
0000
,
1003
0000
1000
0000
0010
0100
0000
0001
0100
0001
0010
0000
0001
0000
1000
0000
,
0010
0100
0000
0100
0000
0001
0010
0000
0100
1000
0001
0100
0010
0000
0000
0000
,
2000
0000
0000
3200
,
0320
0000
0000
0000
,
0032
0000
0203
0000
,
0320
0000
0000
0000
,
2030
0100
3002
0100
,
2003
0010
3002
0010
,
2003
0100
3002
0010
,
1003
0000
0001
0000
0000
0001
0000
0000
0010
0100
1000
0001
1000
0000
0000
0000
,
0010
0000
0100
0001
0000
1000
0000
0010
1000
0000
0001
0010
0000
0100
0000
1000
,
0001
0100
0020
0000
2030
0000
3200
0000
,
0310
0000
0001
1000
0000
0001
0000
0100
0010
0000
1000
0100
0000
1000
0000
0010
,
0100
0001
0020
0000
0230
0000
2300
0000
,
3001
0000
0100
0010
0000
1000
0000
0001
0010
0000
0100
1000
0000
0001
0000
0100
,
0010
1000
0200
0000
0320
0000
0032
0000
,
1003
0000
0010
0100
0000
0001
0000
1000
0100
0000
0010
0001
0000
1000
0000
0001
,
0100
0000
0010
1000
0000
0001
0000
1000
0100
0010
0001
0010
0001
1000
0001
0000
,
0100
0000
0001
1000
0000
0010
0000
1000
0001
0000
1000
0100
0000
0010
0000
0001
,
0100
0010
2000
0000
3002
0000
0023
0000
,
0130
0000
1000
0010
0000
0100
0000
0001
0010
0000
0001
0100
0000
0010
0000
1000
,
0100
0010
0200
0000
2300
0000
3002
0000
,
1003
0000
0010
0100
0000
0001
0000
0010
0001
0000
0100
0010
0000
1000
0000
0100
,
0010
0000
0001
0100
0000
0010
0000
1000
0001
0000
0010
0000
0200
0000
0000
0000
,
1300
0000
0001
0100
0000
0010
0000
1000
0200
0000
0000
0000
0320
0000
0000
0000
,
0032
0000
0000
0003
,
1001
0000
0000
0001
0100
0000
0000
0100
0010
0000
0010
1000
0001
1000
0000
0000
,
0100
0010
0001
1000
0010
0100
0001
0000
,
1000
0000
0000
1000
0100
0000
0000
0100
0010
0000
0001
1000
0001
0100
0000
0000
,
0010
1000
0001
0010
0001
1000
0010
0000
,
0100
0000
0000
0100
0001
0000
0000
0001
0010
0000
0010
0100
1000
0001
0000
0000
,
1000
0010
1000
0001
0010
0100
1000
0000
,
0001
0000
0000
0001
0100
0000
0000
0100
0010
0000
0010
1000
0001
1000
0000
0000
,
0100
0000
0010
0000
0001
0000
0100
0000
0010
1000
0010
1000
0001
0100
0001
0000
,
1000
0000
0000
1000
0100
0000
0100
0010
0001
0010
0000
0100
0000
1000
0000
0000
,
0001
0100
0010
1000
0001
1000
0100
0000
,
0010
0000
0000
0010
0001
0000
0001
1000
0010
0100
0000
0001
0000
1000
0000
0000
,
0100
0010
0100
1000
0010
0100
0001
0000
,
0010
0000
0000
0010
0001
0000
0001
0100
0010
1000
0000
0001
0000
1000
0000
0100
,
0010
0000
0000
0001
1000
0001
0010
0100
1000
0000
0010
0100
0000
0001
0000
0000
,
1000
0000
0000
0100
0010
0000
0001
1000
0000
0001
0000
0100
0000
0010
0000
0000
,
1000
0000
0100
0000
1000
0000
0010
0000
0100
0001
0100
0001
0100
0000
0000
0000
,
0220
0000
0000
0330
,
2002
0000
0000
3003
,
2200
0000
0000
3300
,
0021
0230
2300
3002
,
0200
0000
0000
0303
,
2020
0000
0000
3030
,
0022
0000
0000
0033
,
2002
0000
0000
3003
,
0001
0100
0010
1000
0001
1000
0100
0010
0000
0001
0100
0010
1000
0010
0100
0001
,
0010
0100
1000
0100
0010
0001
1000
0001
0100
0000
0000
0010
1000
0001
0010
0001
,
1000
0010
0100
0001
0010
0000
0100
1000
0001
0100
0010
1000
0001
0010
0100
1000
,
0010
1000
0010
0100
0001
0000
0100
0010
1000
0001
1000
0100
0010
0100
1000
0001
,
0100
0000
0010
1000
0001
0010
0001
0100
0010
1000
0100
0010
0100
1000
0001
0010
,
0001
0100
0010
1000
0100
1000
0010
0100
0001
0010
0100
1000
0001
0000
0000
0000
;

//--------------- dance-single - forcednature ----------------
#NOTEDATA:;
#STEPSTYPE:dance-single;
#DESCRIPTION:forcednature;
#CREDIT:forcednature;
#DIFFICULTY:Hard;
#METER:16;
#RADARVALUES:0,0,0,0,0;
#NOTES:
0000
0000
0000
0000
,
0000
0000
0000
0000
,
0000
0000
0000
0000
,
0000
0000
0000
0000
,
0000
0000
0000
0000
,
0101
0000
0001
0100
0010
1000
0100
0000
0010
0000
0001
0100
0001
0010
0100
0000
,
0110
0000
0010
0001
1000
0010
0100
0000
0001
0000
1000
0100
1000
0010
0100
0000
,
0110
0000
0001
1000
0010
1000
0001
0000
0010
0000
0100
1000
0001
0100
0010
0000
,
1001
0000
1000
0100
0010
0001
0100
0000
0010
1000
0001
1000
0100
0010
0001
0000
,
0101
0000
1000
0001
1000
0100
0010
0001
0100
0000
0010
1000
0000
1000
0001
0000
,
0010
0000
0100
1000
0001
0100
0010
1000
0001
0000
0010
0100
0000
0010
0001
0000
,
1000
0000
0010
0100
0001
1000
0100
0010
0001
0000
0100
0001
0000
0001
0010
0000
,
0100
0000
1000
0001
0100
0010
1000
0000
0100
0010
0001
0100
0010
0100
0001
0000
,
0011
0000
0000
0010
0100
0000
1000
0001
0000
0100
1000
0000
0100
0000
0000
0000
,
0010
1000
0100
0010
0001
0100
0000
0100
0010
1000
0001
0010
0001
0000
0000
0000
,
0100
0010
1000
0001
1000
0100
0010
0001
0100
0010
1000
0100
1000
0010
0100
0001
,
0010
0100
0000
0100
0000
0100
0000
1000
0001
1000
0010
0100
0001
0010
0001
0100
,
0010
0000
0000
1000
0001
1000
0100
0010
0000
0010
0000
0001
0100
0010
1000
0000
,
0100
1000
0010
0100
0001
0010
0000
0100
0010
0001
1000
0001
0100
0010
1000
0001
,
0010
0000
0010
0000
0100
1000
0100
0010
0100
1000
0010
0100
0010
1000
0001
0010
,
0001
0000
0100
0010
1000
0001
1000
0100
0010
1000
0010
0001
0010
0000
0000
0000
,
0200
0000
0000
2300
,
3020
0000
0000
0030
,
0201
0000
0320
0000
,
2030
0000
0000
3000
,
0102
1000
0023
0100
,
0032
0100
1000
0010
,
0203
0001
0320
1000
,
0130
0000
0100
0001
0000
0010
0000
0100
1000
0001
0100
0010
1000
0000
0000
0000
,
0001
0000
0010
0001
0000
0100
0010
1000
0100
0000
0010
0100
0000
1000
0001
0100
,
0010
0000
1000
0000
0001
0010
0001
0000
0010
0100
0010
0000
0100
1000
0100
0000
,
0010
0000
0001
0100
0000
0010
1000
0001
0010
0000
0100
1000
0000
0001
0100
0010
,
0100
0000
0001
0000
1000
0010
1000
0000
0010
0100
0010
0000
0100
0001
0100
0000
,
0010
0000
1000
0001
0000
0010
0001
0100
0010
0000
1000
0100
0000
0010
0100
1000
,
0001
0000
0100
0000
0010
1000
0010
0000
1000
0001
1000
0000
0001
0010
0001
0000
,
0100
0000
0010
1000
0000
0001
0010
0100
1000
0000
0001
0100
0000
0010
1000
0001
,
0010
0000
0100
1000
0000
0001
0100
0010
1000
0001
0010
0001
1000
0010
0100
0010
,
1000
0000
0001
0010
0100
1000
0010
0100
0001
0000
0010
0001
0100
0010
1000
0100
,
0010
0000
0100
0000
1000
0001
0100
0000
0010
1000
0100
0000
0010
0100
1000
0000
,
0001
0000
0100
0010
1000
0001
0010
0001
0100
0000
0010
1000
0100
0010
0001
0100
,
0010
0000
1000
0000
0001
0010
0100
0000
0010
0001
0100
0000
0010
1000
0001
0000
,
0100
0000
0010
1000
0100
0010
0100
1000
0010
0000
0100
0001
0010
0001
1000
0001
,
0100
0000
0010
1000
0001
0010
0100
0010
0001
0000
1000
0010
0100
0000
0001
0000
,
0010
0100
0010
0001
1000
0001
0100
0000
0010
1000
0010
0000
0100
0001
0100
0000
,
0010
0000
1000
0100
1000
0010
0100
0001
0010
0001
0100
0010
1000
0100
0010
0000
,
1001
0000
0001
0100
0010
1000
0100
0010
0001
0000
0000
0100
0000
0001
0000
0010
,
0001
0000
1000
0100
1000
0001
0010
0001
0100
0000
0000
0010
1000
0000
0000
0000
,
0001
0000
0010
0100
0010
0001
1000
0010
0100
0000
0000
0001
0000
0010
0000
0100
,
1000
0000
0000
0010
0000
0100
0000
0001
1000
0000
0000
0100
0010
0000
0000
0000
,
0001
0100
0001
0010
0100
1000
0010
1000
0100
0000
0000
0010
0000
0001
0000
1000
,
0001
0100
0010
1000
0001
1000
0100
0010
0001
0000
0000
0100
0010
1000
0001
0000
,
0010
0100
1000
0001
1000
0010
0100
0001
0010
0000
0000
0100
0000
1000
0000
0010
,
1000
0100
0010
0001
0100
0010
1000
0000
0001
0010
0001
0100
0010
1000
0100
0000
,
0110
0000
0010
0001
1000
0001
0100
0010
1000
0000
0001
0010
0100
1000
0000
0010
,
0100
0001
1000
0100
0010
0001
1000
0001
0100
0000
0010
1000
0010
0100
0000
0000
,
0001
0010
0100
0010
0001
1000
0010
1000
0100
0000
0010
0001
0000
1000
0000
0001
,
0100
0000
0010
1000
0000
0001
0000
1000
0100
0010
0001
0100
0010
0000
0000
0000
,
1000
0100
1000
0010
0100
0001
0010
0001
0100
0000
0000
0010
0000
1000
0000
0001
,
0010
0100
0010
0001
1000
0001
0100
0000
0010
1000
0100
0010
0001
0100
0001
0000
,
0010
0100
1000
0001
0100
0001
0010
0100
0010
0000
0000
0001
1000
0000
0000
0000
,
0010
0000
0100
0001
0100
0010
0000
1000
0100
0010
0001
0100
0010
1000
0001
0000
,
1200
0001
0010
1300
,
0201
1000
0010
0301
,
1020
0001
0100
1030
,
0021
0230
2300
3010
,
1002
0100
1000
0013
,
2001
0100
0001
3010
,
1002
0010
0100
1003
,
1010
0000
0000
1000
0100
0010
0001
0100
0010
1000
0001
0010
0100
1000
0000
0000
,
0001
0100
0001
1000
0010
1000
0001
1000
0100
0010
0001
0100
0001
0010
0000
0100
,
1000
0001
1000
0010
0100
0001
0010
0001
0100
0010
0000
1000
0100
0010
0100
1000
,
0001
0100
0010
0100
0001
0010
0100
0010
0001
0100
0010
0000
1000
0100
0010
0100
,
1000
0010
0100
0001
1000
0000
0010
1000
0001
0010
0100
1000
0100
0010
0001
0100
,
0010
1000
0100
1000
0010
0100
1000
0100
0001
0010
0100
0010
0001
0100
0010
1000
,
0001
0010
1000
0010
0001
1000
0001
0100
0010
1000
0010
0100
1000
0000
0000
0000
;

//--------------- dance-double - forcednature ----------------
#NOTEDATA:;
#STEPSTYPE:dance-double;
#DESCRIPTION:forcednature;
#CREDIT:forcednature;
#DIFFICULTY:Easy;
#METER:9;
#RADARVALUES:0,0,0,0,0;
#NOTES:
00000000
00000000
00000000
00000000
,
00000000
00000000
00000000
00000000
,
00000000
00000000
00000000
00000000
,
00000000
00000000
00000000
00000000
,
00000000
00000000
00000000
00000000
,
00001000
00000000
00000000
00000000
01000000
00000000
00000000
00000000
00010000
00000000
00000000
00100000
00000000
00100000
00001000
00000000
,
00010000
00000000
00000000
00000000
00000100
00000000
00000000
00000000
00001000
00000000
00000000
00000010
00000000
00000010
00010000
00000000
,
00001000
00000000
00000000
00000000
01000000
00000000
00000000
00000000
00010000
00000000
00000000
00100000
00000000
00100000
00001000
00000000
,
00010000
00000000
00000000
00000000
00000100
00000000
00000000
00000000
00001000
00000000
00000000
00000010
00000000
00000010
00010000
00000000
,
00001000
00000000
00000000
00000000
01000000
00000000
00000000
00000000
00010000
00000000
00000000
00100000
00000000
00100000
00001000
00000000
,
00010000
00000000
00000000
00000000
00000100
00000000
00000000
00000000
00001000
00000000
00000000
00000010
00000000
00000010
00010000
00000000
,
00001000
00000000
00000000
00000000
01000000
00000000
00000000
00000000
00010000
00000000
00000000
00100000
00000000
00100000
00001000
00000000
,
00010000
00000000
00000000
00000000
00000100
00000000
00000000
00000000
00001000
00000000
00000000
00000010
00000000
00000010
00010000
00000000
,
00001000
00000010
00000100
00000000
00001000
00000000
00000001
00000000
,
00000100
00000010
00001000
00000000
00010000
01000000
00100000
00000000
,
10000000
01000000
00100000
00010000
00100000
01000000
10000000
00000000
,
00100000
00000000
00000000
00100000
00000000
00000000
01000000
00000000
00010000
00000000
00000000
00000000
00100000
00000000
00000000
00000000
,
01000000
00010000
00001000
00000000
00010000
00000100
00001000
00000000
,
00000010
00010000
00001000
00010000
00000100
00001000
00000010
00000000
,
00000100
00000001
00000010
00000000
00000100
00001000
00000010
00000000
,
00010000
00001000
00100000
00000000
01000000
00000000
10010000
00000000
,
20000000
00000000
00000000
32000000
,
03200000
00000000
00000000
00000000
,
00302000
00000000
00023000
00000000
,
00030020
00000000
00000000
00000000
,
00000230
00000001
00000302
00001000
,
00002003
00000100
00000100
00000100
,
00003200
00010000
00020300
00001000
,
00032000
01000000
01000000
00000000
,
00103000
00001000
00010000
00000000
00100000
01000000
00010000
00000000
,
10000000
01000000
00100000
00000000
00010000
00000000
01000000
00000000
,
00001000
00010000
00000100
00000000
00001000
00000010
00010000
00000000
,
00001000
00010000
00000100
00000000
00001000
00000000
00000001
00000000
,
00000100
00000010
00001000
00000000
00000100
00000010
00000001
00000000
,
00000100
00000010
00001000
00000000
00000100
00000000
00010000
00000000
,
00001000
01000000
00010000
00000000
00100000
00010000
10000000
00000000
,
00100000
01000000
00010000
00000000
00100000
01000000
10000000
00000000
,
00010000
01000000
00001000
00000000
00010000
00000100
00001000
00000000
,
00000010
00001000
00000100
00000010
00000001
00000100
00000010
00000000
,
00001000
00000100
00010000
00000000
00001000
00010000
00000100
00000000
,
00010000
00001000
01000000
00010000
01000000
00001000
00010000
00000000
,
00100000
10000000
00010000
00000000
10000000
01000000
00100000
00000000
,
01000000
10000000
00010000
00100000
00001000
00010000
00000010
00000000
,
00001000
00000001
00000100
00000000
00000010
00001000
00000100
00000000
,
00000010
00000100
00001000
00000001
00000010
00000100
00001000
00000000
,
00001001
00000000
00000001
00000100
00001000
00000000
00010000
00000000
,
01000000
00000000
10000000
01000000
00010000
00000000
00001000
00000000
,
00000100
00000000
00000001
00000010
00001000
00000000
00010000
00000000
,
00100000
00000000
10000000
00100000
00010000
00000000
00001000
00000000
,
00000010
00000000
00000001
00000100
00001000
00000000
00010000
00000000
,
01000000
00000000
10000000
01000000
00010000
00000000
00001000
00000000
,
00000100
00000000
00000001
00000010
00001000
00000000
00010000
00000000
,
00100000
00000000
10000000
00100000
00010000
00000000
00001000
00000000
,
00011000
00000000
01000000
00010000
00100000
00000000
00001000
00000000
,
00010000
00000000
00000010
00001000
00000100
00000000
00010000
00000000
,
00001000
00000000
01000000
00010000
00100000
00000000
00001000
00000000
,
00010000
00000000
00000010
00001000
00000100
00000000
00010000
00000000
,
00001000
00000000
00100000
00010000
01000000
00000000
00001000
00000000
,
00010000
00000000
00000100
00001000
00000010
00000000
00010000
00000000
,
00001000
00000000
00100000
00010000
01000000
00000000
00001000
00000000
,
00010000
00000000
00000100
00001000
00000010
00000000
00000100
00000000
,
00000110
00001000
00010000
00000000
,
01100000
00010000
00001000
00000000
,
00000110
00001000
00010000
00000000
,
01100000
00010000
00001000
00000000
,
00001001
00000100
00000010
00000000
,
00011000
00100000
00001000
00000000
,
10010000
01000000
00100000
00000000
,
00011000
00000010
00010000
00000000
,
00011000
00000000
00000000
00000100
00000000
00000000
00001000
00000000
00000000
00000001
00000000
00000000
00000100
00000000
00000000
00000010
,
00000000
00000000
00001000
00000000
00000000
00000100
00000000
00000000
00000010
00000000
00000000
00000100
00000000
00000000
00001000
00000000
,
00000000
00000010
00000000
00000000
00010000
00000000
00000000
00001000
00000000
00000000
01000000
00000000
00000000
00010000
00000000
00000000
,
00100000
00000000
00000000
00000000
00000000
00000000
01000000
00000000
00000000
10000000
00000000
00000000
00010000
00000000
00000000
01000000
,
00000000
00000000
00001000
00000000
00000000
00010100
00000000
00000000
00000010
00000000
00000000
00010100
00000000
00000000
00001000
00000000
,
00000000
00000001
00000000
00000000
00000000
00000000
00000100
00000000
00001000
00000000
00100000
00000000
00010000
00000000
00000000
00000000
;

//--------------- dance-double - forcednature ----------------
#NOTEDATA:;
#STEPSTYPE:dance-double;
#DESCRIPTION:forcednature;
#CREDIT:forcednature;
#DIFFICULTY:Medium;
#METER:14;
#RADARVALUES:0,0,0,0,0;
#NOTES:
00000000
00000000
00000000
00000000
,
00000000
00000000
00000000
00000000
,
00000000
00000000
00000000
00000000
,
00000000
00000000
00000000
00000000
,
00000000
00000000
00000000
00000000
,
01001000
00000000
00000000
00000000
01000000
00000000
00000000
00000000
00010000
00000000
00010000
00100000
00000000
00100000
01000000
00000000
,
10000000
00000000
00000000
00000000
00010000
00000000
00000000
00000000
01000000
00000000
00001000
00010000
00000000
00010000
00000100
00000000
,
00001000
00000000
00000000
00000000
00000001
00000000
00000000
00000000
00000100
00000000
00000010
00001000
00000000
00001000
00000100
00000000
,
00010000
00000000
00000000
00000000
00001000
00000000
00000000
00000000
01000000
00000000
00010000
00100000
00000000
01000000
10000000
00000000
,
00100000
00000000
00000000
00100000
01000000
00000000
00000000
01000000
00010000
00000000
00100000
00001000
00000000
00010000
00001000
00000000
,
00000010
00000000
00000000
00000010
00000100
00000000
00000000
00000100
00001000
00000000
00000001
00000100
00000000
00000010
00001000
00000000
,
00000100
00000000
00000000
00000100
00010000
00000000
00000000
00010000
00001000
00000000
01000000
00010000
00000000
00100000
00010000
00000000
,
01000000
00000000
00000000
01000000
00100000
00000000
00000000
00100000
10000000
01000000
00100000
00010000
00000000
00010000
01000000
00000000
,
01100000
00000000
00000000
00100000
10000000
00000000
00100000
01000000
00000000
00010000
00000000
00100000
00001000
00000000
00000000
00000000
,
00010000
00000100
00000000
00001000
00000000
00000001
00000000
00000100
00000010
00001000
00000010
00000000
00000100
00000001
00000100
00000000
,
00000010
00010000
00000010
00010000
00001000
00010000
00001000
00010000
00001000
00100000
00001000
00000000
00100000
00010000
00100000
00000000
,
01000000
10000000
00000000
10000000
00000000
10000000
00000000
10000000
00100000
00000000
01000000
00010000
01000000
00000000
00001000
00000000
,
00010000
00000000
00000000
00010000
00000100
00000000
00001000
00000100
00000000
00000010
00000000
00000001
00001000
00000000
00000010
00000000
,
00001000
00000000
00000100
00010000
00000000
00001000
00000000
01000000
00010000
00000000
00100000
01000000
20000000
00000000
00000000
00000000
,
30100000
00000000
00100000
00000000
01000000
00010000
00000000
00100000
00010000
00100000
00001000
00000000
00010000
00000000
00000010
00000000
,
00001000
00000001
00000000
00000001
00000000
00000010
00000100
00000000
00001000
00000001
00000100
00000010
00001000
00000000
00000000
00000000
,
00000200
00000000
00000000
00020300
,
00032000
00000000
00000000
00000000
,
02003000
00000000
03020000
00000000
,
00230000
00000000
00000000
00000000
,
01300000
01000000
10000000
10000000
,
00100000
00100000
00100000
00100000
,
00010000
00010000
00001000
00001000
,
00000010
00000000
00000100
00000000
00000000
00000100
00000000
00000000
00001000
00000001
00000100
00000010
00001000
00000001
00001000
00000000
,
00000100
00000000
00010000
00001000
00000000
01000000
00000000
00010000
10000000
00000000
01000000
00100000
00000000
00010000
00000000
00100000
,
00001000
00010000
00000020
00000000
00002030
00000000
00003002
00000000
,
00000013
00000000
00000100
00001000
00000000
00000100
00000000
00010000
00001000
00000000
01000000
00010000
00000000
00100000
00000000
01000000
,
10000000
00100000
02000000
00000000
03002000
00000000
00023000
00000000
,
00030100
00000000
00001000
00000001
00000000
00000100
00000000
00000001
00001000
00000000
00000100
00010000
00000000
00001000
00000000
00100000
,
00001000
00010000
00200000
00000000
20300000
00000000
32000000
00000000
,
03100000
00000000
00001000
00010000
00000000
00000100
00000000
00010000
00001000
00000000
00000010
00000100
00000000
00000010
00000000
00000001
,
00001000
00000000
00000010
00001000
00000000
00000010
00000000
00010000
00001000
00100000
00001000
00100000
00010000
10000000
00010000
00000000
,
01000000
00000000
00001000
00010000
00000000
00000100
00000000
00001000
00000100
00000000
00000010
00000001
00000000
00001000
00000000
00000001
,
00000100
00000010
00002000
00000000
02003000
00000000
23000000
00000000
,
30100000
00000000
10000000
00010000
00000000
00100000
00000000
00001000
00010000
00000000
00100000
01000000
00000000
00100000
00000000
10000000
,
01000000
00100000
00020000
00000000
00030020
00000000
00000032
00000000
,
00000103
00000000
00000001
00001000
00000000
00000100
00000000
00000010
00000100
00000000
00010000
00001000
00000000
01000000
00000000
00010000
,
10000000
00000000
01000000
00100000
00000000
00010000
00000000
00100000
00001000
00000000
00010000
00000000
00000020
00000000
00000000
00000000
,
00000130
00000000
00001000
00000100
00000000
00000001
00000000
00001000
00000200
00000000
00000000
00000000
00000320
00000000
00000000
00000000
,
00000032
00000000
00000000
00000003
,
00001001
00000000
00000000
00001000
00000100
00000000
00000000
00000100
00010000
00000000
00010000
00001000
01000000
00010000
00000000
00000000
,
00100000
01000000
00100000
00001000
00010000
00100000
10000000
00000000
,
01000000
00000000
00000000
01000000
00100000
00000000
00000000
00100000
00010000
00000000
00010000
01000000
00001000
00010000
00000000
00000000
,
00000100
00000010
00000100
00001000
00000001
00000100
00001000
00000000
,
00010000
00000000
00000000
00010000
00000100
00000000
00000000
00000100
00001000
00000000
00001000
00000010
00000100
00000001
00000000
00000000
,
00000010
00000100
00001000
00000100
00010000
00100000
01000000
00000000
,
00010000
00000000
00000000
00010000
10000000
00000000
00000000
10000000
01000000
00000000
01000000
00100000
00010000
00100000
00000000
00000000
,
00010000
00000000
01000000
00000000
00100000
00000000
00010000
00000000
00001000
00100000
00001000
00100000
00010000
01000000
00010000
00000000
,
10000000
00000000
00000000
10000000
01000000
00000000
01000000
00100000
00010000
00100000
00000000
00001000
00000000
00010000
00000000
00000000
,
00000010
00000100
00001000
00000100
00000001
00001000
00000100
00000000
,
00000010
00000000
00000000
00000010
00000001
00000000
00000001
00000100
00000010
00001000
00000000
00000100
00000000
00010000
00000000
00000000
,
00001000
01000000
00100000
01000000
00010000
00100000
01000000
00000000
,
00100000
00000000
00000000
00100000
00001000
00000000
00001000
00010000
00000010
00010000
00000000
00001000
00000000
00000010
00000000
00000100
,
00001000
00000000
00000000
00000001
00001000
00000001
00000100
00000010
00001000
00000000
00000100
00010000
00000000
00001000
00000000
00000000
,
01000000
00000000
00000000
00010000
10000000
00000000
01000000
00100000
00000000
00010000
00000000
00100000
00000000
00001000
00000000
00000000
,
00010000
00000000
00000010
00000000
00000100
00000000
00000010
00000000
00001000
00000001
00001000
00000001
00001000
00000000
00000000
00000000
,
00020200
00000000
00000000
00030300
,
02002000
00000000
00000000
03003000
,
00202000
00000000
00000000
00303000
,
00010020
00002030
00003200
00000320
,
00000002
00000000
00000000
00000033
,
00002200
00000000
00000000
00003300
,
02020000
00000000
00000000
03030000
,
20200000
00000000
00000000
30300000
,
10000000
01000000
00100000
00010000
00100000
00001000
00010000
00001000
00000000
01000000
00010000
01000000
00001000
00010000
00001000
00100000
,
00010000
00100000
00001000
00010000
00000010
00001000
00000010
00000100
00000001
00000000
00000000
00000010
00000100
00000010
00000001
00001000
,
00000100
00010000
00001000
00010000
00000100
00000000
00001000
00000010
00010000
00001000
00100000
00010000
00100000
01000000
10000000
00100000
,
01000000
00010000
01000000
00010000
00100000
00000000
00001000
00010000
00000100
00001000
00000100
00000010
00000001
00000100
00000001
00001000
,
00000010
00000000
00010000
00001000
00100000
00010000
00100000
01000000
10000000
00100000
01000000
00010000
01000000
00001000
00010000
00000100
,
00001000
00000100
00000010
00000001
00000100
00000010
00001000
00000100
00000010
00000001
00000100
00001000
00010000
00000000
00000000
00000000
;

//--------------- dance-double - forcednature ----------------
#NOTEDATA:;
#STEPSTYPE:dance-double;
#DESCRIPTION:forcednature;
#CREDIT:forcednature;
#DIFFICULTY:Hard;
#METER:16;
#RADARVALUES:0,0,0,0,0;
#NOTES:
00000000
00000000
00000000
00000000
,
00000000
00000000
00000000
00000000
,
00000000
00000000
00000000
00000000
,
00000000
00000000
00000000
00000000
,
00000000
00000000
00000000
00000000
,
00011000
00000000
00010000
00001000
00100000
00010000
00100000
00000000
01000000
00000000
10000000
00010000
10000000
00100000
01000000
00000000
,
01100000
00000000
01000000
00001000
00010000
00001000
00100000
00000000
00001000
00000000
00010000
00000100
00001000
00000100
00000010
00000000
,
00000110
00000000
00000100
00001000
00000001
00001000
00000010
00000000
00000100
00000000
00000001
00001000
00000001
00000010
00000100
00000000
,
00000110
00000000
00000010
00000100
00001000
00000100
00010000
00000000
00001000
01000000
00010000
01000000
00100000
10000000
00010000
00000000
,
10010000
00000000
10000000
01000000
00100000
00010000
00100000
00001000
00010000
00000000
00000010
00001000
00000000
00001000
00000100
00000000
,
00000010
00000000
00000001
00000100
00000010
00001000
00000010
00000100
00000001
00000000
00000010
00000100
00000000
00001000
00000100
00000000
,
00010000
00000000
00001000
01000000
00010000
10000000
00010000
00100000
01000000
00000000
00100000
00010000
00000000
00100000
00001000
00000000
,
00010000
00000000
00000010
00001000
00000010
00000100
00000001
00000000
00001000
00000100
00000010
00000100
00001000
00000100
00010000
00000000
,
00011000
00000000
00000000
00001000
01000000
00000000
01000000
00010000
00000000
00010000
00100000
00000000
01000000
00000000
00000000
00000000
,
00100000
00010000
00100000
00001000
00010000
00000010
00000000
00000010
00001000
00000010
00000100
00000001
00000100
00000000
00000000
00000000
,
00001000
00010000
00001000
01000000
00010000
10000000
01000000
00100000
00010000
00100000
01000000
10000000
00010000
01000000
00001000
00010000
,
00001000
00100000
00000000
00100000
00000000
00100000
00000000
01000000
00010000
00001000
00010000
00000100
00001000
00000100
00000010
00000001
,
00001000
00000000
00000000
00000010
00001000
00000010
00010000
00001000
00000000
00001000
00000000
00100000
00010000
00100000
01000000
00000000
,
10000000
00010000
01000000
00010000
00100000
00001000
00000000
00001000
00010000
00000010
00001000
00000010
00000100
00000001
00001000
00000001
,
00000010
00000000
00000010
00000000
00000100
00001000
00000100
00010000
00001000
01000000
00010000
01000000
00100000
10000000
00010000
00100000
,
01000000
00000000
00100000
00010000
00100000
00001000
00010000
00000010
00000100
00001000
00000100
00000001
00000100
00000000
00000000
00000000
,
00002000
00000000
00000000
00023000
,
00230000
00000000
00000000
00300000
,
02001000
00000000
03020000
00000000
,
00230000
00000000
00000000
00300000
,
00021000
00000100
00032000
00000100
,
00023000
01000000
00001000
00000010
,
00032000
00100000
00023000
00100000
,
00031000
00000000
00001000
00010000
00000000
00010000
00000000
00010000
01000000
10000000
01000000
00100000
00010000
01000000
00100000
10000000
,
00010000
00000000
01000000
00001000
00000000
00010000
00000100
00001000
00000100
00000000
00000010
00000001
00000000
00001000
00000010
00000100
,
00000001
00000000
00000010
00000000
00000100
00001000
00000100
00000000
00010000
00001000
00010000
00000000
00100000
10000000
00100000
00000000
,
01000000
00000000
00001000
00010000
00000000
00000100
00001000
00000100
00000010
00000000
00000001
00001000
00000000
00000010
00010000
00001000
,
00010000
00000000
00100000
00000000
10000000
01000000
10000000
00000000
00100000
01000000
00100000
00000000
01000000
00010000
01000000
00000000
,
00001000
00000000
00010000
00000100
00000000
00010000
00001000
01000000
00010000
00000000
00100000
00001000
00000000
00010000
00000010
00010000
,
00001000
00000000
00100000
00000000
01000000
10000000
01000000
00000000
00100000
00010000
00100000
00000000
00001000
00010000
00001000
00000000
,
00000100
00000000
00000001
00001000
00000000
00000100
00000010
00000001
00001000
00000000
00000010
00010000
00000000
00001000
00100000
00010000
,
00100000
00000000
01000000
10000000
00000000
00010000
01000000
00010000
10000000
00100000
01000000
00010000
10000000
01000000
00100000
00010000
,
00100000
00000000
00001000
00010000
00000100
00001000
00000100
00000010
00000001
00000000
00000100
00000001
00001000
00000010
00010000
00001000
,
01000000
00000000
00010000
00000000
00100000
01000000
10000000
00000000
00100000
01000000
00010000
00000000
00100000
01000000
10000000
00000000
,
00010000
00000000
01000000
00001000
00010000
00001000
00100000
00010000
00100000
00000000
00001000
00010000
00000100
00001000
00000100
00000010
,
00000001
00000000
00000100
00000000
00000010
00001000
00000100
00000000
00000010
00000001
00000100
00000000
00000010
00001000
00000100
00000000
,
00000010
00000000
00000100
00001000
00000100
00010000
00001000
00100000
00010000
00000000
10000000
00100000
01000000
00010000
01000000
00001000
,
00010000
00000000
00000010
00001000
00000010
00000100
00000001
00001000
00000001
00000000
00000010
00000100
00001000
00000000
00000100
00000000
,
00010000
00001000
01000000
00010000
01000000
00100000
10000000
00000000
01000000
00100000
00010000
00000000
01000000
00100000
10000000
00000000
,
01000000
00000000
00100000
00010000
00100000
00001000
00010000
00000010
00001000
00000010
00010000
00001000
01000000
00010000
01000000
00000000
,
10010000
00000000
00010000
01000000
00001000
00010000
00000100
00001000
00000100
00000000
00000000
00000010
00000000
00000010
00000000
00000010
,
00000001
00000000
00000100
00000010
00001000
00000010
00010000
00001000
00010000
00000000
00000000
01000000
10000000
00000000
00000000
00000000
,
00010000
00000000
01000000
00001000
00010000
00001000
00100000
00010000
00100000
00000000
00000000
00001000
00000000
00001000
00000000
00001000
,
00010000
00000000
00000000
00000100
00000000
00001000
00000000
00000010
00010000
00000000
00000000
00010000
00001000
00000000
00000000
00000000
,
00100000
00010000
00100000
01000000
10000000
00010000
10000000
00100000
01000000
00000000
00000000
01000000
00000000
01000000
00000000
01000000
,
00010000
01000000
00001000
00010000
00000100
00001000
00000100
00000010
00000001
00000000
00000000
00000001
00000100
00000010
00001000
00000000
,
00010000
01000000
00100000
10000000
00010000
10000000
01000000
00100000
00010000
00000000
00000000
01000000
00000000
01000000
00000000
01000000
,
00010000
01000000
00001000
00010000
00000010
00001000
00000010
00000000
00000100
00000001
00000100
00000010
00001000
00000001
00001000
00000000
,
00001001
00000000
00001000
00000100
00010000
00001000
00100000
00010000
00100000
00000000
00010000
01000000
00001000
00010000
00000000
00010000
,
00000010
00001000
00000010
00000100
00000001
00000100
00000001
00001000
00000100
00000000
00000010
00000001
00001000
00000001
00000000
00000000
,
00000100
00000001
00000100
00000010
00001000
00000010
00010000
00001000
01000000
00000000
00010000
10000000
00000000
10000000
00000000
10000000
,
01000000
00000000
00100000
00010000
00000000
00010000
00000000
00010000
01000000
00001000
00010000
00001000
00000010
00000000
00000000
00000000
,
00000100
00001000
00000100
00010000
00001000
00100000
00010000
00100000
00001000
00000000
00000000
01000000
00000000
01000000
00000000
01000000
,
00010000
01000000
00001000
00010000
00000100
00001000
00000100
00000000
00000010
00000001
00000010
00000100
00001000
00000001
00001000
00000000
,
00000010
00010000
00001000
01000000
00001000
00010000
00000100
00001000
00000100
00000000
00000000
00000100
00010000
00000000
00000000
00000000
,
00001000
00000000
01000000
00010000
01000000
00100000
00000000
10000000
01000000
00100000
00010000
00100000
00001000
00010000
00001000
00000000
,
02000000
10000000
00100000
03010000
,
00002000
00000100
00010000
00103000
,
00020000
00000100
00001000
00030010
,
00000002
00002003
00023000
10030000
,
00002000
01000000
00010000
00103000
,
00020000
00000100
00001000
00030010
,
00002000
00010000
00100000
01003000
,
00011000
00000000
00000000
00010000
00000010
00001000
00000010
00000100
00000001
00000100
00000010
00001000
00000001
00001000
00000000
00000000
,
00000100
00010000
00001000
00010000
00000010
00001000
00000010
00010000
00001000
01000000
00010000
01000000
00100000
10000000
00000000
01000000
,
00100000
00010000
00100000
00001000
00010000
00000100
00001000
00000100
00010000
00001000
00000000
01000000
00010000
01000000
00100000
10000000
,
00010000
01000000
00001000
00010000
00000100
00001000
00000100
00000010
00000001
00001000
00000001
00000000
00000100
00000001
00001000
00000010
,
00010000
00000010
00010000
00001000
00100000
00000000
01000000
10000000
01000000
00100000
00010000
01000000
00100000
10000000
01000000
00100000
,
00010000
01000000
00001000
00010000
00000100
00010000
00001000
00100000
00001000
00010000
00000010
00010000
00001000
00000010
00000100
00001000
,
00000001
00000100
00000010
00001000
00000100
00010000
00001000
01000000
00010000
10000000
01000000
00010000
00001000
00000000
00000000
00000000
;
