#VERSION:0.83;
#TITLE:龍と少女とデコヒーレンス;
#SUBTITLE:;
#ARTIST:黒猫ダンジョン;
#TITLETRANSLIT:Ryuu to shoujo to decoherence;
#SUBTITLETRANSLIT:;
#ARTISTTRANSLIT:Kuroneko Dungeon;
#GENRE:EPIC TECHNO;
#CREDIT:;
#MUSIC:Ryuu to shoujo to decoherence.ogg;
#BANNER:Ryuu to shoujo to decoherence.png;
#BACKGROUND:Ryuu to shoujo to decoherence-bg.png;
#CDTITLE:./CDTitles/bm IIDX 20 tricoro.png;
#SAMPLESTART:23.378;
#SAMPLELENGTH:15.000;
#SELECTABLE:YES;
#OFFSET:1.334;
#BPMS:0.000=165.000;
#STOPS:;
#TIMESIGNATURES:0.000=4=4;
#BGCHANGES:0.000=Ryuu to shoujo to decoherence.mp4=1.000=0=0=0=StretchNoLoop====,
99999.000=-nosongbg-=1.000=0=0=0=StretchNoLoop====
;
#FGCHANGES:;

//--------------- dance-single - forcednature ----------------
#NOTEDATA:;
#STEPSTYPE:dance-single;
#DESCRIPTION:forcednature;
#DIFFICULTY:Beginner;
#METER:4;
#RADARVALUES:0,0,0,0,0;
#CREDIT:forcednature;
#NOTES:
0000
0000
0000
0000
,
0000
0000
0000
0000
,
0000
0000
0000
0000
,
0000
0000
0000
0000
,
0000
0000
0000
0000
,
1001
0000
0000
0000
,
0001
0000
0000
0000
,
0100
0000
0000
0000
,
0010
0000
0000
0000
,
2002
0000
0000
0000
,
0000
0000
0000
0000
,
0000
0000
0000
0000
,
3003
0000
0000
0000
,
0110
0000
0000
0000
,
1001
0000
0000
0000
,
1000
0000
0001
0000
,
1000
1000
1000
0000
,
0001
0000
0100
0000
,
0001
0000
0000
0000
,
0100
0000
0010
0000
,
0100
0000
0000
0000
,
0010
0000
1000
0000
,
0010
0000
0000
0000
,
1000
0000
0001
0000
,
1000
0000
0000
0000
,
0001
0000
0010
0000
,
0001
0000
0000
0000
,
0010
0000
0100
0000
,
0010
0000
0000
0000
,
0100
0000
1000
0000
,
0100
0000
0000
0000
,
1000
0000
0001
0000
,
1000
0000
0001
0000
,
0200
0000
0000
0000
,
0300
0000
0000
0000
,
0020
0000
0000
0000
,
0030
0000
0000
0000
,
2000
0000
0000
0000
,
3000
0000
0000
0000
,
0002
0000
0000
0000
,
0003
0000
0000
0000
,
2002
0000
0000
0000
,
3003
0000
0000
0000
,
0200
0000
0000
0000
,
0300
0000
0000
0000
,
0020
0000
0000
0000
,
0030
0000
0000
0000
,
0200
0000
0000
0000
,
0300
0000
0000
0000
,
2002
0000
0000
0000
,
0000
0000
0000
0000
,
0000
0000
0000
0000
,
0000
0000
0000
0000
,
0000
0000
0000
0000
,
0000
0000
0000
0000
,
0000
0000
0000
0000
,
3003
0000
0000
0000
,
0220
0000
0000
0000
,
0330
0000
0000
0000
,
2002
0000
0000
0000
,
3003
0000
0000
0000
,
0220
0000
0000
0000
,
0330
0000
0000
0000
,
1001
0000
1000
0000
,
0001
0000
1000
0000
,
0001
0000
0001
0001
,
0001
0000
0001
0000
,
0100
0000
0100
0100
,
0100
0000
0100
0000
,
0010
0000
0010
0010
,
0010
0000
0010
0000
,
1000
0000
1000
1000
,
1000
0000
1000
0000
,
0100
0000
0100
0010
,
0100
0010
0100
0000
,
1000
0000
0001
1000
,
0001
1000
0001
0000
,
0100
0000
0010
0100
,
0010
0100
0010
0000
,
1000
0000
0001
1000
,
0001
1000
0100
0000
,
1001
0000
0000
0000
,
0000
0000
0000
0000
,
0020
0000
0000
0000
,
0000
0000
0000
0000
,
0000
0000
0000
0000
,
0030
0000
0000
0000
;

//--------------- dance-single - forcednature ----------------
#NOTEDATA:;
#STEPSTYPE:dance-single;
#DESCRIPTION:forcednature;
#DIFFICULTY:Easy;
#METER:9;
#RADARVALUES:0,0,0,0,0;
#CREDIT:forcednature;
#NOTES:
0000
0000
0000
0000
,
0000
0000
0000
0000
,
0000
0000
0000
0000
,
0000
0000
0000
0000
,
0000
0000
0000
0000
,
1001
1000
0100
0010
,
0000
0100
1000
0001
,
0000
0001
0100
0010
,
0000
0100
0001
1000
,
2002
0000
0000
0000
,
0000
0000
0000
0000
,
0000
0000
0000
0000
,
0000
0000
3003
0000
,
0220
0000
0330
0000
,
2002
0000
3003
0000
,
0110
0000
1001
0000
,
0100
0000
0010
0000
0100
0010
0100
0000
,
1001
0001
0100
0001
,
1000
0000
0010
0000
1000
0001
1000
0000
,
0001
0010
0100
0010
,
0001
0000
1000
0000
0100
1000
0100
0000
,
0010
0001
1000
0001
,
0100
0000
0010
0000
1000
0010
1000
0000
,
0001
1000
0001
0010
,
0100
0000
1000
0000
0100
0010
0100
0000
,
1001
0000
0001
0000
0010
0001
0010
0000
,
0001
0000
1000
0000
0001
0100
0001
0000
,
1000
0000
0010
0000
1000
0001
1000
0000
,
0100
0000
1000
0000
0100
0010
0100
0000
,
0010
0000
0001
0000
1000
0001
1000
0000
,
0001
0000
0100
0000
0010
1000
0010
0000
,
0100
0000
0001
0000
1000
0100
1000
0000
,
0001
0000
0100
0000
0010
0100
0010
0000
,
2002
0000
0000
0000
,
3000
0000
0000
0000
,
0200
0000
0000
0000
,
0003
0000
0000
0000
,
0020
0000
0000
0000
,
0300
0000
0000
0000
,
2000
0000
0000
0000
,
0030
0000
0000
0000
,
3001
0010
0000
0010
,
0100
0010
0000
0010
,
0001
1000
0000
1000
,
0010
1000
0000
1000
,
0100
0010
0000
0010
,
0100
1000
0000
1000
,
0010
0100
0000
0100
,
0001
0010
0000
0010
,
1002
0000
0203
0000
,
0320
0000
0000
0030
,
2000
0000
3002
0000
,
0023
0000
0000
0030
,
0200
0000
2300
0000
,
3020
0000
0000
0030
,
2000
0000
3002
0000
,
0203
0000
0000
0300
,
1001
0000
0001
0100
,
0010
1000
0001
0000
,
1001
0000
1000
0100
,
0010
0001
1000
0000
,
0110
0000
0001
0100
,
0010
1000
0001
0000
,
0010
0010
0100
0100
,
0010
0001
0100
0001
,
1000
0000
0001
1000
0001
1000
0001
0000
,
0100
0000
0010
1000
,
0001
0000
1000
0001
1000
0001
1000
0000
,
0100
0000
0010
0001
,
1000
0000
0010
0100
0010
0100
0010
0000
,
1000
0000
0001
1000
,
0100
0000
0010
0100
0010
0100
0010
0000
,
0001
0001
1000
1000
,
0010
0000
1000
0001
1000
0001
1000
0000
,
0001
0100
0001
0000
0100
0001
0100
0000
,
0001
0000
0001
1000
0001
1000
0001
0000
,
1000
0100
1000
0000
0100
1000
0100
0000
,
1000
0000
1000
0001
1000
0001
1000
0000
,
0001
0010
0001
0000
0010
0001
0010
0000
,
0001
0000
0001
1000
0001
1000
0001
0000
,
0100
0010
0100
0010
0100
0000
0001
0000
,
0020
0000
0000
0000
,
0000
0000
0000
0000
,
0130
0000
0000
0000
;

//--------------- dance-single - forcednature ----------------
#NOTEDATA:;
#STEPSTYPE:dance-single;
#DESCRIPTION:forcednature;
#DIFFICULTY:Medium;
#METER:13;
#RADARVALUES:0,0,0,0,0;
#CREDIT:forcednature;
#NOTES:
0000
0000
0000
0000
,
0000
0000
0000
0000
,
0000
0000
0000
0000
,
0000
0000
0000
0000
,
0000
0000
0000
0000
,
1001
0000
0001
0000
0100
0010
0100
0000
,
0001
0000
1000
0000
0100
0010
0100
0000
,
1000
0000
0001
0000
0100
1000
0100
0000
,
0001
0000
1000
0000
0100
0001
0100
0000
,
0220
0000
0000
0000
,
0000
0000
0000
0000
,
0000
0000
0000
0000
,
0000
0000
0000
0330
,
2002
0000
0000
3003
,
0220
0000
0000
0330
,
2002
3003
0220
0330
,
0001
0000
1000
0000
0001
0000
1000
0000
0001
1000
0001
1000
0001
0000
0000
0000
,
0100
0010
1000
0100
0010
0001
0100
0010
,
1000
0000
0001
0000
0010
0000
0001
0000
0100
0000
0010
1000
0010
0000
0000
0000
,
0100
0001
0010
0001
1000
0010
1000
0100
,
0010
0000
0001
0000
0100
0000
0010
0000
1000
0000
0001
0010
0001
0000
0000
0000
,
0001
0010
0100
1000
0001
0100
0001
1000
,
0100
0000
0010
0000
0100
0000
1000
0000
0010
0000
0100
0001
0100
0000
0000
0000
,
0010
1000
0001
0010
0100
1000
0001
0100
,
0001
0000
0010
0000
0001
0000
1000
0000
0010
0000
1000
0100
1000
0000
0000
0000
,
1000
0010
0100
0001
0010
0100
0001
0100
,
0010
0000
0001
0000
1000
0000
0010
0000
0100
0000
0001
1000
0001
0000
0010
0000
,
0100
1000
0010
0100
1000
0100
0001
0010
,
0001
0000
1000
0000
0010
0000
1000
0000
0100
0000
0010
0100
0010
0000
0001
0000
,
1000
0010
0100
0001
0010
1000
0010
0001
,
0100
0000
0001
0000
1000
0000
0010
0000
1000
0000
0100
0010
0100
0000
0010
0000
,
0001
0100
0001
1000
0010
0001
0010
0100
,
0001
0000
0001
0000
1000
0000
1000
0000
0010
0000
0100
0010
0100
0000
0000
0000
,
2002
0000
0000
0000
,
3000
0000
0000
0000
,
0200
0000
0000
0000
,
0003
0000
0000
0000
,
0020
0000
0000
0000
,
0300
0000
0000
0000
,
2000
0000
0000
0000
,
0030
0000
0000
0000
,
3002
0010
0010
1000
,
1000
0100
0103
0001
,
2000
0010
0010
0001
,
0001
0100
3100
1000
,
0002
0100
0100
1000
,
1000
0010
0013
0001
,
2000
0100
0100
0001
,
0001
0010
3010
1000
,
2001
0000
3020
0000
,
0230
0000
0000
0000
,
0302
0000
2003
0000
,
3200
0000
0000
0000
,
0320
0000
0032
0000
,
2003
0000
0000
0000
,
3020
0000
0230
0000
,
0302
2003
3200
0300
,
0110
0000
0010
0001
1000
0000
0001
0100
,
0020
0000
1000
0030
,
0110
0000
0010
1000
0001
0000
1000
0100
,
0020
0000
0001
0030
,
0110
0000
0100
1000
0001
0000
1000
0010
,
0200
0000
0001
0300
,
1000
0010
1000
0010
0100
0001
0100
0001
,
0010
0000
0100
0000
1000
0000
0001
0000
0100
0010
0100
0000
0010
0000
0000
0000
,
1001
0000
0000
0000
1000
0100
1000
0000
0100
0010
0100
0000
0010
0001
0010
0000
,
0001
0100
0010
1000
0100
0010
0110
0000
,
1001
0000
0000
0000
0001
0100
0001
0000
0100
0010
0100
0000
0010
1000
0010
0000
,
1000
0100
0010
0001
0100
0010
0110
0000
,
1001
0000
0000
0000
1000
0010
1000
0000
0010
0100
0010
0000
0100
0001
0100
0000
,
0001
0010
0100
1000
0010
0100
0110
0000
,
1001
0000
0000
0000
0001
0010
0001
0000
0010
0100
0010
0000
0100
1000
0100
0000
,
1000
0010
0100
1000
0100
0001
0010
0100
,
1001
0000
0000
0000
0001
1000
0001
0000
1000
0100
1000
0000
0100
0010
0100
0000
,
0010
0000
1000
0000
0010
0000
0001
0000
0100
0001
0100
0000
0010
0000
1000
0000
,
0001
0000
0000
0000
1000
0001
1000
0000
0001
0100
0001
0000
0100
0010
0100
0000
,
0010
0000
0001
0000
0010
0000
1000
0000
0100
1000
0100
0000
0010
0000
0001
0000
,
1000
0000
0000
0000
0001
1000
0001
0000
1000
0010
1000
0000
0010
0100
0010
0000
,
0100
0000
1000
0000
0100
0000
0001
0000
0010
0001
0010
0000
0100
0000
1000
0000
,
0001
0000
0000
0000
1000
0001
1000
0000
0001
0100
0001
0000
0100
0010
0100
0000
,
0010
0000
1000
0000
0100
0000
0001
0000
0100
0010
0100
0000
0010
0000
0001
0000
,
0200
0000
0000
0000
,
0000
0000
0000
0000
,
0310
0000
0000
0000
;

//--------------- dance-single - forcednature ----------------
#NOTEDATA:;
#STEPSTYPE:dance-single;
#DESCRIPTION:forcednature;
#DIFFICULTY:Hard;
#METER:16;
#RADARVALUES:0,0,0,0,0;
#CREDIT:forcednature;
#NOTES:
0000
0000
0000
0000
,
0000
0000
0000
0000
,
0000
0000
0000
0000
,
0000
0000
0000
0000
,
0000
0000
0000
0000
,
1001
0000
0001
0100
0010
1000
0001
0000
,
1000
0100
0010
0000
0001
0100
0010
0000
,
1000
0001
0010
0001
1000
0010
0100
0000
,
0001
1000
0100
0000
1000
0001
0100
0000
,
2001
0100
0000
0100
,
0000
0001
0000
0001
,
0000
0010
0000
0010
,
0000
0001
0000
3001
,
2002
0000
0000
3003
,
0220
0000
0000
0330
,
1001
0000
0010
0100
0110
0000
0001
1000
,
0010
0000
1001
0000
0100
0000
1001
0000
0010
0100
0010
0100
0010
0000
0000
0000
,
1000
0000
0001
0010
0100
0000
0010
0000
0001
1000
0000
0010
1000
0000
0001
0000
,
0010
0000
0100
1000
0001
0000
1000
0000
0010
0100
0000
0001
0200
0000
0000
0000
,
0310
0000
1000
0001
0010
0000
0100
0000
0010
0001
0000
0100
0001
0000
1000
0000
,
0100
0000
1000
0010
0100
0000
0001
0000
0010
0100
0000
0010
0002
0000
0000
0000
,
0103
0000
0010
1000
0001
0000
0010
0000
0100
0010
0000
0100
1000
0000
0010
0000
,
0100
0000
0001
1000
0100
0000
0010
0000
0001
0100
0000
0010
2000
0000
0000
0000
,
3001
0000
0010
0100
1000
0000
0100
0000
0010
0001
0000
1000
0010
0000
0100
0000
,
0001
0000
0010
0100
1000
0000
0010
0000
0100
0001
0000
1000
0100
0000
0100
0000
,
0110
0000
0010
0000
0001
0000
1000
0010
0000
1000
0000
0001
0010
0000
0100
0000
,
0001
0000
0100
0000
1000
0000
0001
1000
0000
0010
0000
0100
0001
0100
0001
0000
,
0010
0000
0001
0000
1000
0000
0010
0100
0000
0001
0000
0100
0010
0000
0001
0000
,
0010
0000
1000
0000
0001
0000
0010
0100
0000
1000
0000
0010
0100
0010
0100
0000
,
0001
0000
1000
0000
0100
0000
1000
0010
0000
0100
0000
0001
0010
0000
1000
0000
,
0010
0000
0001
0000
1000
0000
0001
0100
0000
0010
0000
1000
0100
1000
0100
0000
,
0010
0000
0010
0000
0001
0000
0001
1000
0000
1000
0000
0010
0100
0000
0100
0000
,
0001
0010
0001
0000
1000
0010
1000
0000
0100
0000
0010
0100
0010
0000
0000
0000
,
2002
0000
0000
0000
,
0000
0000
0000
3000
,
0200
0000
0000
0000
,
0000
0000
0000
0003
,
0020
0000
0000
0000
,
0000
0000
0000
0300
,
2000
0000
0000
0000
,
0000
0000
0000
0030
,
3001
1000
0000
1000
0100
0010
0000
0010
,
0100
1000
0000
1000
0001
0100
0000
0010
,
1000
0001
0000
0001
0100
0010
0000
0010
,
0100
0001
0000
0001
0010
0100
0000
0100
,
1000
0001
0000
0001
1000
0010
0000
0100
,
0001
1000
0000
1000
0001
0010
0000
0100
,
1000
0010
0000
0010
1000
0001
0000
0100
,
0001
0010
0000
0010
0001
1000
0000
0010
,
2001
0100
0001
0010
,
0002
0000
0003
0000
,
3002
0100
1000
0010
,
2000
0000
3000
0000
,
0023
0100
1000
0100
,
0002
0000
0003
0000
,
0230
2300
3200
0320
,
0032
2003
3020
0230
,
0301
1000
0001
0000
0010
0000
0100
0000
1000
0000
0100
0000
0010
0000
0001
0000
,
2000
0000
0010
3000
,
1000
0001
1000
0000
0010
0000
0100
0000
0001
0000
0100
0000
0010
0000
1000
0000
,
0002
0000
0010
0003
,
0001
0100
0001
0000
0010
0000
0100
0000
1000
0000
0100
0000
0010
0000
0001
0000
,
2000
0000
0010
3000
,
1000
0100
1000
0000
0010
0000
0010
0000
0100
0000
0100
0000
0001
0000
0001
0000
,
1000
0010
1000
0000
0001
0010
0001
0000
0100
0010
0100
0010
0100
0000
0010
0000
,
1001
0000
0000
0000
1000
0100
1000
0100
0010
0001
0010
0001
1000
0100
0010
0001
,
1000
0000
0010
0000
1000
0000
0001
0010
0100
0000
0010
0000
0110
0000
0000
0000
,
1001
0000
0000
0000
0001
0100
0001
0100
0010
1000
0010
1000
0001
0100
0010
1000
,
0001
0000
0010
0000
0001
0000
1000
0010
0100
0000
0001
0000
1001
0000
0000
0000
,
0110
0000
0000
0000
1000
0001
1000
0001
0010
0100
0010
0100
1000
0001
0010
0100
,
1000
0000
0001
0000
0100
0000
0001
1000
0100
0000
0010
0000
0011
0000
0000
0000
,
0101
0000
0000
0000
0001
1000
0001
1000
0010
0100
0010
0100
0001
1000
0010
0000
,
0100
0001
0100
0001
1000
0100
0010
0000
0100
1000
0100
1000
0001
0100
0010
0000
,
1001
0000
0000
0000
1000
0100
0010
0001
1000
0010
0100
0001
1000
0100
0010
0000
,
0001
1000
0100
0000
1000
0001
0100
0000
0010
1000
0010
1000
0001
0010
0100
1000
,
0001
0000
0000
0000
0001
0100
0010
1000
0001
0010
0100
1000
0001
0100
0010
0000
,
1000
0001
0100
0000
0001
1000
0100
0000
0010
0001
0010
0001
1000
0010
0100
0001
,
0010
0000
0000
0000
0010
0100
1000
0001
0100
0010
1000
0001
0010
0100
1000
0000
,
0010
1000
0001
0000
0010
0001
1000
0000
0010
0100
0010
0100
0001
0010
0100
1000
,
0010
0000
0000
0000
0010
0100
0001
1000
0100
0010
0001
1000
0010
0100
0001
0000
,
1000
0100
0010
0001
0010
0100
1000
0001
0100
0010
1000
0001
1000
0010
0100
0001
,
0020
0000
0000
0000
,
0000
0000
0000
0000
,
0130
0000
0000
0000
;

//--------------- dance-single - forcednature ----------------
#NOTEDATA:;
#STEPSTYPE:dance-single;
#DESCRIPTION:forcednature;
#DIFFICULTY:Challenge;
#METER:17;
#RADARVALUES:0,0,0,0,0;
#CREDIT:forcednature;
#NOTES:
0000
0000
0000
0000
,
0000
0000
0000
0000
,
0000
0000
0000
0000
,
0000
0000
0000
0000
,
0000
0000
0000
0000
,
1000
0100
0010
0100
1000
0001
0010
0000
,
0001
0100
0010
0100
0001
1000
0010
0000
,
1000
0100
1000
0001
0100
0001
0010
0000
,
0001
0100
0001
1000
0100
1000
0010
0000
,
2002
0000
0000
0000
,
0000
0000
0000
0000
,
0000
0000
0000
0000
,
0000
0000
0000
3003
,
2200
0000
0000
3300
,
0202
0000
0000
0303
,
1000
0010
0100
0010
1000
0001
0100
0001
1000
0100
0010
0100
1000
0001
0010
0001
,
1000
0000
1100
0000
0110
0000
0011
0000
0001
1000
0010
0100
0001
0000
0000
0000
,
1000
0100
0010
0100
1000
0000
0001
0000
0010
0100
0000
0010
0001
0000
1000
0000
,
0010
0100
0001
0100
0010
0000
1000
0000
0001
0010
0000
0100
2000
0000
0000
0000
,
3001
0100
0010
0100
0001
0000
1000
0000
0010
0100
0000
0010
1000
0000
0001
0000
,
0010
0100
1000
0100
0010
0000
0001
0000
1000
0010
0000
0100
0002
0000
0000
0000
,
0013
0001
1000
0001
0100
0000
1000
0000
0100
0001
0000
1000
0001
0000
0010
0000
,
0100
1000
0001
1000
0010
0000
0001
0000
0010
1000
0000
0001
0200
0000
0000
0000
,
0310
1000
0001
1000
0100
0000
0001
0000
0100
1000
0000
0001
1000
0000
0010
0000
,
0100
0001
1000
0001
0010
0000
1000
0000
0010
0001
0000
1000
0100
0000
0110
0000
,
1001
0000
0001
0100
0010
0000
1000
0010
0000
0001
0000
0010
1000
0000
0100
0000
,
1000
0000
0001
0010
0100
0000
1000
0100
0000
0001
0000
0100
2000
0000
0000
0000
,
3001
0000
1000
0100
0010
0000
0001
0010
0000
1000
0000
0010
0001
0000
0100
0000
,
0001
0000
1000
0010
0100
0000
0001
0100
0000
1000
0000
0100
0002
0000
0000
0000
,
1003
0000
0001
0010
0100
0000
1000
0100
0000
0001
0000
0100
1000
0000
0010
0000
,
1000
0000
0001
0100
0010
0000
1000
0010
0000
0001
0000
0010
2000
0000
0000
0000
,
3001
1000
0001
1000
0010
0100
0010
0100
0001
1000
0010
0100
0010
1000
0001
0000
,
0010
0100
1000
0100
0010
0001
1000
0001
0100
0010
1000
0001
0020
0000
0030
0000
,
2001
0000
0000
0000
,
0000
0000
0000
0000
,
3200
0000
0000
0000
,
0000
0000
0000
0000
,
0320
0000
0000
0000
,
0000
0000
0000
0000
,
0032
0000
0000
0000
,
0000
0000
0000
0003
,
1001
0000
1000
0010
0100
0000
0100
0010
,
1000
0000
1000
0100
0001
0000
0001
0100
,
0010
0000
0001
0010
0100
0000
0100
0010
,
0001
0000
0001
0100
1000
0000
1000
0100
,
0010
0000
1000
0001
0100
0000
0100
0001
,
0010
0000
0010
0100
0001
0000
0001
0100
,
1000
0000
1000
0001
0010
0000
0010
0100
,
1000
0000
1000
0001
0100
0000
0100
0010
,
1000
0100
0010
0001
0010
0100
1000
0010
0100
0001
0100
0010
,
1000
0001
0010
0100
1000
0100
0010
0001
0010
0100
1000
0001
,
0100
0010
1000
0001
1000
0010
0100
0001
1000
0100
0010
0001
,
1000
0010
0100
0001
0010
0100
1000
0001
0100
0001
1000
0100
,
0010
0001
0100
0010
1000
0100
0010
0100
1000
0010
0100
0001
,
0010
0100
1000
0010
0100
0010
1000
0100
0010
0001
0100
0010
,
1000
0100
1000
0001
0100
0001
1000
0010
1000
0001
0010
0001
,
1000
0100
0010
0001
0100
0010
0001
0010
0100
0001
1000
0010
,
1000
0001
0010
0100
1000
0100
0010
0001
1000
0010
0100
0001
0100
0010
1000
0001
,
1000
0100
0001
0100
1000
0001
0020
0000
,
0031
0100
0010
0100
0001
1000
0010
0100
0001
1000
0100
0010
0001
0010
0100
1000
,
0001
0100
1000
0100
0001
1000
0020
0000
,
1030
0100
1000
0001
0010
0001
0100
0010
1000
0001
0010
0001
1000
0010
0100
0001
,
1000
0010
0001
0010
1000
0001
0200
0000
,
0301
0010
0001
0010
0100
0010
0100
0010
0001
1000
0001
1000
0100
1000
0100
1000
,
0001
0100
0010
0100
0001
1000
0010
1000
0001
0010
0100
1000
0010
0000
0100
0000
,
1001
0000
0000
0000
1000
0010
0100
0001
1000
0100
0001
0100
1000
0001
0010
1000
,
0010
0000
0001
0010
0001
0000
0100
0000
0001
0000
1000
0010
1000
0000
0000
0000
,
1001
0000
0000
0000
0001
0010
0100
1000
0001
0100
1000
0100
0001
1000
0010
0001
,
0010
0000
1000
0010
1000
0000
0100
0000
1000
0000
0001
0010
0001
0000
0000
0000
,
1100
0000
0000
0000
1000
0100
0010
0001
1000
0010
0001
0010
1000
0001
0100
1000
,
0100
0000
0001
0100
0001
0000
0010
0000
0001
0000
1000
0100
1000
0000
0000
0000
,
0101
0000
0000
0000
0001
0100
0010
1000
0001
0010
1000
0010
0001
1000
0100
0001
,
0100
0000
1000
0100
1000
0100
0010
0001
0010
0000
0001
0100
0001
0100
0010
1000
,
0001
0000
0000
0000
1000
0100
0010
0001
1000
0100
0001
0100
1000
0001
0010
0000
,
0001
0100
1000
0100
0001
1000
0010
1000
0001
0010
0100
0001
0100
1000
0001
0010
,
0001
0000
0000
0000
0001
0100
0010
1000
0001
0100
1000
0100
0001
1000
0010
0000
,
1000
0100
0001
0100
1000
0001
0010
0001
1000
0010
0100
1000
0100
0001
1000
0010
,
1000
0000
0000
0000
1000
0010
0100
0010
1000
0001
0100
1000
0100
0001
1000
0000
,
0001
0010
1000
0010
0001
1000
0100
1000
0001
0100
0010
0001
0010
0100
0001
1000
,
0010
0000
0000
0000
1000
0100
0010
0100
1000
0001
0010
1000
0010
0001
1000
0000
,
0001
0100
1000
0100
0001
1000
0010
1000
0001
0010
1000
0010
0100
1000
0001
1000
,
0020
0000
0000
0000
,
0000
0000
0000
0030
,
MMMM
0000
0000
0000
;

//--------------- dance-double - forcednature ----------------
#NOTEDATA:;
#STEPSTYPE:dance-double;
#DESCRIPTION:forcednature;
#DIFFICULTY:Easy;
#METER:9;
#RADARVALUES:0,0,0,0,0;
#CREDIT:forcednature;
#NOTES:
00000000
00000000
00000000
00000000
,
00000000
00000000
00000000
00000000
,
00000000
00000000
00000000
00000000
,
00000000
00000000
00000000
00000000
,
00000000
00000000
00000000
00000000
,
00011000
00001000
01000000
00001000
,
00000000
00010000
00000100
00010000
,
00000000
00001000
00100000
00001000
,
00000000
00010000
00000010
00010000
,
00022000
00000000
00000000
00000000
,
00000000
00000000
00000000
00000000
,
00000000
00000000
00000000
00000000
,
00000000
00000000
00033000
00000000
,
02002000
00000000
03003000
00000000
,
00020200
00000000
00030300
00000000
,
00101000
00000000
00010010
00000000
,
00010000
00000000
00001000
00000000
00010000
00001000
00010000
00000000
,
00000100
00001000
00000100
00000010
,
00000001
00000000
00001000
00000000
00000001
00000100
00000001
00000000
,
00000100
00000010
00001000
00000010
,
00010000
00000000
00001000
00000000
00100000
00001000
00100000
00000000
,
00010000
00100000
01000000
10000000
,
01000000
00000000
00100000
00000000
00010000
10000000
00010000
00000000
,
01000000
00001000
00010000
00000010
,
00001000
00000000
00000010
00000000
00000100
00000001
00000100
00000000
,
00000010
00000000
00010000
00000000
00000010
00010000
00000010
00000000
,
00010000
00000000
00001000
00000000
00010000
00001000
00010000
00000000
,
00001000
00000000
00100000
00000000
00001000
00100000
00001000
00000000
,
00010000
00000000
00001000
00000000
00010000
00001000
00010000
00000000
,
00000100
00000000
00010000
00000000
00000100
00010000
00000100
00000000
,
00010000
00000000
00001000
00000000
00010000
00001000
00010000
00000000
,
00001000
00000000
01000000
00000000
00001000
01000000
00001000
00000000
,
00010000
00000000
00001000
00000000
00010000
00001000
00010000
00000000
,
00000200
00000000
00000000
00000000
,
00000000
00000000
00000000
00000000
,
00002300
00000000
00000000
00000000
,
00000000
00000000
00000000
00000000
,
00003002
00000000
00000000
00000000
,
00000000
00000000
00000000
00000000
,
00000203
00000000
00000000
00000000
,
00000000
00000000
00000000
00000000
,
00000310
00010000
00000000
00010000
,
00001000
00100000
00000000
00100000
,
00010000
01000000
00000000
01000000
,
00100000
10000000
00000000
10000000
,
01000000
00010000
00000000
00010000
,
00001000
00000010
00000000
00000010
,
00000100
00001000
00000000
00001000
,
00000001
00000100
00000000
00000100
,
00000020
00000000
00020030
00000000
,
00032000
00000000
00000000
00003000
,
00200000
00000000
00320000
00000000
,
20030000
00000000
00000000
30000000
,
02000000
00000000
03200000
00000000
,
00302000
00000000
00000000
00003000
,
00020000
00000000
00030020
00000000
,
00002030
00000000
00000000
00003000
,
00001001
00000000
00000001
00000100
,
00000010
00001000
00000010
00000000
,
00011000
00000000
00100000
00010000
,
00100000
01000000
10000000
00000000
,
10010000
00000000
00010000
01000000
,
00001000
00010000
00000100
00000000
,
00001000
00001000
00000001
00000001
,
00000100
00000010
00000100
00001000
,
00010000
00000000
00001000
00010000
00001000
00010000
00001000
00000000
,
01000000
00000000
00010000
10000000
,
01000000
00000000
10000000
00010000
10000000
00010000
10000000
00000000
,
01000000
00000000
00010000
00001000
,
00010000
00000000
00001000
00010000
00001000
00010000
00001000
00000000
,
00010000
00000000
00000100
00001000
,
00000001
00000000
00001000
00000001
00001000
00000001
00001000
00000000
,
00000010
00000010
00010000
00010000
,
00001000
00000000
00010000
00001000
00010000
00001000
00010000
00000000
,
00001000
01000000
00001000
00000000
00010000
00000100
00010000
00000000
,
00001000
00000000
00010000
00001000
00010000
00001000
00010000
00000000
,
00001000
00100000
00001000
00000000
00010000
00000010
00010000
00000000
,
00001000
00000000
00010000
00001000
00010000
00001000
00010000
00000000
,
00000100
00001000
00000100
00000000
01000000
00010000
01000000
00000000
,
00001000
00000000
00010000
00001000
00010000
00001000
00010000
00000000
,
00000010
00001000
00010000
01000000
,
00200000
00000000
00000000
00000000
,
00000000
00000000
00000000
00000000
,
10300000
00000000
00000000
00000000
;

//--------------- dance-double - forcednature ----------------
#NOTEDATA:;
#STEPSTYPE:dance-double;
#DESCRIPTION:forcednature;
#DIFFICULTY:Medium;
#METER:13;
#RADARVALUES:0,0,0,0,0;
#CREDIT:forcednature;
#NOTES:
00000000
00000000
00000000
00000000
,
00000000
00000000
00000000
00000000
,
00000000
00000000
00000000
00000000
,
00000000
00000000
00000000
00000000
,
00000000
00000000
00000000
00000000
,
00011000
00000000
00010000
00000000
01000000
00100000
01000000
00000000
,
00010000
00000000
00001000
00000000
00000100
00000010
00000100
00000000
,
00001000
00000000
00010000
00000000
00100000
01000000
00100000
00000000
,
00010000
00000000
00001000
00000000
00000010
00000100
00000010
00000000
,
00002002
00000000
00000000
00000000
,
00000000
00000000
00000000
00000000
,
00000000
00000000
00000000
00000000
,
00000000
00000000
00000000
00003003
,
00022000
00000000
00000000
00033000
,
20020000
00000000
00000000
30030000
,
02200000
03300000
00022000
00033000
,
00000100
00000000
00000010
00000000
00000100
00000000
00000010
00000000
00000001
00001000
00000001
00001000
00000001
00000000
00000000
00000000
,
00000100
00000010
00001000
00000010
00010000
00001000
00100000
00001000
,
00010000
00000000
00100000
00000000
01000000
00000000
00100000
00000000
10000000
00000000
00010000
10000000
00010000
00000000
00000000
00000000
,
00100000
01000000
00100000
00001000
00010000
00000100
00001000
00000100
,
00010000
00000000
00000010
00000000
00001000
00000000
00000010
00000000
00000100
00000000
00000001
00001000
00000001
00000000
00000000
00000000
,
00000010
00000100
00010000
00000100
00001000
00000010
00010000
00001000
,
00100000
00000000
00010000
00000000
00100000
00000000
00001000
00000000
00010000
00000000
00001000
01000000
00001000
00000000
00000000
00000000
,
01000000
00010000
00100000
00010000
10000000
00100000
10000000
01000000
,
00010000
00000000
00001000
00000000
00010000
00000000
00000100
00000000
00001000
00000000
00000001
00000010
00000001
00000000
00000000
00000000
,
00000100
00001000
00010000
00001000
00100000
01000000
00100000
00010000
,
10000000
00100000
10000000
01000000
00010000
00001000
00000010
00000001
,
00000100
00000001
00000010
00000100
00000001
00000100
00001000
00000010
,
00010000
00001000
00100000
00001000
00010000
00100000
01000000
00100000
,
10000000
00010000
10000000
01000000
00010000
00001000
00000010
00000001
,
00000100
00000001
00000010
00000100
00010000
00001000
00100000
01000000
,
00100000
00001000
00010000
00100000
10000000
01000000
00010000
00001000
,
00000010
00000000
00000010
00000000
00000100
00000000
00000100
00000000
00001000
00000000
00000001
00001000
00000001
00000000
00000000
00000000
,
00002002
00000000
00000000
00000000
,
00000003
00000000
00000000
00000000
,
00000020
00000000
00000000
00000000
,
00003000
00000000
00000000
00000000
,
00020000
00000000
00000000
00000000
,
00000030
00000000
00000000
00000000
,
00002000
00000000
00000000
00000000
,
00030000
00000000
00000000
00000000
,
00203000
00010000
00010000
00001000
,
00001000
00010000
00010000
01300000
,
00002000
01000000
01000000
00010000
,
00010000
00100000
00100000
00013000
,
00020000
00000100
00000100
00001000
,
00001000
00000010
00000010
00031000
,
00000200
00010000
00010000
00001000
,
00001000
00000010
00000010
00001300
,
00020100
00000000
00032000
00000000
,
02003000
00000000
00000000
00000000
,
03020000
00000000
20030000
00000000
,
32000000
00000000
00000000
00000000
,
03200000
00000000
00302000
00000000
,
00023000
00000000
00000000
00000000
,
00030020
00000000
00002030
00000000
,
00003002
00000023
00000230
00000300
,
00000110
00000000
00000010
00000100
00010000
00000000
00001000
00100000
,
02000000
00000000
10000000
03000000
,
01100000
00000000
00100000
00001000
00010000
00000000
00000010
00001000
,
00000002
00000000
00000010
00000003
,
00001001
00000000
00001000
00000100
00010000
00000000
00001000
01000000
,
00020000
00000000
00100000
00030000
,
10000000
00100000
10000000
00010000
01000000
00001000
00010000
00000010
,
00001000
00000000
00000100
00000000
00000010
00000000
00000001
00000000
00000100
00000010
00000100
00000000
00000001
00000000
00000000
00000000
,
00001001
00000000
00000000
00000000
00000001
00000000
00000100
00000000
00000010
00000000
00001000
00000000
00010000
01000000
00010000
00000000
,
01000000
00000000
00100000
10000000
01000000
00100000
01100000
00000000
,
10010000
00000000
00000000
00000000
10000000
00000000
01000000
00000000
00100000
00000000
00010000
00000000
00001000
00000100
00001000
00000000
,
00000100
00000000
00000010
00000001
00000100
00000010
00000110
00000000
,
00001001
00000000
00000000
00000000
00000001
00000000
00000100
00000000
00000010
00000000
00001000
00000000
00010000
01000000
00010000
00000000
,
01000000
00000000
00100000
10000000
01000000
00100000
01100000
00000000
,
10010000
00000000
00000000
00000000
10000000
00000000
01000000
00000000
00100000
00000000
00010000
00000000
00001000
00000100
00001000
00000000
,
00000100
00000010
00000001
00000010
00000100
00001000
00000010
00000100
,
00001001
00000000
00000000
00000000
00000001
00000000
00000100
00000000
00001000
00000000
00010000
00000000
00001000
01000000
00001000
00000000
,
01000000
00000000
00010000
00000000
00100000
00000000
00010000
00000000
10000000
00100000
10000000
00000000
01000000
00000000
00100000
00000000
,
10010000
00000000
00000000
00000000
10000000
00000000
01000000
00000000
00010000
00000000
00001000
00000000
00010000
00000100
00010000
00000000
,
00000100
00000000
00001000
00000000
00000010
00000000
00001000
00000000
00000001
00000010
00000001
00000000
00000100
00000000
00000010
00000000
,
00001001
00000000
00000000
00000000
00000001
00000000
00000010
00000000
00001000
00000000
00010000
00000000
00001000
00100000
00001000
00000000
,
00100000
00000000
00010000
00000000
01000000
00000000
00010000
00000000
10000000
01000000
10000000
00000000
00100000
00000000
01000000
00000000
,
10010000
00000000
00000000
00000000
10000000
00000000
00100000
00000000
00010000
00000000
00001000
00000000
00010000
00000010
00010000
00000000
,
00000010
00000000
00001000
00000000
00000100
00001000
00000100
00000000
00000010
00000000
00000001
00000000
00000100
00000001
00000100
00000000
,
00002001
00000000
00000000
00000000
,
00000000
00000000
00000000
00000000
,
00013000
00000000
00000000
00000000
;

//--------------- dance-double - forcednature ----------------
#NOTEDATA:;
#STEPSTYPE:dance-double;
#DESCRIPTION:forcednature;
#DIFFICULTY:Hard;
#METER:17;
#RADARVALUES:0,0,0,0,0;
#CREDIT:forcednature;
#NOTES:
00000000
00000000
00000000
00000000
,
00000000
00000000
00000000
00000000
,
00000000
00000000
00000000
00000000
,
00000000
00000000
00000000
00000000
,
00000000
00000000
00000000
00000000
,
00011000
00000000
00010000
01000000
10000000
00010000
00100000
00000000
,
00001000
00010000
00000010
00000000
00001000
00000010
00010000
00000000
,
00001000
00010000
00001000
00000100
00000001
00001000
00000010
00000000
,
00010000
00001000
00100000
00000000
00001000
00010000
00000010
00000000
,
00002001
00000100
00000000
00000100
,
00000000
00000001
00000000
00000001
,
00000000
00000010
00000000
00000010
,
00000000
00000001
00000000
00003001
,
00020200
00000000
00000000
00030300
,
02002000
00000000
00000000
03003000
,
00101000
00010000
00010010
00001000
,
00010000
00000010
00001000
00100000
01000000
01000000
01000000
00000000
,
00010000
00000000
10000000
00010000
00100000
00000000
01000000
00000000
00100000
00010000
00000000
00100000
00001000
00000000
00010000
00000000
,
00000010
00000000
00001000
00000001
00000100
00000000
00000001
00000000
00000010
00000100
00000000
00001000
00000200
00000000
00000000
00000000
,
00010300
00000000
00001000
01000000
00010000
00000000
01000000
00000000
00100000
10000000
00000000
00010000
10000000
00000000
01000000
00000000
,
00100000
00000000
00010000
00100000
00001000
00000000
00010000
00000000
00000010
00001000
00000000
00000010
00000200
00000000
00000000
00000000
,
00000301
00000000
00000010
00000100
00001000
00000000
00000100
00000000
00010000
00001000
00000000
01000000
00001000
00000000
00100000
00000000
,
00010000
00000000
00100000
01000000
10000000
00000000
00010000
00000000
10000000
00100000
00000000
01000000
00002000
00000000
00000000
00000000
,
00013000
00000000
00001000
00010000
00000010
00000000
00001000
00000000
00000001
00000010
00000000
00000100
00000010
00000000
00000100
00000000
,
00010000
00000000
00001000
01000000
00010000
00000000
00100000
00000000
01000000
10000000
00000000
00010000
01000000
00000000
01000000
00000000
,
01100000
00000000
00100000
00000000
10000000
00000000
01000000
00100000
00000000
00001000
00000000
00100000
00010000
00000000
01000000
00000000
,
00001000
00000000
00010000
00000000
00000100
00000000
00001000
00000010
00000000
00000100
00000000
00000001
00001000
00000001
00001000
00000000
,
00000100
00000000
00010000
00000000
00001000
00000000
00100000
01000000
00000000
00100000
00000000
00001000
01000000
00000000
00010000
00000000
,
10000000
00000000
01000000
00000000
00100000
00000000
00001000
00010000
00000000
00000010
00000000
00001000
00000100
00001000
00000100
00000000
,
00000010
00000000
00001000
00000000
00000010
00000000
00000001
00001000
00000000
00000001
00000000
00000100
00000010
00000000
00001000
00000000
,
00010000
00000000
01000000
00000000
00010000
00000000
00100000
01000000
00000000
00100000
00000000
00001000
00010000
00001000
00010000
00000000
,
00000010
00000000
00000010
00000000
00001000
00000000
00001000
00000100
00000000
00000100
00000000
00010000
00001000
00000000
00001000
00000000
,
01000000
00010000
01000000
00000000
00010000
00100000
00010000
00000000
00001000
00000000
00000100
00000010
00000001
00000000
00000000
00000000
,
00002002
00000000
00000000
00000000
,
00000000
00000000
00000000
00000003
,
00000200
00000000
00000000
00000000
,
00000000
00000000
00000000
00003000
,
00020000
00000000
00000000
00000000
,
00000000
00000000
00000000
00000300
,
00200000
00000000
00000000
00000000
,
00000000
00000000
00000000
00030000
,
01300000
00100000
00000000
00100000
00010000
00001000
00000000
00001000
,
00000010
00000100
00000000
00000100
00010000
00001000
00000000
00001000
,
00000100
00000001
00000000
00000001
00000010
00001000
00000000
00001000
,
00010000
01000000
00000000
01000000
00100000
00001000
00000000
00001000
,
00010000
00100000
00000000
00100000
10000000
01000000
00000000
01000000
,
00010000
00001000
00000000
00001000
00000100
00000001
00000000
00000001
,
00000010
00000100
00000000
00000100
00010000
00001000
00000000
00001000
,
00010000
00100000
00000000
00100000
10000000
01000000
00000000
00100000
,
20010000
32000000
03020000
00032000
,
00003020
00000000
00000030
00000000
,
00000002
00000203
00002300
00023000
,
00230000
00000000
00300000
00000000
,
20000000
32000000
03020000
00032000
,
00003020
00000000
00000030
00000000
,
00000200
00020300
00032000
02003000
,
03020000
20030000
32000000
03200000
,
00310000
10000000
00010000
00000000
01000000
00000000
00001000
00000000
00010000
00000000
00000100
00000000
00001000
00000000
00000001
00000000
,
00000200
00000000
00000010
00000300
,
00001000
00000001
00001000
00000000
00000100
00000000
00010000
00000000
00001000
00000000
01000000
00000000
00010000
00000000
10000000
00000000
,
02000000
00000000
00100000
03000000
,
00010000
10000000
00010000
00000000
00100000
00000000
00001000
00000000
00010000
00000000
00000010
00000000
00001000
00000000
00000001
00000000
,
00000020
00000000
00000100
00000030
,
00000010
00000001
00000010
00000000
00000100
00000000
00000100
00000000
00010000
00000000
00010000
00000000
00001000
00000000
00001000
00000000
,
01000000
00010000
01000000
00000000
00010000
00100000
00010000
00000000
01000000
00100000
00010000
00001000
00010000
00000000
00000100
00000000
,
00000110
00000000
00000000
00000000
10000000
01000000
00100000
00010000
00100000
00001000
00010000
00000100
00001000
00000100
00000010
00000001
,
00000100
00000000
00000010
00000000
00001000
00000000
00000001
00000010
00000100
00000000
00001000
00000000
00001001
00000000
00000000
00000000
,
00000110
00000000
00000000
00000000
00000001
00000100
00000010
00001000
00000010
00010000
00001000
01000000
00010000
01000000
00100000
10000000
,
01000000
00000000
00100000
00000000
00010000
00000000
10000000
00100000
01000000
00000000
00010000
00000000
10010000
00000000
00000000
00000000
,
01100000
00000000
00000000
00000000
10000000
00100000
01000000
00010000
01000000
00001000
00010000
00000010
00001000
00000010
00000100
00000001
,
00000010
00000000
00000100
00000000
00001000
00000000
00000001
00000100
00000010
00000000
00001000
00000000
00001001
00000000
00000000
00000000
,
00000110
00000000
00000000
00000000
00000001
00000010
00000100
00001000
00000100
00010000
00001000
00100000
00010000
00100000
01000000
00000000
,
10000000
00010000
10000000
00010000
01000000
00001000
00010000
00000000
00001000
00100000
00001000
00100000
00010000
10000000
00100000
00000000
,
01100000
00000000
00000000
00000000
10000000
01000000
00100000
00010000
01000000
00001000
00010000
00000010
00001000
00000100
00000010
00000000
,
00000001
00001000
00000010
00000000
00001000
00000001
00000010
00000000
00000100
00010000
00000100
00010000
00001000
00000000
00000100
00000000
,
00000110
00000000
00000000
00000000
00000001
00000100
00000010
00001000
00000100
00010000
00001000
00100000
00010000
01000000
00100000
00000000
,
10000000
00010000
00100000
00000000
00010000
10000000
00100000
00000000
01000000
00001000
01000000
00001000
00010000
00000000
01000000
00000000
,
01100000
00000000
00000000
00000000
10000000
01000000
00100000
00010000
00100000
00010000
00001000
00000100
00000010
00000001
00001000
00000000
,
00000010
00000100
00000001
00000000
00000010
00000100
00010000
00000000
00000010
00001000
00000010
00001000
00000001
00000010
00000100
00000000
,
00000010
00000000
00000000
00000000
00000001
00000100
00000010
00001000
00000010
00001000
00010000
01000000
00100000
10000000
00010000
00000000
,
10000000
01000000
00100000
00010000
00100000
00001000
00010000
00000010
00001000
00000010
00000100
00000001
00001000
00000001
00000010
00000100
,
00020000
00000000
00000000
00000000
,
00000000
00000000
00000000
00000000
,
10030000
00000000
00000000
00000000
;

//--------------- dance-double - forcednature ----------------
#NOTEDATA:;
#STEPSTYPE:dance-double;
#DESCRIPTION:forcednature;
#DIFFICULTY:Challenge;
#METER:18;
#RADARVALUES:0,0,0,0,0;
#CREDIT:forcednature;
#NOTES:
00000000
00000000
00000000
00000000
,
00000000
00000000
00000000
00000000
,
00000000
00000000
00000000
00000000
,
00000000
00000000
00000000
00000000
,
00000000
00000000
00000000
00000000
,
00011000
00000000
00010000
00000000
01000000
00010000
00001000
00000000
,
00100000
00000000
00001000
00000000
00000010
00000100
00001000
00000000
,
00000001
00000000
00000100
00000000
00001000
01000000
00010000
00000000
,
00100000
00000000
01000000
00000000
10000000
00010000
00100000
00000000
,
00022000
00000000
00000000
00000000
,
00000000
00000000
00000000
00000000
,
00000000
00000000
00000000
00000000
,
00000000
00000000
00000000
00033000
,
02002000
00000000
00000000
03003000
,
00020200
00000000
00000000
00030300
,
00100000
00010000
00100000
00010000
00100000
00001000
00010000
00000000
00000010
00001000
00000010
00001000
00000010
00010000
00001000
00000000
,
00100000
00000000
01000000
00000000
00010000
00000000
00001000
00000000
00000010
00000100
00001000
00000001
00000010
00000000
00000000
00000000
,
00000001
00000000
00000100
00000001
00001000
00000000
00000010
00000000
00001000
00000100
00000000
00010000
00001000
00000000
01000000
00000000
,
00010000
00000000
00100000
01000000
10000000
00000000
00100000
00000000
10000000
01000000
00000000
00100000
02000000
00000000
00000000
00000000
,
03100000
00000000
00010000
00100000
00001000
00000000
00010000
00000000
00000010
00001000
00000000
00000010
00000100
00000000
00000001
00000000
,
00000010
00000000
00000100
00001000
00000100
00000000
00010000
00000000
00001000
01000000
00000000
00010000
02000000
00000000
00000000
00000000
,
03100000
00000000
10000000
00010000
00100000
00000000
01000000
00000000
00100000
00001000
00000000
00010000
00001000
00000000
01000000
00000000
,
00010000
00000000
01000000
00001000
00010000
00000000
00000010
00000000
00001000
00000001
00000000
00000010
00000002
00000000
00000000
00000000
,
00000103
00000000
00000010
00001000
00000001
00000000
00000010
00000000
00000100
00010000
00000000
00001000
00010000
00000000
00100000
00000000
,
01000000
00000000
00010000
10000000
00100000
00000000
10000000
00000000
01000000
00010000
00000000
00001000
00010000
00000000
00001000
00000000
,
00011000
00000000
00010000
00000100
00001000
00000000
00000100
00000010
00000000
00001000
00000000
00000010
00000001
00000000
00001000
00000000
,
00000100
00000000
00010000
00001000
00100000
00000000
00010000
01000000
00000000
10000000
00000000
01000000
00020000
00000000
00000000
00000000
,
10030000
00000000
01000000
00100000
00010000
00000000
00100000
00001000
00000000
01000000
00000000
00001000
00010000
00000000
00000010
00000000
,
00001000
00000000
00000100
00000010
00000001
00000000
00001000
00000010
00000000
00000001
00000000
00000010
00002000
00000000
00000000
00000000
,
00003001
00000000
00000010
00000100
00001000
00000000
00000100
00010000
00000000
00000010
00000000
00010000
00001000
00000000
01000000
00000000
,
00010000
00000000
00100000
01000000
10000000
00000000
01000000
00010000
00000000
00000100
00000000
00010000
00002000
00000000
00000000
00000000
,
01003000
00010000
01000000
00001000
00010000
00000000
00000100
00001000
00000100
00000010
00000000
00000100
00000010
00000001
00000010
00000000
,
00000100
00001000
00000100
00010000
00001000
00100000
00010000
00100000
00001000
00010000
00001000
01000000
00020000
00000000
00030000
00000000
,
20000000
00000000
00000000
00000000
,
00000000
00000000
00000000
00000000
,
32000000
00000000
00000000
00000000
,
00000000
00000000
00000000
00000000
,
03020000
00000000
00000000
00000000
,
00000000
00000000
00000000
00000000
,
00032000
00000000
00000000
00000000
,
00000000
00000000
00000000
00003000
,
00011000
00001000
00000010
00000001
,
00000100
00001000
00010000
00100000
,
10000000
01000000
00010000
00001000
,
00000010
00000001
00000100
00001000
,
00010000
01000000
10000000
00100000
,
00010000
00001000
00000100
00000001
,
00000010
00001000
00010000
01000000
,
10000000
00100000
00010000
00001000
,
01000000
00010000
01000000
00001000
00010000
00001000
00100000
00010000
00100000
00001000
00010000
00001000
,
00100000
01000000
00010000
00001000
00010000
01000000
00100000
00001000
00010000
00000100
00010000
00001000
,
00010000
00000010
00001000
00000010
00010000
00001000
00010000
00000100
00001000
00000100
00010000
00001000
,
01000000
00100000
00010000
00001000
00010000
00100000
01000000
00010000
01000000
00001000
00010000
00000010
,
00001000
00000001
00000010
00000001
00001000
00000010
00000100
00000001
00000100
00001000
00010000
00001000
,
00010000
00100000
10000000
00100000
00010000
00001000
00100000
01000000
00010000
00001000
00010000
01000000
,
00100000
00010000
00100000
00001000
00010000
00001000
01000000
00010000
01000000
00001000
00010000
00001000
,
00000010
00000100
00001000
00000010
00000100
00000001
00000010
00001000
00010000
01000000
00010000
00001000
,
00100000
00010000
00100000
00001000
00010000
00001000
00100000
00010000
00100000
01000000
10000000
01000000
00100000
00010000
00100000
00001000
,
00020000
00000000
00031000
00000010
00000002
00000000
00002003
00000000
,
00003010
00001000
00000010
00010000
00001000
00010000
00000010
00001000
00000010
00000100
00000001
00000100
00000010
00001000
00000010
00010000
,
00002000
00000000
00013000
00100000
20000000
00000000
30020000
00000000
,
00130000
01000000
00100000
00010000
00100000
00001000
00010000
00000100
00001000
00000100
00010000
00001000
00100000
00010000
00100000
01000000
,
20000000
00000000
31000000
00010000
00002000
00000000
00003200
00000000
,
00000310
00001000
00000010
00001000
00000001
00000100
00000001
00000100
00000001
00001000
00000001
00001000
00000100
00001000
00000100
00010000
,
00001000
00010000
00001000
00010000
00001000
00010000
00001000
00010000
00001000
01000000
00010000
01000000
00100000
00000000
10000000
00000000
,
10010000
00000000
00000000
00000000
10000000
01000000
00100000
00010000
01000000
00100000
00010000
00001000
00100000
00010000
00001000
00000100
,
00010000
00000000
00000000
00000000
00001000
00000000
00000010
00000000
00000001
00000000
00001000
00000100
00000010
00000000
00000000
00000000
,
00001001
00000000
00000000
00000000
00000001
00000100
00000010
00001000
00000100
00000010
00001000
00010000
00000010
00001000
00010000
01000000
,
00001000
00000000
00000000
00000000
00010000
00000000
00100000
00000000
10000000
00000000
00010000
01000000
00100000
00000000
00000000
00000000
,
10010000
00000000
00000000
00000000
10000000
01000000
00010000
00001000
00100000
01000000
00010000
00001000
01000000
00100000
00010000
00001000
,
00100000
00000000
00000000
00000000
00001000
00000000
00000010
00000000
00000001
00000000
00001000
00000010
00000100
00000000
00000000
00000000
,
00001001
00000000
00000000
00000000
00000001
00000100
00001000
00010000
00000010
00000100
00001000
00010000
00000100
00000010
00001000
00000000
,
00010000
00000100
00001000
00000100
00010000
00001000
00010000
00000000
00001000
01000000
00010000
01000000
00001000
00010000
00001000
00000000
,
00011000
00000000
00000000
00000000
00010000
00100000
10000000
00010000
10000000
01000000
00010000
00001000
00100000
00010000
10000000
00000000
,
10000000
01000000
00010000
00000000
01000000
00010000
00001000
00000000
00010000
00001000
00000010
00000100
00000010
00000001
00001000
00000100
,
00010000
00000000
00000000
00000000
00001000
00000010
00000001
00001000
00000001
00000100
00001000
00010000
00000010
00001000
00000001
00000000
,
00000001
00000100
00001000
00000000
00000100
00001000
00010000
00000000
00001000
00010000
00100000
01000000
00100000
10000000
00010000
01000000
,
00001000
00000000
00000000
00000000
00010000
00100000
01000000
00100000
10000000
01000000
00100000
01000000
00010000
00001000
00000010
00000000
,
00000010
00001000
00010000
00000000
00001000
00000010
00000001
00000000
00000100
00001000
00010000
00000010
00010000
00001000
00000010
00000001
,
00000100
00000000
00000000
00000000
00000001
00000100
00000001
00000100
00000010
00000100
00000010
00000100
00000010
00010000
00001000
00000000
,
01000000
00100000
00010000
00001000
00000100
00000010
00000100
00001000
00010000
01000000
00100000
01000000
00010000
00001000
00000010
00000100
,
00000020
00000000
00000000
00000000
,
00000000
00000000
00000000
00000030
,
MMMMMMMM
00000000
00000000
00000000
;
