#VERSION:0.83;
#TITLE:Rub-a Dub-a;
#SUBTITLE:;
#ARTIST:kors k;
#TITLETRANSLIT:;
#SUBTITLETRANSLIT:;
#ARTISTTRANSLIT:;
#GENRE:LOVERS CANDY RAVE;
#CREDIT:;
#MUSIC:Rub-a Dub-a.ogg;
#BANNER:Rub-a Dub-a.png;
#BACKGROUND:Rub-a Dub-a-bg.png;
#CDTITLE:./CDTitles/bm IIDX 28 BISTROVER.png;
#SAMPLESTART:47.343;
#SAMPLELENGTH:15.000;
#SELECTABLE:YES;
#OFFSET:0.363;
#BPMS:0.000=176.000;
#STOPS:;
#TIMESIGNATURES:0.000=4=4;
#BGCHANGES:0.000=../BGAs/06ho.mp4=1.000=0=0=0=StretchNoLoop====,
99999.000=-nosongbg-=1.000=0=0=0=StretchNoLoop====
;
#FGCHANGES:;

//--------------- dance-single - forcednature ----------------
#NOTEDATA:;
#STEPSTYPE:dance-single;
#DESCRIPTION:forcednature;
#DIFFICULTY:Beginner;
#METER:5;
#RADARVALUES:0,0,0,0,0;
#CREDIT:forcednature;
#NOTES:
0000
0000
0000
0000
,
0000
0000
0000
0000
,
0000
0000
0000
0000
,
0000
0000
0000
0000
,
0000
0000
0000
0000
,
1000
0000
0000
0000
,
0001
0000
0000
0000
,
0100
0000
0010
0000
,
0100
0000
0010
0000
,
1000
0000
1000
0000
,
0001
0000
0001
0000
,
0010
0000
0010
0000
,
0100
0000
0100
0000
,
2002
0000
0000
0000
,
0000
0000
0000
0000
,
0000
0000
0000
0000
,
3003
0000
0000
0000
,
0000
0000
0001
0000
,
0000
0000
0001
0000
,
0000
0000
1000
0000
,
0000
0000
1000
0000
,
0000
0000
0010
0000
,
0000
0000
0010
0000
,
0000
0000
0100
0000
,
0000
0000
0001
0000
,
1000
0000
0100
0000
,
0000
0000
0100
0000
,
1000
0000
0001
0000
,
0000
0000
0001
0000
,
1000
0000
0010
0000
,
0000
0000
0010
0000
,
0100
0000
0001
0000
,
0000
0000
0001
0000
,
0020
0000
0000
0000
,
0000
0000
0030
0000
,
0100
0000
1000
0001
,
1000
0000
1000
0010
,
1000
0000
1000
0010
,
1000
0000
0100
0000
,
0010
0000
0001
1000
,
0001
0000
0001
0010
,
0001
0000
0001
0010
,
0001
0000
0100
0000
,
0010
0000
1000
0001
,
1000
0000
1000
0100
,
1000
0000
1000
0100
,
1000
0000
0010
0000
,
0100
0000
0001
1000
,
0001
0000
0001
0100
,
0001
0000
0001
0100
,
0001
0000
0000
0000
,
1000
0000
0100
0000
,
1000
0000
0010
0000
,
0100
0000
0001
0000
,
0010
0000
0001
0000
,
0100
0000
0010
0000
,
1000
0000
0001
0000
,
0010
0010
0100
0010
,
0000
0100
0010
0000
,
0100
0000
1000
0000
,
0010
1000
0010
0000
,
0100
0001
0100
0000
,
0001
0000
0010
0000
,
0100
0010
0100
0000
,
1000
0000
0001
0000
,
0100
0000
0010
0000
,
1000
0001
1000
0000
,
1001
0000
0001
0000
,
0100
0000
0001
0000
,
0010
0001
0010
0001
,
1000
0100
1000
0000
,
0001
0000
1000
0000
,
0001
0000
0100
0000
,
0010
1000
0010
1000
,
0001
0100
0001
0000
,
1001
0000
0100
0000
,
1001
0000
0010
0000
,
1001
0000
0110
0000
,
1001
0000
0000
0000
,
0110
0000
0001
0000
,
0110
0000
1000
0000
,
0110
0000
1001
0000
,
0100
0100
0010
0000
,
1001
0000
0000
0000
;

//--------------- dance-single - forcednature ----------------
#NOTEDATA:;
#STEPSTYPE:dance-single;
#DESCRIPTION:forcednature;
#DIFFICULTY:Easy;
#METER:9;
#RADARVALUES:0,0,0,0,0;
#CREDIT:forcednature;
#NOTES:
0000
0000
0000
0000
,
0000
0000
0000
0000
,
0000
0000
0000
0000
,
0000
0000
0000
0000
,
0000
0000
0000
0000
,
1001
0001
0100
0010
,
1001
1000
0100
0010
,
1001
1000
1001
0001
,
1001
0100
1001
0010
,
1100
0010
0101
0010
,
1010
0100
0011
0100
,
0110
1000
0110
0001
,
1000
0001
0100
0010
,
2002
0000
0000
0000
,
0000
0000
0000
0000
,
0000
0000
0000
0000
,
3003
0000
0010
0100
,
1001
0000
0000
0000
,
0000
0000
1000
0001
,
0100
0000
0000
0000
,
0000
0000
0010
1000
,
0001
0000
0000
0000
,
0000
0000
0010
0100
,
1000
0000
0000
0001
,
0000
0000
0100
0010
,
1001
0000
0001
0000
,
0100
0000
0010
1000
,
0010
0000
0000
0000
0100
0000
0000
0100
,
0000
0000
0100
0000
0000
0100
0000
0000
,
0001
0000
0010
0000
,
0100
0000
1000
0010
,
1000
0000
0000
0001
0000
0000
1000
0000
,
0000
0001
0000
0000
0010
0000
0000
0000
,
0200
0000
0000
0000
,
0000
0000
0010
0310
,
0100
0000
1000
0001
,
0101
0101
0101
0000
,
1100
1100
1100
0000
,
0011
0100
1000
0001
,
0101
0000
1000
0010
,
1010
1010
1010
0000
,
0011
0011
0011
0000
,
0110
1000
0001
0100
,
0010
0000
1000
0001
,
1100
1100
1100
0000
,
0101
0101
0101
0000
,
0110
1000
0001
0010
,
1001
0000
0001
0100
,
0110
0110
0110
0000
,
1001
1001
1001
0000
,
0110
0001
1000
0100
,
0110
0001
0101
0000
,
1000
0010
1000
0100
,
0010
0000
0001
0100
0001
0000
0000
0000
,
0010
0000
0010
0000
0100
0000
1000
0001
,
1000
1000
0010
0000
,
0100
0001
0020
0230
,
2300
0000
3002
0000
0103
0100
0100
0000
,
0010
0000
1000
0000
0001
1000
0100
0000
,
0010
0000
0100
0010
0100
0000
0000
0000
,
1000
0001
0100
0100
,
0010
0000
0000
0000
1000
0000
0000
0000
0001
0000
0000
0001
0000
0000
0001
0000
,
0000
0010
0100
1000
,
0010
0100
0101
0000
,
1000
0100
1100
0000
,
0010
1000
0001
0010
,
0100
0010
0002
0003
,
0100
0100
1000
1000
,
0100
0100
0001
0001
,
0011
0001
1010
1000
,
1001
0010
0110
0000
,
1001
0001
1000
0010
,
1000
0100
0010
0000
,
1100
1000
0101
0001
,
1001
0100
0110
0000
,
1000
0000
0000
1000
0000
0000
0000
0000
0001
0000
0000
0001
0000
0000
0000
0000
,
0100
0000
0000
0100
0000
0000
0000
0000
0010
0000
0000
0010
0000
0000
0000
0000
,
1000
0000
0000
1000
0000
0000
0000
0000
0001
0000
0000
0001
0000
0000
0000
0000
,
0010
0000
0000
0010
0000
0000
0010
0000
0010
0000
0000
0000
0000
0000
0000
0000
,
1001
0000
0000
1001
0000
0000
0000
0000
1100
0000
0000
1100
0000
0000
0000
0000
,
1001
0000
0000
1001
0000
0000
0000
0000
0101
0000
0000
0101
0000
0000
0000
0000
,
1001
0000
0000
1001
0000
0000
0000
0000
0110
0000
0000
0110
0000
0000
0000
0000
,
1001
0100
0010
1001
,
0220
0000
0000
0000
,
0330
0000
0000
0000
;

//--------------- dance-single - forcednature ----------------
#NOTEDATA:;
#STEPSTYPE:dance-single;
#DESCRIPTION:forcednature;
#DIFFICULTY:Medium;
#METER:13;
#RADARVALUES:0,0,0,0,0;
#CREDIT:forcednature;
#NOTES:
0000
0000
0000
0000
,
0000
0000
0000
0000
,
0000
0000
0000
0000
,
0000
0000
0000
0000
,
0000
0000
0000
0000
,
1000
0100
1000
0100
0010
0001
0010
0000
,
0001
0100
0001
0100
0010
1000
0010
0000
,
1010
0001
0011
1000
,
0001
1000
0001
1000
0010
0100
0010
0100
,
0001
0010
0011
0000
1000
0010
1010
0000
,
0001
0100
0101
0000
1000
0100
1100
0000
,
0011
0101
1010
1100
,
0001
1000
0010
0100
0001
1000
0100
0000
,
0220
0000
0000
0000
,
0000
0000
0000
0000
,
0000
0000
0000
0000
,
0330
0000
0000
0001
0100
0000
0010
0000
,
1010
0001
0000
1000
,
0000
0000
0001
0000
1000
0100
1000
0010
,
0100
0001
0000
1000
,
0000
0000
0010
0000
1000
0100
0010
0001
,
0000
0100
0000
0010
,
0000
0000
0100
0000
0001
0010
0100
1000
,
0010
0000
0100
0000
0000
0000
0001
1000
,
0000
0000
0001
0010
0100
0000
1000
0000
,
1001
1000
0001
0100
,
0000
0000
0100
0000
0001
1000
0010
1000
,
0100
0000
0000
0000
0010
0001
0000
0010
,
0001
0000
1000
0100
0000
1000
0100
0000
,
1001
0100
0010
1000
,
0000
0000
0001
0000
0100
0010
1000
0001
,
0010
0100
0000
0010
0001
0000
1000
0010
,
0000
0100
0010
0000
1000
0001
0010
0000
,
0100
0100
0100
0100
,
0100
0000
0100
0000
1000
0001
0100
0000
,
0120
0000
1030
0000
0001
0100
0010
1000
,
1001
0000
1001
0000
1001
0000
1000
0001
,
1001
0000
1001
0000
1001
0000
0001
1000
,
1001
0000
0001
0010
0100
1000
0100
0010
,
0002
0000
0003
0000
0100
0001
1000
0010
,
1001
0000
1001
0000
1001
0000
0100
0010
,
1001
0000
1001
0000
1001
0000
0010
0100
,
1001
0000
1000
0010
0100
0001
0100
0010
,
2000
0000
3001
0000
0010
0100
1000
0001
,
0110
0000
0110
0000
0110
0000
0100
0010
,
0110
0000
0110
0000
0110
0000
0010
0100
,
0110
0000
1000
0001
0100
0010
1000
0001
,
0020
0000
0030
0000
0100
1000
0001
0100
,
0110
0000
0110
0000
0110
0000
1000
0001
,
0110
0000
0110
0000
0110
0000
0001
1000
,
0110
0000
1000
0001
0010
0100
0010
0001
,
0100
0000
0010
1000
0001
0000
0100
0010
,
0000
0000
1000
0000
0001
0010
0001
0000
0100
0000
0000
0000
0020
0000
0000
0000
,
1030
0000
0000
0000
0100
1000
0100
0000
0010
0000
0000
0000
0001
1000
0001
0000
,
0000
0000
0100
0001
0100
0000
0010
0000
1000
0000
0000
0000
0001
1000
0001
1000
,
0001
0000
0010
0100
1000
0000
0010
0100
,
0000
0000
0001
0000
0010
0000
0100
1000
0200
0000
0000
0000
0320
0000
0000
0000
,
0031
1000
0001
0000
0100
0000
0010
0000
1000
0000
0001
0000
0010
0000
0100
0000
,
0000
0000
1000
0010
1000
0000
0001
0010
0002
0000
0000
0000
0203
0000
0000
0000
,
0310
0000
1000
0001
0010
0000
0000
0100
,
0000
0000
1000
0000
0000
0000
0001
0000
0100
0000
0010
1000
0010
0000
0100
0000
,
0001
0000
0000
0000
0010
0000
0000
0000
0100
0000
0000
1000
0000
0000
0010
0000
,
0000
0000
0100
0001
0100
0001
0100
0000
0010
0000
1000
0000
0001
0000
0010
0000
,
0100
0000
0000
0000
1000
0001
1000
0001
1000
0000
0000
0000
0000
0000
0010
0000
,
0000
0100
0000
0001
0010
0000
0100
0100
,
1000
0000
0010
0000
0100
0000
0001
0000
0010
0100
0010
0000
0001
0000
1000
0000
,
0010
0000
0100
0001
0020
0000
0230
0000
,
1300
0000
0000
0001
0000
0000
0100
0000
0010
0000
0000
1000
0000
0000
0001
0000
,
1000
0000
0000
0100
0000
0000
0010
0000
0001
0000
0000
0100
0000
0000
1000
0000
,
0100
0001
0100
0001
1000
0010
1000
0010
,
1000
0100
0010
0001
0200
0000
0300
0000
,
0010
0000
0000
1000
0000
0000
0001
0000
1000
0000
0000
0100
0000
0000
0001
0000
,
0100
0000
0000
0010
0000
0000
0001
0000
1000
0000
0000
0010
0000
0000
0100
0000
,
0001
0010
0001
0010
0100
1000
0100
1000
,
0010
0100
0001
1000
0200
0000
0310
0100
,
1100
0000
0000
1100
0000
0000
0000
0000
0101
0000
0000
0101
0000
0000
0000
0000
,
0110
0000
0000
0110
0000
0000
0000
0000
1001
0000
0000
0001
0000
0000
0000
0000
,
0101
0000
0000
0101
0000
0000
0000
0000
1100
0000
0000
1100
0000
0000
0000
0000
,
0110
0000
0000
0110
0000
0000
0110
0000
0220
0000
0000
0000
0330
0000
0000
0000
,
1100
0000
0000
0011
0000
0000
0000
0000
0101
0000
0000
1010
0000
0000
0000
0000
,
1001
0000
0000
0110
0000
0000
0000
0000
0110
0000
0000
1001
0000
0000
0000
0000
,
1100
0000
0000
1100
0000
0000
0010
0000
0101
0000
0000
0101
0000
0000
0010
0000
,
0001
0000
0100
0000
0010
0000
1000
0000
0001
1000
0001
0000
1000
0001
1000
0000
,
0200
0000
0000
0000
,
0300
0000
0000
0000
;

//--------------- dance-single - forcednature ----------------
#NOTEDATA:;
#STEPSTYPE:dance-single;
#DESCRIPTION:forcednature;
#DIFFICULTY:Hard;
#METER:16;
#RADARVALUES:0,0,0,0,0;
#CREDIT:forcednature;
#NOTES:
0000
0000
0000
0000
,
0000
0000
0000
0000
,
0000
0000
0000
0000
,
0000
0000
0000
0000
,
0000
0000
0000
0000
,
0001
0100
0001
0100
0010
1000
0100
0010
,
0100
1000
0100
1000
0010
0100
0001
1000
,
0001
0100
0001
0000
1000
0000
0010
0000
1000
0100
1000
0000
0001
0000
0010
0000
,
0100
1000
0100
1000
0001
0100
0001
0100
0001
1000
0001
1000
0100
0010
0100
0010
,
0001
0000
0100
0000
0010
1000
0010
1000
0100
0000
0010
0000
0001
0010
0001
0010
,
0100
0000
1000
0000
0001
0100
0001
0100
0010
0000
1000
0000
0100
0010
0100
0010
,
0001
0000
1000
0010
0100
0000
0001
0010
0100
0000
1000
0001
0100
0000
0001
1000
,
0100
0010
0100
0010
0001
1000
0001
1000
0010
0100
0010
0100
0001
0000
0000
0000
,
0020
0000
0000
0000
,
0000
0200
0000
0030
,
0000
0000
0000
0000
,
0300
0000
0000
1000
0001
0000
0100
0000
,
1001
0001
0000
0001
,
0000
0000
0001
0000
0100
1000
0001
0010
,
1000
0100
0000
0100
,
0000
0000
0100
0000
0001
1000
0010
0001
,
0000
1000
0000
1000
,
0000
0000
1000
0000
0010
0001
1000
0100
,
0002
0000
0010
0000
0003
0000
0010
0200
,
0000
0000
0000
0000
1300
0000
0001
0000
1000
0100
0010
0001
0100
0010
1000
0000
,
1001
0000
1000
0010
0100
0000
0201
0000
,
1000
0000
0001
0000
0310
0100
1000
0001
,
0010
0000
1000
0000
0001
0012
0000
1003
,
2010
0000
3001
0101
0100
1000
0001
0010
,
1000
0000
0100
0001
0100
0000
0110
0000
,
0000
0000
0001
0000
1000
0010
0001
1000
,
0100
0201
0000
0310
1020
0000
1030
2100
,
0000
0000
3001
0000
0012
0000
0000
0000
0103
0001
1000
0100
0010
0001
1000
0000
,
0010
0010
0010
0010
,
0010
0000
0000
0000
0010
0000
0000
0000
0010
1000
0010
0000
0100
0000
0001
0000
,
0010
0000
1001
0000
1000
0010
0100
0001
,
0101
0000
0101
0000
0101
0000
0010
1000
,
1100
0000
1100
0000
1100
0000
1000
0001
,
1001
0000
0001
0100
1000
0100
0001
0010
,
0110
0000
0001
0000
1000
0010
0100
0001
,
0011
0000
0011
0000
0011
0000
0100
1000
,
1010
0000
1010
0000
1010
0000
0001
1000
,
1001
0000
0000
0000
0001
0000
0100
0000
0010
1000
0001
0100
0001
0010
0100
1000
,
0010
0000
0000
1000
0001
0000
0100
0000
0010
1000
0001
0010
0100
0000
0010
0000
,
0011
0000
0000
1000
0001
0000
0010
0000
0100
1000
0010
0100
0001
0000
0100
0000
,
0110
0000
0000
0001
1000
0000
0010
0000
1000
0100
0010
0100
1000
0000
0001
0000
,
1001
0000
0000
0001
1000
0000
0010
0000
0100
0001
0010
0100
0010
0000
0001
0000
,
0101
0000
0000
1000
0010
0000
0100
0000
0010
1000
0001
0010
0100
0000
1000
0000
,
1100
0000
0000
0001
0010
0000
0100
0000
0010
0001
1000
0010
0100
0000
0001
0000
,
1000
0000
1000
0000
0001
0000
0001
0000
0100
0001
0100
0001
1000
0100
1000
0100
,
0010
0000
0000
0000
0001
0000
0100
0000
1000
0000
0100
0000
0001
1000
0001
1000
,
0001
0000
1000
0001
0101
0000
0001
1000
,
0000
0000
0001
0000
0001
0010
0100
0000
1100
0000
0000
0000
0002
0000
0000
0000
,
0103
0000
0000
0000
0010
1000
0010
0000
0110
0000
0000
0000
0001
0100
0001
0000
,
0000
0000
1000
0100
1000
0000
0010
0000
0100
0000
0000
0000
0001
0010
0100
1000
,
0010
0000
0100
0001
0011
0000
1000
0100
,
0000
0000
1000
0000
1000
0000
0010
0100
0002
0000
0000
0000
0023
0000
0000
0000
,
0130
1000
0001
0000
1000
0000
0010
0000
0001
0000
0010
0000
1000
0000
0100
0000
,
0000
0000
0010
0001
1000
0000
0010
1000
0001
0100
0001
0000
1000
0100
1000
0000
,
0010
0000
1000
0001
1001
0000
1000
0100
,
0000
0000
0010
0000
0000
0000
0001
0000
0100
0000
0010
1000
0001
0000
0010
0000
,
0100
0000
0000
0000
1000
0000
0000
0000
0110
0000
0000
0001
0000
0000
1000
0000
,
0000
0000
0100
1000
0001
0010
0100
0000
1000
0000
0010
0000
0001
0000
0010
0000
,
0100
0000
0000
0000
0001
0100
0010
1000
0100
0000
0000
0000
0010
0000
1000
0000
,
0000
0000
0010
0000
0000
0000
0001
0000
1000
0000
0001
0100
0001
0100
0001
0100
,
0010
0000
0001
0000
1000
0000
0100
0000
0001
1000
0001
0000
0010
0000
1000
0000
,
0010
0000
0000
0100
1000
0000
0001
0000
0200
0000
1000
0000
0301
0000
0000
0000
,
0110
0000
0000
1000
0000
0000
0001
0000
1000
0100
0000
0010
0001
0000
0100
0000
,
1000
0000
0000
0100
0000
0000
0010
0000
1000
0001
0000
0010
0100
0000
1000
0001
,
0100
0000
0010
0000
0100
0000
1000
0000
0100
0001
0100
0001
0100
0000
0010
0000
,
1000
0000
0100
0000
0010
0000
0001
0000
0100
0010
0000
0010
1000
0000
0001
0010
,
0100
0000
0000
0001
0000
0000
0100
0000
1000
0001
0000
0001
0100
0000
0010
0000
,
1000
0000
0000
0001
0000
0000
0010
0000
0100
1000
0000
1000
0010
0000
0100
0001
,
0010
0000
0100
0000
0010
0000
1000
0000
0010
0001
0010
0001
0010
0000
0100
0000
,
1000
0000
0001
0000
1001
0000
0000
0000
0110
0000
0000
0000
0001
0100
0010
1000
,
0001
0000
0000
0011
0000
0000
0000
0000
1100
0000
0000
1100
0000
0000
0000
0000
,
1010
0000
0000
1010
0000
0000
0000
0000
0101
0000
0000
0101
0000
0000
0000
0000
,
1100
0000
0000
1100
0000
0000
1000
0000
0101
0000
0000
0101
0000
0000
0010
0000
,
1001
0000
0000
1001
0000
0000
1000
0000
0001
0010
0000
0100
1000
0000
0010
0000
,
1010
0000
0000
1100
0000
0000
0001
0000
0011
0000
0000
0101
0000
0000
1000
0000
,
1010
0000
0000
0101
0000
0000
0001
0000
0011
0000
0000
1100
0000
0000
1000
0000
,
1001
0001
0100
0010
1001
1000
0100
0010
,
0100
1000
0100
1000
0001
0100
0001
0100
0010
1000
0010
1000
0001
0010
0001
0010
,
0200
0000
0000
0000
,
0300
0000
0000
0000
;

//--------------- dance-single - forcednature ----------------
#NOTEDATA:;
#STEPSTYPE:dance-single;
#DESCRIPTION:forcednature;
#DIFFICULTY:Challenge;
#METER:17;
#RADARVALUES:0,0,0,0,0;
#CREDIT:forcednature;
#NOTES:
0000
0000
0000
0000
,
0000
0000
0000
0000
,
0000
0000
0000
0000
,
0000
0000
0000
0000
,
0000
0000
0000
0000
,
0101
0000
1000
0010
0100
0001
1000
0000
,
1100
0000
0001
0010
0100
1000
0001
0000
,
0110
0000
1000
0001
1001
0000
0010
0000
,
1000
0100
1000
0000
0001
0100
0001
0000
1000
0010
1000
0000
0001
0010
0001
0000
,
0100
0100
1010
0000
0100
0100
0011
0000
,
0001
0001
1100
0000
1000
1000
0101
0000
,
1000
0000
0100
0010
0001
0000
0100
0010
1000
0000
0100
0010
0001
0000
0100
0000
,
0020
0100
0100
0130
,
2002
0000
0000
0000
,
3003
0220
0000
0000
,
0000
0000
0000
0000
,
0330
0000
0000
1000
1000
0000
0010
0000
,
0101
MMMM
0000
MMMM
,
0000
0000
MMMM
0000
0001
0010
0100
1000
,
0010
MMMM
0000
MMMM
,
0000
0000
MMMM
0000
0100
1000
0100
0001
,
0000
MMMM
0000
MMMM
,
0000
0000
MMMM
0000
0001
0010
0100
1000
,
0020
0000
0000
0000
0030
0000
0100
0002
,
0000
0000
0003
0000
0000
0000
1000
0000
0001
0100
0010
1000
0001
0000
0000
0000
,
1001
0000
0100
1000
0010
0000
0100
0000
,
1001
0000
0100
0001
0010
0000
0100
0000
,
1001
0000
0010
0000
1000
1100
0000
0001
,
0101
0000
1000
1010
0000
0001
0011
0000
,
0110
MMMM
0000
MMMM
,
0000
0000
MMMM
0000
0001
1000
0010
1000
,
0001
0101
0000
1000
1010
0000
0001
0011
,
0000
0000
1000
0000
1100
0000
0000
0000
1000
0100
0010
0001
0100
0000
0000
0000
,
2002
0000
0000
0000
,
0000
0000
0000
3003
,
0202
0000
0303
0000
1000
0010
0100
0001
,
0011
MMMM
1100
MMMM
0011
MMMM
1000
0010
,
0110
MMMM
1001
MMMM
0110
MMMM
0001
1000
,
1100
MMMM
1000
0001
0100
1000
0100
0010
,
0220
0000
0330
0000
0001
1000
0100
0010
,
0110
MMMM
1001
MMMM
0110
MMMM
1000
0001
,
0101
MMMM
1010
MMMM
0101
MMMM
0001
0010
,
0110
0000
MMMM
0000
0100
0000
1000
0000
0001
0100
0001
0100
0010
1000
0010
1000
,
0001
0000
0000
1000
0100
0000
0010
0000
0100
1000
0000
1000
0010
0000
0100
0000
,
0101
MMMM
1010
MMMM
0101
MMMM
0001
1000
,
0110
MMMM
1001
MMMM
0110
MMMM
1000
0100
,
1100
0000
MMMM
0000
0001
0000
0100
0000
0010
1000
0001
1000
0100
0000
0010
0000
,
1001
0000
0000
0001
0100
0000
0010
0000
1000
0100
0000
0100
0010
0000
0001
0000
,
0101
MMMM
1100
MMMM
0101
MMMM
1000
0001
,
0100
0100
0010
0010
1000
1000
0001
0001
,
0021
1000
1000
0130
,
1001
0000
0001
0100
0010
0000
1000
0000
0100
0000
0010
0001
0010
0001
1000
0000
,
0010
0100
0001
0000
0010
0100
1000
0000
0010
0000
0000
0000
2002
0000
3003
0000
,
0110
0000
0001
0100
0010
1000
0001
0000
0001
0000
1000
0100
0010
0001
0100
0000
,
0100
0000
0010
1000
0100
0000
0010
0000
0010
0000
0000
0000
0001
0010
0100
1000
,
0010
0000
0100
0001
1000
0000
0100
0000
1001
0000
0001
0100
0010
0000
1000
0000
,
0100
0010
0001
0000
0001
0000
0001
0100
0020
0030
0000
0000
2000
3000
0000
0000
,
0002
0013
0100
0000
2000
3000
0002
0003
0200
0300
0020
0030
2000
3000
0002
0003
,
0020
0030
0200
1300
0002
0003
0200
0301
2000
0000
0000
3000
0002
0000
0000
0003
,
1001
0000
1000
0010
0100
0001
0010
0100
1000
0000
0000
0000
0010
0100
0001
0000
,
0010
0001
0100
0000
0010
1000
0001
0000
1001
0000
1000
0100
1000
0000
0010
0000
,
0100
0000
0001
0010
0100
0000
0010
0001
1000
0000
0001
0100
0000
0010
1000
0000
,
0001
0000
1000
0100
0010
0001
1000
0000
0001
0000
0100
0000
1000
0000
0100
0000
,
0010
0000
0100
0001
1000
0100
1000
0100
0010
0000
0000
0000
0001
0000
1000
0000
,
0001
0100
0010
0000
1000
0100
0010
0000
0100
1000
0010
0100
0001
0010
0001
0100
,
0020
0030
2000
3000
0002
0003
0020
0030
0200
0300
2000
3000
0002
0003
0200
0300
,
0020
0030
2000
3000
0002
0003
0020
0030
0200
0000
0000
0000
0020
0000
0000
0330
,
1001
0000
0000
0001
0000
0000
0100
0000
0010
1000
0000
0010
1000
0000
0100
0000
,
0010
0000
0000
0001
0000
0000
1000
0000
0010
0100
0000
0010
0100
0000
0001
0010
,
0100
0001
0100
1000
0001
0010
1000
0010
,
0100
0000
1000
0000
0020
0030
0001
0000
0020
0030
0000
0000
0020
1030
0001
0000
,
1001
0000
0000
1000
0000
0000
0010
0000
0100
0001
0000
0100
0001
0000
0010
0000
,
0100
0000
0000
0010
0000
0000
0001
0000
1000
0010
0000
1000
0010
0000
1000
0001
,
0010
1000
0001
0100
1000
0010
0001
0010
,
0100
0000
0000
0000
0102
0003
0000
0000
0102
0003
0000
0000
0002
0013
0100
0000
,
1001
0000
0000
1001
0000
0000
MMMM
0000
1001
0000
0000
1001
0000
0000
MMMM
0000
,
1100
0000
0000
0011
0000
0000
MMMM
0000
0101
0000
0000
1010
0000
0000
MMMM
0000
,
1100
0000
0000
1100
0000
0000
0010
0000
0101
0000
0000
0101
0000
0000
0010
0000
,
1001
0000
0000
1001
0000
0000
0110
0000
1001
0000
0000
0000
MMMM
0000
0000
0000
,
0101
0000
0000
0011
0000
0000
MMMM
0000
1100
0000
0000
1010
0000
0000
MMMM
0000
,
0101
0000
0000
1100
0000
0000
MMMM
0000
1010
0000
0000
0011
0000
0000
MMMM
0000
,
0101
0000
0001
0100
0010
0000
1000
0000
1100
0000
0100
0010
0001
0000
0100
0000
,
0010
1000
0010
1000
0001
0010
0001
0010
0100
0000
0000
0000
MMMM
0000
0000
0000
,
2002
0000
0000
0000
,
3003
0000
0000
0000
;

//--------------- dance-double - forcednature ----------------
#NOTEDATA:;
#STEPSTYPE:dance-double;
#DESCRIPTION:forcednature;
#DIFFICULTY:Easy;
#METER:8;
#RADARVALUES:0,0,0,0,0;
#CREDIT:forcednature;
#NOTES:
00000000
00000000
00000000
00000000
,
00000000
00000000
00000000
00000000
,
00000000
00000000
00000000
00000000
,
00000000
00000000
00000000
00000000
,
00000000
00000000
00000000
00000000
,
00011000
00000000
01000000
00010000
,
10010000
00000000
00010000
00100000
,
00110000
00000000
00011000
00000000
,
00001010
00000000
00011000
00000000
,
00000100
00001000
00000010
00001000
,
00010000
01000000
00010000
00100000
,
00001000
00010000
00001000
00010000
,
00100000
00010000
00001000
00000010
,
00022000
00000000
00000000
00000000
,
00000000
00000000
00000000
00000000
,
00000000
00000000
00000000
00000000
,
00033000
00000000
00001000
01000000
,
01001000
00000000
00000000
00000000
,
00000000
00000000
10000000
01000000
,
00010000
00000000
00000000
00000000
,
00000000
00000000
00001000
00000100
,
00000001
00000000
00000000
00000000
,
00000000
00000000
00000010
00000100
,
00001000
00000000
00000000
00000010
,
00000000
00000000
00000100
00001000
,
00010000
00000000
00000000
00100000
00000000
00000000
10000000
00000000
,
00000000
00000000
01000000
00010000
,
00001000
00000000
00000000
00000000
00000010
00000000
00000000
00000100
,
00000000
00000000
00000010
00000000
00000000
00000100
00000000
00000000
,
00000010
00000000
00000001
00000000
,
00000100
00000000
00001000
00010000
,
00100000
00000000
00000000
01000000
00000000
00000000
00100000
00000000
,
00000000
01000000
00000000
00000000
00100000
00000000
00000000
00000000
,
00022000
00000000
00000000
00000000
,
00000000
00000000
00000000
00033000
,
00010000
00000000
01000000
10000000
,
11000000
11000000
11000000
00000000
,
00110000
00110000
00110000
00000000
,
01010000
00001000
00010000
00000010
,
00001000
00000000
00000100
00000010
,
00000011
00000011
00000011
00000000
,
00001100
00001100
00001100
00000000
,
00001010
00010000
00001000
01000000
,
00010000
00000000
10000000
00100000
,
10100000
10100000
10100000
00000000
,
01010000
01010000
01010000
00000000
,
00011000
00000100
00001000
00000001
,
00000100
00000000
00000010
00001000
,
00001100
00001100
00001100
00000000
,
00011000
00011000
00011000
00000000
,
00110000
10000000
00010000
01000000
,
00001000
00010000
00001000
00000000
,
00000010
00000000
00000100
00001000
00000100
00000000
00000010
00000000
,
00000001
00000100
00000001
00001000
,
00000000
00000000
00000010
00000000
00000100
00000000
00001000
00010000
,
00001000
00100000
00010000
00000000
,
01000000
00010000
10000000
01000000
,
00100000
00010000
00100000
00000000
01000000
00000000
10000000
00000000
,
00000000
00010000
02000000
03002000
,
00013000
00000000
00000100
00000000
00001000
00000000
00000000
00000001
,
00000000
00000100
00000000
00000010
00001000
00000000
00000001
00000000
,
00001000
00000000
00000000
00000000
00000100
00000000
00000000
00000000
00000010
00000000
00000000
00000010
00000000
00000000
00000010
00000000
,
00000000
00000001
00000100
00001000
,
00010000
00000000
00100000
01000000
00100000
00000000
00000000
00000000
,
10000000
00010000
00100000
01000000
,
00010000
00000000
00001000
00000000
00000010
00000001
00000010
00000000
,
00000100
00001000
00000001
00000000
,
00000100
00000100
00001000
00001000
,
00010000
00010000
00100000
00100000
,
10100000
10000000
10010000
00010000
,
00110000
00100000
00101000
00000000
,
00010000
00000100
00001000
00000001
,
00000100
00000010
00001000
00000100
,
00001100
00000100
00010100
00010000
,
00011000
00001000
01001000
00000000
,
01000000
00000000
00000000
01000000
00000000
00000000
00000000
00000000
00100000
00000000
00000000
00100000
00000000
00000000
00000000
00000000
,
10000000
00000000
00000000
10000000
00000000
00000000
00000000
00000000
00010000
00000000
00000000
00010000
00000000
00000000
00000000
00000000
,
00100000
00000000
00000000
00100000
00000000
00000000
00000000
00000000
00001000
00000000
00000000
00001000
00000000
00000000
00000000
00000000
,
00010000
00000000
00000000
00010000
00000000
00000000
00010000
00000000
00010000
00000000
00000000
00000000
00000000
00000000
00000000
00000000
,
00001100
00000000
00000000
00001100
00000000
00000000
00000000
00000000
00000011
00000000
00000000
00000011
00000000
00000000
00000000
00000000
,
00000101
00000000
00000000
00000101
00000000
00000000
00000000
00000000
00001010
00000000
00000000
00001010
00000000
00000000
00000000
00000000
,
00010100
00000000
00000000
00010100
00000000
00000000
00000000
00000000
01001000
00000000
00000000
01001000
00000000
00000000
00000000
00000000
,
00011000
00000000
00000000
00011000
00000000
00000000
00000000
00000000
00010000
00000000
00000000
00000000
00001000
00000000
00000000
00000000
,
00022000
00000000
00000000
00000000
,
00033000
00000000
00000000
00000000
;

//--------------- dance-double - forcednature ----------------
#NOTEDATA:;
#STEPSTYPE:dance-double;
#DESCRIPTION:forcednature;
#DIFFICULTY:Medium;
#METER:13;
#RADARVALUES:0,0,0,0,0;
#CREDIT:forcednature;
#NOTES:
00000000
00000000
00000000
00000000
,
00000000
00000000
00000000
00000000
,
00000000
00000000
00000000
00000000
,
00000000
00000000
00000000
00000000
,
00000000
00000000
00000000
00000000
,
00011000
01000000
00010000
00100000
,
00011000
00000100
00001000
00000010
,
00011000
01000000
00011000
00000100
,
00101000
00000100
00010010
01000000
,
00012000
00003100
00021000
01030000
,
00012000
00003010
00021000
00130000
,
00010100
00101000
01001000
00010010
,
00001000
00010000
00001000
00010000
01000000
00100000
01000000
00000000
,
20020000
00000000
00000000
00000000
,
00000000
00000000
00000000
00000000
,
00000000
00000000
00000000
00000000
,
30030000
00000000
00000000
10000000
00010000
00000000
01000000
00000000
,
00011000
00000100
00000000
00001000
,
00000000
00000000
00000001
00000000
00000100
00001000
00010000
00100000
,
10000000
00010000
00000000
10000000
,
00000000
00000000
01000000
00000000
00010000
00001000
00000010
00000001
,
00000000
00001000
00000000
00000010
,
00000000
00000000
00001000
00000000
00000001
00000100
00001000
00010000
,
02000000
00000000
00100000
00000000
03000000
00000000
00100000
00010000
,
00000000
00000000
00000000
10000000
00010000
00000000
01000000
00000000
,
00011000
00000000
00000000
00000100
00000000
00000000
00001000
00000000
,
00000000
00000000
00000010
00000000
00000100
00001000
00010000
01000000
,
00100000
00000000
00000000
00000000
00001000
00010000
00000000
00100000
,
01000000
00000000
00001000
00010000
00000000
00000010
00000100
00000000
,
00011000
00000000
00000100
00001000
00000000
00000000
00000010
00000000
,
00000000
00000000
00000100
00001000
00010000
01000000
00010000
00001000
,
00000010
00000100
00000000
00010000
00001000
00000000
00100000
01000000
,
00000000
00010000
00001000
00000000
00000010
00000100
00010000
00001000
,
01000000
01000000
01000000
01000000
,
01000000
00000000
01000000
00000000
00100000
00010000
00001000
00000000
,
00000200
00000000
00000300
00000000
00000001
00000010
00000100
00001000
,
00000010
00000000
00010000
00000000
00100000
00000000
01000000
00010000
,
00100000
00000000
00001000
00000000
00000010
00000000
00000100
00001000
,
00000010
00000000
00000100
00001000
00010000
00100000
10000000
00010000
,
00200000
00000000
00300000
00000000
01000000
10000000
00010000
00100000
,
01000000
00000000
00001000
00000000
00000100
00000000
00001000
00000010
,
00000100
00000000
00010000
00000000
01000000
00000000
00010000
00100000
,
01000000
00000000
00010000
00001000
00000010
00000100
00010000
00001000
,
00000200
00000000
00000300
00000000
00000001
00000010
00000100
00001000
,
00000010
00000000
00010000
00000000
01000000
00000000
00100000
00010000
,
01000000
00000000
00001000
00000000
00000010
00000000
00000100
00001000
,
00000010
00000000
00000100
00001000
00010000
01000000
00100000
00010000
,
20000000
00000000
30000000
00000000
10000000
00100000
01000000
00010000
,
00100000
00000000
00001000
00000000
00000100
00000000
00000010
00001000
,
00000100
00000000
00010000
00000000
00100000
00000000
01000000
00010000
,
00100000
00000000
01000000
00010000
00001000
00000010
00000100
00001000
,
00000002
00000000
00000103
00001000
00010000
00000000
00100000
10000000
,
00000000
00000000
00010000
00000000
10000000
01000000
10000000
00000000
00100000
00000000
00000000
00000000
00020000
00000000
00000000
00000000
,
00031000
00000000
00000000
00000000
00000010
00000100
00000010
00000000
00000001
00000000
00000000
00000000
00001000
00000010
00001000
00000000
,
00000000
00000000
00000100
00010000
00000100
00000000
00010000
00000000
00001000
00000000
00000000
00000000
01000000
00010000
01000000
00010000
,
01000000
00000000
00100000
10000000
01000000
00000000
00100000
00010000
,
00000000
00000000
01000000
00000000
00001000
00000000
00010000
00000100
00020000
00000000
00000000
00000000
00030020
00000000
00000000
00000000
,
00001030
00000001
00001000
00000000
00000100
00000000
00000010
00000000
00000100
00000000
00010000
00000000
00001000
00000000
01000000
00000000
,
00000000
00000000
00100000
10000000
00100000
00000000
01000000
00010000
02000000
00000000
00000000
00000000
03002000
00000000
00000000
00000000
,
00013000
00000000
00000100
00000010
00000001
00000000
00000000
00000100
,
00000000
00000000
00001000
00000000
00000000
00000000
00010000
00000000
01000000
00000000
00100000
00010000
00100000
00000000
00001000
00000000
,
00010000
00000000
00000000
00000000
00100000
00000000
00000000
00000000
10000000
00000000
00000000
00010000
00000000
00000000
00100000
00000000
,
00000000
00000000
00001000
00010000
00001000
00010000
00001000
00000000
00000100
00000000
00000001
00000000
00000010
00000000
00000100
00000000
,
00001000
00000000
00000000
00000000
00000010
00010000
00000010
00010000
00000010
00000000
00000000
00000000
00000000
00000000
00000100
00000000
,
00000000
00001000
00000000
00010000
00100000
00000000
10000000
00010000
,
10000000
00000000
01000000
00000000
00010000
00000000
00001000
00000000
00000010
00000100
00000010
00000000
00000001
00000000
00001000
00000000
,
00000010
00000000
00000100
00001000
00020000
00000000
02030000
00000000
,
03100000
00000000
00000000
00010000
00000000
00000000
10000000
00000000
00100000
00000000
00000000
10000000
00000000
00000000
01000000
00000000
,
00010000
00000000
00000000
00001000
00000000
00000000
00000100
00000000
00000001
00000000
00000000
00000010
00000000
00000000
00000100
00000000
,
00001000
00000010
00001000
00000010
00010000
00001000
00010000
00001000
,
00100000
00010000
01000000
00100000
20000000
00000000
30000000
00000000
,
01000000
00000000
00000000
00010000
00000000
00000000
00001000
00000000
00000010
00000000
00000000
00000100
00000000
00000000
00001000
00000000
,
00000001
00000000
00000000
00000100
00000000
00000000
00001000
00000000
00010000
00000000
00000000
00100000
00000000
00000000
10000000
00000000
,
00010000
00100000
00010000
00100000
01000000
00010000
01000000
00010000
,
00001000
00000000
00011000
00000000
00011000
00000000
00000100
00001000
,
00000010
00000000
00000000
00000010
00000000
00000000
00000000
00000000
00001000
00000000
00000000
00001000
00000000
00000000
00000000
00000000
,
00010000
00000000
00000000
00010000
00000000
00000000
00000000
00000000
01000000
00000000
00000000
01000000
00000000
00000000
00000000
00000000
,
01001000
00000000
00000000
01001000
00000000
00000000
00000000
00000000
00010100
00000000
00000000
00010100
00000000
00000000
00000000
00000000
,
00101000
00000000
00000000
00101000
00000000
00000000
00101000
00000000
00101000
00000000
00000000
00000000
00010000
00000000
00000000
00000000
,
00001010
00000000
00000000
00001010
00000000
00000000
00000000
00000000
00001100
00000000
00000000
00001100
00000000
00000000
00000000
00000000
,
00110000
00000000
00000000
00110000
00000000
00000000
00000000
00000000
01010000
00000000
00000000
01010000
00000000
00000000
00000000
00000000
,
00010100
00000000
00000000
00010100
00000000
00000000
00000000
00000000
01001000
00000000
00000000
01001000
00000000
00000000
00000000
00000000
,
10000000
01000000
00010000
00001000
00000100
00000001
00000010
00000000
,
00022000
00000000
00000000
00000000
,
00033000
00000000
00000000
00000000
;

//--------------- dance-double - forcednature ----------------
#NOTEDATA:;
#STEPSTYPE:dance-double;
#DESCRIPTION:forcednature;
#DIFFICULTY:Hard;
#METER:17;
#RADARVALUES:0,0,0,0,0;
#CREDIT:forcednature;
#NOTES:
00000000
00000000
00000000
00000000
,
00000000
00000000
00000000
00000000
,
00000000
00000000
00000000
00000000
,
00000000
00000000
00000000
00000000
,
00000000
00000000
00000000
00000000
,
00001000
00010000
01000000
10000000
00100000
10000000
00010000
00100000
,
01000000
00010000
00001000
00000010
00000100
00001000
00000001
00000100
,
00001000
00010000
00001000
00000000
01000000
00000000
00010000
00000000
10000000
01000000
10000000
00000000
00010000
00000000
01000000
00000000
,
00001000
00010000
00001000
00010000
00000100
00001000
00000100
00001000
00000001
00000100
00000001
00000100
00000010
00001000
00000010
00001000
,
00000100
00000000
00010000
00000000
00001000
01000000
00001000
01000000
00010000
00000000
10000000
00000000
01000000
00100000
01000000
00100000
,
00010000
00000000
01000000
00000000
00001000
00010000
00001000
00010000
00000100
00000000
00001000
00000000
00000001
00000100
00000001
00000100
,
00000010
00000000
00001000
00000100
00000010
00000000
00000100
00010000
00001000
00000000
01000000
00001000
00010000
00000000
00100000
10000000
,
00010000
01000000
00010000
01000000
00001000
00010000
00001000
00010000
00000100
00001000
00000100
00001000
00000010
00000000
00000000
00000000
,
00020000
00000000
00000000
00000000
,
00000000
00002000
00000000
00030000
,
00000000
00000000
00000000
00000000
,
00003000
00000000
00000000
00010000
01000000
00000000
10000000
00000000
,
01010000
01000000
00000000
00001000
,
00000000
00000000
00010000
00000000
00000100
00001000
00100000
01000000
,
00001000
00010000
00000000
00000100
,
00000000
00000000
00000010
00000000
00000001
00000100
00010000
00001000
,
00000000
00000010
00000000
00010000
,
00000000
00000000
00001000
00000000
00100000
01000000
00001000
00000100
,
00020000
00000000
00100000
00000000
00030000
00000000
00001000
00000020
,
00000000
00000000
00000000
00000000
00000031
00000000
00001000
00000000
00000010
00010000
00001000
01000000
00001000
00010000
00000100
00000000
,
00011000
00000000
00000100
00001000
00000001
00000000
00000200
00000000
,
00010000
00000000
00001000
00000000
00000310
00000100
00001000
00010000
,
01000000
00000000
00100000
00000000
00001000
00101000
00000000
00010000
,
00010010
00000000
00001000
01001000
01000000
00100000
00010000
00001000
,
00000010
00000000
00000100
00001000
00000001
00000000
00000110
00000000
,
00000000
00000000
00000001
00000000
00000010
00001000
00010000
01000000
,
00010000
00011000
00000000
00000010
00010010
00000000
00100000
00101000
,
00000000
00000000
00010000
00000000
10010000
00000000
00000000
00000000
01000000
00010000
01000000
00001000
00010000
00000100
00001000
00000000
,
00000010
00000010
00000010
00000010
,
00000010
00000000
00000000
00000000
00000010
00000000
00000000
00000000
00000100
00000010
00000100
00000000
00001000
00000000
00010000
00000000
,
00100000
00000000
10010000
00000000
00010000
01000000
00001000
00010000
,
00010100
00000000
00101000
00000000
00010100
00000000
00000100
00010000
,
00010010
00000000
01001000
00000000
00010010
00000000
01000000
00001000
,
00011000
00000000
01000000
00001000
00010000
00100000
00001000
00000010
,
00000110
00000000
00000001
00000000
00000010
00001000
00100000
00010000
,
01010000
00000000
00001010
00000000
01010000
00000000
00001000
00100000
,
00110000
00000000
00001100
00000000
00110000
00000000
00001000
00010000
,
00011000
00000000
00000000
00000000
00000100
00000000
00001000
00000000
00000001
00000100
00000010
00001000
00000010
00010000
00001000
01000000
,
00010000
00000000
00000000
00100000
01000000
00000000
10000000
00000000
00010000
01000000
00001000
00010000
00001000
00000000
00000010
00000000
,
00000100
00000000
00000000
00001000
00000001
00000000
00000100
00000000
00000010
00010000
00001000
00100000
00010000
00000000
10000000
00000000
,
01000000
00000000
00000000
00010000
00001000
00000000
00000010
00000000
00000100
00001000
00000001
00001000
00000010
00000000
00000100
00000000
,
00001000
00000000
00000000
00010000
00100000
00000000
10000000
00000000
00010000
00100000
01000000
10000000
00100000
00000000
01000000
00000000
,
00001000
00000000
00000000
00010000
00000100
00000000
00000010
00000000
00000001
00001000
00000010
00000100
00001000
00000000
00010000
00000000
,
00100000
00000000
00000000
10000000
00010000
00000000
10000000
00000000
01000000
00100000
00010000
10000000
01000000
00000000
00010000
00000000
,
00001000
00000000
00000010
00000000
00001000
00000000
00010000
00000000
00000100
00010000
00000100
00010000
00001000
01000000
00001000
01000000
,
00100000
00000000
00000000
00000000
10000000
00000000
01000000
00000000
00010000
00000000
00001000
00000000
00000100
00000001
00000100
00000001
,
00000010
00000000
00000100
00010000
00001000
00000000
01000000
00010000
,
00000000
00000000
00100000
00000000
01000000
10000000
00100000
00000000
00010000
00000000
00000000
00000000
00002000
00000000
00000000
00000000
,
00003010
00000000
00000000
00000000
00000100
00001000
00000001
00000000
00000100
00000000
00000000
00000000
00001000
00010000
00100000
00000000
,
00000000
00000000
00010000
00001000
00000010
00000000
00000100
00000000
00010000
00000000
00000000
00000000
00001000
01000000
00010000
10000000
,
00100000
00000000
10000000
01000000
00010000
00000000
00001000
00000100
,
00000000
00000000
00000001
00000000
00001000
00000000
00000010
00010000
00002000
00000000
00000000
00000000
00203000
00000000
00000000
00000000
,
01300000
10000000
00010000
00000000
01000000
00000000
00001000
00000000
00000100
00000000
00001000
00000000
00010000
00000000
00000100
00000000
,
00000000
00000000
00000010
00000001
00000100
00000000
00000010
00010000
00001000
00100000
00010000
00000000
01000000
00001000
00010000
00000000
,
01000000
00000000
10000000
00010000
00001000
00000000
00000100
00010000
,
00000000
00000000
00100000
00000000
00000000
00000000
00001000
00000000
00000010
00000000
00000100
00000001
00000010
00000000
00000100
00000000
,
00010000
00000000
00000000
00000000
00100000
00000000
00000000
00000000
10000000
00000000
00000000
00010000
00000000
00000000
00100000
00000000
,
00000000
00000000
01000000
00010000
01000000
00100000
00010000
00000000
00001000
00000000
00000010
00000000
00000100
00000000
00001000
00000000
,
00010000
00000000
00000000
00000000
00001000
00010000
00000100
00001000
00000010
00000000
00000000
00000000
00000100
00000000
00001000
00000000
,
00000000
00000000
01000000
00000000
00000000
00000000
00010000
00000000
00100000
00000000
01000000
10000000
01000000
10000000
01000000
10000000
,
00010000
00000000
00100000
00000000
00001000
00000000
00000010
00000000
00000001
00001000
00000001
00000000
00000100
00000000
00001000
00000000
,
00010000
00000000
00000000
01000000
10000000
00000000
00100000
00000000
00020000
00000000
00000100
00000000
00030010
00000000
00000000
00000000
,
00011000
00000000
00000000
01000000
00000000
00000000
00010000
00000000
10000000
01000000
00000000
00100000
00001000
00000000
00010000
00000000
,
00000100
00000000
00000000
00000010
00000000
00000000
00000001
00000000
00001000
00000010
00000000
00010000
00001000
00000000
01000000
00010000
,
00100000
00000000
01000000
00000000
10000000
00000000
00010000
00000000
01000000
00001000
01000000
00001000
01000000
00000000
00100000
00000000
,
00010000
00000000
00001000
00000000
00000010
00000000
00000100
00000000
00001000
00000001
00000000
00000001
00000100
00000000
00001000
00010000
,
00100000
00000000
00000000
00010000
00000000
00000000
00001000
00000000
00000010
00000001
00000000
00000001
00000100
00000000
00000010
00000000
,
00001000
00000000
00000000
00010000
00000000
00000000
00100000
00000000
01000000
10000000
00000000
10000000
00010000
00000000
00100000
00001000
,
00010000
00000000
00100000
00000000
00010000
00000000
00000010
00000000
00001000
00000100
00001000
00000100
00001000
00000000
00000010
00000000
,
00001010
00000000
00000000
00000000
01010000
00000000
00000000
00000000
00101000
00000000
00000000
00000000
00001000
00010000
00001000
00010000
,
00001000
00000000
00000000
00101000
00000000
00000000
00000000
00000000
01010000
00000000
00000000
01010000
00000000
00000000
00000000
00000000
,
00001100
00000000
00000000
00001100
00000000
00000000
00000000
00000000
00000011
00000000
00000000
00000011
00000000
00000000
00000000
00000000
,
00000101
00000000
00000000
00000101
00000000
00000000
00000000
00000000
00011000
00000000
00000000
00011000
00000000
00000000
00000000
00000000
,
11000000
00000000
00000000
11000000
00000000
00000000
00100000
00000000
00010000
01000000
00000000
00001000
00010000
00000000
00100000
00000000
,
10100000
00000000
00000000
10100000
00000000
00000000
00000000
00000000
00011000
00000000
00000000
00011000
00000000
00000000
00000000
00000000
,
00000011
00000000
00000000
00000011
00000000
00000000
00000000
00000000
00011000
00000000
00000000
00011000
00000000
00000000
00000000
00000000
,
01000000
00001000
00000010
00001000
00010000
00100000
00010000
00000100
,
00001000
00000010
00001000
00000010
00010000
00001000
00010000
00001000
01000000
00010000
01000000
00010000
10000000
01000000
00100000
00010000
,
02000000
00000000
00000000
00000000
,
03000000
00000000
00000000
00000000
;

//--------------- dance-double - forcednature ----------------
#NOTEDATA:;
#STEPSTYPE:dance-double;
#DESCRIPTION:forcednature;
#DIFFICULTY:Challenge;
#METER:17;
#RADARVALUES:0,0,0,0,0;
#CREDIT:forcednature;
#NOTES:
00000000
00000000
00000000
00000000
,
00000000
00000000
00000000
00000000
,
00000000
00000000
00000000
00000000
,
00000000
00000000
00000000
00000000
,
00000000
00000000
00000000
00000000
,
00011000
00000000
00010000
01000000
10000000
00100000
00010000
00000000
,
00011000
00000000
00001000
00000100
00000001
00000010
00001000
00000000
,
00010000
00000100
00010000
00001000
01000000
00010000
01000000
00001000
,
00010000
00000100
00010000
00000000
00001000
01000000
00001000
00000000
00010000
00000010
00010000
00000000
00001000
00100000
00001000
00000000
,
00010000
00010000
00010100
00000000
00001000
00001000
01001000
00000000
,
00010000
00010000
00010010
00000000
00001000
00001000
00101000
00000000
,
00001000
00000000
00010000
00000100
00010000
00000000
00001000
01000000
00001000
00000000
00010000
00000010
00010000
00000000
00001000
00100000
,
00002000
00010000
00000100
01003000
,
00022000
00000000
00000000
00000000
,
00033000
00000202
00000000
00000000
,
00000000
00000000
00000000
00000000
,
00000303
00000000
00000000
00000001
00001000
00000000
00010000
00000000
,
01100000
MMMMMMMM
00000000
MMMMMMMM
,
00000000
00000000
MMMMMMMM
00000000
10000000
01000000
00100000
00010000
,
01000000
MMMMMMMM
00000000
MMMMMMMM
,
00000000
00000000
MMMMMMMM
00000000
00000001
00000100
00000010
00001000
,
00000000
MMMMMMMM
00000000
MMMMMMMM
,
00000000
00000000
MMMMMMMM
00000000
00010000
00001000
00100000
00010000
,
02000000
00000000
00000000
00000000
03000000
00000000
00100000
20000000
,
00000000
00000000
30000000
00000000
00000000
00000000
01000000
00000000
00100000
00010000
00100000
00001000
00010000
00000100
00001000
00000000
,
00001001
00000000
00000001
00000100
00001000
00000000
00010000
00000000
,
10010000
00000000
10000000
01000000
00010000
00000000
00001000
00000000
,
00001001
00000000
00000001
00000100
00001000
01000000
00000000
00001000
,
00000010
00000000
00010000
00100000
00000000
00001000
00000100
00000000
,
00000110
MMMMMMMM
00000000
MMMMMMMM
,
00000000
00000000
MMMMMMMM
00000000
00010000
00001000
00100000
00010000
,
01000000
00001000
00000000
00000100
00001000
00000000
00100000
00010000
,
00000000
00000000
00000010
00000000
00010000
00000000
00000000
00000000
01000000
00010000
01000000
00001000
00010000
00000010
00001000
00000000
,
00000200
00000000
00000000
00000000
,
00000000
00000000
00000000
00000300
,
00002002
00000000
00003003
00000000
00000001
00000100
00001000
00000100
,
00000110
MMMMMMMM
00011000
MMMMMMMM
01100000
MMMMMMMM
10000000
00010000
,
01100000
MMMMMMMM
00011000
MMMMMMMM
00000110
MMMMMMMM
00000001
00001000
,
00000110
MMMMMMMM
00001000
00000001
00000100
00001000
00010000
01000000
,
02200000
00000000
03300000
00000000
10000000
00100000
00010000
00100000
,
01100000
MMMMMMMM
00011000
MMMMMMMM
00000110
MMMMMMMM
00000001
00001000
,
00000110
MMMMMMMM
00011000
MMMMMMMM
01100000
MMMMMMMM
10000000
00010000
,
01100000
00000000
MMMMMMMM
00000000
10000000
00000000
00010000
00000000
01000000
00001000
01000000
00001000
00010000
00000100
00010000
00000100
,
00001000
00000000
00000000
00001000
00000001
00000000
00000100
00000000
00001000
00010000
00000000
00010000
00100000
00000000
10000000
00000000
,
11000000
MMMMMMMM
00110000
MMMMMMMM
00001100
MMMMMMMM
00000001
00000010
,
00000101
MMMMMMMM
00001010
MMMMMMMM
01010000
MMMMMMMM
10000000
00100000
,
11000000
00000000
MMMMMMMM
00000000
00010000
00000000
01000000
00000000
00001000
00010000
00000100
00001000
00000100
00000000
00000010
00000000
,
00001001
00000000
00000000
00001000
00000100
00000000
00010000
00000000
00001000
01000000
00000000
01000000
00010000
00000000
10000000
00000000
,
10100000
MMMMMMMM
01010000
MMMMMMMM
00001010
MMMMMMMM
00000001
00000100
,
00001000
00001000
00010000
00010000
00100000
00100000
10000000
10000000
,
20010000
00000000
00000000
00000000
01000000
00000000
00000000
00000000
01000000
00000000
00000000
00000000
30100000
10000000
00100000
10000000
,
01000000
00000000
00000000
01000000
00010000
00000000
00001000
00000000
00000010
00000000
00000100
00001000
00000100
00001000
00000001
00000000
,
00000100
00001000
00010000
00000000
00001000
00010000
00100000
00000000
01000000
00000000
00000000
00000000
20020000
00000000
30030000
00000000
,
11000000
00000000
10000000
01000000
00100000
00010000
00100000
00000000
00001000
00000000
00010000
00000010
00001000
00000010
00000100
00000000
,
00000100
00000000
00000001
00001000
00000100
00000000
00000010
00000000
00000100
00000000
00000000
00000000
00001000
00000001
00000100
00000010
,
00001000
00000000
00000000
00001000
00000100
00000000
00010000
00000000
00011000
00000000
00001000
01000000
00010000
00000000
10000000
00000000
,
01000000
00100000
00010000
00000000
01000000
00000000
00010000
00100000
00002000
00003000
00000000
00000000
00020000
00030000
00000000
00000000
,
00000020
00001030
00000001
00000000
00000020
00000030
00000200
00000300
00002000
00003000
00000002
00000003
00000200
00000300
00002000
00003000
,
00020000
00030000
00200000
10300000
00020000
00030000
20000000
31000000
00200000
00000000
00000000
00300000
00020000
00000000
00000000
00030000
,
10010000
00000000
10000000
00010000
01000000
00001000
00010000
00000100
00001000
00000000
00000000
00000000
00000010
00001000
00000100
00000000
,
00000010
00000001
00000100
00000000
00001000
00010000
00001000
00000000
00011000
00000000
00010000
00001000
00010000
00000000
00100000
00000000
,
01000000
00000000
00010000
10000000
01000000
00000000
10000000
00010000
01000000
00000000
00100000
10000000
00000000
10000000
01000000
00000000
,
00010000
00000000
00001000
00010000
00000100
00001000
00000100
00000000
00000010
00000000
00000001
00000000
00000100
00000000
00000001
00000000
,
00001000
00000000
00000010
00010000
00001000
01000000
00001000
01000000
00010000
00000000
00000000
00000000
10000000
00000000
01000000
00000000
,
00100000
00010000
01000000
00000000
00010000
01000000
00001000
00000000
00010000
00000100
00001000
00000100
00000010
00000001
00001000
00000001
,
00000200
00000300
00002000
00003000
00020000
00030000
00200000
00300000
20000000
30000000
02000000
03000000
00020000
00030000
00002000
00003000
,
00000020
00000030
00000002
00000003
00002000
00003000
00000002
00000003
00000200
00000000
00000000
00000000
00000020
00000000
00000000
00000330
,
00001001
00000000
00000000
00000001
00000000
00000000
00000100
00000000
00001000
00010000
00000000
00001000
00010000
00000000
00100000
00000000
,
10000000
00000000
00000000
10000000
00000000
00000000
01000000
00000000
00010000
00001000
00000000
00010000
00001000
00000000
00000010
00000100
,
00001000
00001000
00000001
00000001
00000100
00000100
00001000
00001000
,
00010000
00000000
00100000
00000000
20000000
30000000
01000000
00000000
20000000
30000000
00100000
00000000
20000000
31000000
00100000
00000000
,
10010000
00000000
00000000
10000000
00000000
00000000
01000000
00000000
00010000
00001000
00000000
00010000
00001000
00000000
00000010
00000000
,
00000001
00000000
00000000
00000001
00000000
00000000
00000100
00000000
00001000
00010000
00000000
00001000
00010000
00000000
00100000
10000000
,
00010000
10000000
01000000
00010000
00001000
00000100
00000001
00001000
,
00000100
00000000
00000000
00000000
00021000
00030000
00000000
00000000
00021000
00030000
00000000
00000000
00020000
00031000
01000000
00000000
,
0101MMMM
00000000
00000000
0101MMMM
00000000
00000000
00000000
00000000
MMMM1100
00000000
00000000
MMMM1100
00000000
00000000
00000000
00000000
,
0011MMMM
00000000
00000000
0011MMMM
00000000
00000000
00000000
00000000
MMMM1010
00000000
00000000
MMMM1010
00000000
00000000
00000000
00000000
,
00011000
00000000
00000000
00010100
00000000
00000000
00000010
00000000
00011000
00000000
00000000
01001000
00000000
00000000
00100000
00000000
,
00011000
00000000
00000000
00011000
00000000
00000000
00011000
00000000
00011000
00000000
00000000
00000000
MMMMMMMM
00000000
00000000
00000000
,
0101MMMM
00000000
00000000
0011MMMM
00000000
00000000
00000000
00000000
MMMM1100
00000000
00000000
MMMM1010
00000000
00000000
00000000
00000000
,
1100MMMM
00000000
00000000
0011MMMM
00000000
00000000
00000000
00000000
MMMM0101
00000000
00000000
MMMM1010
00000000
00000000
00000000
00000000
,
10010000
10000000
01000000
00010000
00011000
00001000
00000100
00000001
,
00000010
00000100
00000010
00000100
00001000
00000001
00000100
00000010
00001000
00000000
00000000
00000000
MMMMMMMM
00000000
00000000
00000000
,
20020000
00000000
00000000
00000000
,
30030000
00000000
00000000
00000000
;
