#VERSION:0.83;
#TITLE:錬成人間トリコロイダー;
#SUBTITLE:;
#ARTIST:DJ SHARPNEL feat. ¥Cuスタ平;
#TITLETRANSLIT:Rensei ningen tricoroider;
#SUBTITLETRANSLIT:;
#ARTISTTRANSLIT:DJ SHARPNEL feat. Endo Sutahei;
#GENRE:特撮ハードコア;
#CREDIT:;
#MUSIC:Rensei ningen tricoroider.ogg;
#BANNER:Rensei ningen tricoroider.png;
#BACKGROUND:Rensei ningen tricoroider-bg.png;
#CDTITLE:./CDTitles/bm IIDX 27 HEROIC VERSE.png;
#SAMPLESTART:51.826;
#SAMPLELENGTH:15.000;
#SELECTABLE:YES;
#OFFSET:0.266;
#BPMS:0.000=190.000;
#STOPS:;
#TIMESIGNATURES:0.000=4=4;
#BGCHANGES:0.000=../BGAs/27hv.mp4=1.000=0=0=0=StretchNoLoop====,
99999.000=-nosongbg-=1.000=0=0=0=StretchNoLoop====
;
#FGCHANGES:;

//--------------- dance-single - forcednature ----------------
#NOTEDATA:;
#STEPSTYPE:dance-single;
#DESCRIPTION:forcednature;
#DIFFICULTY:Beginner;
#METER:4;
#RADARVALUES:0,0,0,0,0;
#CREDIT:forcednature;
#NOTES:
0000
0000
0000
0000
,
0000
0000
0000
0000
,
0000
0000
0000
0000
,
0000
0000
0000
0000
,
0000
0000
0000
0000
,
0000
0000
0000
0000
,
0001
0000
1000
0000
,
0100
0000
0000
0000
,
1001
0000
0000
0000
,
0010
0010
0010
0000
,
0100
0000
0100
0000
,
0001
0000
0001
0000
,
1000
0000
0010
0000
,
0100
0000
0000
0000
,
1001
0000
0001
0000
,
0010
0000
0100
0000
,
1000
0000
0100
0000
,
0010
0000
0000
0000
,
0110
0000
1000
0000
,
0001
0000
0000
0000
,
0100
0000
0010
0000
,
1000
0000
0000
0000
,
1001
0000
1000
0000
,
0010
0000
0100
0000
,
0001
0000
0100
0000
,
0010
0000
0000
0000
,
1001
0000
0000
0000
,
0010
0000
0000
0000
,
0100
0000
0000
0000
,
0010
0000
0000
0000
,
0110
0000
0000
0000
,
1000
0000
0000
0000
,
0100
0000
0100
0000
,
0001
0000
0000
0000
,
0110
0000
1000
0000
,
0001
0000
0000
0000
,
0100
0000
0010
0000
,
1000
0000
0000
0000
,
1001
0000
0001
0000
,
0010
0000
0000
0000
,
0100
0100
0100
0000
,
0020
0000
0030
0000
,
1001
0000
0000
0000
,
1000
0000
0001
0000
1000
0000
0000
1000
,
0000
0001
1000
0000
,
0001
0000
0100
0000
,
0010
0000
1000
0000
,
0100
0100
0100
0000
,
0010
0010
0010
0000
,
0001
0000
1000
0000
,
0001
0000
1000
0000
,
0010
0000
0100
0000
0010
0000
0000
0010
,
0000
0100
0010
0000
,
1000
0000
0001
0000
,
0010
0010
0010
0000
,
0100
0000
1000
0000
,
0001
0000
0100
0000
,
0000
0000
0010
0000
0010
0000
0000
2002
,
0000
0000
0000
3003
,
0110
0000
0000
0000
,
1000
0000
1000
0000
,
1000
0000
0000
0000
,
0001
0000
0001
0000
,
0001
0000
0000
0000
,
0100
0000
0000
0000
,
0200
0000
0000
0000
,
0000
0000
0300
0000
,
1001
0000
0000
0000
,
0001
0000
0010
0000
,
0100
0000
0000
0000
,
1000
0000
0001
0000
,
0100
0000
0000
0000
,
0010
0000
0000
0000
,
1001
0000
0000
0000
,
0100
0000
0010
0000
,
0000
0000
0000
0000
,
1000
0000
0001
0000
1000
0000
0000
1000
,
0000
0001
1000
0000
,
0001
0000
0100
0000
,
0010
0000
0000
0000
,
1000
0000
0100
0000
,
0010
0000
0001
0000
,
0100
0100
0100
0000
,
0010
0010
0010
0000
,
1000
0000
0001
0000
1000
0000
0000
1000
,
0000
0001
1000
0000
,
0100
0000
0010
0000
,
0001
0001
0001
0000
,
0100
0000
0010
0000
,
1000
0000
0001
0000
,
0000
0000
0010
0000
0010
0000
0000
2002
,
0000
0000
0000
0000
,
3003
0000
0000
0000
;

//--------------- dance-single - forcednature ----------------
#NOTEDATA:;
#STEPSTYPE:dance-single;
#DESCRIPTION:forcednature;
#DIFFICULTY:Easy;
#METER:8;
#RADARVALUES:0,0,0,0,0;
#CREDIT:forcednature;
#NOTES:
0000
0000
0000
0000
,
0000
0000
0000
0000
,
0000
0000
0000
0000
,
0000
0000
0000
0000
,
0000
0000
0000
0000
,
0000
0000
0000
0000
,
0001
0001
1000
1000
,
0010
0100
0010
0100
,
1001
0000
0100
0100
,
1000
0001
0010
0100
,
0110
0010
0001
0000
,
0100
0010
1000
0000
,
0001
0010
0100
1000
,
0100
0010
0001
0000
,
1001
1000
0010
0100
,
0010
1000
0001
0000
,
0010
0100
1000
0100
,
0010
0100
1000
0000
,
0110
0001
1000
0000
,
0010
0100
0001
0000
,
0010
0001
0100
0010
,
1000
0100
0010
0000
,
0110
0100
1000
0001
,
0100
0010
1000
0001
,
0010
0000
0010
0000
0100
1000
0100
0000
,
0010
0000
0010
0000
0001
0100
0001
0000
,
1001
0000
1000
0000
,
0010
0010
0100
0000
,
0001
0000
0010
0000
,
0100
0100
1000
0000
,
0110
0000
0001
0000
,
1000
1000
0010
0000
,
0100
0001
0100
0001
,
0010
0100
1000
0000
,
0110
0001
1000
0010
,
0100
0001
0010
0001
,
0100
0010
1000
0100
,
1000
0010
0100
0000
,
1001
0000
1000
0100
,
0010
0001
0100
0000
,
0010
0010
0100
0100
,
0001
1000
0200
0000
,
0320
0000
0030
0000
,
1001
0000
1001
0000
1001
0000
0000
1001
,
0000
1001
1001
0000
,
0001
0100
0010
0000
,
1000
0100
0010
0000
,
0100
1000
0010
0100
,
0001
0010
0001
0100
,
0010
1000
0100
0010
,
0001
1000
0010
0000
,
0110
0000
0110
0000
0110
0000
0000
0110
,
0000
0110
0110
0000
,
0001
1000
0010
0000
,
1000
0001
0010
0000
,
0100
1000
0100
0001
,
0200
0000
0020
0330
,
0000
1000
0000
0000
0001
0000
0000
2002
,
0000
0000
0000
3003
,
0110
0001
0000
0001
,
0000
0001
0000
0001
,
0010
1000
0000
1000
,
0000
1000
0000
1000
,
0100
0001
0000
0001
,
0010
1000
0000
1000
,
0000
0100
0000
0100
,
0000
0010
0010
0000
,
1001
0000
1000
0000
,
0010
0100
0001
0010
,
0100
0000
0010
0000
,
0001
0100
0010
1000
,
0100
0100
0100
0100
,
0010
0010
0010
0010
,
0110
0000
0000
0000
,
1000
0001
0100
0010
,
0000
0000
1000
0001
,
0110
0000
0110
0000
0110
0000
0000
0110
,
0000
0110
0110
0000
,
0001
0100
0010
1000
,
0010
0100
0001
0000
,
1000
0100
0010
0100
,
1000
0100
0010
0000
,
0001
1000
0010
1000
,
0001
0010
0100
0000
,
0110
0000
0110
0000
0110
0000
0000
0110
,
0000
0110
0110
0000
,
0100
1000
0001
1000
,
0010
0100
0001
0000
,
1000
1000
0001
0001
,
2002
3003
0220
0330
,
0000
0100
0000
0100
0000
0200
0000
0020
,
0000
0000
0000
0330
,
1001
0000
0000
0000
;

//--------------- dance-single - forcednature ----------------
#NOTEDATA:;
#STEPSTYPE:dance-single;
#DESCRIPTION:forcednature;
#DIFFICULTY:Medium;
#METER:11;
#RADARVALUES:0,0,0,0,0;
#CREDIT:forcednature;
#NOTES:
0000
0000
0000
0000
,
0000
0000
0000
0000
,
0000
0000
0000
0000
,
0000
0000
0000
0000
,
0000
0000
0000
0000
,
0000
0000
0000
0000
,
0101
0101
1000
0001
,
0010
0100
0010
0000
0100
0010
0100
0000
,
1001
0000
0000
0000
,
1000
0010
1000
0010
0100
0001
0100
0000
,
0001
0011
1000
0100
,
1000
1010
0001
0100
,
0001
0010
0001
0000
1000
0000
0010
0000
,
0100
0001
0010
0000
,
0110
0100
1000
0001
,
1000
0010
1000
0000
0001
0000
0100
0000
,
0001
0010
0001
0000
0100
0000
0010
0000
,
1000
0001
1000
0001
0010
0100
0010
0000
,
1001
0001
0100
0010
,
1000
0100
1000
0000
0010
0000
0100
0000
,
0001
0010
1000
0010
,
0100
1000
0100
0000
0010
0001
0010
0000
,
1001
0000
0001
0000
0100
0000
0010
1000
,
0010
0100
0001
1000
,
0100
0010
0100
1000
,
0010
0100
0010
0000
1000
0001
1000
0000
,
0110
0001
0011
0000
,
1000
0000
0100
0000
0010
0010
0001
0000
,
0100
0000
0001
0000
1000
0000
0010
0100
,
0010
1000
0001
0000
,
0110
1000
0001
0010
,
0100
0000
0010
0000
0001
0001
1000
0000
,
0010
0101
0010
0101
,
1001
0000
1001
0000
0100
0010
0100
0000
,
1001
0000
1000
0000
0010
0000
0100
0001
,
0100
0000
0010
0000
1000
0000
0100
0010
,
0001
0000
0100
0000
0010
1000
0001
0000
,
1000
0100
0010
0001
0100
0010
1000
0000
,
1001
0000
1000
0000
0001
0100
0010
0000
,
1000
0000
0100
0000
0010
0100
1000
0000
,
0001
0100
0010
0000
1000
0100
0010
0000
,
0100
0100
1000
0000
0001
0100
0010
1000
,
0002
0000
0013
0100
,
1100
0000
1100
0000
0011
0000
0000
1100
,
0000
1100
0011
0000
,
0001
0100
0001
0000
1000
0010
1000
0000
,
0001
0010
0100
1000
0100
0010
0001
0000
,
0100
0100
0010
0010
,
1000
0100
0010
0000
0100
1000
0010
0000
,
0100
0000
0001
0000
0010
0100
1000
0000
,
0001
0000
0100
0000
0010
1000
0001
0000
,
0101
0000
0101
0000
1010
0000
0000
0101
,
0000
0101
1010
0000
,
1000
0001
1000
0000
0010
0000
0100
0000
,
0001
0010
0100
0000
1000
0100
0010
0000
,
0101
0101
1100
1100
,
0220
0330
2002
3003
,
0000
0001
1000
0001
1000
0010
0000
0220
,
0000
0000
0000
0330
,
1001
1000
0000
1000
,
0000
0000
1000
0000
0000
1000
0100
0000
,
1000
0001
0000
0001
,
0000
0000
0001
0000
0000
0001
0100
0000
,
0001
1000
0000
1000
,
0000
0000
1000
0000
0000
1000
0010
0000
,
0000
0100
0000
0001
,
0000
0000
0010
0000
0100
1000
0100
0000
,
0110
0000
0010
0000
0001
1000
0001
0000
,
0100
0000
0010
1000
0000
1000
0100
0000
,
0010
0000
0001
0000
1000
0010
1000
0000
,
0001
0000
0010
0100
0000
0100
1000
0000
,
0110
0000
0001
0000
1000
0000
0001
0100
,
0010
0000
1000
0000
0001
0010
0100
0000
,
1000
0001
1000
0001
1000
0001
0000
0100
,
0001
0100
0001
0000
1000
0100
1000
0000
,
0000
0001
0010
0100
1000
0000
0010
0000
,
1010
0000
0101
0000
1001
0000
0000
1010
,
0000
0101
1001
0000
,
1000
0100
1000
0000
0010
0000
0100
0000
,
0001
1000
0001
0000
0010
0100
1000
0000
,
0001
0101
1000
1100
,
0001
0010
0100
1000
0100
0010
0001
0000
,
0100
0000
0010
0000
1000
0001
0100
0000
,
0010
1000
0100
0000
0010
0001
1000
0000
,
0011
0000
1100
0000
1001
0000
0000
0011
,
0000
1100
1001
0000
,
0001
0100
0010
0000
1000
0000
0100
0000
,
0010
0100
1000
0000
0001
0100
0010
0000
,
1100
1100
0101
0101
,
0220
0330
2002
3003
,
0000
1000
0001
1000
0001
0100
0000
0220
,
0000
0000
0000
0330
,
1001
0000
0000
0000
;

//--------------- dance-single - forcednature ----------------
#NOTEDATA:;
#STEPSTYPE:dance-single;
#DESCRIPTION:forcednature;
#DIFFICULTY:Hard;
#METER:15;
#RADARVALUES:0,0,0,0,0;
#CREDIT:forcednature;
#NOTES:
0000
0000
0000
0000
,
0000
0000
0000
0000
,
0000
0000
0000
0000
,
0000
0000
0000
0000
,
0000
0000
0000
0000
,
0000
0000
0000
0000
,
0101
0000
1100
0000
0001
0010
1000
0010
,
0100
0000
1000
0000
0001
0000
1000
0000
0001
0100
0001
0000
1000
0010
1000
0000
,
0001
0010
0010
0010
0100
1000
0000
0010
,
0100
0000
0100
0000
0001
0000
0001
0000
1000
0100
1000
0000
0001
0010
0001
0000
,
0101
0000
1000
0010
0001
0000
0110
0000
,
0001
0010
1000
0010
0100
0000
1001
0000
,
1000
0100
0001
0100
1000
0010
1000
0100
,
0001
0100
1000
0010
0100
0001
1000
0000
,
0110
0000
0001
0100
1000
0100
0001
0000
,
0010
0100
1000
0100
0010
0001
0010
0000
,
0110
0000
1001
0000
1000
0010
0001
0010
,
0100
0000
0100
0000
0001
0000
0001
0000
1000
0000
0001
0010
0100
1000
0001
0000
,
1000
0000
0001
0010
1000
0000
0110
0000
,
0001
0000
1000
0010
0001
0000
0110
0000
,
0001
0100
1000
0100
0001
0010
0001
0100
,
0010
0000
1000
0000
0001
0000
0010
0000
0100
0000
1000
0001
0100
0010
1000
0000
,
1001
0101
0110
1010
,
0001
0000
0010
0000
1000
0000
0000
0000
0010
0000
0100
1000
0100
0010
0001
0000
,
0100
0010
1000
0000
0001
0010
0100
1000
,
0010
0000
0010
0000
0100
0000
0100
0000
0001
0000
1000
0010
0100
0001
0100
0001
,
1000
0000
0001
0000
0110
0000
0001
0100
,
1000
0000
0100
0000
0010
0010
0100
0000
,
0101
0000
1000
0000
0010
1000
0100
0010
,
0001
0000
0100
0000
0010
1000
0001
0010
,
0110
0001
1100
0001
,
0110
0000
1000
0000
0001
0001
0010
0000
,
0100
1000
0100
0010
0100
1000
0010
0100
,
0010
0000
1000
0000
0001
0000
0010
0000
0001
0000
1000
0010
0100
0001
1000
0000
,
1001
0000
0011
0000
1100
0000
0001
0100
,
1000
0000
0101
0000
1000
0010
0100
0000
,
0110
0000
1001
0000
0001
0100
0010
1000
,
0100
0000
0010
0000
0001
0000
0010
0000
0100
0000
1000
0000
0001
0100
0001
0000
,
1001
0000
1100
0000
0001
0100
1000
0000
,
0100
0010
1000
0001
1000
0100
0001
0000
,
0110
0000
1001
0000
0001
0100
1000
0200
,
0010
0000
0010
0000
0310
0000
0000
0000
0100
0000
0001
1000
0001
1000
0001
1000
,
0100
0010
0010
0010
0110
0000
1001
0000
,
0101
0000
0000
0000
0000
0000
1010
0000
0000
0000
0000
0000
2002
0000
0000
0000
3003
0000
0000
0000
0000
0101
0000
0000
,
0000
0000
0000
1010
0000
0000
2002
0000
3003
0000
0000
0000
,
0001
0010
1000
0010
0100
1000
0001
0000
,
1000
0010
0001
0010
0100
0001
1000
0000
,
0001
0010
0000
0000
0010
0100
0000
0000
0100
1000
0000
0000
0010
0000
0100
0000
,
0001
1000
0000
0000
1000
0100
0000
0000
0010
0000
0001
0000
0100
0000
0001
0000
,
0010
0100
0001
0100
1000
0001
1000
0010
,
0100
0000
0100
0000
0001
0000
0001
0000
1000
0000
0001
0100
0001
0100
0001
0000
,
0011
0000
0000
0000
0000
0000
1100
0000
0000
0000
0000
0000
2002
0000
0000
0000
3003
0000
0000
0000
0000
0011
0000
0000
,
0000
0000
0000
1100
0000
0000
2002
0000
3003
0000
0000
0000
,
1000
0010
0100
0001
0010
0100
0001
0000
,
0100
1000
0001
1000
0010
0100
0001
0000
,
1000
0100
0000
0000
0100
0010
0000
0000
0010
0001
0000
0000
0001
1000
0000
0000
,
2000
0010
0000
0000
3100
0000
0000
0000
0002
0010
0000
0000
0103
0000
0000
0000
,
0000
0001
0001
0001
1000
0001
0000
0220
,
0000
0000
0000
0000
0330
0000
0000
0000
1000
0100
1000
0000
0001
0100
0001
0000
,
1001
0000
0110
0000
0001
0100
1000
0000
,
0100
0100
0010
1000
0000
0001
0010
0000
,
1100
0000
0011
0000
1000
0010
0001
0000
,
0010
0010
0100
0001
0000
1000
0100
0000
,
1010
0000
0101
0000
0001
0010
1000
0000
,
0010
0010
0100
1000
0000
0001
0100
0000
,
1010
0000
0101
0000
1000
0100
0001
0100
,
0010
0000
0001
0000
1000
0000
0000
0000
0001
0000
1000
0010
1000
0010
1000
0000
,
0100
0001
0100
0010
0100
1000
0010
0000
,
0100
0100
0001
0010
0000
0100
1000
0000
,
0001
1000
0010
0100
0001
0010
0001
0000
,
0100
0100
0010
1000
0000
0001
0010
0000
,
1100
0000
0101
0000
1000
0010
1000
0100
,
0001
0000
0100
0000
0010
0000
0001
0000
1000
0010
1000
0000
0001
0010
0001
0000
,
0100
0010
0010
0010
1000
0001
0000
0010
,
0100
0000
1000
0000
0100
0000
0010
0000
0001
0000
0100
0001
0100
0001
0100
0000
,
0000
0010
0010
0010
1010
0000
0011
0000
,
1100
0000
0000
0000
0000
0000
0101
0000
0000
0000
0000
0000
2002
0000
0000
0000
3003
0000
0000
0000
0000
1100
0000
0000
,
0000
0000
0000
0101
0000
0000
2002
0000
3003
0000
0000
0000
,
0001
0100
1000
0100
0010
0001
0010
0000
,
1000
0100
0001
0100
0010
0001
1000
0000
,
0001
0100
0000
0000
0100
0010
0000
0000
0010
1000
0000
0000
0100
0000
0010
0000
,
0001
0010
0000
0000
0010
0100
0000
0000
0100
0000
1000
0000
0001
0000
1000
0000
,
0010
0001
0010
0100
0001
1000
0100
0001
,
0100
0000
0100
0000
0010
0000
0010
0000
0001
0000
1000
0010
0100
0001
1000
0000
,
0011
0000
1010
0000
0220
0000
0330
0011
,
0000
0000
0000
1010
0000
0000
0220
0000
0000
0000
0330
0000
,
0001
0010
1000
0010
0100
1000
0001
1000
,
0010
0001
0010
0100
0001
1000
0100
0000
,
0010
0001
0000
0000
0001
0100
0000
0000
0100
0010
0000
0000
0010
1000
0000
0000
,
0002
0010
0000
0000
0103
0000
0000
0000
2000
0010
0000
0000
3100
0000
0000
0000
,
0000
0010
0010
0010
0100
0010
0000
2002
,
0000
0000
0000
0000
0000
0000
3003
0000
0001
0100
0001
0100
0010
1000
0010
1000
,
0001
0000
0000
0000
;

//--------------- dance-double - forcednature ----------------
#NOTEDATA:;
#STEPSTYPE:dance-double;
#DESCRIPTION:forcednature;
#DIFFICULTY:Easy;
#METER:8;
#RADARVALUES:0,0,0,0,0;
#CREDIT:forcednature;
#NOTES:
00000000
00000000
00000000
00000000
,
00000000
00000000
00000000
00000000
,
00000000
00000000
00000000
00000000
,
00000000
00000000
00000000
00000000
,
00000000
00000000
00000000
00000000
,
00000000
00000000
00000000
00000000
,
00001000
00001000
00010000
00010000
,
01000000
00100000
01000000
00000000
,
10010000
00000000
10000000
00100000
,
00010000
00001000
00010000
00000000
,
00000100
00001000
00000100
00000000
,
00000010
00000001
00000010
00000000
,
00000100
00001000
00000100
00010000
,
00001000
01000000
00010000
00000000
,
10010000
00000000
10000000
01000000
,
00100000
00010000
01000000
00000000
,
00001000
00010000
00001000
00010000
,
00000100
00001000
00000100
00000000
,
00000110
00000000
00000010
00000001
,
00000010
00000100
00001000
00000000
,
00000001
00000100
00000001
00000100
,
00000010
00001000
00000010
00000000
,
00011000
00000000
00100000
00010000
,
00100000
01000000
10000000
00000000
,
00010000
01000000
00010000
01000000
,
00100000
10000000
00010000
00000000
,
10010000
00000000
01100000
00000000
,
10000000
01000000
00010000
00000000
,
00001000
00000000
00011000
00000000
,
00010000
00001000
00000100
00000010
,
00001000
00000000
00001001
00000000
,
00000001
00000010
00000100
00000000
,
00000010
00000100
00001000
00000100
,
00000010
00000010
00000100
00010000
,
00011000
00001000
01000000
00010000
,
10000000
00100000
10000000
00010000
,
10000000
01000000
00100000
00010000
,
01000000
01000000
00000000
00001000
,
00011000
00010000
00000100
00001000
,
00000010
00001000
00000100
00000010
,
00000001
00000001
00001000
00001000
,
00000010
00000100
00001000
00010000
,
00022000
00000000
00000000
00033000
,
01001000
00000000
01001000
00000000
01001000
00000000
00000000
01001000
,
00000000
01001000
01001000
00000000
,
01000000
00010000
10000000
01000000
,
10000000
00010000
01000000
00000000
,
00100000
10000000
00010000
10000000
,
01000000
00010000
00001000
00000000
,
00000010
00000100
00001000
00000001
,
00000100
00000010
00001000
00000000
,
00001100
00000000
00001100
00000000
00001100
00000000
00000000
00001100
,
00000000
00001100
00001100
00000000
,
00000100
00010000
00001000
00010000
,
00000010
00001000
00000010
00000000
,
00000100
00000001
00000100
00001000
,
00011000
00000000
00011000
00000000
,
00000000
00000000
00001000
00000000
00010000
00000000
00000000
02200000
,
00000000
00000000
00000000
03300000
,
10010000
00010000
00000000
00010000
,
00000000
00010000
00000000
00010000
,
01000000
00010000
00000000
00010000
,
00000000
00010000
00000000
00010000
,
00001000
00000100
00000000
00000100
,
00000000
00000100
00000000
00000100
,
00000000
00000010
00000000
00000010
,
00000000
00000010
00000000
00000010
,
00000001
00000100
00000001
00000000
,
00000010
00000100
00000000
00000100
,
00010000
00001000
01000000
00000000
,
00010000
10000000
00000000
10000000
,
01000000
00100000
00010000
00100000
,
01000000
10000000
00010000
00000000
,
00011000
00000000
00000100
00001000
,
00000001
00001000
00000010
00000000
,
00000100
00000100
00000100
00000000
,
00001010
00000000
00001010
00000000
00001010
00000000
00000000
00001010
,
00000000
00001010
00001010
00000000
,
00010000
00001000
00100000
00010000
,
01000000
00001000
00010000
00000000
,
01000000
10000000
00010000
01000000
,
00001000
00010000
00000100
00000000
,
00001000
00000001
00000100
00000010
,
00001000
00000100
00010000
00000000
,
01001000
00000000
01001000
00000000
01001000
00000000
00000000
01001000
,
00000000
01001000
01001000
00000000
,
01000000
00010000
10000000
01000000
,
10000000
00010000
01000000
00000000
,
00100000
10000000
01000000
00100000
,
01100000
00000000
10010000
00000000
,
00000000
00000000
10000000
00000000
00010000
00000000
00000000
00022000
,
00000000
00000000
00000000
00033000
,
00000110
00000000
00000000
00000000
;

//--------------- dance-double - forcednature ----------------
#NOTEDATA:;
#STEPSTYPE:dance-double;
#DESCRIPTION:forcednature;
#DIFFICULTY:Medium;
#METER:11;
#RADARVALUES:0,0,0,0,0;
#CREDIT:forcednature;
#NOTES:
00000000
00000000
00000000
00000000
,
00000000
00000000
00000000
00000000
,
00000000
00000000
00000000
00000000
,
00000000
00000000
00000000
00000000
,
00000000
00000000
00000000
00000000
,
00000000
00000000
00000000
00000000
,
00001000
00010000
01000000
10000000
,
00010000
01000000
00010000
00000000
10000000
00100000
10000000
00000000
,
10010000
00000000
00000000
00000000
,
10000000
00000000
01000000
00000000
00010000
00001000
00010000
00000000
,
00000100
00001000
00000010
00001000
,
00000100
00000010
00000001
00000100
,
00000010
00010000
00001000
00000010
,
00001000
00010000
00100000
00000000
,
01100000
01000000
00010000
10000000
,
01000000
00010000
00001000
00100000
,
00001000
00010000
00000100
00010000
,
00001000
00000100
00000001
00000000
,
00000110
00001000
00000001
00000100
,
00000010
00001000
00000100
00000010
,
00000100
00010000
00001000
01000000
,
00010000
10000000
00100000
00000000
,
01100000
01000000
00010000
10000000
,
01000000
00100000
00010000
01000000
,
00001000
00010000
00000100
00001000
,
00000001
00001000
00000010
00000000
,
00000110
00000000
00001001
00000000
,
00000001
00000100
00001000
00000000
,
00010000
00000000
01100000
00000000
,
10000000
01000000
00010000
00001000
,
01000000
00000000
10010000
00000000
,
10000000
00100000
00010000
00000000
,
00001000
00100000
00001000
01000000
,
00001000
00000000
00001000
00000000
00010000
00000100
00010000
00000000
,
00011000
00000000
00001000
00000000
00000100
00000000
00000001
00000010
,
00000001
00000100
00000010
00001000
,
00000100
00000010
00010000
00001000
,
01000000
00010000
01000000
00010000
01000000
00000000
00100000
00000000
,
10010000
10000000
01000000
00100000
,
00010000
01000000
00010000
00000000
00100000
00000000
00001000
00000000
,
00011000
00000000
00011000
00000000
00000100
00010000
00000100
00000000
,
00001000
00000000
00000010
00000000
00000100
00000001
00000100
00000000
,
00002002
00000000
00000000
00003003
,
00000101
00000000
00000101
00000000
00001010
00000000
00000000
00000101
,
00000000
00000101
00001010
00000000
,
00000001
00000000
00000100
00000000
00001000
00010000
00001000
00000000
,
00100000
00000000
00010000
00000000
01000000
00100000
01000000
00000000
,
00010000
00010000
10000000
10000000
,
01000000
00100000
01000000
00000000
00100000
01000000
00100000
00000000
,
01000000
00010000
00001000
00000100
,
00000010
00000100
00000010
00000000
00000100
00000010
00000100
00000000
,
00001010
00000000
00001010
00000000
00010100
00000000
00000000
00001010
,
00000000
00001010
00010100
00000000
,
00010000
00000000
00001000
00000000
01000000
00010000
01000000
00000000
,
00100000
00000000
10000000
00000000
01000000
00100000
01000000
00000000
,
10000000
10000000
00010000
00010000
,
00022000
00033000
00000220
00000330
,
00000000
00000001
00000100
00000001
00000010
00000100
00000000
00000220
,
00000000
00000000
00000000
00000330
,
00001000
00000000
00000001
00000100
00000000
00000100
00001000
00000000
,
00001000
00000000
00010000
01000000
00000000
01000000
00100000
00000000
,
00010000
00000000
10000000
00100000
00000000
00100000
00010000
00000000
,
00100000
00000000
01000000
00001000
00000000
00001000
00010000
00000000
,
01000000
00100000
00010000
01000000
,
00100000
00010000
00001000
00000100
,
00000010
00001000
00000100
00000010
,
00000001
00000000
00000100
00000000
00001000
00010000
00001000
00010000
,
01000000
00100000
00010000
10000000
,
00100000
01000000
00100000
01000000
00000000
00000000
00010000
00000000
,
10000000
01000000
00010000
00001000
,
00100000
00010000
00100000
00010000
00000000
00000000
01000000
00000000
,
00001000
00010000
00000100
00001000
,
00000010
00001000
00000010
00001000
00000000
00000000
00000100
00000000
,
00000010
00000001
00000010
00000001
00000010
00000001
00000000
00000000
,
00000100
00000001
00000100
00001000
,
00000000
00010000
00001000
00010000
00001000
00000000
00100000
00000000
,
00110000
00000000
00110000
00000000
11000000
00000000
00000000
00110000
,
00000000
00110000
11000000
00000000
,
10000000
00100000
00010000
00001000
,
00010000
00000100
00001000
00000000
,
00000010
00010000
00001000
00000010
,
00000100
00001000
00000100
00000000
00000010
00000000
00000001
00000000
,
00000100
00000010
00001000
00000100
,
00010000
00001000
00010000
00000000
00100000
00000000
01000000
00000000
,
01010000
00000000
01010000
00000000
10100000
00000000
00000000
01010000
,
00000000
01010000
10100000
00000000
,
10000000
00000000
01000000
00000000
00010000
00001000
00010000
00000000
,
00000100
00000000
00001000
00000000
00000010
00000100
00000010
00000000
,
00000100
00000001
00000100
00000000
00000010
00001000
00000010
00000000
,
00010000
00001000
00010000
00000000
00100000
01000000
00100000
00000000
,
00000000
10000000
01000000
00100000
00010000
01000000
00000000
00022000
,
00000000
00000000
00033000
00000000
00000100
00001000
00000100
00000010
,
00000001
00000000
00000000
00000000
;

//--------------- dance-double - forcednature ----------------
#NOTEDATA:;
#STEPSTYPE:dance-double;
#DESCRIPTION:forcednature;
#DIFFICULTY:Hard;
#METER:15;
#RADARVALUES:0,0,0,0,0;
#CREDIT:forcednature;
#NOTES:
00000000
00000000
00000000
00000000
,
00000000
00000000
00000000
00000000
,
00000000
00000000
00000000
00000000
,
00000000
00000000
00000000
00000000
,
00000000
00000000
00000000
00000000
,
00000000
00000000
00000000
00000000
,
01001000
00000000
00010100
00000000
00010000
00001000
00000010
00000001
,
00000100
00000000
00000010
00000000
00001000
00000000
00000001
00000000
00001000
00000100
00001000
00000000
00000100
00010000
00000100
00000000
,
00010000
00001000
00001000
00001000
01000000
00010000
00000000
00100000
,
01000000
00000000
01000000
00000000
10000000
00000000
10000000
00000000
00010000
01000000
00010000
00000000
10000000
01000000
10000000
00000000
,
00100000
00000000
00010000
00001000
00000010
00000000
00000110
00000000
,
00000100
00010000
00001000
00010000
00100000
00000000
01100000
00000000
,
10000000
01000000
00010000
00001000
00000100
00000001
00000010
00000001
,
00000100
00001000
00010000
01000000
10000000
00100000
10000000
00000000
,
01100000
00000000
00010000
00000000
10000000
01000000
00100000
00000000
,
01000000
00010000
00001000
00000010
00000100
00001000
00000001
00000000
,
00000110
00000000
00001001
00000000
00000001
00000100
00001000
00010000
,
00100000
00000000
00100000
00000000
01000000
00000000
01000000
00000000
00010000
00000000
10000000
01000000
10000000
01000000
00100000
00000000
,
00010000
00000000
01000000
00001000
00010000
00000000
00001100
00000000
,
00000010
00000000
00010000
00001000
00100000
00000000
01010000
00000000
,
10000000
00100000
00010000
00001000
00000010
00000001
00000100
00000001
,
00000010
00000000
00001000
00000000
00010000
00000000
00100000
00000000
10000000
00000000
00010000
01000000
00010000
01000000
00100000
00000000
,
01100000
10000000
00010000
00001000
,
00000001
00000000
00000000
00000000
00000010
00000000
00000000
00000000
00000100
00000000
00001000
00000001
00001000
00000001
00000100
00000000
,
00000010
00010000
00001000
00000000
00100000
00001000
00010000
00100000
,
10000000
00000000
10000000
00000000
00010000
00000000
00010000
00000000
10000000
00000000
01000000
00100000
01000000
00100000
00010000
10000000
,
00010000
00000000
00010000
00000000
01010000
00000000
01000000
00001000
,
00010000
00000000
00010000
00000000
00010000
00010000
00000010
00000000
,
00000110
00000000
00001000
00000000
00000001
00000100
00001000
00010000
,
00100000
00000000
00100000
00000000
00100000
10000000
01000000
00100000
,
01100000
00010000
01000000
01001000
,
01001000
00000000
00001000
00000000
00010000
00010000
00000100
00000000
,
00000010
00000100
00001000
00000100
00000001
00000100
00001000
00000100
,
00010000
00000000
00001000
00000000
01000000
00000000
00001000
00000000
00010000
00000000
00100000
10000000
00100000
10000000
00010000
00000000
,
10010000
00000000
00110000
00000000
01010000
00000000
01000000
00001000
,
00010000
00010100
00010010
00000100
,
00000110
00010100
01001000
01100000
,
10000000
00000000
01000000
00000000
00010000
00000000
00001000
00000000
00010000
00000000
00000100
00000000
00001000
00000001
00001000
00000000
,
00001010
00000000
00011000
00000000
00100000
00010000
01000000
00000000
,
00100000
10000000
00010000
10000000
01000000
00010000
00001000
00000000
,
00101000
00000000
00010100
00000000
00000100
00001000
00000010
00002000
,
00000001
00000000
00000001
00000000
00003001
00000000
00000000
00000000
00000001
00000000
00001000
00000100
00001000
00000100
00001000
00000100
,
00010000
00001000
00001000
00001000
01001000
00000000
10010000
00000000
,
00110000
00000000
00000000
00000000
00000000
00000000
00011000
00000000
00000000
00000000
00000000
00000000
00002200
00000000
00000000
00000000
00003300
00000000
00000000
00000000
00000000
00110000
00000000
00000000
,
00000000
00000000
00000000
00011000
00000000
00000000
00002200
00000000
00003300
00000000
00000000
00000000
,
00010000
00001000
00000100
00000010
00001000
00000100
00000010
00000000
,
00000100
00010000
00001000
00100000
00010000
10000000
00100000
00000000
,
01000000
00010000
00000000
00000000
00010000
00100000
00000000
00000000
00100000
01000000
00000000
00000000
01000000
00000000
00010000
00000000
,
00001000
00010000
00000000
00000000
00010000
00000100
00000000
00000000
00001000
00000000
00000010
00000000
00000100
00000000
00000010
00000000
,
00000001
00000010
00001000
00000001
00000010
00000100
00001000
00000100
,
00010000
00000000
00010000
00000000
00001000
00000000
00001000
00000000
01000000
00000000
00010000
10000000
00010000
10000000
00010000
00000000
,
01010000
00000000
00000000
00000000
00000000
00000000
00011000
00000000
00000000
00000000
00000000
00000000
00002020
00000000
00000000
00000000
00003030
00000000
00000000
00000000
00000000
01010000
00000000
00000000
,
00000000
00000000
00000000
00011000
00000000
00000000
00002020
00000000
00003030
00000000
00000000
00000000
,
00010000
00001000
00010000
01000000
00100000
00010000
10000000
00000000
,
01000000
00010000
00001000
00010000
00100000
10000000
00010000
00000000
,
10000000
01000000
00000000
00000000
01000000
00010000
00000000
00000000
00010000
00001000
00000000
00000000
00001000
00000100
00000000
00000000
,
00000002
00000010
00000000
00000000
00000103
00000000
00000000
00000000
00002000
00000010
00000000
00000000
00003100
00000000
00000000
00000000
,
00000000
00010000
00010000
00010000
00001000
00010000
00000000
02200000
,
00000000
00000000
00000000
00000000
03300000
00000000
00000000
00000000
10000000
01000000
10000000
01000000
00100000
00010000
00100000
00000000
,
00010000
00000000
00101000
00000000
00001000
00010000
00100000
00000000
,
10000000
10000000
01000000
00010000
00000000
00001000
00010000
00000000
,
00000010
00000000
00001010
00000000
00010000
00001000
00000010
00000000
,
00000100
00000100
00001000
00000001
00000000
00000100
00001000
00000000
,
00011000
00000000
01001000
00000000
00001000
00010000
00100000
00000000
,
10000000
10000000
01000000
00010000
00000000
00001000
00010000
00000000
,
00010100
00000000
01001000
00000000
01000000
00001000
00010000
00001000
,
00100000
00000000
00010000
00000000
01000000
00000000
00000000
00000000
00001000
00000000
00010000
00000100
00010000
00000100
00010000
00000000
,
00001000
00000100
00000001
00000100
00001000
00000100
00000001
00000000
,
00000010
00000010
00001000
00010000
00000000
00100000
10000000
00000000
,
00010000
01000000
10000000
01000000
00010000
01000000
00100000
00000000
,
10000000
10000000
01000000
00010000
00000000
00001000
00000010
00000000
,
00000110
00000000
00010100
00000000
00010000
00001000
00000100
00001000
,
00010000
00000000
01000000
00000000
00100000
00000000
00010000
00000000
10000000
00100000
10000000
00100000
01000000
00010000
01000000
00000000
,
00001000
00010000
00010000
00010000
00000100
00001000
00000000
00000010
,
00000100
00000000
00001000
00000000
00000100
00000000
00000001
00000000
00000010
00000000
00000100
00001000
00000100
00001000
00000100
00000000
,
00000000
00000010
00000010
00000010
00000110
00000000
00001001
00000000
,
00000110
00000000
00000000
00000000
00000000
00000000
00011000
00000000
00000000
00000000
00000000
00000000
02200000
00000000
00000000
00000000
03300000
00000000
00000000
00000000
00000000
00000110
00000000
00000000
,
00000000
00000000
00000000
00011000
00000000
00000000
02200000
00000000
03300000
00000000
00000000
00000000
,
10000000
01000000
00010000
01000000
00100000
00001000
00010000
00000000
,
00100000
10000000
00100000
00010000
00001000
00000010
00000100
00000000
,
00010000
00001000
00000000
00000000
00001000
00000100
00000000
00000000
00000100
00000010
00000000
00000000
00000010
00000000
00010000
00000000
,
00001000
00000010
00000000
00000000
00000010
00000001
00000000
00000000
00000001
00000000
00000100
00000000
00001000
00000000
00010000
00000000
,
01000000
00100000
00001000
00010000
00100000
10000000
01000000
00010000
,
00001000
00000000
00001000
00000000
00000010
00000000
00000010
00000000
00000100
00000000
00001000
00000001
00001000
00000001
00001000
00000000
,
00001001
00000000
00011000
00000000
20020000
00000000
30030000
10010000
,
00000000
00000000
00000000
00011000
00000000
00000000
00002002
00000000
00000000
00000000
00003003
00000000
,
00000001
00000100
00001000
00010000
01000000
10000000
00100000
10000000
,
01000000
00010000
00001000
00010000
00100000
10000000
00010000
00000000
,
00100000
00001000
00000000
00000000
00001000
00010000
00000000
00000000
00010000
00000010
00000000
00000000
00000010
00001000
00000000
00000000
,
00000200
00010000
00000000
00000000
00001300
00000000
00000000
00000000
02000000
00001000
00000000
00000000
03010000
00000000
00000000
00000000
,
00000000
00100000
00100000
00100000
01000000
00100000
00000000
00022000
,
00000000
00000000
00000000
00000000
00000000
00000000
00033000
00000000
00010000
00000100
00010000
00000100
00001000
00000010
00001000
00000010
,
00000100
00000000
00000000
00000000
;
