#VERSION:0.83;
#TITLE:Rebellious stage;
#SUBTITLE:;
#ARTIST:Dios/シグナルP;
#TITLETRANSLIT:;
#SUBTITLETRANSLIT:;
#ARTISTTRANSLIT:;
#GENRE:;
#CREDIT:;
#MUSIC:Rebellious stage.ogg;
#BANNER:Rebellious stage.png;
#BACKGROUND:Rebellious stage-bg.png;
#CDTITLE:/CDTitles/SDVX BOOTH.png;
#SAMPLESTART:66.994;
#SAMPLELENGTH:15.000;
#SELECTABLE:YES;
#OFFSET:0.503;
#BPMS:0.000=160.000;
#STOPS:;
#TIMESIGNATURES:0.000=4=4;
#BGCHANGES:0.000=../BGAs/19cy.mp4=1.000=0=0=0=StretchNoLoop====,
99999.000=-nosongbg-=1.000=0=0=0=StretchNoLoop====
;
#FGCHANGES:;

//--------------- dance-single - forcednature ----------------
#NOTEDATA:;
#STEPSTYPE:dance-single;
#DESCRIPTION:forcednature;
#CREDIT:forcednature;
#DIFFICULTY:Beginner;
#METER:1;
#RADARVALUES:0,0,0,0,0;
#NOTES:
0000
0000
0000
0000
,
0000
0000
0000
0000
,
0000
0000
0000
0000
,
0000
0000
0000
0000
,
0000
0000
0000
0000
,
0001
0000
0000
0000
,
0000
0000
0000
0000
,
0000
0000
0000
0000
,
0000
0000
0000
0000
,
1000
0000
0000
0000
,
0000
0000
0000
0000
,
0000
0000
0000
0000
,
0000
0000
0000
0000
,
0100
0000
0000
0000
,
0000
0000
0000
0000
,
0000
0000
0000
0000
,
0000
0000
0000
0000
,
0010
0000
0000
0000
,
0000
0000
0000
0000
,
0000
0000
0000
0000
,
0000
0000
0000
0000
,
0001
0000
0000
0000
,
0000
0000
0000
0000
,
0000
0000
0000
0000
,
0000
0000
0000
0000
,
0100
0000
0000
0000
,
0000
0000
0000
0000
,
0010
0000
0000
0000
,
0000
0000
0000
0000
,
0100
0000
0000
0000
,
0000
0000
0000
0000
,
0000
0000
0000
0000
,
0000
0000
0000
0000
,
0001
0000
0000
0000
,
0000
0000
0000
0000
,
0000
0000
0000
0000
,
0000
0000
0000
0000
,
1000
0000
0000
0000
,
0000
0000
0000
0000
,
0000
0000
0000
0000
,
0000
0000
0000
0000
,
0100
0000
0000
0000
,
0000
0000
0000
0000
,
0000
0000
0000
0000
,
0000
0000
0000
0000
,
1000
0000
0000
0000
,
0000
0000
0000
0000
,
0001
0000
0000
0000
,
0000
0000
0000
0000
,
0100
0000
0000
0000
,
0000
0000
0000
0000
,
0100
0000
0000
0000
,
0000
0000
0000
0000
,
0001
0000
0000
0000
,
0000
0000
0000
0000
,
1000
0000
0000
0000
,
0000
0000
0000
0000
,
0100
0000
0000
0000
,
0000
0000
0000
0000
,
0100
0000
0000
0000
,
0000
0000
0000
0000
,
0010
0000
0000
0000
,
0000
0000
0000
0000
,
0000
0000
0000
0000
,
0000
0000
0000
0000
,
1001
0000
0000
0000
;

//--------------- dance-single - forcednature ----------------
#NOTEDATA:;
#STEPSTYPE:dance-single;
#DESCRIPTION:forcednature;
#CREDIT:forcednature;
#DIFFICULTY:Easy;
#METER:5;
#RADARVALUES:0,0,0,0,0;
#NOTES:
0000
0000
0000
0000
,
0000
0000
0000
0000
,
0000
0000
0000
0000
,
0000
0000
0000
0000
,
0000
0000
0000
0000
,
0001
0000
0100
0000
,
0001
0000
0000
0000
,
1000
0000
0100
0000
,
0010
0000
0001
0000
,
1000
0000
0000
0000
,
0001
0000
0100
0000
,
0001
0000
1000
0000
,
0100
0100
0100
0000
,
0010
0000
0000
0000
,
0001
0000
0000
0000
,
1000
0000
0000
0000
,
0010
0000
0100
0000
,
0001
0000
0000
0000
,
1000
0000
0000
0000
,
0100
0000
0100
0000
,
0010
0000
0001
0000
,
0000
1000
0010
1000
,
0000
0001
0010
0001
,
0000
0100
0010
0100
,
0001
1000
0001
0000
,
1001
0000
1000
0000
,
0100
1000
0100
0010
,
0001
0000
0100
0000
,
0001
1000
0010
0000
,
0100
0100
0100
0000
,
0001
0100
0001
0000
,
0010
0010
0010
0000
,
0001
0010
0001
0000
,
1000
1000
1000
0000
,
0010
0100
0010
0000
,
1000
1000
1000
0000
,
0100
0010
0100
0000
,
1001
0000
0001
0000
,
0100
0000
0001
0000
,
1001
0000
1000
0000
,
0100
0100
0100
0000
,
0110
0000
0010
0000
,
0001
0000
0100
0000
,
0110
0000
0110
0000
,
1000
0001
1000
0000
,
1001
0000
0110
0000
,
0001
0000
0000
0000
,
1001
0000
0110
0000
,
1000
0000
0000
0000
,
1001
0000
1001
0000
,
0010
0000
0100
0000
,
0110
0000
0001
0000
,
1000
1000
1000
0000
,
1001
0000
0110
0000
,
0001
0000
1000
0000
,
1001
0000
0110
0000
,
1000
0000
0001
0000
,
0110
0000
0110
0000
,
0001
0000
1000
0000
,
1001
0000
0110
0000
,
0001
1000
0001
1000
,
0010
0000
0000
0010
,
0100
0000
0000
0100
,
0001
0000
0000
0001
,
1000
0000
0000
0000
,
2002
0000
0000
0000
,
0000
0000
0000
0000
,
0000
3003
0000
0000
;

//--------------- dance-single - forcednature ----------------
#NOTEDATA:;
#STEPSTYPE:dance-single;
#DESCRIPTION:forcednature;
#CREDIT:forcednature;
#DIFFICULTY:Medium;
#METER:8;
#RADARVALUES:0,0,0,0,0;
#NOTES:
0000
0000
0000
0000
,
0000
0000
0000
0000
,
0000
0000
0000
0000
,
0000
0000
0000
0000
,
0000
0000
0000
0000
,
2001
0000
0100
0000
,
0001
0000
0010
0000
,
3002
0000
0013
0100
,
2000
0000
3020
0000
,
0230
0000
0001
0301
,
0002
0000
0010
0013
,
0020
0000
0230
0000
,
1300
0000
0001
0000
1000
0001
1000
0000
,
0000
1000
0100
0000
1000
0000
2000
0000
,
3000
0001
0100
0000
0001
0000
0002
0000
,
0003
0010
0100
0000
0010
0000
0100
0000
,
1000
0001
1000
0000
0002
0000
0003
0000
,
0200
0000
0300
0010
0100
0000
0010
0000
,
1000
0000
0001
1000
0001
0000
0010
0000
,
0100
0100
1000
1000
,
0010
0000
0110
0000
0001
1000
0001
0000
,
1000
0100
0010
0011
,
0001
0100
0010
1010
,
1000
0001
0010
0110
,
1000
0001
1000
0000
2002
0000
3003
0000
,
0220
0330
0001
1000
,
0100
0010
0100
0000
0010
0000
0001
0000
,
1001
1000
0001
0100
,
0110
0000
1001
0000
1000
0001
1000
0000
,
0001
1000
0001
1000
0000
0000
0001
0000
,
0100
0001
0010
0100
,
1000
0001
1000
0001
0000
0000
1000
0000
,
0010
0100
0220
0330
,
0001
1000
0001
1000
0000
0000
0100
0000
,
1000
0001
0100
0010
,
1000
0001
1000
0001
0000
0000
0100
0000
,
0001
1000
2002
3003
,
0220
0330
0001
0010
,
0100
0000
1000
0001
2000
0000
3000
0000
,
0220
0330
1000
0010
,
0100
0001
0100
0001
2000
0000
3000
0000
,
0220
0330
0001
0010
,
0100
0000
1000
0001
1000
0000
0010
0000
,
0110
1000
0110
0001
,
1000
0001
1000
0001
0020
0000
0030
0000
,
0001
1000
0001
0000
1000
0001
1000
0000
,
0010
0110
2002
3003
,
1000
0001
1000
0000
0001
1000
0001
0000
,
0100
0110
2002
3003
,
1000
0100
1000
0000
0001
0100
0001
0000
,
0010
0110
0100
1000
,
1001
0010
1001
0100
,
0001
1000
0001
1000
0020
0000
0030
0000
,
1000
0010
1000
0000
0001
0010
0001
0000
,
0100
0110
2002
3003
,
0001
0010
0001
0000
1000
0010
1000
0000
,
0100
0110
2002
3003
,
0001
0100
0001
0000
1000
0100
1000
0000
,
0110
0001
1000
0100
,
1001
0010
1001
0100
,
1000
0001
1000
0001
0200
0000
0000
0000
,
0310
0000
0000
1000
0000
0000
0001
0000
,
0010
0000
0000
0001
0000
0000
1000
0000
,
0100
0000
0000
1000
0000
0000
0001
0000
,
0100
0000
0000
0000
,
2002
0000
0000
0000
,
0000
0000
0000
0000
,
0000
3003
0000
0000
;

//--------------- dance-single - forcednature ----------------
#NOTEDATA:;
#STEPSTYPE:dance-single;
#DESCRIPTION:forcednature;
#CREDIT:forcednature;
#DIFFICULTY:Hard;
#METER:12;
#RADARVALUES:0,0,0,0,0;
#NOTES:
0000
0000
0000
0000
,
0000
0000
0000
0000
,
0000
0000
0000
0000
,
0000
0000
0000
0000
,
0000
0000
0000
0000
,
0102
1000
0000
1000
,
0010
1000
0100
0100
,
2003
0100
3002
0023
,
0230
1000
0320
0031
,
1002
0100
1000
0023
,
0230
0001
0010
2300
,
3010
0100
0001
0000
0010
0100
1000
0000
,
0001
0100
0001
1000
0100
1000
0010
0000
,
0000
0100
0001
0100
0002
0000
0023
0000
,
0030
0100
1000
0100
2000
0000
3020
0000
,
0030
1000
0001
1000
0002
0000
0023
0000
,
0130
1000
0100
0010
0002
0000
0003
0000
,
0200
0000
0000
0301
2000
0000
3200
0000
,
0320
0000
0031
1000
0010
0000
0100
0010
,
2000
0000
0000
3001
0000
1000
1000
0020
,
0000
0130
0001
1000
0001
0000
0110
0000
,
1000
0001
0010
0100
0010
0000
1100
0000
,
0001
1000
0010
0100
0010
0000
0101
0000
,
1000
0001
0010
0100
1000
0000
0100
0010
,
0001
1000
0001
0100
0020
0000
0030
0000
,
2001
0000
3100
0010
0001
0000
0011
0000
,
0002
0000
0103
0010
0200
0000
0301
0010
,
0100
1000
0000
1000
0001
1000
0000
1000
,
0010
1000
0001
0010
0001
0100
0010
0000
,
1000
1000
1000
0100
0000
1000
0010
1000
,
0000
0001
0010
0001
0100
0010
0100
0000
,
0001
0001
0001
0010
0000
0100
1000
0100
,
0000
0010
0001
1000
0020
0000
0030
0000
,
0100
0100
0100
0001
0000
1000
0100
1000
,
0000
0010
0100
0001
0100
0010
1000
0000
,
0001
0001
0001
0010
0000
0100
1000
0001
,
0000
0100
0010
1000
0002
0000
0003
0000
,
0021
0000
0100
0000
0031
1000
0010
0000
,
0110
0000
0100
0001
2000
0000
3000
0000
,
1200
0000
0010
0000
2300
0000
3001
0010
,
0001
0100
1000
0100
0001
1000
0010
0000
,
2100
0000
0010
0000
3001
0100
0010
0000
,
0102
0000
1003
0001
0020
0000
0130
1000
,
0001
0100
0001
0100
1000
0100
1000
0100
,
0010
0000
0010
0000
1000
0010
1000
0000
0002
0000
0000
0000
0023
0000
0000
0000
,
0031
1000
1010
0000
1000
0001
0011
0000
,
0001
0000
0000
0001
0100
0000
0010
0000
2000
0000
0000
0000
3000
0000
0000
0000
,
1000
0001
0101
0000
0001
1000
1100
0000
,
1000
0000
0000
1000
0010
0000
0100
0000
0002
0000
0000
0000
0003
0000
0000
0000
,
0010
0100
1100
0000
0010
0100
1100
0000
,
0001
0000
0000
0001
0100
0000
0010
0000
2000
0000
0000
0000
3100
0000
0000
0100
,
0020
0000
0000
0000
0031
0000
1000
0001
2000
0000
0000
0000
3010
0000
0100
0010
,
0100
0000
0001
0000
1000
0000
0001
0000
0010
0100
0010
0000
0200
0000
0000
0000
,
1300
0010
0110
0000
0001
0010
0110
0000
,
1000
0000
0000
1000
0010
0000
0100
0000
0002
0000
0000
0000
0013
0000
0000
0000
,
0001
0100
1010
0000
1000
0100
0011
0000
,
0001
0000
0000
0001
1000
0000
0010
0000
0100
0000
0001
1000
0001
0000
0000
0000
,
0010
0100
1001
0000
0100
0010
1001
0000
,
0110
0000
0000
0001
0100
0000
0010
0000
1000
0000
0000
1000
0100
0000
0000
0000
,
0010
1000
0010
0001
0100
1000
0100
0001
,
1000
0100
1000
0000
0001
0100
0001
0000
0020
0000
0000
0000
0130
0000
0000
0000
,
2001
0000
0000
0001
3000
0001
0010
0000
,
1002
0000
0000
1000
0003
1000
0010
0000
,
0120
0000
0000
0100
0030
0100
0001
0000
,
0021
0000
0000
0200
0000
0000
0330
0000
,
2002
0000
0000
0000
,
0000
0000
0000
0000
,
0000
3003
0000
0000
;

//--------------- dance-single - forcednature ----------------
#NOTEDATA:;
#STEPSTYPE:dance-single;
#DESCRIPTION:forcednature;
#CREDIT:forcednature;
#DIFFICULTY:Challenge;
#METER:15;
#RADARVALUES:0,0,0,0,0;
#NOTES:
0000
0000
0000
0000
,
0000
0000
0000
0000
,
0000
0000
0000
0000
,
0000
0000
0000
0000
,
0000
0000
0000
0000
,
0001
0100
0010
0100
0001
1000
0000
1000
,
0001
0010
0000
0010
0100
1000
1001
0000
,
1000
0010
0100
0010
1000
0100
0010
0001
,
0011
0000
0010
0100
0001
0100
1000
0000
,
0110
0000
0001
1000
0010
0001
0010
1000
,
0001
0000
1000
0100
0001
0100
1000
0000
,
1020
0000
0130
0001
0021
0000
0130
1000
,
0001
0100
0001
0000
1000
0100
1000
0000
0010
0100
0010
0100
0001
0100
0001
0000
,
2000
0000
0000
0000
0000
0000
0100
0000
0100
3000
0000
0000
1010
0000
0000
0000
,
0002
0000
0000
0100
0103
0000
0011
0000
,
0020
0000
0000
0100
0130
0000
0010
0001
,
0010
0100
1000
0100
0220
0000
0330
0000
,
2001
0000
0000
0000
0000
0000
3010
0100
0002
0000
0000
0000
0013
0000
0000
0000
,
0110
0000
0100
1000
0001
0100
0010
1000
,
0001
0010
0000
0010
1000
0010
0010
0001
,
0001
0000
0100
0000
0010
0000
0100
0000
0001
0010
0100
1000
0001
0000
0000
0000
,
1000
0000
0100
0010
0100
0000
1000
0000
1010
0000
0000
0000
0011
0000
0000
0000
,
0001
0000
0100
0010
0100
0000
0001
0000
0011
0000
0000
0000
1010
0000
0000
0000
,
1000
0000
0100
0010
0100
0000
1000
0000
0001
0000
0100
0010
0100
0000
0001
0000
,
1000
0100
0010
0001
2002
0000
3003
0000
,
0102
0000
0013
1000
0020
0000
0031
0000
,
2100
0000
3010
0001
0010
0100
0001
1000
,
0100
0010
0100
1000
0000
1000
0010
0100
,
0010
0000
1000
0100
1000
0000
0001
0100
0001
0000
0010
0001
1000
0000
0000
0000
,
1100
1000
0010
1010
0000
0001
0100
1100
,
0000
1000
0100
0010
1000
0100
0010
0001
,
0101
0100
0001
0011
0000
1000
0100
0101
,
0000
0000
0001
0000
0100
0000
0010
0000
0001
0000
0100
0010
1000
0000
0000
0000
,
0101
0001
0010
0011
0000
1000
0100
0101
,
0000
0001
0100
0010
0001
0100
0010
1000
,
1100
0100
1000
1010
0000
0001
0100
1100
,
0000
0000
1000
0000
0100
0000
0001
0000
1000
0010
0100
0001
1000
0000
0000
0000
,
1200
0000
0010
0000
0301
0100
1000
0000
,
0021
0000
1030
0010
0002
0000
0103
0000
,
0201
0000
0010
0000
1300
0100
0001
0000
,
0011
0001
1010
1000
0110
0100
1001
0000
,
0201
0000
1300
0100
0001
0010
0100
0000
,
1200
0000
0000
0000
0301
0000
0100
0000
1000
0000
0010
0000
0100
0000
0001
1000
,
0100
0010
0011
0001
0100
0010
1010
1000
,
0001
0010
0001
0010
0100
1000
0100
1000
0001
0000
0100
0010
2000
0000
0000
0000
,
3001
1000
0001
0000
0101
0000
0000
0000
1000
0001
1000
0000
1100
0000
0000
0000
,
1000
0000
0000
1000
0010
0000
0100
0000
0001
0000
1000
0001
0010
0000
0000
0000
,
0001
0010
0001
0000
0101
0000
0000
0000
1000
0010
1000
0000
1100
0000
0000
0000
,
0001
0000
0000
0001
0010
0000
0100
0000
1000
0010
1000
0010
0100
0001
1000
0000
,
0001
0010
0100
0000
1100
0000
0000
0000
0001
0010
0100
0000
1100
0000
0000
0000
,
1000
0000
0000
1000
0001
0000
0010
0000
0100
0000
0010
0001
0010
0000
0100
1000
,
0001
0000
0100
0000
0010
0000
0100
0001
1000
0000
0100
0000
0010
0000
0100
1000
,
0002
0000
0010
0000
2003
0000
0010
0000
3001
0010
0100
1000
0100
0010
0001
0000
,
0010
0001
0100
0000
0110
0000
0000
0000
0010
1000
0100
0000
0110
0000
0000
0000
,
0010
0000
0000
0010
0001
0000
0100
0000
0010
0000
1000
0001
0010
0000
0000
0000
,
0100
1000
0010
0000
0101
0000
0000
0000
0100
0001
0010
0000
1100
0000
0000
0000
,
0001
0000
0000
0001
1000
0000
0010
0000
0100
0001
1000
0010
1000
0001
0100
0000
,
0010
1000
0001
0000
1100
0000
0000
0000
0010
0001
1000
0000
0101
0000
0000
0000
,
1001
0000
0000
0001
0100
0000
0010
1000
0010
0000
0100
0001
1000
0000
0000
0000
,
1100
0100
1000
0010
0101
0100
0001
0010
,
0100
1000
0100
1000
0001
0100
0001
0100
0010
0000
1000
0001
0010
0100
1000
0000
,
0001
0000
0100
0001
0000
0010
0110
0000
,
0011
0000
0010
0100
0000
1000
1010
0000
,
0110
0000
0100
0001
0000
1000
1100
0000
,
0120
0000
0000
0002
0000
0000
0033
0000
,
2002
0000
0000
0000
,
0000
0000
0000
0000
,
0000
3003
0000
0000
;

//--------------- dance-double - forcednature ----------------
#NOTEDATA:;
#STEPSTYPE:dance-double;
#DESCRIPTION:forcednature;
#CREDIT:forcednature;
#DIFFICULTY:Easy;
#METER:1;
#RADARVALUES:0,0,0,0,0;
#NOTES:
00000000
00000000
00000000
00000000
,
00000000
00000000
00000000
00000000
,
00000000
00000000
00000000
00000000
,
00000000
00000000
00000000
00000000
,
00000000
00000000
00000000
00000000
,
00010000
00000000
00000000
00000000
,
00000000
00000000
00000000
00000000
,
00000000
00000000
00000000
00000000
,
00000000
00000000
00000000
00000000
,
00000100
00000000
00000000
00000000
,
00000000
00000000
00000000
00000000
,
00000000
00000000
00000000
00000000
,
00000000
00000000
00000000
00000000
,
00001000
00000000
00000000
00000000
,
00000000
00000000
00000000
00000000
,
00000000
00000000
00000000
00000000
,
00000000
00000000
00000000
00000000
,
00000001
00000000
00000000
00000000
,
00000000
00000000
00000000
00000000
,
00000000
00000000
00000000
00000000
,
00000000
00000000
00000000
00000000
,
00000100
00000000
00000000
00000000
,
00000000
00000000
00000000
00000000
,
00000000
00000000
00000000
00000000
,
00000000
00000000
00000000
00000000
,
00000010
00000000
00000000
00000000
,
00000000
00000000
00000000
00000000
,
00000000
00000000
00000000
00000000
,
00000000
00000000
00000000
00000000
,
00001000
00000000
00000000
00000000
,
00000000
00000000
00000000
00000000
,
00000000
00000000
00000000
00000000
,
00000000
00000000
00000000
00000000
,
00000100
00000000
00000000
00000000
,
00000000
00000000
00000000
00000000
,
00000000
00000000
00000000
00000000
,
00000000
00000000
00000000
00000000
,
00010000
00000000
00000000
00000000
,
00000000
00000000
00000000
00000000
,
00000000
00000000
00000000
00000000
,
00000000
00000000
00000000
00000000
,
00001000
00000000
00000000
00000000
,
00000000
00000000
00000000
00000000
,
00000000
00000000
00000000
00000000
,
00000000
00000000
00000000
00000000
,
01000000
00000000
00000000
00000000
,
00000000
00000000
00000000
00000000
,
00000000
00000000
00000000
00000000
,
00000000
00000000
00000000
00000000
,
00010000
00000000
00000000
00000000
,
00000000
00000000
00000000
00000000
,
00000000
00000000
00000000
00000000
,
00000000
00000000
00000000
00000000
,
10000000
00000000
00000000
00000000
,
00000000
00000000
00000000
00000000
,
00000000
00000000
00000000
00000000
,
00000000
00000000
00000000
00000000
,
01000000
00000000
00000000
00000000
,
00000000
00000000
00000000
00000000
,
00000000
00000000
00000000
00000000
,
00000000
00000000
00000000
00000000
,
00100000
00000000
00000000
00000000
,
00000000
00000000
00000000
00000000
,
00000000
00000000
00000000
00000000
,
00000000
00000000
00000000
00000000
,
10010000
00000000
00000000
00000000
;

//--------------- dance-double - forcednature ----------------
#NOTEDATA:;
#STEPSTYPE:dance-double;
#DESCRIPTION:forcednature;
#CREDIT:forcednature;
#DIFFICULTY:Medium;
#METER:7;
#RADARVALUES:0,0,0,0,0;
#NOTES:
00000000
00000000
00000000
00000000
,
00000000
00000000
00000000
00000000
,
00000000
00000000
00000000
00000000
,
00000000
00000000
00000000
00000000
,
00000000
00000000
00000000
00000000
,
00002000
00000000
00000000
00000000
,
01000000
00000000
01000000
00000000
,
02003000
00000000
03020000
00000000
,
20030000
00000000
30020000
00000000
,
00230000
00000000
00000000
01000000
,
02300000
00000000
00000000
10000000
,
23000000
00000000
30020000
00000000
,
01030000
00002000
00010000
00013000
,
00000000
00000010
00001000
00000010
,
00000000
00000100
00000010
00000100
,
00000000
00000001
00000100
00000001
,
00001000
00001000
00001000
00000000
,
00000100
00000000
00000010
00000000
,
00000001
00001000
00000001
00000000
,
00000100
00000010
00000000
00000010
,
00000000
00000010
00010000
00010000
,
00000000
00001000
00100000
00001000
,
00000000
00100000
00010000
00100000
,
00000000
00001000
00010000
00001000
,
00000000
01000000
00010000
00000000
,
10010000
00000000
00010000
01000000
,
00001000
00010000
00000100
00001000
,
00000001
00000010
00000000
00000010
,
00000001
00000100
00001000
00000000
,
00010000
00001000
00010000
00001000
00000000
00000000
01000000
00000000
,
00010000
00100000
01000000
00000000
,
10000000
00010000
10000000
00010000
00000000
00000000
01000000
00000000
,
00010000
00100000
00001000
00000000
,
00001000
00010000
00001000
00010000
00000000
00000000
00000010
00000000
,
00001000
00000001
00000010
00000000
,
00000001
00001000
00000001
00001000
00000000
00000000
00000100
00000000
,
00001000
00000010
00010000
00000000
,
00011000
00000000
00100000
00010000
,
01000000
00001000
00010000
00000010
,
00001000
00000000
00000100
00000010
,
00000001
00000010
00000001
00000000
00000100
00000001
00000100
00000000
,
00000010
00001000
00000000
00000010
,
00010000
00001000
00100000
00010000
,
10010000
10000000
10010000
00010000
,
01000000
00000000
00001000
00000000
00010000
00001000
00010000
00000000
,
00000100
00001001
00000010
00001001
,
00000001
00000100
00001000
00000000
,
00010000
00011000
00001000
00011000
,
00010000
01000000
10000000
00000000
,
00100000
10010000
01000000
10010000
,
10000000
00000000
01000000
00000000
00010000
00000000
00001000
00010000
,
00001000
00000000
00010000
00000000
00000100
00000000
00001000
00000001
,
00001000
00000010
00010000
00000000
,
00000100
00011000
00000100
00011000
,
00100000
00010000
01000000
00000000
,
01000000
00011000
01000000
00011000
,
00000010
00001000
00000100
00000000
,
00010000
00101000
00010000
00101000
,
00001000
00000000
00010000
00001000
00010000
00000000
00000010
00000000
,
00001001
00000100
00001001
00000010
,
00000001
00001000
00000001
00001000
00000002
00000000
00000000
00000000
,
00000103
00000000
00000000
00000001
00000000
00000000
00000100
00000000
,
00000010
00000000
00000000
00001000
00000000
00000000
00000010
00000000
,
00010000
00000000
00000000
00001000
00000000
00000000
00010000
00000000
,
00200000
00000000
00000000
00000000
00000000
00300000
00000000
00000000
,
20020000
00000000
00000000
00000000
,
00000000
00000000
00000000
00000000
,
00000000
30030000
00000000
00000000
;

//--------------- dance-double - forcednature ----------------
#NOTEDATA:;
#STEPSTYPE:dance-double;
#DESCRIPTION:forcednature;
#CREDIT:forcednature;
#DIFFICULTY:Hard;
#METER:11;
#RADARVALUES:0,0,0,0,0;
#NOTES:
00000000
00000000
00000000
00000000
,
00000000
00000000
00000000
00000000
,
00000000
00000000
00000000
00000000
,
00000000
00000000
00000000
00000000
,
00000000
00000000
00000000
00000000
,
00020000
00000100
00001000
00000010
,
00000000
00000010
00001000
00000100
,
00032000
01000000
00010000
00100000
,
00023000
00000010
00001000
00030100
,
00000110
00000010
00000001
00000100
,
00000110
00000010
00010000
00001000
,
00011000
00010000
00110000
00100000
,
01000000
00000000
00010000
01000000
00010000
01000000
00010000
00000000
,
10000000
01000000
00010000
00022000
,
00033000
00001000
00000010
00000022
,
00000033
00000001
00000100
00001000
,
00010000
01000000
02200000
03300000
,
00100000
00000000
00010000
10000000
00010000
00000000
01000000
00000000
,
00001000
00010000
00000010
00001000
,
00000010
00010000
00001000
00000010
,
00000100
00001000
00000100
00000000
00000110
00000000
00001001
00000000
,
00000001
00000000
00000100
00001000
00020000
00000000
00230000
00000000
,
01300000
00000000
00010000
00100000
00002000
00000000
00023000
00000000
,
00030010
00000000
00010000
00001000
00000020
00000000
00000230
00000000
,
00001300
00000001
00000010
00000001
00000200
00000000
00001300
00000000
,
00000101
00000000
00000001
00000010
00000200
00000000
00001300
00000010
,
00010000
00000000
00001000
00100000
00010000
00100000
00001000
00010000
,
00001000
01000000
00000000
01000000
00000000
00010000
00000000
00010000
,
00000000
10000000
01000000
00100000
00001000
00010000
00001000
00000000
,
00010000
00000010
00001000
00000010
00000000
00000100
00000001
00000100
,
00000000
00000010
00001000
00000010
00010000
00001000
00010000
00000000
,
00001000
00100000
00010000
00100000
00000000
00010000
01000000
00010000
,
00000000
10000000
01000000
10000000
00200000
00000000
00300000
00000000
,
01000000
00010000
01000000
00001000
00000000
00010000
00000010
00001000
,
00000000
00000010
00010000
00001000
00010000
00000100
00001000
00000100
,
00000010
00000001
00000010
00000100
00000000
00001000
00000010
00001000
,
00000000
00000001
00000010
00000001
00000200
00000000
00000310
00000000
,
00001001
00000000
00000001
00000100
00002000
00000000
00023000
00000000
,
00130000
00000000
10000000
01000000
00020000
00000000
00031000
00000000
,
00100000
00000000
00010000
01000000
20000000
00000000
31000000
00000000
,
01010000
01001000
00011000
00000010
,
00001001
00000000
00000001
00000100
00002000
00000000
00023000
00000000
,
00130000
00000000
10000000
01000000
00020000
00000000
00031000
00000000
,
00010000
00000010
00001000
00000000
00000010
00010000
00001000
00000000
,
00000010
00000100
00001000
00000100
00010000
00000000
00011000
00000000
,
00001000
00100000
02000000
00000000
03010000
01000000
20000000
00000000
,
30010000
00100000
00001000
00010000
00000010
00000000
00000110
00000000
,
00000100
00000001
00002000
00000000
00003100
00000010
00002000
00000000
,
00013000
01000000
00100000
00001000
00010000
00000000
00011000
00000000
,
00001000
01000000
00200000
00000000
00310000
00100000
20000000
00000000
,
30010000
00100000
01000000
00010000
00001000
00000000
00100000
00010000
,
02000000
00000000
03001000
00010000
00000020
00000000
00010030
00001000
,
00000010
00000000
00000110
00000000
00000100
00001000
00000001
00000000
,
00000100
00001000
00020000
00000000
00030010
00001000
00000200
00000000
,
00000310
00000001
00001000
00000001
00000100
00000000
00000110
00000000
,
00000010
00010000
00002000
00000000
00103000
00001000
00020000
00000000
,
00130000
01000000
00100000
10000000
00010000
00000000
10010000
00000000
,
10000000
01000000
00020000
00000000
00031000
00100000
00020000
00000000
,
01030000
00001000
00010000
00000010
00010000
00000000
00011000
00000000
,
00001000
00000010
00001000
00000000
00000010
00000001
00000010
00000000
,
00000001
00000100
00000001
00000100
00001000
00000000
00011000
00000000
,
00010000
00000000
00100000
10000000
00000000
10000000
01000000
00000000
,
00010000
00000000
00001000
00100000
00000000
00100000
00010000
00000000
,
01000000
00000000
00001000
00010000
00000000
00010000
00000010
00000000
,
00000220
00000000
00000000
00000330
,
00002002
00000000
00000000
00000000
,
00000000
00000000
00000000
00000000
,
00000000
00003003
00000000
00000000
;

//--------------- dance-double - forcednature ----------------
#NOTEDATA:;
#STEPSTYPE:dance-double;
#DESCRIPTION:forcednature;
#CREDIT:forcednature;
#DIFFICULTY:Challenge;
#METER:14;
#RADARVALUES:0,0,0,0,0;
#NOTES:
00000000
00000000
00000000
00000000
,
00000000
00000000
00000000
00000000
,
00000000
00000000
00000000
00000000
,
00000000
00000000
00000000
00000000
,
00000000
00000000
00000000
00000000
,
00010000
00001000
00010000
01000000
00100000
00002000
00000000
00013000
,
00100000
02000000
00000000
03010000
10000000
00100000
00200000
00000000
,
10300000
01000000
00010000
00001000
00000010
00000000
00000110
00000000
,
00000100
00010000
00001000
00010000
00000010
00000000
00000110
00000000
,
00000100
00001000
00000100
00000001
00001000
00000010
00020000
00000000
,
00031000
00000010
00000100
00010000
00001000
00100000
01000000
00000000
,
01100000
00000000
00100000
00010000
01000000
00100000
10000000
01000000
,
00010000
00001000
00010000
00001000
00000010
00000100
00001000
00000000
,
00000001
00000100
00001000
00010000
00100000
00000000
01100000
00000000
,
10000000
01000000
00010000
00001000
00000010
00000000
00000110
00000000
,
00000100
00010000
00001000
00010000
00000010
00000000
00001000
00000100
,
00001000
00000001
00000100
00000001
00000020
00000000
00000030
00000000
,
00000110
00000000
00000100
00010000
00001000
00000000
00011000
00000000
,
00010000
00100000
01000000
00100000
10000000
00010000
00100000
01000000
,
00010000
00001000
00000000
00001000
00100000
00001000
00000000
00001000
,
01000000
00010000
00100000
00001000
00010000
00000010
00001000
00000100
,
00000000
00000010
00001000
00000010
00000001
00000000
00000101
00000000
,
00000100
00001000
00010000
00001000
00100000
00000000
00110000
00000000
,
00010000
01000000
10000000
01000000
00010000
00000000
10000000
00100000
,
10000000
01000000
00010000
00001000
00200000
00000000
01300000
00000000
,
00110000
00000000
00010000
01000000
00001000
00010000
00000010
00000000
,
00010000
00001000
00000010
00000100
00001000
00000001
00000010
00001000
,
00000010
00000001
00000000
00000001
00000100
00001000
00000000
00001000
,
00010000
00100000
01000000
00100000
10000000
00010000
00100000
00000000
,
01000000
00010000
00001000
00101000
00000000
00100000
00010000
01000000
,
00000000
00100000
00010000
00001000
00000100
00001000
00010000
00000010
,
00001000
00000001
00000010
00001010
00000000
00001000
00010000
00000100
,
00000000
00001000
00000010
00010000
00001000
00000000
00110000
00000000
,
00001000
00010000
00000010
00001010
00000000
00001000
00000100
00000101
,
00000000
00000001
00000100
00001000
00000001
00000010
00000001
00000100
,
00001000
00010000
01000000
01100000
00000000
00100000
00001000
00011000
,
00000000
00010000
00100000
10000000
01000000
00010000
00001000
00000000
,
00012000
00000000
00013000
00000010
00001000
00000100
00000002
00000000
,
00000103
00001000
00000010
00010000
00001000
01000000
00100000
00000000
,
01200000
00000000
01300000
00010000
10000000
00010000
00200000
00000000
,
01300000
10000000
01000000
00010000
00001000
00000100
00000001
00000100
,
00000020
00000000
00001030
00000001
00000010
00000000
00000120
00000000
,
00000130
00010000
00001000
00100000
00001000
00010000
00100000
00000000
,
01000000
00010000
10000000
00010000
00100000
00010000
10000000
00010000
,
01000000
00100000
00010000
00001000
00000100
00000000
00000110
00000000
,
00000010
00001000
00000010
00000000
00000100
00000000
00000001
00000000
00000010
00000001
00000010
00000000
00000100
00000000
00001000
00000000
,
00000010
00010000
00001000
00100000
01000000
00000000
01100000
00000000
,
00100000
00010000
00100000
00000000
00001000
00000000
00010000
00000000
00000010
00001000
00000010
00000000
00010000
00000000
00001000
00000000
,
01000000
00010000
00100000
01000000
00010000
00000000
00011000
00000000
,
00001000
00010000
00001000
00000000
01000000
00000000
00010000
00000000
01000000
00100000
01000000
00000000
00100000
00000000
10000000
00000000
,
00010000
00100000
00000000
01000000
00100000
00000000
00001000
00000000
00010000
00000000
00000100
00001000
00000100
00000000
00000010
00000100
,
00000010
00000000
00000001
00000000
00000100
00000000
00000010
00000100
00000010
00000000
00001000
00000000
00000100
00000000
00010000
00001000
,
00010000
00000000
00001000
00000000
00100000
00000000
00010000
00000000
00100000
00010000
00100000
00010000
00100000
00000000
00000000
00000000
,
00001000
00010000
00001000
00000000
01000000
00000000
00010000
00000000
00100000
00010000
00100000
00000000
01000000
00000000
10000000
00000000
,
01000000
00010000
00001000
00000010
00000110
00000000
00001001
00000000
,
00001000
00000010
00001000
00000000
00000001
00000000
00000010
00000000
00000100
00001000
00000100
00000000
00000001
00000000
00000100
00000000
,
00000010
00000001
00000000
00000100
00000001
00000000
00000010
00000000
00001000
00000000
00010000
00001000
00010000
00000000
00000000
00000000
,
00001000
00100000
00001000
00000000
00010000
00000000
00001000
00000000
00010000
00000010
00010000
00000000
00001000
00000000
00010000
00000000
,
00000100
00000000
00001000
00000000
00000010
00000000
00000100
00000000
00000001
00000000
00000010
00000100
00000010
00000000
00000100
00001000
,
00000100
00000000
00010000
00000000
00001000
00000000
00100000
00010000
00100000
00000000
00001000
00000000
00010000
00000000
00000010
00001000
,
00000010
00000000
00000100
00000010
00000100
00000000
00000001
00000000
00000010
00000001
00000010
00000001
00002000
00000000
00000000
00000000
,
00003010
00000100
00001000
00010000
00000000
01000000
01100000
00000000
,
00100000
01000000
00010000
00001000
00000000
00000100
00000110
00000000
,
00000001
00000100
00001000
00000100
00000000
00000001
00000011
00000000
,
00002100
00000000
00000000
00000001
00000000
00003010
00000000
00000000
,
00000220
00000000
00000000
00000000
,
00000000
00000000
00000000
00000000
,
00000000
00000330
00000000
00000000
;
