#VERSION:0.83;
#TITLE:Rave*it!! Rave*it!!;
#SUBTITLE:;
#ARTIST:機龍;
#TITLETRANSLIT:Rave it!! Rave it!!;
#SUBTITLETRANSLIT:;
#ARTISTTRANSLIT:Kiryu;
#GENRE:EDM SPEED;
#CREDIT:;
#MUSIC:Rave_it!! Rave_it!!.ogg;
#BANNER:Rave_it!! Rave_it!!.png;
#BACKGROUND:Rave_it!! Rave_it!!-bg.png;
#CDTITLE:./CDTitles/bm IIDX 22 PENDUAL.png;
#SAMPLESTART:85.100;
#SAMPLELENGTH:15.000;
#SELECTABLE:YES;
#OFFSET:1.691;
#BPMS:0.000=141.000;
#STOPS:;
#TIMESIGNATURES:0.000=4=4;
#BGCHANGES:4.000=Rave_it!! Rave_it!!.mp4=1.000=0=0=0=StretchNoLoop====,
99999.000=-nosongbg-=1.000=0=0=0=StretchNoLoop====
;
#FGCHANGES:;

//--------------- dance-single - forcednature ----------------
#NOTEDATA:;
#STEPSTYPE:dance-single;
#DESCRIPTION:forcednature;
#DIFFICULTY:Beginner;
#METER:4;
#RADARVALUES:0,0,0,0,0;
#CREDIT:forcednature;
#CREDIT:forcednature;
#NOTES:
0000
0000
0000
0000
,
0000
0000
0000
0000
,
0000
0000
0000
0000
,
0000
0000
0000
0000
,
0000
0000
0000
0000
,
0000
0000
0000
0000
,
1000
0000
1000
0000
,
0001
0000
0001
0000
,
0100
0000
0100
0000
,
0020
0000
0000
0030
,
1000
0000
0100
0000
,
1000
0000
0100
0000
,
0010
0000
0001
0000
,
0010
0000
0001
0000
,
0001
0000
0100
0000
,
0001
0000
0100
0000
,
0010
0000
1000
0000
,
0010
0000
1000
0000
,
0001
0000
0000
0000
,
0010
0000
0000
0000
,
0100
0000
0000
0000
,
1000
0000
0000
0000
,
0010
0000
0000
0000
,
0100
0000
0000
0000
,
0001
0000
0001
0000
,
1000
0000
0000
0000
,
0100
0000
0100
0000
,
1000
0000
1000
0000
,
0001
0000
0001
0000
,
0100
0000
0100
0000
,
0010
0000
0010
0000
,
1000
0000
1000
0000
,
0001
0000
0001
0000
,
0020
0000
0000
0000
,
0000
0000
0000
0030
,
1001
0000
0000
0000
,
1000
0000
0000
0000
,
0010
0000
0000
0000
,
0100
0000
0000
0000
,
0001
0000
0000
0000
,
0010
0000
0000
0000
,
0100
0000
0000
0000
,
1000
0000
0000
0000
,
0001
0000
0100
0000
,
0001
0000
0100
0000
,
0010
0000
1000
0000
,
0010
0000
1000
0000
,
0100
0000
0100
0000
,
0010
0000
0010
0000
,
0001
0000
1000
0000
,
0010
0000
0000
0000
,
0200
0000
0000
0000
,
0000
0000
0000
0300
,
0001
0100
0001
0100
,
0010
1000
0010
1000
,
0001
0010
0001
0010
,
0100
1000
0100
0000
,
1000
0100
1000
1000
,
0001
0100
0001
0001
,
0010
0100
0010
0010
,
0001
0000
1000
0010
,
1000
0000
0001
0000
,
0020
0000
0000
0000
,
0000
0000
0000
0000
,
0000
0000
0000
0000
,
0030
0000
0000
0000
;

//--------------- dance-single - forcednature ----------------
#NOTEDATA:;
#STEPSTYPE:dance-single;
#DESCRIPTION:forcednature;
#DIFFICULTY:Easy;
#METER:9;
#RADARVALUES:0,0,0,0,0;
#CREDIT:forcednature;
#CREDIT:forcednature;
#NOTES:
0000
0000
0000
0000
,
0000
0000
0000
0000
,
0000
0000
0000
0000
,
0000
0000
0000
0000
,
0000
0000
0000
0000
,
0000
0000
0000
0000
,
1000
1000
0001
0010
,
0001
0001
1000
0010
,
0100
0001
0100
0000
0010
1000
0010
0000
,
0200
0000
0000
0300
,
0001
0010
0001
0000
1000
0000
0100
0000
,
1000
0010
1000
0000
0001
0000
0100
0000
,
0010
0100
0010
0000
1000
0000
0001
0000
,
0010
0000
0100
0000
0010
0000
0000
0000
0001
0000
0000
1000
0000
0000
0001
0000
,
0100
0000
0010
0000
0100
0000
0000
0000
0001
0000
0000
1000
0000
0000
0001
0000
,
0010
0000
0010
0000
0100
0000
0000
0000
1000
0000
0000
0001
0000
0000
1000
0000
,
0001
0100
0001
0000
1000
0100
1000
0000
,
0220
0000
0000
0000
0330
0000
0000
0000
0100
0000
0000
0100
0000
0000
0100
0000
,
1000
0000
1000
0000
,
0001
0000
0001
0000
,
0100
0000
0100
0000
,
0010
0000
0010
0000
,
1000
0100
1000
0100
,
0010
0001
0010
0001
,
0100
0010
0100
0010
,
1000
0001
0100
0000
0001
1000
0100
0000
,
0010
0000
0010
0001
0000
0001
0100
0000
,
0010
0000
0010
1000
0000
1000
0100
0000
,
0010
0000
0010
0001
0000
0001
1000
0000
,
0010
0000
0010
1000
0000
1000
0001
0000
,
0010
0100
0010
0000
0001
1000
0001
0000
,
0100
0010
0100
0000
0001
1000
0001
0000
,
1000
0100
1000
0100
0010
0001
0010
0001
,
0200
0000
0000
0000
,
0000
0000
0000
0300
,
0002
0000
0000
2003
0000
0000
0000
3200
,
0000
0320
0000
0032
0000
0000
0203
0000
,
0320
0000
0000
2030
0000
0000
0000
3002
,
0000
2003
0000
3200
0000
0320
0000
0000
,
0031
0001
1000
1000
,
0010
0010
0100
0100
,
0001
1000
0100
0010
,
0001
1000
0010
0100
,
0002
0003
0002
0003
,
2000
3000
2000
3000
,
0200
0300
0200
0300
,
0020
0030
0020
0030
,
0001
0100
0001
0010
,
0100
1000
0010
1000
,
0100
0100
0100
0000
0010
0010
0010
0000
,
0001
1000
1000
0001
,
2002
0000
0000
0000
,
0000
0000
0000
3003
,
1000
0000
0100
1000
0000
0001
0100
0000
,
0010
1000
0010
0000
0100
0001
0100
0000
,
0001
0000
0010
0100
0000
1000
0100
0000
,
0010
0000
0001
0000
0010
0000
0000
0000
0100
0000
0000
0100
0000
0000
0100
0000
,
1000
0000
0010
0000
1000
0000
0000
0000
0100
0000
0000
0100
0000
0000
0100
0000
,
0010
0000
0001
0000
0010
0000
0000
0000
0100
0000
0000
0100
0000
0000
0100
0000
,
1000
0001
1000
0000
0001
1000
0001
0000
,
0100
0010
0100
0000
0001
1000
0100
0000
,
0020
0030
0020
0030
,
2002
0000
0000
0000
,
3003
0000
0000
0000
;

//--------------- dance-single - forcednature ----------------
#NOTEDATA:;
#STEPSTYPE:dance-single;
#DESCRIPTION:forcednature;
#DIFFICULTY:Medium;
#METER:13;
#RADARVALUES:0,0,0,0,0;
#CREDIT:forcednature;
#CREDIT:forcednature;
#NOTES:
0000
0000
0000
0000
,
0000
0000
0000
0000
,
0000
0000
0000
0000
,
0000
0000
0000
0000
,
0000
0000
0000
0000
,
0000
0000
0000
0000
,
1000
0100
1000
0100
0010
0001
1000
0001
,
0001
0100
0001
0100
0010
1000
0001
1000
,
1000
0100
0100
0010
0010
0001
0001
1000
,
0020
0000
0000
0130
,
0010
1000
0100
1000
0001
0010
0001
0100
,
0010
0001
0010
1000
0100
0001
0100
1000
,
0001
0100
0010
1000
0001
0010
0100
1000
,
0010
0000
0100
0000
0001
0000
0001
0000
1000
0000
0000
1000
0000
0000
1000
0000
,
0100
0000
0010
0000
0001
0000
0001
0000
0100
0000
0000
0100
0000
0000
0100
0000
,
0010
0000
0010
0000
1000
0000
0001
0000
0010
0000
0000
0010
0000
0000
0010
0000
,
0100
1000
0001
0001
0100
0001
1000
1000
,
0100
0000
0000
0000
0000
0000
0000
0000
0010
0000
0000
0010
0000
0000
0010
0000
,
0001
0100
0001
0000
0001
0100
0001
0000
,
1000
0100
1000
0000
1000
0100
1000
0000
,
0010
0100
0010
0000
0010
0100
0010
0000
,
1000
0001
0010
0000
1000
0001
0010
0000
,
0100
1000
0001
0000
0100
1000
0001
0000
,
0100
0010
1000
0000
0100
0010
1000
0000
,
0100
0010
0001
0000
0100
0010
0001
0000
,
0200
0010
0310
1001
,
0001
0100
0001
0100
0010
1000
0001
1000
,
0100
0010
0100
0010
0001
0100
0010
1000
,
1000
0100
1000
0100
0010
0001
1000
0001
,
0100
0000
0010
0000
0100
0000
0010
0000
1000
0000
0000
0001
0000
0000
1000
0000
,
0100
0010
0001
0010
0100
0010
1000
0010
,
0001
0100
0010
0100
1000
0100
0010
0100
,
0001
0001
1000
1000
0100
0100
0010
0010
,
0002
0100
1000
0010
,
1000
0100
1000
0013
,
2001
0000
0000
3200
0000
0000
0000
0320
,
0000
0032
0000
2003
0000
0000
3020
0000
,
0230
0000
0000
0302
0000
0000
0000
2003
,
0000
3200
0000
0320
0000
0001
0031
0000
,
0010
0100
1000
0100
,
0010
0001
0100
0001
,
1000
0010
0001
0010
,
0100
0001
1000
0100
,
0010
0001
0100
0000
0010
0001
0100
0000
,
0010
1000
0100
0000
0010
1000
0100
0000
,
0010
0001
1000
0000
0010
0001
1000
0000
,
0010
1000
0001
0000
0010
1000
0001
0000
,
0100
0001
0010
0001
0100
0001
0010
0001
,
1000
0100
1000
0010
1000
0100
1000
0010
,
0100
0010
1000
0001
0010
0100
1000
0001
,
0200
0010
0310
0110
,
2002
0000
0000
0000
,
0000
0000
0000
3003
,
1000
0100
0001
0100
1000
0010
0100
0001
,
0010
1000
0010
0001
0010
1000
0010
0100
,
1000
0001
0100
1000
0100
0001
1000
0010
,
0001
0000
0010
0000
1000
0001
1000
0001
0010
0000
0000
0010
0000
0000
0010
0000
,
0100
0000
1000
0000
0001
0100
0001
0100
0010
0000
0000
0010
0000
0000
0010
0000
,
1000
0100
1000
0100
0010
0000
0001
0000
1000
0000
0000
1000
0000
0000
1000
0000
,
0010
0000
0100
0000
0001
1000
0001
1000
0100
0000
0010
0000
0001
1000
0001
1000
,
0010
0000
0100
0000
0001
0000
1000
0000
0100
0000
0000
0010
0000
0000
0110
0000
,
1000
0001
0100
0000
0001
1000
0100
0000
,
0220
0000
0000
0000
,
0330
0000
0000
0000
;

//--------------- dance-single - forcednature ----------------
#NOTEDATA:;
#STEPSTYPE:dance-single;
#DESCRIPTION:forcednature;
#DIFFICULTY:Hard;
#METER:15;
#RADARVALUES:0,0,0,0,0;
#CREDIT:forcednature;
#CREDIT:forcednature;
#NOTES:
0000
0000
0000
0000
,
0000
0000
0000
0000
,
0000
0000
0000
0000
,
0000
0000
0000
0000
,
0000
0000
0000
0000
,
0000
0000
0000
0000
,
1000
0100
1000
0010
0100
0001
0010
0001
,
1000
0010
1000
0100
0010
0001
0100
0001
,
1000
0100
1000
0100
0010
0001
0010
0001
1000
0010
1000
0010
0100
0001
0100
0001
,
0020
0000
0000
0130
,
0010
0001
0100
0010
0001
0010
1000
0001
,
0100
1000
0100
0001
1000
0100
0010
1000
,
0001
0100
1000
0100
0010
0001
1000
0010
,
0100
0000
1000
0000
0100
0001
0100
0001
0010
0000
0000
0010
0000
0000
0010
0000
,
0110
0000
0100
0000
1000
0001
1000
0001
0100
0000
0000
0101
0000
0000
0101
0000
,
0001
1000
0001
1000
0100
0000
0010
0000
0011
0000
0000
0011
0000
0000
0011
0000
,
0001
0000
1000
0000
0001
0100
0001
0100
0010
0000
1000
0000
0001
0010
0001
0010
,
0200
0000
0000
0000
0300
0000
0000
0000
1000
0000
0000
1000
0000
0000
1000
0000
,
0001
0100
0010
0000
1000
0100
0010
0000
,
0001
0100
1000
0000
0001
0010
1000
0000
,
0100
0000
0010
0001
0010
0000
0000
0000
0110
0000
0000
0110
0000
0000
0110
0000
,
0100
0000
1000
0001
1000
0000
0000
0000
0010
0000
0100
0000
0101
0000
0000
0000
,
0001
0010
0100
0010
0001
0100
0010
1000
,
0100
0010
0100
1000
0010
0100
0001
1000
,
0100
1000
0100
1000
0001
0100
0001
0100
0010
1000
0010
1000
0001
0010
0001
0010
,
0200
0000
0000
0310
,
1000
0001
0100
1000
0001
0010
1000
0100
,
0010
1000
0001
0100
1000
0010
0100
1000
,
0001
0010
0100
0010
0001
1000
0100
0001
,
0010
0000
0100
0000
1000
0000
0001
0000
0101
0000
0000
0101
0000
0000
0101
0000
,
0001
0010
1000
0001
0100
0001
1000
0010
,
0100
1000
0001
0100
1000
0001
0010
0001
,
0010
0010
1000
1000
0001
0001
0010
0010
,
0200
0000
0000
0000
,
0000
0000
0000
0310
,
1002
0000
0000
0203
0000
0000
0000
0320
,
0000
2030
0000
3002
0000
0000
0010
0000
,
0203
0000
0000
0320
0000
0000
0000
2030
,
0000
3002
0000
0023
0000
0100
0130
0000
,
1100
1000
0001
0001
,
0100
0000
0100
0000
0010
0000
0010
1000
,
0001
0001
0010
0010
,
0100
0000
1000
0000
0001
0100
0101
0000
,
1010
0100
0001
0000
1000
0100
0001
0100
,
0010
0001
1000
0000
0001
0110
1000
0000
,
0001
0000
0010
0100
1000
0000
0000
0000
0010
0000
1000
0010
0000
1000
0010
0000
,
0100
0000
0001
1000
0100
0000
0000
0000
0010
0000
0001
0000
1001
0000
0000
0000
,
1000
0000
0010
0000
0100
0000
0001
0000
1000
0000
0010
0000
0100
0000
0001
1000
,
0001
0000
0010
0000
0100
0000
1000
0000
0001
0000
0010
0000
0100
0000
1000
0001
,
1000
0010
1000
0010
0100
0001
0100
0001
1000
0100
0010
0001
0010
0100
1000
0001
,
0100
0010
1000
0001
0010
0100
1000
0001
,
0200
0010
0010
0010
,
0010
0010
0310
0110
,
1001
0000
1000
0100
1000
0000
0010
0000
0100
0001
0100
0000
0010
0000
0100
0001
,
1000
0000
0100
1000
0001
0000
0010
0001
1000
0000
0010
1000
0001
0000
0100
0000
,
0010
0000
1000
0001
1000
0000
0100
0000
0010
0001
0010
0000
0100
0000
1000
0010
,
0100
0000
0001
0010
0100
1000
0100
1000
0010
0000
0100
0010
0000
0100
0010
0000
,
1001
0000
1000
0000
0010
0100
0001
1000
0010
0000
1000
0100
0000
0010
0001
0000
,
0100
0001
0100
0010
1000
0000
0001
0000
0010
0000
0100
0010
0000
0100
1000
0000
,
0001
0000
0100
0000
0010
1000
0001
1000
0100
0000
0010
0000
0001
1000
0001
0100
,
0010
0000
1000
0000
0001
0000
0010
0000
1000
0000
0010
0100
0000
0010
0001
0000
,
0100
0010
1000
0000
0100
0010
0001
0000
,
0200
0000
0000
0000
,
0300
0000
0000
0000
;

//--------------- dance-single - forcednature ----------------
#NOTEDATA:;
#STEPSTYPE:dance-single;
#DESCRIPTION:forcednature;
#DIFFICULTY:Challenge;
#METER:15;
#RADARVALUES:0,0,0,0,0;
#CREDIT:forcednature;
#CREDIT:forcednature;
#NOTES:
0000
0000
0000
0000
,
0000
0000
0000
0000
,
0000
0000
0000
0000
,
0000
0000
0000
0000
,
0000
0000
0000
0000
,
0000
0000
0000
0000
,
1000
1000
0001
0001
0100
0100
0010
0010
,
1000
1000
0001
0001
0010
0010
0100
0100
,
1000
0000
0010
0000
0001
0000
0010
0000
0100
0000
0000
0100
0000
0000
0100
0000
,
0020
0000
0000
0030
,
1100
1000
0101
0001
1010
1000
0011
0001
,
0110
0100
1001
0001
0110
0010
1001
1000
,
0101
0100
1010
0010
1100
0100
0011
0010
,
1001
0000
0100
0000
0010
0100
0010
0000
0100
0000
0000
0100
0000
0000
0100
0000
,
1001
0000
0001
0000
1000
0100
1000
0100
0010
0000
0000
0010
0000
0000
0010
0000
,
0001
0100
0001
0100
0010
0000
1000
0000
0001
0000
0000
0001
0000
0000
0001
0000
,
0010
0000
0100
0000
1000
0001
1000
0001
0100
0000
0010
0000
1000
0001
1000
0001
,
0010
0000
0010
0000
0100
0000
0010
0000
0001
0000
0000
0001
0000
0000
0001
0000
,
1000
MMMM
1100
MMMM
,
0001
MMMM
0101
MMMM
,
1000
MMMM
1010
MMMM
,
0001
MMMM
0011
MMMM
,
0101
MMMM
0101
MMMM
,
1010
MMMM
1010
MMMM
,
1100
MMMM
1100
MMMM
,
0011
0100
0011
1001
,
0100
0100
0100
0001
0001
0001
1000
1000
,
0100
0100
0100
0010
0010
0010
0001
0001
,
0100
0100
0100
0010
0010
0010
1000
1000
,
0100
0000
0100
0000
0100
0000
0010
0000
0001
0000
0000
0001
0000
0000
0001
0000
,
0100
0010
1000
0010
0001
0010
0100
0010
,
1000
0010
0001
0010
0100
0010
1000
0010
,
0100
0100
0001
0001
1000
1000
0100
0100
,
0010
MMMM
MMMM
MMMM
,
MMMM
MMMM
MMMM
MMMM
,
1002
0000
0000
0203
0000
0000
0000
0320
,
0000
2030
0000
3002
0000
0000
2003
0000
,
3200
0000
0000
0320
0000
0000
0000
0032
,
0000
0203
0000
0320
0000
1000
1030
0000
,
0001
0010
0001
0100
,
0010
1000
0100
1000
,
0010
0100
0001
1000
,
0100
0010
0001
1000
,
0001
0101
MMMM
0000
1000
1100
MMMM
0000
,
0001
0011
MMMM
0000
1000
1010
MMMM
0000
,
0100
0110
MMMM
0000
0010
0110
MMMM
0000
,
1000
1001
MMMM
0000
0001
1001
MMMM
0000
,
1000
1000
0001
0001
0100
0100
0010
0010
,
1000
1000
0001
0001
0010
0010
0100
0100
,
1000
0010
0001
0010
0100
1000
0100
0001
,
0010
MMMM
MMMM
MMMM
,
MMMM
MMMM
MMMM
MMMM
,
MMMM
MMMM
MMMM
MMMM
,
1100
1000
0101
0001
1010
0101
0110
1001
,
0011
0001
1010
1000
1100
0011
0110
1001
,
0101
0010
1100
0010
0101
1100
0110
1001
,
0011
0000
0100
0000
1010
0000
0100
0000
0010
0000
0000
0010
0000
0000
0010
0000
,
1001
0000
0101
0000
1001
0000
1100
0000
0110
0000
0000
0110
0000
0000
0110
0000
,
0011
0000
0011
0000
1100
0000
0001
0000
1010
0000
0000
1010
0000
0000
1010
0000
,
0101
1100
0011
1010
1100
1010
0101
0011
,
0220
0000
0000
0000
0030
0000
0000
0000
0310
0000
0000
0010
0000
0000
0010
0000
,
1001
MMMM
1001
MMMM
,
0220
0000
0000
0000
,
0330
0000
0000
0000
;

//--------------- dance-double - forcednature ----------------
#NOTEDATA:;
#STEPSTYPE:dance-double;
#DESCRIPTION:forcednature;
#DIFFICULTY:Easy;
#METER:9;
#RADARVALUES:0,0,0,0,0;
#CREDIT:forcednature;
#CREDIT:forcednature;
#NOTES:
00000000
00000000
00000000
00000000
,
00000000
00000000
00000000
00000000
,
00000000
00000000
00000000
00000000
,
00000000
00000000
00000000
00000000
,
00000000
00000000
00000000
00000000
,
00000000
00000000
00000000
00000000
,
00010000
00000100
00001000
00010010
,
00001000
01000000
00010000
00101000
,
00010000
00000100
00001000
00010010
,
00002000
00000000
00000000
00103000
,
00001000
00010000
00100000
01100000
,
01000000
00010000
10000000
10010000
,
00010000
00100000
01000000
01100000
,
00100000
00000000
00000000
00000000
00001000
00000000
00000000
00000000
00010000
00000000
00000000
00010000
00000000
00000000
00010000
00000000
,
00000010
00000000
00000000
00000000
00001000
00000000
00000000
00000000
00000100
00000000
00000000
00000100
00000000
00000000
00000100
00000000
,
00000010
00000000
00000000
00000000
00000001
00000000
00000000
00000000
00000100
00000000
00000000
00000100
00000000
00000000
00000100
00000000
,
00000010
00010000
00001000
00100000
,
01010000
00000000
00000000
00000000
00000000
00000000
00000000
00000000
10000000
00000000
00000000
10000000
00000000
00000000
10000000
00000000
,
01000000
00000000
01000000
00000000
,
00100000
00000000
00100000
00000000
,
00001000
00000000
00001000
00000000
,
00010000
00000000
00010000
00000000
,
00000010
00001000
00000010
00000000
00000010
00001000
00000010
00000000
,
00000100
00000001
00000100
00000000
00000100
00000001
00000100
00000000
,
00000010
00010000
00000010
00000000
00000010
00010000
00000010
00000000
,
00002000
00000000
00000000
00003100
,
00010100
00010000
00001000
00001000
,
01000000
01000000
00010000
00010000
,
10000000
10000000
01000000
01000000
,
00100000
00000000
00000000
00000000
00100000
00000000
00000000
00000000
00010000
00000000
00000000
00010000
00000000
00000000
00010000
00000000
,
01000000
00100000
10000000
00100000
,
00010000
00001000
00000010
00000001
,
00000010
00000100
00000010
00000100
00001000
00000001
00001000
00000001
,
00000200
00000000
00000000
00000000
,
00000000
00000000
00000000
00000300
,
00000002
00000000
00000000
00002003
00000000
00000000
00000000
00003020
,
00000000
00002030
00000000
00003200
00000000
00000000
00020300
00000000
,
00032000
00000000
00000000
02003000
00000000
00000000
00000000
03020000
,
00000000
00230000
00000000
02300000
00000000
10000000
13000000
00000000
,
01000000
00010000
00001000
00000100
,
00001000
00010000
00100000
00010000
,
00001000
00000010
00001000
00010000
,
01000000
00010000
00001000
00000010
,
00000100
00001000
00000000
00000000
00000100
00001000
00000000
00000000
,
00000010
00010000
00000000
00000000
00000010
00010000
00000000
00000000
,
00001000
00100000
00000000
00000000
00001000
00100000
00000000
00000000
,
00010000
01000000
00000000
00000000
00010000
01000000
00000000
00000000
,
00100000
00100000
10000000
10000000
,
01000000
01000000
00010000
00010000
,
00001000
00000010
00000001
00000100
,
00001000
00010000
00010000
00010000
,
00022000
00000000
00000000
00000000
,
00000000
00000000
00000000
00033000
,
01000000
00000000
00010000
00100000
00000000
01000000
10000000
00010000
,
00000000
01000000
00000000
00001000
00000000
00010000
00000100
00000000
,
00001000
00000000
00000010
00000100
00000000
00000001
00000010
00000100
,
00000000
00000000
00001000
00000000
00000000
00000000
00000010
00000000
00010000
00000000
00000000
00010000
00000000
00000000
00010000
00000000
,
00001000
00000000
00000000
00000000
00100000
00000000
00010000
00000000
00100000
00000000
00000000
00100000
00000000
00000000
00100000
00000000
,
01000000
00000000
00000000
00000000
10000000
00000000
00010000
00000000
10000000
00000000
00000000
10000000
00000000
00000000
10000000
00000000
,
00100000
00000000
01000000
00001000
00010000
00000000
00000100
00010000
,
00001000
00000000
00000000
00000000
00000000
00000000
00000000
00000000
00000100
00000000
00000000
00000100
00000000
00000000
00000100
00000000
,
00000010
00000010
00000000
00000000
00010000
00010000
00000000
00000000
,
00022000
00000000
00000000
00000000
,
00033000
00000000
00000000
00000000
;

//--------------- dance-double - forcednature ----------------
#NOTEDATA:;
#STEPSTYPE:dance-double;
#DESCRIPTION:forcednature;
#DIFFICULTY:Medium;
#METER:13;
#RADARVALUES:0,0,0,0,0;
#CREDIT:forcednature;
#CREDIT:forcednature;
#NOTES:
00000000
00000000
00000000
00000000
,
00000000
00000000
00000000
00000000
,
00000000
00000000
00000000
00000000
,
00000000
00000000
00000000
00000000
,
00000000
00000000
00000000
00000000
,
00000000
00000000
00000000
00000000
,
00001000
00000000
00010000
00000000
00100000
01000000
00100000
00000000
,
00010000
00000000
00001000
00000000
00000010
00000100
00000010
00000000
,
00000001
00000100
00000001
00000010
00000100
00001000
00000010
00010000
,
00002000
00000000
00000000
00103000
,
00001000
01000000
00010000
00100000
01000000
10000000
10100000
00000000
,
00010000
01000000
00001000
00010000
00000100
00001000
00001010
00000000
,
00000001
00000010
00000001
00000100
00000010
00001000
00001100
00000000
,
00010000
00000000
00001000
00000000
01000000
00000000
00010000
00000000
00100000
00000000
00000000
00100000
00000000
00000000
00100000
00000000
,
01000000
00000000
10000000
00000000
01000000
00000000
00010000
00000000
00001000
00000000
00000000
00010000
00000000
00000000
00011000
00000000
,
00001000
00000000
00000010
00000000
00000001
00000000
00000010
00000000
00000100
00000000
00000000
00001000
00000000
00000000
00001100
00000000
,
00000100
00010000
00001000
01000000
00010000
00100000
00001000
00010000
,
00100000
00000000
00000000
00000000
00000000
00000000
00000000
00000000
01000000
00000000
00000000
01000000
00000000
00000000
01000000
00000000
,
00010000
10000000
01000000
00000000
00100000
00001000
00010000
00000000
,
00000010
00001000
00000100
00000000
00000010
00000001
00000100
00000000
,
00000010
00000000
00001000
00000000
00010000
00000000
00000000
00000000
01000000
00000000
00000000
01000000
00000000
00000000
01000000
00000000
,
00100000
10000000
00010000
00000000
00100000
01000000
10000000
00000000
,
00010000
01000000
00001000
00010000
00000010
00001000
00000001
00000000
,
00001000
00000100
00010000
00001000
00100000
00010000
10000000
00000000
,
00100000
01000000
00100000
00010000
00001000
00000010
00000100
00000010
,
00000002
00000000
00000000
00001003
,
00000001
00000100
00000001
00001000
00000010
00001000
00000100
00010000
,
00001000
01000000
00010000
00100000
00010000
10000000
01000000
10000000
,
00100000
01000000
00010000
00100000
00010000
01000000
00001000
00010000
,
00000100
00000000
00001000
00000000
00000100
00000000
00000010
00000000
00000001
00000000
00000000
00000001
00000000
00000000
00000001
00000000
,
00000100
00000001
00000100
00000010
00000100
00001000
00010000
00001000
,
00100000
00010000
00100000
01000000
10000000
00010000
10000000
00100000
,
01000000
00010000
01000000
00001000
00010000
00000100
00001000
00000100
,
00000020
00001000
00000100
00000001
,
00000002
00000000
00000000
00000033
,
00000210
00000000
00000000
00020300
00000000
00000000
00000000
00032000
,
00000000
02003000
00000000
03020000
00000000
00000000
00230000
00000000
,
02300000
00000000
00000000
23000000
00000000
00000000
00000000
30020000
,
00000000
02030000
00000000
03002000
00000000
00010000
00013000
00000000
,
00000100
00000000
00001000
00000000
00000010
00010000
00001000
00000000
,
01000000
00000000
00010000
00000000
00100000
00001000
00010000
00000000
,
00000010
00000000
00001000
00000000
00000100
00010000
00001000
00000000
,
00100000
00000000
00010000
00000000
01000000
00001000
00010000
00000000
,
01000000
10000000
00010000
00000000
01000000
00001000
00010000
00000000
,
00000100
00001000
00000001
00000000
00000100
00000010
00001000
00000000
,
00000100
00000000
00010000
00000000
00001000
00000000
00000000
00000000
00100000
00000000
00000000
00100000
00000000
00000000
00100000
00000000
,
00010000
01000000
00001000
00000000
00010000
00000010
00001000
00000000
,
00000100
00000010
00000001
00000010
00000100
00010000
00001000
00000000
,
01000000
00010000
10000000
00100000
01000000
00001000
00010000
00000010
,
00001000
00001000
00000100
00000100
00010000
00010000
00001000
00001000
,
02000000
00100000
10000000
03010000
,
20020000
00000000
00000000
00000000
,
00000000
00000000
00000000
30030000
,
10000000
01000000
00100000
00010000
01000000
00001000
00010000
00000100
,
00001000
00000010
00000001
00000010
00000100
00000001
00001000
00000100
,
00000010
00001000
00010000
00001000
01000000
00010000
00100000
00001000
,
00010000
00000000
00100000
00000000
01000000
00010000
01000000
00010000
10000000
00000000
00000000
10000000
00000000
00000000
10000000
00000000
,
01000000
00000000
00100000
00000000
00010000
01000000
00010000
01000000
00001000
00000000
00000000
00001000
00000000
00000000
00001000
00000000
,
00010000
00000100
00010000
00000100
00001000
00000000
00000010
00000000
00000100
00000000
00000000
00000100
00000000
00000000
00000100
00000000
,
00000001
00000000
00000010
00000000
00000100
00001000
00000100
00001000
00000010
00000000
00010000
00000000
00001000
00100000
00001000
00100000
,
00010000
00000000
00000000
00000000
00000000
00000000
00000000
00000000
01100000
00000000
00000000
10010000
00000000
00000000
01100000
00000000
,
10000000
01000000
00010000
00000000
00001000
00000100
00000001
00000000
,
00000220
00000000
00000000
00000000
,
00000330
00000000
00000000
00000000
;

//--------------- dance-double - forcednature ----------------
#NOTEDATA:;
#STEPSTYPE:dance-double;
#DESCRIPTION:forcednature;
#DIFFICULTY:Hard;
#METER:15;
#RADARVALUES:0,0,0,0,0;
#CREDIT:forcednature;
#CREDIT:forcednature;
#NOTES:
00000000
00000000
00000000
00000000
,
00000000
00000000
00000000
00000000
,
00000000
00000000
00000000
00000000
,
00000000
00000000
00000000
00000000
,
00000000
00000000
00000000
00000000
,
00000000
00000000
00000000
00000000
,
00010000
00001000
01000000
00010000
00100000
00001000
00010000
00000010
,
00001000
00000100
00010000
00001000
01000000
00010000
00100000
00001000
,
00010000
00000010
00000100
00001000
00010000
00100000
01000000
00010000
,
00200000
00000000
00000000
01300000
,
00100000
00001000
00010000
00100000
01000000
00010000
01100000
10000000
,
00010000
00100000
01000000
00010000
00001000
00000010
00001100
00000001
,
00001000
00000010
00000100
00001000
00010000
01000000
00110000
10000000
,
00100000
00000000
00010000
00000000
00001000
00010000
00001000
00010000
00001000
00000000
00000000
00000110
00000000
00000000
00000001
00000000
,
00000100
00000000
00000010
00000000
00010000
00000100
00010000
00000100
00001000
00000000
00000010
00010000
00000000
00001000
00010000
00000000
,
00100000
01000000
00100000
01000000
00010000
00000000
10000000
00000000
01000000
00000000
00100000
00010000
00000000
00100000
00001000
00000000
,
00010000
00000000
00100000
00000000
01000000
00010000
01000000
00010000
10000000
00000000
01000000
00000000
00100000
00010000
00100000
00010000
,
01000000
00000000
00000000
00000000
00000000
00000000
00000000
00000000
00011000
00000000
00000000
00000110
00000000
00000000
00001000
00000000
,
00000001
00000100
00001000
00000000
00010000
01000000
10000000
00000000
,
10000000
00100000
00010000
00000000
00001000
00000010
00000001
00000000
,
00000001
00000000
00000100
00000010
00000100
00000000
00000000
00000000
00001000
00000000
00000000
00010000
00000000
00000000
00100000
00000000
,
10000000
01000000
00010000
00000000
00001000
00000100
00000001
00000000
,
00000010
00000100
00001000
00000100
00000010
00000100
00001000
00000100
,
00010000
00100000
01000000
00100000
00010000
00100000
01000000
00100000
,
10000000
01000000
00100000
00010000
00001000
00000100
00000010
00000001
,
00000200
00001000
00000010
00000301
,
00000100
00001000
00010000
00100000
01000000
00001000
00010000
01000000
,
00100000
00001000
00000010
00001000
00010000
00000100
00001000
00000010
,
00000100
00010000
01000000
00010000
00100000
01000000
10000000
01000000
,
00010000
00000000
00001000
00000000
00000010
00000000
00000100
00000000
00001000
00000000
00000000
00001001
00000000
00000000
00000110
00000000
,
00000001
00000100
00001000
00100000
01000000
00010000
00000010
00001000
,
00010000
01000000
00010000
00100000
01000000
00010000
00000100
00010000
,
00001000
00000100
00010000
01000000
00010000
00100000
00001000
00000010
,
00000200
00000001
00000010
00001000
,
00010000
00001000
00000010
00000301
,
00000120
00000000
00000000
00002030
00000000
00000000
00000000
00023000
,
00000000
00230000
00000000
02300000
00000000
00000000
03020000
00000000
,
20030000
00000000
00000000
32000000
00000000
00000000
00000000
23000000
,
00000000
30200000
00000000
00320000
00000000
00001000
00031000
00000000
,
00010000
00000100
00001000
00000010
,
00010000
00000000
00001000
00000000
00100000
00010000
01000000
00000000
,
00100000
00010000
00001000
00000100
,
00000010
00000000
00010000
00000000
00001000
00000010
00000001
00000000
,
00000100
00001000
00010000
00000000
01000000
00010000
00001000
00000000
,
00000010
00001000
00010000
00000000
00100000
00010000
00001000
00000000
,
00100000
00000000
01000000
10000000
01000000
00000000
00000000
00000000
00010000
00000000
00000000
00001000
00000000
00000000
00000010
00000000
,
00000100
00000000
00001000
00000001
00001000
00000000
00000000
00000000
00000010
00000000
00000100
00000000
00001000
00000000
00000000
00000000
,
00010000
00100000
01000000
00100000
00010000
00100000
01000000
00100000
,
00001000
00000100
00000010
00000100
00001000
00000100
00000010
00000100
,
00010000
00001000
00000100
00000010
00000100
00001000
00010000
01000000
,
00200000
10000000
01000000
00010000
,
00002000
00000000
00000000
00000000
,
00000000
00000000
00000000
00303000
,
00001000
00000000
01000000
00010000
01000000
00000000
00100000
00000000
10000000
01000000
10000000
00000000
00100000
00000000
00010000
00001000
,
00100000
00000000
00010000
01000000
00001000
00000000
00010000
00000100
00001000
00000000
00000010
00010000
00001000
00000000
00000010
00000000
,
00000001
00000000
00000100
00000010
00000100
00000000
00001000
00000000
00010000
00000100
00010000
00000000
00000010
00000000
00000010
00010000
,
00001000
00000000
00100000
00001000
00010000
00100000
00010000
00100000
01000000
00000000
00010000
10000000
00000000
00010000
00100000
00000000
,
01000000
00000000
00010000
00000000
00001000
00000010
00001000
00000010
00000100
00000000
00001000
00000001
00000000
00000100
00000010
00000000
,
00000100
00001000
00000100
00001000
00010000
00000000
00100000
00000000
01000000
00000000
00010000
00100000
00000000
00010000
01000000
00000000
,
00100000
00000000
10000000
00000000
01000000
00100000
01000000
00100000
00001000
00000000
00010000
00000000
00000010
00000100
00000010
00000100
,
00001000
00000000
00000100
00000000
00000001
00000000
00000010
00000000
00000110
00000000
00000000
00011000
00000000
00000000
01100000
00000000
,
10000000
01000000
00010000
00000000
00001000
00000100
00000001
00000000
,
00000220
00000000
00000000
00000000
,
00000330
00000000
00000000
00000000
;

//--------------- dance-double - forcednature ----------------
#NOTEDATA:;
#STEPSTYPE:dance-double;
#DESCRIPTION:forcednature;
#DIFFICULTY:Challenge;
#METER:16;
#RADARVALUES:0,0,0,0,0;
#CREDIT:forcednature;
#CREDIT:forcednature;
#NOTES:
00000000
00000000
00000000
00000000
,
00000000
00000000
00000000
00000000
,
00000000
00000000
00000000
00000000
,
00000000
00000000
00000000
00000000
,
00000000
00000000
00000000
00000000
,
00000000
00000000
00000000
00000000
,
00001000
00010000
00100000
01100000
,
00001000
00010000
00100000
01100000
,
10000000
01000000
00100000
00010000
00001000
00000100
00000010
00000001
,
00000200
00000000
00000000
00000310
,
00000001
00000100
00010000
01000000
00010000
00100000
00001000
00000010
,
00000001
00000100
00010000
01000000
00010000
00100000
00001000
00000010
,
00000001
00000100
00010000
01000000
00010000
00100000
00001000
00000010
,
00000001
00000000
00000100
00000000
00010000
00000000
01000000
00000000
00100000
00000000
00000000
01100000
00000000
00000000
10010000
00000000
,
10000000
00000000
01000000
00000000
00001000
00000000
00000100
00000000
00000110
00000000
00000000
00011000
00000000
00000000
01100000
00000000
,
10000000
00000000
00100000
00000000
00001000
00000000
00000010
00000000
00000110
00000000
00000000
00011000
00000000
00000000
01100000
00000000
,
10000000
00010000
00100000
00010000
00001000
00000010
00001000
00000001
,
00000220
00000000
00000000
00000000
00000330
00000000
00000000
00000000
00000001
00000000
00000000
00000100
00000000
00000000
00010000
00000000
,
0100MMMM
0000MMMM
00000000
00000000
MMMM0100
MMMM0000
00000000
00000000
,
0010MMMM
0000MMMM
00000000
00000000
MMMM0010
MMMM0000
00000000
00000000
,
0110MMMM
0000MMMM
00000000
00000000
MMMM0110
MMMM0000
00000000
00000000
,
1001MMMM
0000MMMM
00000000
00000000
MMMM1001
MMMM0000
00000000
00000000
,
MMMM0001
MMMM0100
00000001
00000010
MMMM0100
MMMM1000
00001010
00000000
,
1000MMMM
0100MMMM
10000000
00100000
0100MMMM
0001MMMM
00110000
00000000
,
MMMM0001
MMMM0100
00000010
00001000
0001MMMM
0100MMMM
00100000
10000000
,
0200MMMM
0000MMMM
0000MMMM
0310MMMM
,
01000000
10000000
01000000
00010000
00000100
00000010
00001000
00000010
,
00000001
00000100
00001000
00100000
01000000
00010000
00000100
00001000
,
00000010
00001000
00010000
01000000
00100000
00001000
00100000
10000000
,
01000000
00000000
00001000
00000000
00000100
00000000
00010000
00000000
00001000
00000000
00000000
00001000
00000000
00000000
00001000
00000000
,
00000100
00010000
01000000
00100000
10000000
00010000
00001000
00010000
,
00100000
01000000
00010000
00000100
00001000
00000010
00000001
00000010
,
00000100
00001000
01000000
00010000
00100000
00001000
00000010
00010000
,
0200MMMM
0000MMMM
0000MMMM
0000MMMM
0000MMMM
0000MMMM
0000MMMM
0000MMMM
,
0000MMMM
0000MMMM
0000MMMM
0000MMMM
0000MMMM
0000MMMM
0310MMMM
00000000
,
10020000
00000000
00000000
02030000
00000000
00000000
00000000
03002000
,
00000000
00003020
00000000
00000032
00000000
00000000
00002003
00000000
,
00203000
00000000
00000000
02300000
00000000
00000000
00000000
03020000
,
00000000
00030020
00000000
00000230
00000000
00001000
00001300
00000000
,
MMMM0001
MMMM1000
0001MMMM
1001MMMM
,
1000MMMM
0001MMMM
MMMM1000
MMMM1001
,
MMMM0001
MMMM1000
0001MMMM
1001MMMM
,
1000MMMM
0001MMMM
MMMM1000
MMMM1001
,
MMMM0001
MMMM0100
00001000
00000000
0001MMMM
0100MMMM
10000000
00100000
,
1000MMMM
0100MMMM
00010000
00000000
MMMM1000
MMMM0100
00000001
00000000
,
MMMM0001
MMMM0010
00001000
00000000
0001MMMM
0010MMMM
10000000
01000000
,
1000MMMM
0010MMMM
00010000
00000000
MMMM1000
MMMM0010
00000001
00000000
,
MMMM0001
00000000
00000100
00000000
MMMM1000
00000000
00000100
00000000
0001MMMM
00000000
01000000
00000000
1000MMMM
00000000
01000000
00010000
,
1000MMMM
00000000
01000000
00000000
0001MMMM
00000000
01000000
00000000
MMMM1000
00000000
00000100
00000000
MMMM0001
00000000
00000100
00001000
,
MMMM0001
MMMM0100
MMMM0010
MMMM1000
0001MMMM
0100MMMM
0010MMMM
1000MMMM
,
1000MMMM
MMMM1000
0001MMMM
MMMM0001
,
MMMMMMMM
MMMMMMMM
MMMMMMMM
MMMMMMMM
MMMMMMMM
MMMMMMMM
MMMMMMMM
MMMMMMMM
,
MMMMMMMM
MMMMMMMM
MMMMMMMM
MMMMMMMM
MMMMMMMM
MMMMMMMM
00011000
00000000
,
0100MMMM
00000000
0001MMMM
00100000
0100MMMM
00000000
1000MMMM
00000000
0001MMMM
01000000
0010MMMM
00000000
0001MMMM
00000000
MMMM1000
00000010
,
MMMM0100
00000000
MMMM1000
00000001
MMMM0100
00000000
MMMM0010
00001000
MMMM0001
00000000
MMMM0010
00000100
MMMM1000
00000000
MMMM0010
00000000
,
0001MMMM
00000000
0010MMMM
01000000
0001MMMM
00000000
1000MMMM
00000000
0100MMMM
00100000
0001MMMM
00000000
0100MMMM
00000000
MMMM1000
00000100
,
MMMM0010
00000000
MMMM1000
00000001
MMMM0010
00000100
MMMM0010
00000100
MMMM1000
00000000
00000000
0011MMMM
00000000
00000000
MMMM1010
00000000
,
MMMM0101
00000000
MMMM0001
00000000
MMMM0010
00000000
MMMM1000
00000000
0011MMMM
00000000
00000000
0101MMMM
00000000
00000000
0011MMMM
00000000
,
1000MMMM
00100000
0001MMMM
00100000
0100MMMM
00000000
0001MMMM
00000000
MMMM1010
00000000
00000000
MMMM0101
00000000
00000000
MMMM0011
00000000
,
MMMM0001
00000000
MMMM0100
00000000
0001MMMM
01000000
0010MMMM
00000000
1000MMMM
00000000
0100MMMM
00000000
MMMM1000
00000100
MMMM0010
00000000
,
MMMM0001
00000000
MMMM1000
00000000
0001MMMM
00000000
1000MMMM
00000000
0110MMMM
00000000
10000000
0010MMMM
00000000
00010000
0010MMMM
00000000
,
1100MMMM
MMMMMMMM
00000000
00000000
MMMM0101
MMMMMMMM
00000000
00000000
,
00022000
00000000
00000000
00000000
,
00033000
00000000
00000000
00000000
;
