#VERSION:0.83;
#TITLE:Rave Patroller;
#SUBTITLE:;
#ARTIST:Eagle;
#TITLETRANSLIT:;
#SUBTITLETRANSLIT:;
#ARTISTTRANSLIT:;
#GENRE:FUTURE SKOOL BREAKBEATS HARDCORE;
#CREDIT:;
#MUSIC:Rave Patroller.ogg;
#BANNER:Rave Patroller.png;
#BACKGROUND:Rave Patroller-bg.png;
#CDTITLE:./CDTitles/bm IIDX 27 HEROIC VERSE.png;
#SAMPLESTART:32.530;
#SAMPLELENGTH:15.000;
#SELECTABLE:YES;
#OFFSET:0.377;
#BPMS:0.000=175.000;
#STOPS:;
#TIMESIGNATURES:0.000=4=4;
#BGCHANGES:0.000=Rave Patroller.mp4=1.000=0=0=0=StretchNoLoop====,
99999.000=-nosongbg-=1.000=0=0=0=StretchNoLoop====
;
#FGCHANGES:;

//--------------- dance-single - forcednature ----------------
#NOTEDATA:;
#STEPSTYPE:dance-single;
#DESCRIPTION:forcednature;
#DIFFICULTY:Beginner;
#METER:3;
#RADARVALUES:0,0,0,0,0;
#CREDIT:forcednature;
#NOTES:
0000
0000
0000
0000
,
0000
0000
0000
0000
,
0000
0000
0000
0000
,
0000
0000
0000
0000
,
0000
0000
0000
0000
,
0000
0000
0000
0000
,
0000
0000
0000
0000
,
0000
0000
0000
0000
,
0000
0000
0000
0000
,
0001
0000
0000
0000
,
0000
0000
0000
0000
,
0100
0000
0000
0000
,
0010
0000
0000
0000
,
1000
0000
0000
0000
,
0000
0000
0000
0000
,
0100
0000
0000
0000
,
0010
0000
0000
0000
,
0001
0000
0000
0000
,
0000
0000
0000
0000
,
1000
0000
0000
0000
,
0010
0000
0000
0000
,
1000
0000
0000
0000
,
0001
0000
0000
0000
,
0010
0000
0000
0000
,
0100
0000
0000
0000
,
1000
0000
0000
0000
,
0010
0000
0000
0000
,
0100
0000
0000
0000
,
0001
0000
0000
0000
,
1000
0000
0000
0000
,
0100
0000
0000
0000
,
1000
0000
0000
0000
,
0001
0000
0000
0000
,
0100
0000
0000
0000
,
0010
0000
0000
0000
,
1000
0000
0000
0000
,
0001
0000
0000
0000
,
0010
0000
0000
0000
,
0100
0000
0000
0000
,
1000
0000
0000
0000
,
0001
0000
0000
0000
,
0100
0000
0000
0000
,
0000
0000
0000
0000
,
0010
0000
0000
0000
,
0000
0000
0000
0000
,
1000
0000
0000
0000
,
0000
0000
0000
0000
,
0001
0000
0000
0000
,
0000
0000
0000
0000
,
0010
0000
0000
0000
,
0000
0000
0000
0000
,
0000
0000
0000
0000
,
0000
0000
0000
0000
,
0100
0000
0000
0000
,
0000
0000
0000
0000
,
0000
0000
0000
0000
,
0000
0000
0000
0000
,
1000
0000
0000
0000
,
0000
0000
0000
0000
,
0001
0000
0000
0000
,
0000
0000
0000
0000
,
0100
0000
0000
0000
,
0000
0000
0000
0000
,
0001
0000
0000
0000
,
0000
0000
0000
0000
,
0010
0000
0000
0000
,
0100
0000
0000
0000
,
1000
0000
0000
0000
,
0100
0000
0000
0000
,
0010
0000
0000
0000
,
0001
0000
0000
0000
,
1000
0000
0000
0000
,
0001
0000
0000
0000
,
0100
0000
0100
0000
,
0010
0000
0000
0000
,
1000
0000
0001
0000
,
1000
0000
0000
0000
,
0100
0000
0100
0000
,
0010
0000
0000
0000
,
0001
0000
1000
0000
,
0001
0000
0000
0000
,
0100
0000
0100
0000
,
0010
0000
1000
0000
,
0100
0000
0100
0000
,
0010
0000
0001
0000
,
1000
0000
1000
0000
,
0010
0000
0100
0000
,
0001
0000
0001
0000
,
0010
0000
0100
0000
,
1001
0000
0000
0000
;

//--------------- dance-single - forcednature ----------------
#NOTEDATA:;
#STEPSTYPE:dance-single;
#DESCRIPTION:forcednature;
#DIFFICULTY:Easy;
#METER:6;
#RADARVALUES:0,0,0,0,0;
#CREDIT:forcednature;
#NOTES:
0000
0000
0000
0000
,
0000
0000
0000
0000
,
0000
0000
0000
0000
,
0000
0000
0000
0000
,
0000
0000
0000
0000
,
0000
0000
0000
0000
,
0000
0000
0000
0000
,
0000
0000
0000
0000
,
0000
0000
0000
0000
,
2000
0000
0000
0000
,
3001
0000
0100
0000
,
0002
0000
0000
0000
,
0023
0000
0000
0000
,
0230
0000
0000
0000
,
1300
0000
0001
0000
,
2000
0000
0000
0000
,
3020
0000
0000
0030
,
1001
0000
1000
0000
,
0100
0100
1000
0000
,
0001
0000
0100
0000
,
0001
0001
0010
0000
,
0100
0000
1000
0000
,
0001
0000
0100
0000
,
0010
0010
1000
1000
,
0200
0000
0000
0300
,
0010
0000
0000
0010
0000
0000
0000
0000
,
0001
0000
0000
0001
0000
0000
0000
0000
,
0100
0000
0000
0100
0000
0000
0000
0000
,
0010
0000
0000
0010
0000
0000
0000
0000
,
1000
0000
0000
1000
0000
0000
0000
0000
,
0100
0000
0000
0100
0000
0000
0000
0000
,
0010
0000
0000
0010
0000
0000
0000
0000
,
2002
0000
0000
3003
,
1000
0000
0000
0100
0000
0000
0000
0000
,
1000
0000
0000
0010
0000
0000
0000
0000
,
0100
0000
0000
0001
0000
0000
0000
0000
,
0010
0000
0000
0001
0000
0000
0000
0000
,
0100
0000
0000
0010
0000
0000
0000
0000
,
1000
0000
0000
0001
0000
0000
0000
0000
,
0010
0000
0000
0100
0000
0000
0000
0000
,
2002
0000
3003
0000
,
1000
0000
0100
0000
,
1000
0100
1000
0000
,
0001
0000
0100
0000
,
0001
0100
0001
0000
,
1000
0000
0010
0000
,
1000
0010
1000
0000
,
0001
0000
0010
0000
,
0002
0000
0000
0003
,
0200
0000
0000
0000
,
0000
0000
0000
0000
,
0320
0000
0000
0000
,
2030
0000
0000
0000
,
3002
0000
0000
0000
,
0000
0000
0000
0000
,
0023
0000
0000
0000
,
0230
0000
0000
0000
,
1300
0000
0010
0000
,
1000
0000
0000
0000
,
0001
0000
0010
0000
,
0001
0000
0000
0000
,
1000
0000
0100
0000
,
1000
0000
0000
0000
,
0001
0000
0100
0000
,
0001
0000
0000
0000
,
1001
0000
1000
0000
,
0100
0000
1000
0000
,
0001
0000
0100
0000
,
0001
0000
0010
0000
,
0100
0000
1000
0000
,
0001
0000
0100
0000
,
0010
1000
0010
1000
,
0002
0000
0000
0003
,
0010
0000
0000
0000
0100
0000
0000
0100
,
0000
1000
1000
0000
,
0001
0000
0000
0000
0001
0000
0000
0100
,
0000
0100
0100
0000
,
0010
0000
0000
0000
0010
0000
0000
1000
,
0000
1000
1000
0000
,
0001
0000
0000
0000
0001
0000
0000
0010
,
0000
0010
0010
0000
,
0100
0000
0000
0000
0100
0000
0000
1000
,
0000
0001
0001
0001
,
0010
0000
0000
0000
0010
0000
0000
0100
,
0000
1000
1000
1000
,
0010
0000
0000
0000
0010
0000
0000
0100
,
0000
0001
0001
0001
,
1000
1000
0100
0100
,
0010
0001
0010
0001
,
0200
0000
0000
0000
,
0000
0000
0000
0000
,
0000
0300
0000
0000
;

//--------------- dance-single - forcednature ----------------
#NOTEDATA:;
#STEPSTYPE:dance-single;
#DESCRIPTION:forcednature;
#DIFFICULTY:Medium;
#METER:11;
#RADARVALUES:0,0,0,0,0;
#CREDIT:forcednature;
#NOTES:
0000
0000
0000
0000
,
0000
0000
0000
0000
,
0000
0000
0000
0000
,
0000
0000
0000
0000
,
0000
0000
0000
0000
,
0000
0000
0000
0000
,
0000
0000
0000
0000
,
0000
0000
0000
0000
,
0000
0000
0000
0000
,
0001
0000
0100
0000
0010
1000
0001
0000
,
1000
0000
0100
0010
0000
0100
1000
0000
,
0001
0000
1000
0000
0010
0100
0001
0000
,
1000
0000
0100
0010
0000
0100
1000
0000
,
0001
0000
0100
0000
0010
1000
0001
0000
,
0010
0000
0100
1000
0000
0001
0100
0000
,
0010
0000
1000
0000
0100
0010
0001
0000
,
1000
0000
0010
0100
0000
0001
1000
0000
,
1001
0001
0100
0100
,
0010
1000
0010
1000
0100
1000
0001
0100
,
0001
0001
0010
0010
,
0100
1000
0100
1000
0010
1000
0001
0010
,
0001
0001
0100
0100
,
0010
0010
1000
1000
,
0100
0010
0100
0010
0001
1000
0001
1000
,
0020
0000
0000
0030
,
0100
0000
0000
0001
0000
0000
0100
0000
0000
0001
0000
0000
0010
0000
0000
0000
,
0100
0000
0000
1000
0000
0000
0100
0000
0000
1000
0000
0000
0010
0000
0000
0000
,
0100
0000
0000
0001
0000
0000
0100
0000
0000
0001
0000
0000
1000
0000
0000
0000
,
0100
0000
0000
1000
0000
0000
0100
0000
0000
1000
0000
0000
0001
0000
0000
0000
,
0010
0000
0000
0100
0000
0000
1000
0000
0000
0100
0000
0000
0010
0000
0000
0000
,
0001
0000
0000
0100
0000
0000
0010
0000
0000
0100
0000
0000
0001
0000
0000
0000
,
1000
0000
0000
0001
0000
0000
0010
0000
0000
0001
0000
0000
0100
0000
0000
0000
,
0220
0000
0000
0330
,
1000
0000
0000
1000
0010
0000
0100
0000
0000
0001
0000
0000
1000
0000
0000
0000
,
0001
0000
0000
0001
0010
0000
0100
0000
0000
1000
0000
0000
0001
0000
0000
0000
,
0100
0000
0000
0100
0010
0000
1000
0000
0000
0001
0000
0000
0010
0000
0000
0000
,
0100
0000
0000
0100
0010
0000
0001
0000
0000
1000
0000
0000
0010
0000
0000
0000
,
0100
0000
0000
0100
0001
0000
1000
0000
0000
0100
0000
0000
0010
0000
0000
0000
,
0100
0000
0000
0100
1000
0000
0001
0000
0000
0100
0000
0000
0010
0000
0000
0000
,
1000
0000
0000
1000
0001
0000
0010
0000
0000
0100
0000
0000
1000
0000
0010
0000
,
0000
0000
0100
0000
0000
0001
0000
0000
0011
0000
0000
0000
0011
0000
0000
0000
,
1000
0000
1000
0000
0001
0100
0000
1000
,
0100
0100
0100
0010
,
1000
0000
1000
0000
0100
0001
0000
0100
,
1000
0010
1000
0000
0001
0000
0020
0000
,
0130
0000
0100
0000
1000
0010
0000
0001
,
0010
0000
0010
0000
0100
0001
0010
0000
,
0100
1000
0100
0000
0010
0001
0010
0000
,
0002
0000
0000
0003
,
2000
0000
0000
0000
,
0000
0000
0000
0000
,
3020
0000
0000
0000
,
0230
0000
0000
0000
,
0302
0000
0000
0000
,
0000
0000
0000
0000
,
0023
0000
0000
0000
,
0230
0000
0000
0000
,
1300
0001
0000
0001
,
0100
0010
0000
0010
,
1000
0100
0000
0100
,
0010
0001
0000
0001
,
0100
0010
0000
1000
,
0100
0010
0000
0001
,
1000
0010
0000
0100
,
0001
0010
0000
0100
,
0110
0010
0001
0100
,
0010
1000
0001
0010
,
0100
1000
0001
0100
,
0010
1000
0100
1000
,
1001
0001
0100
0010
,
1001
1000
0100
0010
,
0001
0100
0001
0100
0010
1000
0010
1000
,
0200
0000
0000
0300
,
0010
0000
0000
0000
0010
0000
0000
0000
0001
0000
0000
0001
0000
0000
0100
0000
,
0000
0000
0100
0000
0100
0000
0000
0000
0010
0000
0000
1000
0000
0000
0001
0000
,
0010
0000
0000
0000
0010
0000
0010
0000
0100
0000
0000
0100
0000
0000
1000
0000
,
0000
1000
0000
0000
1000
0000
0000
0000
0001
0000
0000
0100
0000
0000
0010
0000
,
1000
0000
0000
0000
1000
0000
0000
0000
0100
0000
0000
0100
0000
0000
0010
0000
,
0000
0000
0010
0000
0010
0000
0000
0000
0001
0000
0000
1000
0000
0000
0010
0000
,
0100
0000
0000
0000
0100
0000
0100
0000
0001
0000
0000
0001
0000
0000
1000
0000
,
0000
1000
0000
0000
1000
0000
0000
0000
0100
0000
0000
0000
0020
0000
0000
0000
,
0031
0000
0000
0000
0001
0000
0000
0000
0100
0000
0000
0100
0000
0000
0010
0000
,
1000
0000
0000
0100
0000
0000
0010
0000
0000
0100
0000
0000
1000
0000
0000
0000
,
0001
0000
0000
0000
0001
0000
0001
0000
0010
0000
0000
0010
0000
0000
0100
0000
,
1000
0000
0000
0001
0000
0000
0100
0000
0000
0001
0000
0000
1000
0000
0000
0000
,
0010
0000
0000
0000
0010
0000
0000
0000
0100
0000
0000
0100
0000
0000
0001
0000
,
0010
0000
0000
0100
0000
0000
1000
0000
0000
0100
0000
0000
0010
0000
0000
0000
,
0001
0010
0100
0000
1000
0010
0100
0000
,
0001
1000
0100
1000
0010
0100
0001
0100
,
2000
0000
0000
0000
,
0000
0000
0000
0000
,
0000
3000
0000
0000
;

//--------------- dance-single - forcednature ----------------
#NOTEDATA:;
#STEPSTYPE:dance-single;
#DESCRIPTION:forcednature;
#DIFFICULTY:Hard;
#METER:15;
#RADARVALUES:0,0,0,0,0;
#CREDIT:forcednature;
#NOTES:
0000
0000
0000
0000
,
0000
0000
0000
0000
,
0000
0000
0000
0000
,
0000
0000
0000
0000
,
0000
0000
0000
0000
,
0000
0000
0000
0000
,
0000
0000
0000
0000
,
0000
0000
0000
0000
,
0000
0000
0000
0000
,
1000
0000
0000
0000
0100
0000
0000
0100
1000
0000
0001
0000
0100
0000
0000
0000
,
0010
0000
0000
0000
1000
0000
0000
1000
0001
0000
0010
0000
0100
0000
0000
0000
,
0010
0000
0000
0000
0001
0000
0000
0001
0100
0000
0010
0000
1000
0000
0000
0000
,
0100
0000
0000
0000
0010
0000
0000
0010
0001
0000
1000
0000
0010
0000
0100
0000
,
0001
0000
0000
0000
1000
0000
0000
1000
0100
0000
0010
0000
0001
0000
0000
0000
,
1000
0000
0000
0000
0010
0000
0000
0010
0100
0000
0001
0000
0010
0000
0000
0000
,
0100
0000
0000
0000
1000
0000
0000
1000
0010
0000
0100
0000
0001
0000
0000
0000
,
0010
0000
0000
0000
0100
0000
0000
0100
1000
0000
0001
0000
0100
0000
0000
0000
,
0110
0000
0000
0000
0010
0000
0000
0000
1000
0000
0000
1000
0001
0000
0010
0000
,
0100
1000
0100
0010
1000
0010
0001
0100
,
0001
0000
0000
0000
0001
0000
0000
0000
1000
0000
0000
1000
0010
0000
0100
0000
,
0001
0010
1000
0010
0001
0100
1000
0100
,
0010
0000
0000
0010
1000
0000
0100
0000
0010
0000
0000
0010
0001
0000
0100
0000
,
0010
0000
0000
0010
1000
0000
0001
0000
0010
0000
0000
0010
0001
0000
1000
0000
,
0001
0100
0001
0000
0100
0010
0100
0000
0001
0010
0001
0000
1000
0010
1000
0000
,
0002
0000
0000
0000
0003
0000
0200
0000
0000
0000
0300
0000
0020
0000
0000
0000
0030
0000
2000
0000
0000
0000
3000
0000
0002
0000
0000
0000
0003
0000
0020
0000
0000
0000
0030
0000
0200
0000
0000
2000
0300
0000
0000
3000
0000
0000
0000
0000
,
1010
0000
0000
0110
0000
0000
0101
0000
0000
1001
0000
0000
1010
0000
0000
0000
,
0011
0000
0000
0110
0000
0000
1100
0000
0000
1001
0000
0000
0011
0000
0000
0000
,
0101
0000
0000
1100
0000
0000
0011
0000
0000
1010
0000
0000
1001
0000
0000
0000
,
1100
0000
0000
0101
0000
0000
1010
0000
0000
0011
0000
0000
1001
0000
0000
0000
,
1100
0000
0000
1010
0000
0000
0101
0000
0000
0011
0000
0000
1001
0000
0000
0000
,
0101
0000
0000
0011
0000
0000
1100
0000
0000
1010
0000
0000
1001
0000
0000
0000
,
1100
0000
0000
0101
0000
0000
0011
0000
0000
1010
0000
0000
1001
0000
0000
1000
,
0100
0000
0010
0000
0001
0100
0000
0001
0010
0100
0010
0100
1000
0000
0000
0000
,
0001
0100
0000
0100
0010
0000
0010
1000
0000
1000
0001
0000
0011
0000
0000
0000
,
1000
0100
0000
0100
0010
0000
0010
0001
0000
0001
1000
0000
1010
0000
0000
0000
,
0001
0010
0000
0010
0100
0000
1000
0010
0000
0010
0100
0000
1001
0000
0000
0000
,
1000
0100
0000
0100
0010
0000
0001
0100
0000
0100
0010
0000
1001
0000
0000
0000
,
1000
0100
0000
0010
0100
0000
0010
0001
0000
1000
0001
0000
0110
0000
0000
0000
,
0001
0100
0000
0010
0100
0000
0010
1000
0000
0001
1000
0000
0110
0000
0000
0000
,
1000
0010
0000
0010
0100
0000
0100
0001
0000
0001
1000
0000
0100
0010
0100
0000
,
1000
0010
1000
0000
0001
0010
0000
0000
1100
0000
0000
0000
1100
0000
0000
0000
,
0001
0100
0001
0000
0001
0100
0001
0000
1000
0000
0001
0100
0001
0000
0010
0000
,
0100
1000
0100
0000
0100
0010
0100
0000
0100
1000
0100
0000
1001
0000
0000
0000
,
1000
0100
1000
0000
1000
0100
1000
0000
0001
0000
1000
0100
1000
0000
0010
0000
,
0100
0001
0100
0000
0100
0010
0100
0000
0100
0000
0000
0000
0002
0000
0000
0000
,
0013
0100
1000
0000
1000
0100
0010
0000
0001
0000
0010
0100
1000
0000
0010
0000
,
0100
0001
0010
0000
0001
0100
0010
0000
0100
0001
0010
0000
0100
0000
0000
0000
,
1000
0001
0100
0000
0100
0001
1000
0000
0010
0000
1000
0001
0100
0000
0010
0000
,
2000
0000
0100
0000
0000
0001
0000
0001
0000
0010
0000
0000
3000
0000
0000
0000
,
2002
0000
0000
0000
,
3000
0000
0000
0000
,
0200
0000
0003
0000
,
0020
0000
0300
0000
,
2000
0000
0000
0000
,
0030
0000
0000
0000
,
0200
0000
3000
0000
,
0020
0000
0300
0000
,
0032
0000
0100
0000
1000
1000
1000
0000
,
0013
0001
1000
0001
0000
0100
0010
0000
,
1000
0100
0010
0001
0000
0100
0010
0000
,
1000
0100
1000
0001
0000
0100
0010
0000
,
2000
0000
0100
0000
0001
0001
0001
0000
,
3010
1000
0001
0010
0000
0100
1000
0000
,
0001
0100
0010
1000
0000
0001
0010
0000
,
0100
0010
0001
1000
0000
0010
0100
0000
,
1001
0000
0001
0100
0010
1000
0001
0010
,
0100
0000
0010
0001
1000
0010
0100
0001
,
1000
0000
0100
1000
0010
0100
0001
1000
,
0100
0000
0010
0001
0100
0001
1000
0010
,
1000
0100
1000
0000
0001
0000
0010
0000
0100
0000
1000
0000
0100
0000
0010
0000
,
0001
0100
0001
0000
1000
0000
0010
0000
0100
0000
0001
0000
0100
0000
0010
0000
,
1000
0100
1000
0000
0100
0010
0100
0000
0010
0001
0010
0000
0001
0100
0001
0000
,
2000
0000
0000
0000
3000
0000
0020
0000
0000
0000
0030
0000
0200
0000
0000
0000
0300
0000
0002
0000
0000
0000
0003
0000
2000
0000
0000
0000
3000
0000
0200
0000
0000
0000
0300
0000
0020
0000
0000
0002
0030
0000
0000
0003
0000
0000
0000
0000
,
0101
0000
0000
0000
0101
0000
0000
0000
0110
0000
0000
0110
0000
0000
1010
0000
,
0000
0000
1000
0000
1000
0000
0100
0000
0010
0000
0001
0010
0000
0001
0010
0000
,
1100
0000
0000
0000
1100
0000
1100
0000
0110
0000
0000
0110
0000
0000
0011
0000
,
0000
0001
0100
0000
0001
0000
1000
0010
1000
0000
0001
0010
0000
0100
1000
0000
,
1010
0000
0000
0000
1010
0000
0000
0000
0110
0000
0000
0110
0000
0000
0101
0000
,
0000
0000
0001
0000
0001
0000
0010
0000
0100
0000
1000
0010
0000
1000
0100
0000
,
0011
0000
0000
0000
0011
0000
0011
0000
0110
0000
0000
0110
0000
0000
1100
0000
,
0000
1000
0010
0000
1000
0000
0100
0010
0001
0000
1000
0001
0200
0000
0300
0000
,
1010
0000
0000
0000
0101
0000
0000
0000
0011
0000
0000
1100
0000
0000
1001
0000
,
0001
0010
0001
0100
0000
0010
1000
0000
0100
1000
0000
0001
0100
0000
0010
0000
,
1100
0000
0000
0000
0011
0000
0011
0000
0101
0000
0000
1010
0000
0000
1001
0000
,
1000
0010
1000
0100
0000
0010
0001
0000
0100
0001
0000
0001
1000
0000
0010
0000
,
1100
0000
0000
0000
0101
0000
0000
0000
1010
0000
0000
0011
0000
0000
1001
0000
,
0001
0010
0100
1000
0000
0010
1000
0000
0001
0010
0000
0001
0100
0000
0010
0000
,
1100
0000
1000
0000
0101
0000
0101
0000
0011
0000
0001
1000
0010
0000
1001
0000
,
1000
0000
1000
0000
0010
0000
0010
0000
0100
0001
0100
0001
1000
0100
0010
0001
,
0200
0000
0000
0000
,
0000
0000
0000
0000
,
0000
0300
0000
0000
;

//--------------- dance-double - forcednature ----------------
#NOTEDATA:;
#STEPSTYPE:dance-double;
#DESCRIPTION:forcednature;
#DIFFICULTY:Easy;
#METER:6;
#RADARVALUES:0,0,0,0,0;
#CREDIT:forcednature;
#NOTES:
00000000
00000000
00000000
00000000
,
00000000
00000000
00000000
00000000
,
00000000
00000000
00000000
00000000
,
00000000
00000000
00000000
00000000
,
00000000
00000000
00000000
00000000
,
00000000
00000000
00000000
00000000
,
00000000
00000000
00000000
00000000
,
00000000
00000000
00000000
00000000
,
00000000
00000000
00000000
00000000
,
00002000
00000000
00000000
00000000
,
00013000
00000000
00001000
00000000
,
02000000
00000000
00000000
00000000
,
03020000
00000000
00000000
00000000
,
20030000
00000000
00000000
00000000
,
31000000
00000000
10000000
00000000
,
00020000
00000000
00000000
00000000
,
00230000
00000000
00000000
00300000
,
10010000
00000000
10000000
00000000
,
00010000
00010000
01000000
00000000
,
00001000
00000000
00010000
00000000
,
00000100
00000100
00001000
00000000
,
00000010
00000000
00000100
00000000
,
00000001
00000000
00000100
00000000
,
00000010
00000010
00001000
00001000
,
00000200
00000000
00000000
00000300
,
00010000
00000000
00000000
00010000
00000000
00000000
00000000
00000000
,
00001000
00000000
00000000
00001000
00000000
00000000
00000000
00000000
,
01000000
00000000
00000000
01000000
00000000
00000000
00000000
00110000
,
00100000
00000000
00000000
00010000
00000000
00000000
00000000
00000000
,
10000000
00000000
00000000
10000000
00000000
00000000
00000000
00000000
,
01000000
00000000
00000000
01000000
00000000
00000000
00000000
00000000
,
00100000
00000000
00000000
00100000
00000000
00000000
00000000
00000000
,
20020000
00000000
00000000
30030000
,
00010000
00000000
00000000
01000000
00000000
00000000
00000000
00000000
,
00010000
00000000
00000000
00100000
00000000
00000000
00000000
00000000
,
00001000
00000000
00000000
00010000
00000000
00000000
00000000
00000000
,
00000010
00000000
00000000
00001000
00000000
00000000
00000000
00000000
,
00000100
00000000
00000000
00001000
00000000
00000000
00000000
00000000
,
00000001
00000000
00000000
00000100
00000000
00000000
00000000
00000000
,
00000001
00000000
00000000
00000010
00000000
00000000
00000000
00000000
,
00002002
00000000
00003003
00000000
,
00001000
00000000
00000010
00000000
,
00001000
00001000
00000010
00000000
,
00010000
00000000
00001000
00000000
,
00010000
00010000
00001000
00000000
,
00100000
00000000
00010000
00000000
,
00100000
00100000
00010000
00000000
,
10000000
00000000
00100000
00000000
,
20000000
00000000
00000000
30000000
,
02000000
00000000
00000000
00000000
,
00000000
00000000
00000000
00000000
,
03200000
00000000
00000000
00000000
,
00302000
00000000
00000000
00000000
,
00023000
00000000
00000000
00000000
,
00000000
00000000
00000000
00000000
,
00030020
00000000
00000000
00000000
,
00002030
00000000
00000000
00000000
,
00003100
00000000
00001000
00000000
,
00000100
00000000
00000000
00000000
,
00000010
00000000
00000001
00000000
,
00000010
00000000
00000000
00000000
,
00000100
00000000
00010000
00000000
,
00001000
00000000
00000000
00000000
,
01000000
00000000
00001000
00000000
,
00010000
00000000
00000000
00000000
,
00011000
00000000
00001000
00000000
,
01000000
00000000
00001000
00000000
,
00010000
00000000
00100000
00000000
,
10000000
00000000
00100000
00000000
,
01000000
00000000
00001000
00000000
,
00010000
00000000
00000100
00000000
,
00001000
00000001
00001000
00000001
,
00000200
00000000
00000000
00000300
,
00000010
00000000
00000000
00000000
00000010
00000000
00000000
00000010
,
00000000
00001000
00001000
00000000
,
00000100
00000000
00000000
00000000
00000100
00000000
00000000
00000100
,
00000000
00010000
00010000
00000000
,
00001000
00000000
00001000
00000000
,
00000000
01000000
01000000
00000000
,
00010000
00000000
00000000
00000000
00010000
00000000
00000000
00100000
,
00000000
00100000
00100000
00000000
,
01000000
00000000
00000000
00000000
01000000
00000000
00000000
10000000
,
00000000
00010000
00010000
00010000
,
01000000
00000000
00000000
00000000
01000000
00000000
00000000
00001000
,
00000000
00010000
00010000
00010000
,
00000100
00000000
00000000
00000000
00000100
00000000
00000000
00001000
,
00000000
00000001
00000001
00000001
,
00000100
00000100
00001000
00001000
,
00010000
00001000
00010000
00001000
,
02000000
00000000
00000000
00000000
,
00000000
00000000
00000000
00000000
,
00000000
03000000
00000000
00000000
;

//--------------- dance-double - forcednature ----------------
#NOTEDATA:;
#STEPSTYPE:dance-double;
#DESCRIPTION:forcednature;
#DIFFICULTY:Medium;
#METER:12;
#RADARVALUES:0,0,0,0,0;
#CREDIT:forcednature;
#NOTES:
00000000
00000000
00000000
00000000
,
00000000
00000000
00000000
00000000
,
00000000
00000000
00000000
00000000
,
00000000
00000000
00000000
00000000
,
00000000
00000000
00000000
00000000
,
00000000
00000000
00000000
00000000
,
00000000
00000000
00000000
00000000
,
00000000
00000000
00000000
00000000
,
00000000
00000000
00000000
00000000
,
00001000
00000000
00010000
00000000
00100000
01000000
00100000
00000000
,
00010000
00000000
00001000
00010000
00000000
00000100
00010000
00000000
,
00001000
00000000
00000010
00000000
00000001
00000010
00000001
00000000
,
00000010
00000000
00000100
00010000
00000000
00001000
00010000
00000000
,
00100000
00000000
01000000
00000000
00100000
10000000
00010000
00000000
,
00100000
00000000
01000000
00100000
00000000
00010000
00100000
00000000
,
00001000
00000000
00010000
00000000
00000010
00001000
00000001
00000000
,
00000010
00000000
00000100
00001000
00000000
00000100
00010000
00000000
,
00011000
00001000
01000000
01000000
,
00100000
10000000
00100000
10000000
01000000
10000000
00010000
01000000
,
00010000
00010000
00100000
00100000
,
00001000
00010000
00001000
00010000
00000010
00001000
00000001
00000010
,
00000001
00000001
00000100
00000100
,
00001000
00001000
00010000
00010000
,
00100000
01000000
00100000
01000000
00010000
10000000
00010000
10000000
,
02000000
00000000
00000000
03000000
,
00100000
00000000
00000000
00010000
00000000
00000000
00100000
00000000
00000000
00010000
00000000
00000000
01000000
00000000
00000000
00000000
,
00001000
00000000
00000000
00010000
00000000
00000000
00001000
00000000
00000000
00010000
00000000
00000000
00000010
00000000
00000000
00000000
,
00001000
00000000
00000000
00000100
00000000
00000000
00001000
00000000
00000000
00000100
00000000
00000000
00000010
00000000
00000000
00000000
,
00000001
00000000
00000000
00000100
00000000
00000000
00000001
00000000
00000000
00000100
00000000
00000000
00001000
00000000
00000000
00000000
,
00010000
00000000
00000000
00000010
00000000
00000000
00010000
00000000
00000000
00000100
00000000
00000000
00001000
00000000
00000000
00000000
,
00000010
00000000
00000000
00010000
00000000
00000000
00001000
00000000
00000000
01000000
00000000
00000000
00010000
00000000
00000000
00000000
,
00100000
00000000
00000000
01000000
00000000
00000000
10000000
00000000
00000000
01000000
00000000
00000000
00010000
00000000
00000000
00000000
,
00022000
00000000
00000000
00033000
,
00001000
00000000
00000000
00001000
01000000
00000000
00010000
00000000
00000000
10000000
00000000
00000000
00100000
00000000
00000000
00000000
,
10000000
00000000
00000000
10000000
01000000
00000000
00010000
00000000
00000000
00001000
00000000
00000000
00010000
00000000
00000000
00000000
,
00000100
00000000
00000000
00000100
00001000
00000000
00000001
00000000
00000000
00000100
00000000
00000000
00000010
00000000
00000000
00000000
,
00010000
00000000
00000000
00010000
00001000
00000000
00100000
00000000
00000000
00010000
00000000
00000000
00100000
00000000
00000000
00000000
,
01000000
00000000
00000000
01000000
10000000
00000000
01000000
00000000
00000000
00010000
00000000
00000000
00001000
00000000
00000000
00000000
,
00000010
00000000
00000000
00000010
00000100
00000000
00001000
00000000
00000000
00000001
00000000
00000000
00000100
00000000
00000000
00000000
,
00000010
00000000
00000000
00000010
00010000
00000000
00001000
00000000
00000000
00100000
00000000
00000000
00010000
00000000
10000000
00000000
,
00000000
00000000
00100000
00000000
00000000
00010000
00000000
00000000
00001000
00000000
00000000
00000000
00001000
00000000
00000000
00000000
,
00011000
00000000
00010000
00000000
00000100
00000010
00000000
00000100
,
00001000
00001000
00001000
00000011
,
00000001
00000000
00000001
00000000
00000100
00001000
00000000
00000100
,
00000010
00001000
00000010
00000000
00010000
00000000
00002000
00000000
,
00103000
00000000
00100000
00000000
01000000
00010000
00000000
01000000
,
10000000
00000000
10000000
00000000
00100000
01000000
00010000
00000000
,
00100000
00001000
00100000
00000000
00000010
00010000
00000010
00000000
,
00000200
00000000
00000000
00000300
,
00000002
00000000
00000000
00000000
,
00000000
00000000
00000000
00000000
,
00000023
00000000
00000000
00000000
,
00000230
00000000
00000000
00000000
,
00020300
00000000
00000000
00000000
,
00000000
00000000
00000000
00000000
,
00032000
00000000
00000000
00000000
,
02003000
00000000
00000000
00000000
,
03010000
10000000
00000000
10000000
,
01000000
00100000
00000000
00100000
,
00001000
00010000
00000000
00010000
,
00000010
00001000
00000000
00001000
,
00000100
00000010
00000000
00000010
,
00000001
00000100
00000000
00000100
,
00000010
00010000
00000000
00010000
,
00001000
00100000
00000000
00100000
,
01000000
10000000
01000000
00010000
,
00001000
00000100
00000001
00000010
,
00000001
00000100
00001000
00010000
,
01000000
00100000
00001000
00010000
,
00100000
00000000
10000000
00000000
01000000
00010000
00001000
00000000
,
00000010
00000000
00000001
00000000
00000100
00001000
00010000
00000000
,
00100000
01000000
00100000
01000000
00010000
10000000
00010000
10000000
,
02000000
00000000
00000000
03000000
,
00100000
00000000
00000000
00000000
00100000
00000000
00000000
00000000
00001000
00000000
00000000
00000010
00000000
00000000
00000100
00000000
,
00000000
00000000
00000100
00000000
00000100
00000000
00000000
00000000
00001000
00000000
00000000
00000001
00000000
00000000
00000100
00000000
,
00001000
00000000
00000000
00000000
00001000
00000000
00001000
00000000
01000000
00000000
00000000
01000000
00000000
00000000
00010000
00000000
,
00000000
00010000
00010000
00000000
00010000
00000000
00000000
00000000
00100000
00000000
00000000
00001000
00000000
00000000
00000010
00000000
,
00000100
00000000
00000000
00000000
00000100
00000000
00000000
00000000
00010000
00000000
00000000
00010000
00000000
00000000
00100000
00000000
,
00000000
00000000
00100000
00000000
00100000
00000000
00000000
00000000
10000000
00000000
00000000
00010000
00000000
00000000
00100000
00000000
,
01000000
00000000
00000000
00000000
01000000
00000000
01000000
00000000
00001000
00000000
00000000
00001000
00000000
00000000
00000100
00000000
,
00000000
00000100
00000100
00000000
00000100
00000000
00000000
00000100
00000010
00000000
00000000
00000000
00000002
00000000
00000000
00000000
,
00000103
00000000
00000000
00000000
00000100
00000000
00000000
00000000
00010000
00000000
00000000
00010000
00000000
00000000
01000000
00000000
,
00100000
00000000
00000000
10000000
00000000
00000000
00010000
00000000
00000000
10000000
00000000
00000000
01000000
00000000
00000000
00000000
,
00100000
00000000
00000000
00000000
00100000
00000000
00100000
00000000
00001000
00000000
00000000
00001000
00000000
00000000
00000010
00000000
,
00000100
00000000
00000000
00010000
00000000
00000000
00001000
00000000
00000000
00010000
00000000
00000000
00000010
00000000
00000000
00000000
,
00000100
00000000
00000000
00000000
00000100
00000000
00000000
00000000
00001000
00000000
00000000
00001000
00000000
00000000
01000000
00000000
,
00010000
00000000
00000000
00100000
00000000
00000000
01000000
00000000
00000000
00100000
00000000
00000000
00001000
00000000
00000000
00000000
,
00010000
00000010
00001000
00000000
00010000
01000000
00001000
00000000
,
00010000
00000100
00001000
00000100
00010000
00001000
01000000
00010000
,
00200000
00000000
00000000
00000000
,
00000000
00000000
00000000
00000000
,
00000000
00300000
00000000
00000000
;

//--------------- dance-double - forcednature ----------------
#NOTEDATA:;
#STEPSTYPE:dance-double;
#DESCRIPTION:forcednature;
#DIFFICULTY:Hard;
#METER:16;
#RADARVALUES:0,0,0,0,0;
#CREDIT:forcednature;
#NOTES:
00000000
00000000
00000000
00000000
,
00000000
00000000
00000000
00000000
,
00000000
00000000
00000000
00000000
,
00000000
00000000
00000000
00000000
,
00000000
00000000
00000000
00000000
,
00000000
00000000
00000000
00000000
,
00000000
00000000
00000000
00000000
,
00000000
00000000
00000000
00000000
,
00000000
00000000
00000000
00000000
,
00001000
00000000
00000000
00000000
01000000
00000000
00000000
01000000
00010000
00000000
10000000
00000000
01000000
00000000
00000000
00000000
,
00100000
00000000
00000000
00000000
00001000
00000000
00000000
00001000
00010000
00000000
00000010
00000000
00001000
00000000
00000000
00000000
,
00000100
00000000
00000000
00000000
00000010
00000000
00000000
00000010
00000001
00000000
00000100
00000000
00000010
00000000
00000000
00000000
,
00001000
00000000
00000000
00000000
00000100
00000000
00000000
00000100
00010000
00000000
00001000
00000000
01000000
00000000
00010000
00000000
,
00100000
00000000
00000000
00000000
01000000
00000000
00000000
01000000
10000000
00000000
00010000
00000000
00100000
00000000
00000000
00000000
,
00001000
00000000
00000000
00000000
00010000
00000000
00000000
00010000
00000010
00000000
00001000
00000000
00000100
00000000
00000000
00000000
,
00000010
00000000
00000000
00000000
00000001
00000000
00000000
00000001
00000100
00000000
00000010
00000000
00001000
00000000
00000000
00000000
,
00000100
00000000
00000000
00000000
00010000
00000000
00000000
00010000
00001000
00000000
01000000
00000000
00010000
00000000
00000000
00000000
,
10010000
00000000
00000000
00000000
10000000
00000000
00000000
00000000
01000000
00000000
00000000
01000000
00100000
00000000
00001000
00000000
,
00010000
00000100
00000010
00001000
00000010
00000001
00000100
00000001
,
00000010
00000000
00000000
00000000
00000010
00000000
00000000
00000000
00000100
00000000
00000000
00000100
00010000
00000000
00001000
00000000
,
01000000
00100000
00010000
00100000
10000000
01000000
00010000
01000000
,
00100000
00000000
00000000
00100000
00001000
00000000
00010000
00000000
00000010
00000000
00000000
00000010
00010000
00000000
00001000
00000000
,
01000000
00000000
00000000
01000000
00001000
00000000
00010000
00000000
00000100
00000000
00000000
00000100
00010000
00000000
00001000
00000000
,
01000000
00001000
01000000
00000000
00010000
01000000
00010000
00000000
00100000
00010000
00100000
00000000
01000000
00100000
01000000
00000000
,
20000000
00000000
00000000
00000000
30000000
00000000
02000000
00000000
00000000
00000000
03000000
00000000
00200000
00000000
00000000
00000000
00300000
00000000
00020000
00000000
00000000
00000000
00030000
00000000
00002000
00000000
00000000
00000000
00003000
00000000
00000200
00000000
00000000
00000000
00000300
00000000
00000020
00000000
00000000
00000002
00000030
00000000
00000000
00000003
00000000
00000000
00000000
00000000
,
00000101
00000000
00000000
00001100
00000000
00000000
00001010
00000000
00000000
00010010
00000000
00000000
00011000
00000000
00000000
00000000
,
00101000
00000000
00000000
00110000
00000000
00000000
11000000
00000000
00000000
10100000
00000000
00000000
01100000
00000000
00000000
00000000
,
01010000
00000000
00000000
01001000
00000000
00000000
00010010
00000000
00000000
00001100
00000000
00000000
00000110
00000000
00000000
00000000
,
00000011
00000000
00000000
00000101
00000000
00000000
00001100
00000000
00000000
00011000
00000000
00000000
00110000
00000000
00000000
00000000
,
01010000
00000000
00000000
11000000
00000000
00000000
10100000
00000000
00000000
01001000
00000000
00000000
00010010
00000000
00000000
00000000
,
00001010
00000000
00000000
00001100
00000000
00000000
00000101
00000000
00000000
00000110
00000000
00000000
00001001
00000000
00000000
00000000
,
00010100
00000000
00000000
00010010
00000000
00000000
00101000
00000000
00000000
01001000
00000000
00000000
10010000
00000000
00000000
10000000
,
01000000
00000000
00010000
00000000
00001000
00010000
00000000
00010000
00000010
00001000
00000100
00000010
00000001
00000000
00000000
00000000
,
00000100
00000010
00000000
00000010
00001000
00000000
00001000
00000100
00000000
00000100
00010000
00000000
00011000
00000000
00000000
00000000
,
00001000
01000000
00000000
01000000
00010000
00000000
00010000
00100000
00000000
00100000
01000000
00000000
11000000
00000000
00000000
00000000
,
10000000
00100000
00000000
00100000
01000000
00000000
01000000
00001000
00000000
00001000
00010000
00000000
00010100
00000000
00000000
00000000
,
00000100
00000010
00000000
00000010
00000001
00000000
00000001
00000100
00000000
00000100
00001000
00000000
00011000
00000000
00000000
00000000
,
00010000
01000000
00000000
01000000
10000000
00000000
10000000
00100000
00000000
00100000
01000000
00000000
01010000
00000000
00000000
00000000
,
00010000
00100000
00000000
00100000
00001000
00000000
00001000
00010000
00000000
00010000
00000010
00000000
00001010
00000000
00000000
00000000
,
00001000
00000100
00000000
00000100
00000010
00000000
00000010
00000001
00000000
00000001
00000100
00000000
00001000
00000000
00010000
00000000
,
00100000
01000000
00100000
00000000
10000000
00010000
00000000
00000000
00110000
00000000
00000000
00000000
00110000
00000000
00000000
00000000
,
00100000
00001000
00100000
00000000
00100000
00001000
00100000
00000000
00010000
00000000
00001000
00000100
00001000
00000000
00000010
00000000
,
00000100
00001000
00000100
00000000
00000100
00000010
00000100
00000000
00000100
00000001
00000100
00000000
00001001
00000000
00000000
00000000
,
00001000
00000100
00001000
00000000
00001000
00000100
00001000
00000000
00000010
00000000
00010000
00001000
00010000
00000000
00100000
00000000
,
01000000
00010000
01000000
00000000
01000000
10000000
01000000
00000000
01000000
00000000
00000000
00000000
00200000
00000000
00000000
00000000
,
10300000
01000000
00100000
00000000
00100000
01000000
10000000
00000000
00100000
00000000
01000000
00010000
10000000
00000000
01000000
00000000
,
00100000
00010000
01000000
00000000
00100000
10000000
01000000
00000000
00100000
00010000
01000000
00000000
00001000
00000000
00000000
00000000
,
00010000
00000100
00001000
00000000
00001000
00000100
00010000
00000000
00000010
00000000
00001000
00000001
00000010
00000000
00000100
00000000
,
00020000
00000000
00000010
00000000
00000000
00001000
00000000
00001000
00000000
00000100
00000000
00000000
00030000
00000000
00000000
00000000
,
00022000
00000000
00000000
00000000
,
00003000
00000000
00000000
00000000
,
00000200
00000000
00030000
00000000
,
00002000
00000000
00000300
00000000
,
00000002
00000000
00000000
00000000
,
00003000
00000000
00000000
00000000
,
00000200
00000000
00000003
00000000
,
00002000
00000000
00000300
00000000
,
00023000
00000000
00000010
00000000
00001000
00001000
00001000
00000000
,
00030100
00010000
00001000
00010000
00000000
00100000
01000000
00000000
,
00100000
10000000
00010000
01000000
00000000
00010000
00100000
00000000
,
01000000
10000000
01000000
00010000
00000000
00001000
00010000
00000000
,
00002000
00000000
01000000
00000000
00010000
00010000
00010000
00000000
,
00103000
00001000
00010000
00001000
00000000
00000100
00000001
00000000
,
00000010
00000100
00010000
00000100
00000000
00001000
00000010
00000000
,
00010000
00001000
00100000
00001000
00000000
00010000
00100000
00000000
,
01100000
00000000
01000000
00010000
10000000
00010000
00100000
01000000
,
10000000
00000000
01000000
00010000
00001000
00010000
00001000
00000010
,
00000001
00000000
00000100
00001000
00000100
00000001
00000010
00000001
,
00001000
00000000
00000010
00010000
00001000
00010000
00000100
00001000
,
00000100
00000010
00000100
00000000
00001000
00000000
00000100
00000000
00010000
00000000
00001000
00000000
01000000
00000000
00010000
00000000
,
01000000
00100000
01000000
00000000
00010000
00000000
10000000
00000000
00010000
00000000
00100000
00000000
01000000
00000000
00100000
00000000
,
00001000
00010000
00001000
00000000
00010000
00000010
00010000
00000000
00000010
00001000
00000010
00000000
00001000
00000100
00001000
00000000
,
00000002
00000000
00000000
00000000
00000003
00000000
00000200
00000000
00000000
00000000
00000300
00000000
00000020
00000000
00000000
00000000
00000030
00000000
00002000
00000000
00000000
00000000
00003000
00000000
00020000
00000000
00000000
00000000
00030000
00000000
02000000
00000000
00000000
00000000
03000000
00000000
00200000
00000000
00000000
20000000
00300000
00000000
00000000
30000000
00000000
00000000
00000000
00000000
,
10010000
00000000
00000000
00000000
10010000
00000000
00000000
00000000
11000000
00000000
00000000
11000000
00000000
00000000
00110000
00000000
,
00000000
00000000
00100000
00000000
00100000
00000000
00001000
00000000
00010000
00000000
00000010
00001000
00000000
00000010
00001000
00000000
,
00001100
00000000
00000000
00000000
00001100
00000000
00001100
00000000
00000110
00000000
00000000
00000110
00000000
00000000
00000011
00000000
,
00000000
00000001
00000001
00000000
00000001
00000000
00000100
00000001
00000100
00000000
00000010
00001000
00000000
00000010
00010000
00000000
,
00011000
00000000
00000000
00000000
00011000
00000000
00000000
00000000
00101000
00000000
00000000
00101000
00000000
00000000
10010000
00000000
,
00000000
00000000
10000000
00000000
10000000
00000000
00100000
00000000
10000000
00000000
01000000
00100000
00000000
00010000
00100000
00000000
,
00110000
00000000
00000000
00000000
00110000
00000000
00110000
00000000
00101000
00000000
00000000
00101000
00000000
00000000
00010010
00000000
,
00000000
00000010
00000010
00000000
00000010
00000000
00000010
00001000
00000100
00000000
00000010
00000001
00002000
00000000
00003000
00000000
,
00010100
00000000
00000000
00000000
00010100
00000000
00000000
00000000
01001000
00000000
00000000
00110000
00000000
00000000
10010000
00000000
,
10000000
00100000
10000000
01000000
00000000
00100000
00010000
00000000
01000000
00001000
00000000
00010000
00000010
00000000
00001000
00000000
,
00001100
00000000
00000000
00000000
00000011
00000000
00000011
00000000
00000101
00000000
00000000
00001100
00000000
00000000
00011000
00000000
,
00001000
01000000
00010000
01000000
00000000
00100000
10000000
00000000
01000000
00100000
00000000
00010000
00100000
00000000
00001000
00000000
,
00011000
00000000
00000000
00000000
00010010
00000000
00000000
00000000
00001010
00000000
00000000
00010100
00000000
00000000
01001000
00000000
,
01000000
00010000
00100000
00010000
00000000
10000000
00100000
00000000
10000000
01000000
00000000
00010000
01000000
00000000
00100000
00000000
,
00110000
00000000
00001000
00000000
00011000
00000000
00011000
00000000
00010010
00000000
00000010
00001000
00000001
00000000
00000011
00000000
,
00000010
00000000
00000010
00000000
00000100
00000000
00000100
00000000
00010000
00001000
00010000
00001000
01000000
00010000
10000000
00010000
,
00200000
00000000
00000000
00000000
,
00000000
00000000
00000000
00000000
,
00000000
00300000
00000000
00000000
;
