#VERSION:0.83;
#TITLE:ROTTERDAM SHOGUN;
#SUBTITLE:;
#ARTIST:ABDI from ジャカルタファンクブラザーズ;
#TITLETRANSLIT:;
#SUBTITLETRANSLIT:;
#ARTISTTRANSLIT:ABDI from Jakarta Funk Brothers;
#GENRE:RDM;
#CREDIT:;
#MUSIC:ROTTERDAM SHOGUN.ogg;
#BANNER:ROTTERDAM SHOGUN.png;
#BACKGROUND:ROTTERDAM SHOGUN-bg.png;
#CDTITLE:./CDTitles/bm IIDX 24 SINOBUZ.png;
#SAMPLESTART:54.015;
#SAMPLELENGTH:15.000;
#SELECTABLE:YES;
#OFFSET:0.244;
#BPMS:0.000=199.000;
#STOPS:;
#BGCHANGES:0.000=ROTTERDAM SHOGUN.mp4=1.000=0=0=0=StretchNoLoop====,
99999.000=-nosongbg-=1.000=0=0=0=StretchNoLoop====
;
#FGCHANGES:;

//--------------- dance-single - forcednature ----------------
#NOTEDATA:;
#STEPSTYPE:dance-single;
#DESCRIPTION:forcednature;
#DIFFICULTY:Beginner;
#METER:4;
#RADARVALUES:0,0,0,0,0;
#CREDIT:forcednature;
#NOTES:
0000
0000
0000
0000
,
0000
0000
0000
0000
,
0000
0000
0000
0000
,
0000
0000
0000
0000
,
0000
0000
0000
0000
,
0001
0000
0000
0000
,
0000
0000
0000
0000
,
1000
0000
0000
0000
,
0001
0000
0000
0000
,
1000
0000
0000
0000
,
0000
0000
0000
0000
,
0001
0000
0000
0000
,
1000
0000
0000
0000
,
0010
0000
0000
0000
,
0100
0000
0000
0000
,
0001
0000
0000
0000
,
0100
0000
0000
0000
,
0010
0000
0000
0000
,
1000
0000
0000
0000
,
0010
0000
0000
0000
,
0100
0000
0000
0000
,
1001
0000
0000
0000
,
0000
0000
0000
0000
,
0110
0000
0000
0000
,
0000
0000
0000
0000
,
1001
0000
0000
0000
,
0000
0000
0000
0000
,
0110
0000
0000
0000
,
0000
0000
0000
0000
,
0001
0000
0000
0000
,
0001
0000
0001
0000
,
1000
0000
0000
0000
,
1000
0000
1000
0000
,
0010
0000
0000
0000
,
0010
0000
0010
0000
,
0100
0000
0000
0000
,
0100
0000
0100
0000
,
0000
0000
0001
0000
,
0001
0000
0001
0000
,
0000
0000
0010
0000
,
0010
0000
0010
0000
,
0000
0000
0100
0000
,
0100
0000
0100
0000
,
0000
0000
1000
0000
,
1000
0000
1000
0000
,
0001
0000
0100
0000
,
0001
0000
0000
0000
,
0100
0000
0010
0000
,
0100
0000
0000
0000
,
0010
0000
1000
0000
,
0010
0000
0000
0000
,
1000
0000
0001
0000
,
1000
0000
0000
0000
,
0100
0000
1000
0000
,
0100
0000
0000
0000
,
0010
0000
0100
0000
,
0010
0000
0000
0000
,
0001
0000
0010
0000
,
0001
0000
0000
0000
,
1000
0000
0001
0000
,
1000
0000
0000
0000
,
0010
0000
0000
0000
,
1001
0000
0000
0000
,
0100
0000
0000
0000
,
1001
0000
0000
0000
,
0110
0000
0000
0000
,
1001
0000
0000
0000
,
0001
0000
1000
0000
,
0001
0000
0000
0000
,
0100
0000
0001
0000
,
0100
0000
0000
0000
,
0010
0000
0100
0000
,
0010
0000
0000
0000
,
1000
0000
0010
0000
,
1000
0000
0000
0000
,
0001
0000
0001
0000
,
0001
0000
0000
0000
,
0010
0000
0001
0000
,
0010
0000
0000
0000
,
0100
0000
0010
0000
,
0100
0000
0000
0000
,
1000
0000
0100
0000
,
1000
0000
0000
0000
,
0001
0000
0001
0000
,
0001
0000
0000
0000
,
0100
0000
0000
0000
,
0010
0000
0100
0000
,
0010
0000
0000
0000
,
0100
0000
0100
0000
,
0001
0000
0000
0000
,
1000
0000
0001
0000
,
1000
0000
1000
0000
,
0100
0000
0010
0000
,
1001
0000
0000
0000
;

//--------------- dance-single - forcednature ----------------
#NOTEDATA:;
#STEPSTYPE:dance-single;
#DESCRIPTION:forcednature;
#DIFFICULTY:Easy;
#METER:8;
#RADARVALUES:0,0,0,0,0;
#CREDIT:forcednature;
#NOTES:
0000
0000
0000
0000
,
0000
0000
0000
0000
,
0000
0000
0000
0000
,
0000
0000
0000
0000
,
0000
0000
0000
0000
,
0001
0100
0001
0000
,
1000
0000
0010
0000
,
1000
0100
1000
0000
,
0001
0001
0001
0000
,
0100
0001
0100
0000
,
0010
0000
1000
0000
,
0100
1000
0100
0000
,
0110
0000
1001
0000
,
0001
0100
0001
0000
,
0100
0000
0010
0000
,
1000
0100
1000
0000
,
0100
0010
0100
0000
,
0010
0001
0010
0000
,
0001
0000
0100
0000
,
0010
1000
0010
0000
,
1000
0001
1000
0000
,
0001
0001
0001
0000
,
0100
0000
0001
0000
,
1000
1000
1000
0000
,
0100
0000
1000
0000
,
0010
0010
0010
0000
,
0100
0000
0001
0000
,
0010
0010
0010
0000
,
0100
0000
1000
0000
,
1001
0000
0001
0100
,
0000
0100
0001
0000
,
1001
0000
1000
0100
,
0000
0100
1000
0000
,
0010
0000
0100
0010
,
0000
0010
0100
0000
,
0110
0000
0001
1000
,
0000
1000
0001
0000
,
0010
0100
1000
0100
,
0010
0100
1000
0000
,
0010
0100
0001
0100
,
0010
0100
0001
0000
,
1000
0010
1000
0001
,
1000
0010
1000
0000
,
0001
0010
0001
1000
,
0100
1000
0001
0000
,
0100
0100
0001
0001
,
0100
0010
1000
0000
,
0100
0100
1000
1000
,
0100
0010
0001
0000
,
1000
1000
0010
0010
,
1000
0001
0100
0000
,
0001
0001
0010
0010
,
0001
1000
0100
0000
,
0010
0100
1000
0010
,
1000
0100
0010
0000
,
0001
0100
0010
0100
,
0001
0010
0100
0000
,
1000
0001
0100
0001
,
1000
0100
1000
0000
,
1001
0000
0010
0100
,
0100
0010
0000
0000
,
2002
0000
3003
0000
,
0220
0000
0330
0000
,
2002
0000
3003
0000
,
0110
0000
0110
0000
,
0001
0100
0001
0000
,
1000
0100
1000
0000
,
0010
0010
0100
0100
,
0020
0000
0000
0030
,
1000
0001
1000
0100
,
1000
0001
0010
0000
,
0001
1000
0001
0100
,
0001
1000
0010
0000
,
1000
0100
1000
0001
,
0100
0001
0010
0000
,
0220
0000
0000
0000
,
0000
0000
0330
0000
,
0001
0100
0001
1000
,
0010
0010
1000
0001
,
0000
1000
0100
1000
,
0001
0010
0001
0010
,
0000
0001
0100
0001
,
1000
1000
0010
1000
,
0000
0001
0010
0100
,
0000
1000
0100
0000
,
0010
0010
0010
0100
,
0010
0001
1000
0000
,
0010
0010
0010
0100
,
1001
0000
1001
0000
,
1000
0100
1000
0001
,
0010
0001
1000
0000
,
0001
0100
0001
1000
,
0010
0010
0010
0000
,
1001
0000
0000
0000
;

//--------------- dance-single - forcednature ----------------
#NOTEDATA:;
#STEPSTYPE:dance-single;
#DESCRIPTION:forcednature;
#DIFFICULTY:Medium;
#METER:11;
#RADARVALUES:0,0,0,0,0;
#CREDIT:forcednature;
#NOTES:
0000
0000
0000
0000
,
0000
0000
0000
0000
,
0000
0000
0000
0000
,
0000
0000
0000
0000
,
0000
0000
0000
0000
,
1001
1001
1000
0010
,
0100
0001
1000
0000
,
1001
1001
0001
0010
,
0110
0110
0110
0000
,
1001
1001
0001
0100
,
0010
1000
0001
0000
,
1001
1001
1000
0100
,
0010
0010
0000
0100
0010
0010
0000
0000
,
0001
0010
0001
0000
0010
0100
0010
0000
,
0100
1000
0100
0000
1000
0000
1001
0000
,
1000
0010
1000
0000
0010
0100
0010
0000
,
0110
0110
0001
1000
,
0001
0010
0001
0000
0010
0100
0010
0000
,
0100
1000
0100
0000
1000
0000
1001
0000
,
0110
0000
1000
0001
0000
0001
1000
0000
,
0010
0100
0000
0110
0000
0100
0010
0000
,
2000
0100
0001
3010
,
1000
0100
1000
0000
1000
0010
1000
0000
,
0002
0100
1000
0013
,
0001
0100
0001
0000
0001
0010
0001
0000
,
2000
0010
0001
3100
,
1000
0010
1000
0000
1000
0100
1000
0000
,
0002
0010
1000
0103
,
0001
0010
0001
0000
0220
0000
0330
0000
,
1000
0000
0100
1000
0000
0100
0010
0000
,
0001
0010
0000
0001
1000
0000
1001
0000
,
0001
0000
0100
0001
0000
0100
0010
0000
,
1000
0010
1000
0000
0010
0100
0000
0100
,
0001
0000
0001
0010
0000
0100
0010
0000
,
0100
1000
0100
0000
0010
0000
1001
0000
,
1000
0000
0010
0100
0010
0000
1000
0000
,
0100
0000
0010
0000
0100
0000
0000
0000
1000
0000
0000
1000
0000
0000
0001
0000
,
0000
0100
0001
0100
0000
0001
0000
0010
,
0000
0001
0010
0001
0000
0010
0100
0010
,
0000
0100
1000
0100
0000
1000
0000
0001
,
0000
1000
0010
1000
0000
0010
0100
0010
,
0000
0100
0001
1000
0000
0100
1000
0001
,
0000
0100
0000
0100
0010
1000
0001
0000
,
0010
0000
0100
0010
0100
0000
0110
0000
,
0010
0100
0010
0000
0110
0000
1001
0000
,
1000
0100
1000
0000
0100
0010
0100
0000
,
0010
0001
0010
0000
0100
0000
1000
0000
,
0001
0100
0001
0000
0100
0010
0100
0000
,
0110
0110
1000
0001
,
1000
0010
1000
0000
0010
0100
0010
0000
,
0100
0001
0100
0000
0010
0000
1000
0000
,
0001
0010
0001
0000
0010
0100
0010
0000
,
0100
0100
0000
0100
0010
0010
0000
0000
,
0001
0100
0001
0000
1000
0100
1000
0000
,
0010
0100
0010
0000
0110
0000
1001
0000
,
1000
0100
1000
0000
0001
0100
0001
0000
,
0010
0110
0100
1001
,
0001
0010
0001
0000
1000
0010
1000
0000
,
0100
0010
0100
0000
0110
0000
1001
0000
,
1000
0100
0000
0110
0000
0010
0000
1001
,
0000
0001
0100
0001
0000
1000
0010
0000
,
2000
0100
0010
3000
,
0002
0100
0010
0003
,
2000
0100
0010
3000
,
0002
0100
2003
0100
,
3001
0010
1100
0010
,
0101
1000
1100
0001
,
1000
0010
1000
0000
0010
0100
0010
0000
,
0200
0000
0000
0300
,
0001
0011
1000
1100
,
0001
0100
0000
0010
0100
0010
1000
0000
,
0001
0011
1000
1100
,
1000
0010
0000
0100
0001
0100
0001
0000
,
1000
1100
0001
0011
,
0001
0100
0000
0010
0100
0010
1000
0000
,
0200
1000
1000
1000
,
0010
0000
0010
0000
0310
0100
0010
0000
,
0100
1100
0001
0011
,
1000
0010
0000
0100
0010
0100
0001
0000
,
1000
1100
0001
0101
,
0001
0010
0000
0100
0010
0100
1000
0000
,
0001
0101
1000
1100
,
1000
0010
0000
0100
0010
0100
0001
0000
,
2000
0100
0001
0010
,
3001
1000
0001
0000
1000
0001
1000
0000
,
1001
1001
0010
0100
,
0001
1000
0100
0000
,
1001
1001
0010
0100
,
0001
0001
0000
0001
1000
1000
0000
0000
,
0001
0100
0001
0000
0100
0010
0100
0000
,
0010
1000
0010
0000
0100
0000
1001
0000
,
1000
0100
1000
0000
0100
0010
0100
0000
,
0010
0001
0010
0001
0100
0001
1000
0000
,
1001
0000
0000
0000
;

//--------------- dance-single - forcednature ----------------
#NOTEDATA:;
#STEPSTYPE:dance-single;
#DESCRIPTION:forcednature;
#DIFFICULTY:Hard;
#METER:15;
#RADARVALUES:0,0,0,0,0;
#CREDIT:forcednature;
#CREDIT:forcednature;
#NOTES:
0000
0000
0000
0000
,
0000
0000
0000
0000
,
0000
0000
0000
0000
,
0000
0000
0000
0000
,
0000
0000
0000
0000
,
1000
0000
1000
0000
1000
0100
0010
0001
,
1000
0000
1000
0010
1000
0001
0020
0000
,
0031
0000
0001
0000
0001
0100
0010
1000
,
0100
0001
0100
1000
0100
0001
0100
0000
,
1000
0000
1000
0000
1000
0010
0100
0001
,
1000
0000
1000
0100
1000
0001
0200
0000
,
0301
0000
0001
0000
0001
0010
0100
1000
,
0010
0010
0000
1000
0100
0200
0000
0000
,
0310
0001
0010
0000
0010
0100
1000
0001
,
0010
0000
0010
0100
0010
0001
0200
0000
,
0310
1000
0010
0000
0010
0100
0001
1000
,
0100
0001
0100
1000
0001
0001
1000
0000
,
0010
1000
0010
0000
0010
0100
0001
1000
,
0010
0000
0010
0100
0010
1000
0200
0000
,
0310
0000
0010
0001
0100
0001
1000
0000
,
0100
0010
0000
0110
0000
0100
1000
1000
,
0001
0000
0100
0001
0000
0001
0000
1000
,
0001
0010
0100
0001
0100
0010
0001
0000
,
1000
0000
0100
1000
0000
1000
0000
0001
,
1000
0010
0100
1000
0100
0000
1001
0000
,
0001
0000
0010
0001
0000
0001
0000
1000
,
0001
0100
1000
0100
0001
0100
0010
0000
,
1000
0000
0100
1000
0000
1000
0000
0001
,
1000
0010
0001
0010
0200
0000
0000
0000
,
0301
0000
0001
0010
0000
0010
0100
0000
,
0100
1000
1000
0010
1000
0000
1001
0000
,
1000
0000
1000
0010
0000
0010
0100
0000
,
0100
0001
0001
0000
0001
0010
0000
0100
,
0010
0000
0010
0001
0000
0001
0100
0000
,
0010
1000
1000
0000
1001
0000
0110
0000
,
1000
0000
1000
0100
0001
0000
0110
0000
,
0001
0000
0100
0000
1000
0000
0000
0000
0100
0000
0000
0100
0000
0000
0010
0000
,
1000
0100
1000
0010
0000
0110
0000
0101
,
0000
0001
0010
0100
0010
0001
0100
0000
,
0001
0100
0010
0100
0000
0110
0000
0010
,
1000
0100
0010
0001
0100
0010
1000
0000
,
0100
0010
0001
0100
0000
0110
0000
1010
,
0000
1000
0001
0010
1000
0010
0001
0000
,
0100
0001
0010
0100
1000
0000
0110
0000
,
0010
0001
0100
0000
2002
0000
3003
0000
,
1000
0100
0010
0100
1000
0100
0001
0100
,
0010
0100
0001
0100
1000
0100
0010
0010
,
0001
0100
0010
0100
0001
0100
1000
1000
,
0100
0000
0110
0000
0001
0010
1000
0000
,
0010
0100
0001
0100
0010
0100
1000
0100
,
0010
0100
0001
0100
1000
0100
0010
0010
,
0001
0100
0010
0100
0001
0100
1000
0100
,
0010
0110
0000
0000
0100
1001
0000
0000
,
1000
0100
0010
1000
0010
0100
1000
0010
,
0100
1000
0100
0010
0100
0001
1000
1000
,
0001
0100
0010
0001
0010
0100
0001
1000
,
1100
0000
0101
0000
0001
0010
1000
0000
,
0010
0010
0001
0100
0010
0001
0010
1000
,
0100
0001
0100
0010
0100
0100
2000
0000
,
3010
0110
0000
0101
0000
0011
0000
0110
,
0000
0100
1000
0001
0200
0000
0310
0000
,
1002
0000
0000
0100
0103
0000
0000
0000
,
2001
0000
0000
0100
3100
0000
0000
0000
,
1002
0000
0000
0010
0013
0000
0000
0000
,
2001
3010
1002
0013
,
1100
0000
0000
1000
0010
0000
0000
0000
0101
0000
0000
0001
0010
0000
0000
0000
,
1100
0000
0000
1000
0001
0000
0000
0000
0101
0000
0000
0001
1000
0000
0000
0000
,
0010
0001
0010
1000
0100
0001
0100
1000
,
0010
0010
0010
0010
0010
0000
MMMM
0000
,
0101
0011
1100
1010
,
1000
1000
0000
1000
0100
0001
0100
0000
,
1100
0000
1010
0000
0101
0000
0001
0011
,
0000
0110
0000
1100
0000
1000
1000
0001
,
0011
0101
1010
1100
,
0100
0100
0001
0100
1000
1000
0010
0000
,
0200
0000
1000
0000
0000
1000
0000
0000
,
0010
0000
0010
0300
0010
0010
0100
0000
,
0001
0010
0001
0100
1000
0100
0100
0100
,
0010
1000
0100
0010
1000
0010
0011
0000
,
1000
0010
1000
0100
0001
0100
0100
0100
,
0000
0010
0001
2000
0000
3010
1000
0001
,
0010
1000
0010
0100
1000
0010
0010
0010
,
0100
1000
0100
0001
1000
0100
0110
0000
,
0011
0000
0001
0100
1000
0000
1100
0000
,
0100
0001
0001
0000
0010
0010
0000
0000
,
1100
0000
1100
0000
0100
1000
0001
0100
,
1000
0000
1000
0100
0001
1000
0010
0000
,
0101
0000
0101
0000
0100
0001
1000
0100
,
0001
0001
0000
0100
1000
2000
0000
0000
,
3001
0100
1000
0100
0010
0100
1000
0100
,
0001
0010
0100
0010
1000
0010
0002
0000
,
1003
0100
0001
0100
1000
0010
0001
0010
,
0100
0100
0001
0001
1000
0100
0001
0000
,
2002
3003
0000
0000
;

//--------------- dance-single - forcednature ----------------
#NOTEDATA:;
#STEPSTYPE:dance-single;
#DESCRIPTION:forcednature;
#DIFFICULTY:Challenge;
#METER:16;
#RADARVALUES:0,0,0,0,0;
#CREDIT:forcednature;
#CREDIT:forcednature;
#NOTES:
0000
0000
0000
0000
,
0000
0000
0000
0000
,
0000
0000
0000
0000
,
0000
0000
0000
0000
,
0000
0000
0000
0000
,
0100
0000
1001
0000
1000
0001
0100
0010
,
1000
0000
1000
0010
1000
0100
0002
0000
,
0103
0000
1100
0000
0001
1000
0010
0100
,
0010
0011
1100
0010
,
0100
0000
1001
0000
0001
1000
0100
0010
,
0001
0000
0001
0010
0001
0100
2000
0000
,
3100
0000
0101
0000
1000
0001
0010
0100
,
1000
1000
0000
1000
0001
0002
0000
0000
,
0013
0100
1000
0100
0010
0001
1000
0001
,
0100
0000
0100
1000
0100
0001
2000
0000
,
3010
0100
0001
0100
0010
1000
1000
0100
,
0110
0000
1001
0000
0001
0100
1000
0000
,
0100
0010
1000
0010
0100
0001
1000
0001
,
0010
0000
0010
1000
0010
0001
2000
0000
,
3100
0010
0001
0001
0100
1000
1000
0100
,
0010
0010
0000
0110
0000
0010
0100
0010
,
2000
0000
0100
0100
0000
0001
0000
3010
,
1000
0100
0001
1000
0010
0001
1000
0000
,
0002
0000
0100
0100
0000
1000
0000
0013
,
0001
0100
1000
0001
0010
0000
0110
0000
,
0200
0000
0001
0001
0000
0010
0000
1300
,
0100
0001
0010
1000
0001
0100
1000
0000
,
0200
0000
1000
1000
0000
0010
0000
0301
,
0100
1000
0010
0100
0220
0000
0330
0000
,
1001
0000
0000
0000
0001
0000
0101
0000
0000
0000
1000
0100
1000
0000
0000
0000
,
0001
0000
0010
0000
0010
0000
0000
0001
0100
0000
0000
0000
1010
0000
0000
0000
,
1001
0000
0000
0000
1000
0000
1100
0000
0000
0000
0001
0100
0001
0000
0000
0000
,
0010
0100
0110
0000
0001
2001
0000
0010
,
3010
0000
0000
0000
0100
0000
1001
0000
0000
0000
0010
0100
0010
0000
0000
0000
,
0001
1000
1100
0000
0101
0000
1001
0000
,
0110
0000
0000
0000
0001
0000
1000
0001
1000
0000
0000
0000
1100
0000
0000
0000
,
1000
0000
0001
1000
0001
0000
0000
0000
0101
0000
0000
0101
0000
0000
0100
0000
,
0001
0000
1000
0010
1000
0000
0001
0000
0000
0000
1000
0100
1000
0000
0001
0000
,
0000
0000
1000
0000
1000
0000
0001
0100
0001
0000
0010
0000
0100
0000
1000
0000
,
0000
0000
0001
0010
0001
0000
1000
0000
0000
0000
0001
0100
0001
0000
1000
0000
,
0100
0000
0001
0000
0101
0000
0000
0000
0100
0000
1000
0000
0000
0000
1000
0010
,
1000
0000
0000
0000
0001
0000
0011
0000
0000
0000
0010
0100
0010
0000
0100
0000
,
0000
0000
0010
0000
1001
0000
0000
0001
0100
0000
0010
0000
1000
0000
0000
0000
,
0001
0000
0010
0000
0100
0000
1000
0001
1000
0000
0000
0000
0110
0000
0000
0000
,
0000
0100
1001
0000
0110
0000
1000
0001
,
1000
0000
0010
1000
0010
0000
0100
0000
0001
0000
0010
0001
0010
0000
0100
0000
,
1000
0000
0010
1000
0010
0000
0100
0000
0001
0000
0100
0000
0020
0000
1000
0000
,
0130
0000
0001
1000
0001
0000
0010
0000
0100
0000
1000
0001
1000
0000
0010
0000
,
2000
0100
3002
0010
2003
0100
3001
0000
,
0001
0000
0100
0001
0100
0000
0010
0000
1000
0000
0100
1000
0100
0000
0010
0000
,
0001
0000
0100
0001
0100
0000
0010
0000
1000
0000
0100
0000
0020
0000
0001
0000
,
0130
0000
1000
0001
1000
0000
0010
0000
0100
0000
0001
1000
0001
0000
0010
0000
,
0100
1100
0000
0010
0100
0101
0000
0000
,
0001
0000
0010
0100
1000
0000
0001
0000
0010
0000
0001
0000
0100
0010
1000
0000
,
0001
0010
1000
0010
0001
0010
0200
1000
,
0310
0000
0001
1000
0100
0000
0010
0000
0001
0000
0010
0100
1000
0000
0010
0000
,
0200
0001
0320
1000
0130
0010
1001
0000
,
0001
0000
0001
0000
0001
0000
0100
0010
1000
0000
0001
0100
0001
0000
1000
0000
,
0100
0000
0001
0000
0100
0000
1000
0000
0100
0010
0100
0010
0002
0000
0000
0000
,
1003
1010
0000
0011
0000
0101
0000
1100
,
1000
0000
0010
0000
0100
0000
0001
0000
0100
0010
0100
0010
1000
0000
0000
0000
,
0002
0000
0000
0100
0000
0000
1000
0000
0013
0000
0000
0000
1000
0000
0001
0000
,
2000
0000
0000
0100
0000
0000
0001
0000
3010
0000
0000
0000
1000
0000
0000
0000
,
0002
0000
0000
0100
0000
0000
1000
0000
0013
0000
0000
0000
1000
0000
0001
0000
,
2000
0000
0000
0100
0000
0000
0001
0000
3001
0000
0000
0000
1000
0000
0010
0000
,
1000
0000
0000
1000
0100
0000
0010
0000
0001
0000
0000
0001
0100
0000
0010
0000
,
1000
0000
0000
1000
0001
0000
0010
0000
0001
0000
0000
0001
1000
0000
0010
0000
,
0200
0001
0320
1000
0230
0001
0320
1000
,
0130
0100
0100
0100
0100
0000
MMMM
0000
,
0001
0100
0010
0100
1000
0100
0010
0100
,
0001
1000
0100
1000
0000
0000
1000
0001
0100
0000
0001
0000
1001
0000
0000
0000
,
1000
0100
0010
0100
0001
0100
0010
0011
,
0000
0000
1100
0000
0000
0000
0001
0000
0100
0010
0100
0010
2000
0000
0000
0000
,
3001
0010
0100
0010
1000
0010
0001
1000
,
0010
0100
0001
0100
0000
0000
0100
0010
1000
0000
0010
0000
1001
0000
0000
0000
,
1000
0100
0001
1000
0001
0001
1000
0001
,
0100
0000
0100
0000
0100
0100
0010
0000
,
0001
0100
1000
0100
0001
0010
1000
0010
,
0001
1000
0100
0010
0000
0000
0001
0010
0100
0000
1000
0000
1100
0000
0000
0000
,
1000
0100
0001
0100
1000
0010
0001
0010
,
0000
0000
0110
0000
0000
0000
0100
0000
0001
0010
0100
1000
0020
0000
0000
0000
,
1030
0100
0001
0100
1000
0010
0001
0010
,
0100
0001
1000
0010
0000
0000
1000
0001
0100
0000
0010
0000
0110
0000
0000
0000
,
0001
0100
1000
0001
1000
1000
0001
1000
,
0100
0001
0011
0000
1000
2020
0000
3030
,
1000
0100
0000
0000
0001
0100
0000
0000
1000
0000
0010
0000
0100
0000
0001
0000
,
1000
0000
1000
1000
0100
0010
1001
0000
,
0001
0100
0000
0000
1000
0100
0000
0000
0001
0000
0001
0000
0010
0000
0100
0000
,
1000
1100
0000
1000
0001
0202
0000
0303
,
0100
0000
0010
1000
0001
0000
0010
0000
0100
0000
0010
0001
1000
0000
0010
0000
,
0100
0000
0001
1000
0100
0000
1000
0001
0100
0000
0000
0000
0110
0000
0000
0000
,
0010
1000
0010
0000
1000
0100
1000
0000
0001
0010
0100
0000
0010
0000
0001
0000
,
0100
0000
0100
0000
0010
0000
0010
0000
1000
0001
0100
0010
1000
0000
0000
0000
,
2002
3003
0000
0000
;

//--------------- dance-double - forcednature ----------------
#NOTEDATA:;
#STEPSTYPE:dance-double;
#DESCRIPTION:forcednature;
#DIFFICULTY:Easy;
#METER:8;
#RADARVALUES:0,0,0,0,0;
#CREDIT:forcednature;
#NOTES:
00000000
00000000
00000000
00000000
,
00000000
00000000
00000000
00000000
,
00000000
00000000
00000000
00000000
,
00000000
00000000
00000000
00000000
,
00000000
00000000
00000000
00000000
,
00001000
00000000
00001000
00000000
,
00010000
00000000
00000000
00000000
,
00000100
00000000
00001000
00000000
,
00000100
00000100
00000100
00000000
,
00000010
00000000
00000001
00000000
,
00000010
00000000
00000000
00000000
,
00000001
00000000
00000100
00000000
,
00001001
00000000
00001001
00000000
,
00001000
00000100
00010000
00001000
,
00100000
00010000
00100000
00000000
,
00010000
01000000
00001000
00010000
,
00001000
00001000
00001000
00000000
,
00100000
00010000
00100000
01000000
,
10000000
01000000
00100000
00000000
,
00010000
01000000
00001000
00010000
,
00000100
00000100
00000100
00000000
,
00001000
00000001
00000010
00000000
,
00001001
00000000
00000100
00000000
,
00000001
00001000
00000010
00000000
,
00001001
00000000
00000100
00000000
,
00010000
00001000
01000000
00000000
,
10010000
00000000
00100000
00000000
,
00010000
10000000
01000000
00000000
,
10010000
00000000
00100000
00000000
,
01100000
00000000
10000000
01000000
,
00000000
00100000
01000000
00100000
,
00001000
00000000
00010000
00001000
,
00000000
00010000
00000010
00001000
,
00000010
00000000
00000100
00000001
,
00000000
00001000
00000001
00000010
,
00000001
00000000
00000010
00000100
,
00000000
00001000
00000100
00000100
,
00000000
00010000
00001000
00010000
,
00001000
01000000
00010000
01000000
,
00000000
00001000
00010000
00001000
,
00010000
00000100
00001000
00000100
,
00000000
00010000
00001000
00010000
,
00001000
00100000
00010000
00100000
,
00000000
00001000
00010000
00001000
,
00010000
00000010
00010000
00000000
,
00001000
00001000
00010000
00010000
,
00001000
01000000
00010000
10000000
,
00100000
00100000
01000000
01000000
,
00100000
10000000
00010000
00000000
,
00100000
00100000
00010000
00010000
,
00100000
00001000
00010000
00000100
,
00001000
00001000
00000100
00000100
,
00000010
00000001
00000010
00000000
,
00000001
00000100
00000001
00001000
,
00000010
00001000
00000010
00010000
,
00001000
00010000
00001000
01000000
,
00010000
00010000
00010000
00000000
,
10000000
01000000
10000000
00010000
,
00100000
00010000
00100000
00001000
,
00010000
00000000
00000100
00001000
,
00000001
00001000
00000010
00000000
,
00000110
00000000
00000001
00000000
,
00001001
00000000
00000010
00000000
,
00000110
00000000
00001000
00000000
,
00011000
00000000
00011000
00000000
,
01000000
00010000
01000000
00000000
,
00001000
00010000
00001000
00000000
,
00100000
00010000
00100000
01000000
,
20000000
00000000
00000000
30000000
,
00010000
01000000
00010000
01000000
,
00001000
00010000
00000010
00000000
,
00001000
00000100
00001000
00000100
,
00010000
00001000
00100000
00000000
,
00010000
01000000
00010000
01000000
,
00001000
00010000
00000010
00000000
,
00000220
00000000
00000000
00000000
,
00000000
00000000
00000330
00000000
,
00000001
00000100
00000010
00001000
,
00000001
00001000
00000100
00000000
,
00010000
00001000
00100000
00010000
,
00100000
00001000
00010000
00000000
,
00001000
01000000
00010000
01000000
,
00100000
10000000
00010000
00000000
,
10000000
01000000
00100000
01000000
,
00000000
00100000
00010000
00000000
,
01000000
01000000
01000000
00000000
,
00001000
00000000
00010000
00000000
,
00000100
00000100
00000100
00000000
,
00011000
00000000
00011000
00000000
,
00100000
00100000
00100000
00001000
,
00010000
00000100
00010000
00000000
,
00000010
00000010
00000010
00010000
,
00001000
00001000
00001000
00000000
,
00011000
00000000
00000000
00000000
;

//--------------- dance-double - forcednature ----------------
#NOTEDATA:;
#STEPSTYPE:dance-double;
#DESCRIPTION:forcednature;
#DIFFICULTY:Medium;
#METER:12;
#RADARVALUES:0,0,0,0,0;
#CREDIT:forcednature;
#NOTES:
00000000
00000000
00000000
00000000
,
00000000
00000000
00000000
00000000
,
00000000
00000000
00000000
00000000
,
00000000
00000000
00000000
00000000
,
00000000
00000000
00000000
00000000
,
00010000
00000000
00001000
00000000
01000000
00010000
01000000
00000000
,
00001000
00000000
01000000
00010000
01000000
00000000
00000000
00000000
,
00001000
00000000
00010000
00000000
00000100
00001000
00000100
00000000
,
00010000
00000000
00000100
00001000
00000100
00000000
00000000
00000000
,
00010000
00000000
00001000
00000000
00100000
00010000
00100000
00000000
,
00001000
00000000
00100000
00010000
00100000
00000000
00000000
00000000
,
00001000
00000000
00010000
00000000
00000010
00001000
00000010
00000000
,
00000100
00000100
00000000
00000100
00000001
00000001
00000000
00000000
,
00001000
00000010
00001000
00000000
00000010
00001000
00000010
00000000
,
00010000
00001000
00010000
00000000
00001000
00000000
00100000
00000000
,
00010000
00100000
00010000
00000000
00100000
01000000
00100000
00000000
,
01000000
10000000
01000000
00000000
00010000
00000000
00011000
00000000
,
00001000
00100000
00001000
00000000
00100000
00010000
00100000
00000000
,
00001000
00010000
00001000
00000000
00010000
00000000
00000010
00000000
,
00001000
00000010
00001000
00000000
00000010
00000100
00000010
00000000
,
00000100
00000100
00000000
00000100
00000000
00000100
00000001
00000000
,
00000020
00000000
00000000
00000100
00000000
00000100
00000030
00000000
,
00000010
00000100
00001000
00000000
00000100
00010000
00001000
00000000
,
00200000
00000000
00000000
00010000
00000000
00010000
00300000
00000000
,
00100000
00010000
10000000
00000000
01000000
10000000
00010000
00000000
,
02000000
00000000
00000000
00010000
00000000
00010000
03000000
00000000
,
01000000
00001000
00010000
00000000
00001000
00010000
00000010
00000000
,
00002000
00000000
00000000
00000001
00000000
00000001
00003000
00000000
,
00001000
00000100
00001000
00000000
00000011
00000000
00000000
00000000
,
00000001
00000000
00000001
00000100
00000000
00000100
00001000
00000000
,
00001000
00010000
00000000
00010000
00100000
00000000
00100000
00000000
,
10000000
00000000
10000000
01000000
00000000
01000000
00010000
00000000
,
00010000
00001000
00010000
00000000
00001000
00000010
00000000
00000001
,
00000010
00000000
00000001
00000100
00000000
00001000
00000100
00000000
,
00001000
00010000
00001000
00000000
00010000
00000000
00011000
00000000
,
00001000
00000000
00100000
00010000
00100000
00000000
00001000
00000000
,
01000000
00000000
00010000
00000000
01000000
00000000
00000000
00000000
00100000
00000000
00000000
00100000
00000000
00000000
00100000
00000000
,
00000000
10000000
01000000
10000000
00000000
01000000
00000000
00100000
,
00000000
00010000
00100000
00010000
00100000
00001000
00010000
00001000
,
00000000
00010000
00000010
00010000
00000000
00000010
00000000
00001000
,
00000010
00001000
00000010
00000000
00000100
00000001
00000100
00000000
,
00000000
00000001
00000010
00000001
00000000
00000010
00000000
00000100
,
00000000
00001000
00000100
00001000
00000100
00010000
00001000
00010000
,
00000000
00001000
00010000
00001000
00010000
00000000
00011000
00000000
,
00010000
00001000
00010000
00000000
00022000
00000000
00033000
00000000
,
00001000
00010000
00001000
00000000
01000000
00010000
01000000
00000000
,
00001000
00010000
00001000
00000000
00100000
00000000
00110000
00000000
,
00001000
00010000
00001000
00000000
00010000
00000100
00010000
00000000
,
00000100
00001001
00000010
00001001
,
00000001
00000100
00000001
00000000
00000100
00000010
00000100
00000000
,
00000010
00001000
00000010
00000000
00001000
00000000
00000100
00000000
,
00010000
00001000
00010000
00000000
00001000
01000000
00001000
00000000
,
00100000
00100000
00000000
00000000
01000000
01000000
00000000
00000000
,
10000000
01000000
10000000
00000000
01000000
00100000
01000000
00000000
,
00100000
00010000
00100000
00000000
00001000
00000000
00010000
00000000
,
00000010
00001000
00000010
00000000
00000100
00000010
00000100
00000000
,
00000001
00000000
00001001
00000000
00001000
00000100
00001000
00000000
,
00000001
00000010
00000001
00000000
00000010
00000100
00000010
00000000
,
00000100
00001000
00000100
00000000
00010000
00000000
00001000
00000000
,
01000000
00010000
00000000
10010000
00000000
01100000
00000000
10000000
,
01000000
00100000
01000000
00000000
00100000
00000000
00001000
00000000
,
00011000
00000000
00000000
00000000
00000020
00000030
00000000
00000000
,
00011000
00000000
00000000
00000000
00200000
00300000
00000000
00000000
,
00011000
00000000
00000000
00000000
00000020
00000030
00000000
00000000
,
00011000
00000000
00011000
00000000
,
00011000
01000000
00011000
00000100
,
00011000
00100000
00011000
00000010
,
00001000
00000100
00010000
00000000
00001000
01000000
00010000
00000000
,
00200000
00000000
00000000
00300000
,
01000000
00100000
01000000
00000000
10000000
01000000
10000000
00000000
,
00010000
00010000
00000000
00100000
00001000
00000000
00011000
00000000
,
00010000
00000010
00010000
00000000
00000010
00001000
00000010
00000100
,
00000000
00000110
00000000
00000010
00002000
00000000
00003001
00000000
,
00000001
00000010
00000001
00000000
00000010
00000100
00000010
00000000
,
00000100
00000100
00000000
00001000
00000000
00000100
00010000
00000000
,
00012000
00000000
01000000
01000000
,
00010000
00010000
00103000
00000000
,
00001000
00010000
00001000
00000000
01000000
00010000
01000000
00000000
,
00100000
10000000
00010000
01000000
00100000
00000000
10010000
00000000
,
10000000
01000000
10000000
00000000
01000000
00100000
01000000
00000000
,
00100000
00010000
00100000
00000000
00001000
00000000
00011000
00000000
,
00010000
00000010
00010000
00000000
00000010
00001000
00000010
00000000
,
00000100
00000001
00000100
00000000
00000010
00000000
00001001
00000000
,
00001000
00000000
00000100
00010000
00001000
00000000
01000000
00000000
,
00010000
01000000
00001000
00000000
00022000
00000000
00033000
00000000
,
00001000
00100000
00010000
00100000
,
00001000
00010000
00000020
00000030
,
00001000
00000100
00010000
00001000
,
00100000
00100000
00000000
00100000
01000000
01000000
00000000
00000000
,
10000000
01000000
10000000
00000000
01000000
00100000
01000000
00000000
,
00100000
00010000
00100000
00000000
00001000
00000000
00010000
00000000
,
00000010
00001000
00000010
00000000
00000100
00000010
00000100
00000000
,
00000001
00001001
00001000
00000010
,
00000110
00000000
00000000
00000000
;

//--------------- dance-double - forcednature ----------------
#NOTEDATA:;
#STEPSTYPE:dance-double;
#DESCRIPTION:forcednature;
#DIFFICULTY:Hard;
#METER:15;
#RADARVALUES:0,0,0,0,0;
#CREDIT:forcednature;
#NOTES:
00000000
00000000
00000000
00000000
,
00000000
00000000
00000000
00000000
,
00000000
00000000
00000000
00000000
,
00000000
00000000
00000000
00000000
,
00000000
00000000
00000000
00000000
,
00011000
00000000
00011000
00000000
00010000
00001000
01000000
00010000
,
01000000
00000000
00001000
00010000
00000100
00001000
00000100
00000000
,
00000110
00000000
00000110
00000000
00000010
00000001
00001000
00000001
,
00000100
00000000
00000110
00000000
00000010
00001000
00000001
00000000
,
00001001
00000000
00001001
00000000
00001000
00000100
00010000
00001000
,
00100000
00000000
00010000
01000000
00001000
00010000
00000010
00000000
,
00001001
00000000
00001001
00000000
00001000
00000100
00010000
00001000
,
01000000
01000000
00000000
00010000
00100000
00100000
00000000
00000000
,
01000000
10000000
01000000
10000000
01000000
00100000
00010000
00100000
,
00001000
00010000
00000010
00001000
00000010
00000100
00000002
00000000
,
00000013
00000001
00000010
00000001
00000010
00000100
00001000
00000100
,
00010000
00010000
00001000
00001000
00010000
00001000
00011000
00000000
,
01000000
00010000
01000000
00010000
10000000
00100000
10000000
00010000
,
00100000
01000000
10000000
01000000
00100000
00001000
00020000
00000000
,
00030010
00000000
00001000
00001100
00000000
00000001
00000101
00000000
,
00000010
00000110
00000000
00000001
00000100
00000010
00001000
00000000
,
00000001
00000010
00001000
00010000
00001000
00000010
00000001
00000000
,
00000100
00000000
00001000
00010000
00000000
00010000
00100000
00000000
,
10000000
00100000
00010000
00001000
00010000
00100000
10000000
00000000
,
01000000
00000000
00010000
00001000
00010000
00000000
00011000
00000000
,
00001000
00000010
00000001
00000100
00000001
00000010
00001000
00000000
,
00011000
00000000
00010000
01000000
00000000
00010000
00001000
00000000
,
00010000
00100000
10000000
01000000
10000000
00100000
00010000
00000000
,
00001000
00010000
00001000
00010000
00022000
00000000
00033000
00000000
,
00001000
01000000
00010000
01000000
00001000
00010000
00001000
00100000
,
00010000
00100000
00001000
00010000
00100000
00000000
01100000
00000000
,
00010000
00001000
00010000
00000100
00001000
00000100
00010000
00000010
,
00001000
00000010
00010000
00000000
00001000
00000010
00000001
00000000
,
00000100
00001000
00010000
00001000
00010000
00100000
00010000
00100000
,
10000000
00100000
10000000
01000000
10000000
01000000
00010000
00000000
,
00011000
00000000
00001000
00000010
00000100
00000000
00000110
00000000
,
00000010
00000000
00000001
00000000
00000100
00000000
00000000
00000000
00000010
00000000
00000000
00000010
00000000
00000000
00001001
00000000
,
00000000
00000001
00000100
00001000
00000000
00000100
00001000
00010000
,
00000000
00001000
00010000
00100000
10000000
01000000
10000000
00100000
,
00000000
10000000
01000000
00010000
00000000
01000000
00010000
00001000
,
00000000
00010000
00001000
00000010
00000001
00000100
00000001
00000010
,
00000000
00000001
00000100
00001000
00000000
00000100
00001000
00010000
,
00000000
00001000
00010000
00100000
10000000
01000000
10000000
00100000
,
00000000
10000000
01000000
00010000
00001000
00000000
00011000
00000000
,
00010000
00001000
00000010
00000000
00000110
00000000
00000001
00001000
,
00000001
00000010
00000100
00000010
00000100
00010000
00001000
00100000
,
00001000
00010000
00100000
01000000
00010000
10000000
00100000
00100000
,
10000000
01000000
00100000
01000000
00100000
00001000
00010000
00000100
,
00001000
00000010
00010000
00001000
00000010
00001000
00010000
00000000
,
00000010
00001000
00000001
00000010
00000001
00001000
00000010
00001000
,
00000100
00010000
00001000
01000000
00010000
00100000
00001000
00001000
,
00010000
00100000
01000000
00100000
10000000
00010000
01000000
00010000
,
10000000
01000000
00000000
01000000
00010000
00002000
00000000
00000000
,
00013000
00000100
00001000
00000100
00010000
00001000
00010000
00000010
,
00001000
00000100
00000001
00000100
00001000
00000001
00000010
00000000
,
00000001
00000100
00000001
00001000
00000100
00001000
00000001
00000100
,
00001000
00000000
00011000
00000000
00010000
00100000
10000000
00000000
,
00010000
00010000
00010000
10000000
01000000
00010000
00001000
00100000
,
00010000
00100000
00001000
00010000
00000010
00001000
00000020
00000000
,
00000130
00001000
00000000
00001100
00000000
00000100
00000001
00001000
,
00000000
00000001
00000010
00001000
00010000
01000000
10000000
00000000
,
00020000
01000000
10000000
00100000
,
00032000
00000100
00000001
00000010
,
00023000
01000000
10000000
00100000
,
00032000
00000100
00000001
00000010
,
00013000
00000000
00000000
00000000
01000000
00000000
00000000
00010000
01000000
00000000
00000000
00000000
00100000
00000000
00000000
01000000
,
00100000
00000000
00000000
00000000
10000000
00000000
00000000
00100000
10000000
00000000
00000000
00000000
00010000
00000000
00000000
10000000
,
00010000
00100000
01000000
00010000
00001000
00000010
00000100
00001000
,
00000002
00000000
00000003
MMMMMMMM
,
00001000
00000100
00000010
00000100
00001000
00000001
00000010
00000001
,
00000000
00000100
00001000
00010000
00100000
00010000
00001000
00000000
,
00010000
00100000
10000000
01000000
10000000
00100000
00010000
00001000
,
00000000
00100000
00001000
00010000
00000010
00010000
00001000
00000000
,
00000010
00000100
00001000
00000001
00000100
00001000
00000100
00000001
,
00000000
00001000
00000010
00010000
00001000
01000000
00010000
00000000
,
00200000
00000000
01000000
01000000
00000000
00010000
00010000
00000000
,
00001000
00000000
00001000
00000000
00001000
00001000
00301000
00000000
,
00100000
00010000
01000000
00010000
00100000
01000000
00010000
00000100
,
00001000
00000001
00000010
00000001
00001000
00000010
00000110
00000000
,
00000010
00000100
00000001
00000100
00000010
00001000
00000100
00001000
,
00000001
00000100
00001000
00010000
00100000
10000000
00010000
00000000
,
00100000
01000000
00010000
01000000
00100000
00001000
00010000
00000010
,
00010000
00001000
00000010
00000100
00001000
00000001
00000100
00000000
,
00000110
00000000
00000010
00010000
00001000
00000000
00011000
00000000
,
00010000
00100000
10000000
00000000
10000000
00100000
00010000
00000000
,
00011000
00000000
00101000
00000000
00011000
00000000
00000010
00010000
,
00001000
00000000
00010000
00000100
00001000
00000000
00000010
00000000
,
00011000
00000000
00010010
00000000
00011000
00000000
00010000
00001000
,
01000000
01000000
00000000
00010000
00100000
00100000
00000000
00000000
,
01000000
00010000
00001000
00010000
00000100
00010000
00001000
00010000
,
00000010
00001000
00000001
00000100
00000001
00001000
00000010
00000000
,
00000100
00001000
00010000
00001000
01000000
00001000
00010000
00001000
,
00100000
00010000
10000000
01000000
10000000
00010000
00100000
00000000
,
00011000
00000000
00000000
00000000
;

//--------------- dance-double - forcednature ----------------
#NOTEDATA:;
#STEPSTYPE:dance-double;
#DESCRIPTION:forcednature;
#DIFFICULTY:Challenge;
#METER:16;
#RADARVALUES:0,0,0,0,0;
#CREDIT:forcednature;
#NOTES:
00000000
00000000
00000000
00000000
,
00000000
00000000
00000000
00000000
,
00000000
00000000
00000000
00000000
,
00000000
00000000
00000000
00000000
,
00000000
00000000
00000000
00000000
,
00011000
00000000
01001000
00000000
01000000
00010000
00100000
01000000
,
10000000
00000000
10000000
01000000
00010000
00001000
00100000
00000000
,
00011000
00000000
00101000
00000000
00100000
01000000
10000000
00010000
,
00100000
00101000
00011000
01000000
,
00011000
00000000
00010100
00000000
00000100
00001000
00000010
00000100
,
00000001
00000000
00000001
00000100
00001000
00010000
00000010
00000000
,
00011000
00000000
00010010
00000000
00000010
00000100
00000001
00001000
,
00000010
00000010
00000000
00010000
00001000
00001000
02000000
00000000
,
03010000
10000000
00100000
10000000
01000000
00010000
00001000
00010000
,
00000100
00000000
00000100
00001000
00000001
00001000
00000020
00000000
,
00000130
00001000
00000100
00000001
00001000
00000010
00000010
00010000
,
00001000
00000000
00011000
00000000
00010000
00100000
10000000
00000000
,
00010000
01000000
00100000
01000000
00010000
10000000
00100000
00010000
,
00001000
00000000
00100000
00001000
00010000
00000100
00020000
00000000
,
00031000
00000010
00000001
00001000
00000100
00000001
00001000
00000010
,
00000001
00000001
00000000
00000101
00000000
00000100
00001000
00010000
,
00002000
00000000
01000000
01000000
00000000
00010000
00000000
00103000
,
00001000
00010000
00100000
10000000
00100000
00010000
00001000
00000000
,
00020000
00000000
00000100
00000100
00000000
00001000
00000000
00030010
,
00010000
00001000
00000010
00000001
00001000
00000000
00011000
00000000
,
00002000
00000000
01000000
01000000
00000000
00010000
00000000
00103000
,
00001000
00010000
01000000
10000000
01000000
00010000
00001000
00000000
,
00020000
00000000
00000100
00000100
00000000
00001000
00000000
00030010
,
00010000
00001000
00000100
00000001
00002000
00000000
00003000
00000000
,
00000101
00000000
00000000
00000000
00000001
00000000
00000010
00000000
00000000
00000000
00000100
00000010
00000100
00000000
00000000
00000000
,
00000010
00000000
00000100
00000000
00010000
00000000
00000000
00001000
00010000
00000000
00000000
00000000
00101000
00000000
00000000
00000000
,
00110000
00000000
00000000
00000000
00010000
00000000
01000000
00000000
00000000
00000000
00100000
01000000
00100000
00000000
00000000
00000000
,
10000000
01000000
00010000
00000000
00001000
00011000
00000000
00010000
,
00011000
00000000
00000000
00000000
00001000
00000000
00000010
00000000
00000000
00000000
00000001
00000010
00000001
00000000
00000000
00000000
,
00000100
00000001
00000100
00000000
00000110
00000000
00010010
00000000
,
01001000
00000000
00000000
00000000
01000000
00000000
00010000
10000000
00010000
00000000
00000000
00000000
00101000
00000000
00000000
00000000
,
00001000
00000000
00010000
00001000
00010000
00000000
00000000
00000000
00000100
00000000
00000000
00000100
00000000
00000000
00001000
00000000
,
00000000
00000001
00000100
00001000
00000000
00010000
00100000
10000000
,
00000000
00000000
00010000
00000000
01000000
00000000
00100000
10000000
00100000
00000000
01000000
00000000
00010000
00000000
10000000
00000000
,
00000000
01000000
00010000
00001000
00000000
00010000
00001000
00000010
,
00000001
00000000
00001000
00000000
00000100
00001000
00000100
00000000
00000010
00000000
00000001
00000000
00000011
00000000
00000000
00000000
,
00001000
00000001
00000100
00001000
00000000
00010000
00100000
10000000
,
00000000
00000000
00010000
00000000
01000000
00000000
00010000
10000000
00100000
00000000
10000000
00000000
00010000
00000000
01000000
00000000
,
00000000
00010000
10000000
01000000
00010000
00000000
00011000
00000000
,
00001000
00000010
00000001
00000000
00000110
00000000
00001000
00000001
,
00000100
00000000
00000001
00000100
00000001
00000000
00001000
00000000
00000010
00000000
00001000
00000010
00001000
00000000
00000100
00000000
,
00010000
00000000
00001000
00010000
00001000
00000000
00100000
00000000
00010000
00000000
01000000
00000000
10000000
00000000
01000000
00000000
,
00010000
00000000
10000000
00100000
10000000
00000000
00010000
00000000
00100000
00000000
01000000
00100000
01000000
00000000
10000000
00000000
,
01000000
00010000
00001000
00010000
01000000
00100000
00001000
00000000
,
00010000
00000000
00001000
00010000
00001000
00000000
00010000
00000000
00000100
00000000
00001000
00000100
00001000
00000000
00000100
00000000
,
00000010
00000000
00000001
00000010
00000001
00000000
00001000
00000000
00000010
00000000
00010000
00000000
00001000
00000000
01000000
00000000
,
00010000
00000000
00100000
00010000
00100000
00000000
01000000
00000000
10000000
00000000
00100000
10000000
00100000
00000000
01000000
00000000
,
00010000
00100000
00000000
00100000
00001000
00000020
00000000
00000030
,
00000100
00000000
00001000
00000100
00010000
00000000
00001000
00000000
00010000
00000000
00001000
00000000
00100000
00001000
00010000
00000000
,
00001000
01000000
00100000
01000000
00001000
01000000
00010000
00100000
,
01000000
00000000
00100000
00010000
10000000
00000000
00100000
00000000
01000000
00000000
00010000
01000000
00001000
00000000
00010000
00000000
,
00000100
00000010
00001000
00000010
00000001
00000100
00000110
00000000
,
00000010
00000000
00000010
00000000
00000010
00000000
00001000
00000001
00000100
00000000
00000001
00001000
00000010
00000000
00010000
00000000
,
00001000
00000000
00100000
00000000
00001000
00000000
00010000
00000000
00001000
00010000
00001000
01000000
00020000
00000000
00000000
00000000
,
00130000
01100000
00000000
00011000
00000000
00000110
00000000
00000100
,
00001001
00000000
00000000
00000000
00000001
00000000
00000100
00000000
00000010
00001000
00000010
00010000
00001000
00000000
00000000
00000000
,
00020000
00000000
00000000
00000100
00000000
00000000
00001000
00000000
00030010
00000000
00000000
00000000
00000000
00000000
00000000
00000000
,
00002000
00000000
00000000
01000000
00000000
00000000
00010000
00000000
00103000
00000000
00000000
00000000
00000000
00000000
00000000
00000000
,
00020000
00000000
00000000
00000010
00000000
00000000
00001000
00000000
00030100
00000000
00000000
00000000
00000000
00000000
00000000
00000000
,
00002000
00000000
00000000
00100000
00000000
00000000
00010000
00000000
01003000
00000000
00000000
00000000
00002000
00000000
00000000
00000000
,
01003000
00000000
00000000
00010000
01000000
00000000
00001000
00000000
00010000
00000000
00000000
00000100
00010000
00000000
00001000
00000000
,
00100000
00000000
00000000
00010000
00100000
00000000
00001000
00000000
00010000
00000000
00000000
00000010
00010000
00000000
00001000
00000000
,
00000010
00000001
00000100
00001000
00010000
01000000
10000000
00100000
,
01000000
01000000
01000000
01000000
01000000
00000000
MMMMMMMM
00000000
,
10000000
01000000
00100000
01000000
00010000
00001000
00010000
00000010
,
00001000
00000001
00000100
00000001
00000000
00000000
00001000
00000001
00000010
00000000
00000100
00000000
00001001
00000000
00000000
00000000
,
00000001
00000100
00000010
00000100
00001000
00010000
00001000
00100000
,
00000000
00000000
01100000
00000000
00000000
00000000
01000000
00000000
10000000
00010000
00100000
01000000
20000000
00000000
00000000
00000000
,
30100000
01000000
00100000
10000000
00100000
00010000
00001000
00010000
,
00001000
00010000
00001000
00010000
00000000
00000000
00001000
00010000
00000100
00000000
00001000
00000000
00001100
00000000
00000000
00000000
,
00020000
00000000
00000100
00000100
00000000
00001000
00001000
00000000
,
00000010
00000000
00000010
00000000
00000010
00030010
00010000
00000000
,
00001000
00100000
00010000
00100000
01000000
10000000
00100000
10000000
,
01000000
00100000
00010000
00100000
00000000
00000000
00001000
00010000
00001000
00000000
00010000
00000000
00011000
00000000
00000000
00000000
,
00000010
00001000
00000010
00000100
00000001
00000100
00001000
00010000
,
00000000
00000000
00011000
00000000
00000000
00000000
00001000
00000000
00010000
00001000
01000000
00010000
02000000
00000000
00000000
00000000
,
03100000
10000000
01000000
00010000
01000000
10000000
00100000
00010000
,
00001000
00010000
00001000
00010000
00000000
00000000
00001000
00010000
00000010
00000000
00001000
00000000
00001010
00000000
00000000
00000000
,
00000001
00000100
00001000
00010000
00001000
00001000
00010000
00100000
,
00000000
10000000
11000000
00000000
00010000
00220000
00000000
00330000
,
10000000
01000000
00000000
00000000
00010000
01000000
00000000
00000000
10000000
00000000
01000000
00000000
00010000
00000000
00001000
00000000
,
00000010
00000000
00000010
00000100
00001000
00000010
00000110
00000000
,
00000001
00000100
00000000
00000000
00001000
00000100
00000000
00000000
00000001
00000000
00000100
00000000
00001000
00000000
00010000
00000000
,
00100000
01100000
00000000
00100000
01100000
20020000
00000000
30030000
,
10000000
00000000
01000000
10000000
01000000
00000000
00100000
00000000
00010000
00000000
00100000
00001000
00010000
00000000
00001000
00000000
,
00010000
00000000
00000010
00001000
00000010
00000000
00001000
00000001
00000100
00000000
00000000
00000000
00000110
00000000
00000000
00000000
,
00000001
00000010
00000001
00000000
00000010
00000100
00000010
00000000
00000100
00001000
00000100
00000000
00010000
00000000
00001000
00000000
,
01000000
00000000
00010000
00000000
10000000
00000000
00100000
00000000
01000000
00010000
10000000
00100000
01000000
00000000
00000000
00000000
,
20020000
30030000
00000000
00000000
;
