#VERSION:0.83;
#TITLE:RIZING YOU UP;
#SUBTITLE:;
#ARTIST:Ryu☆;
#TITLETRANSLIT:;
#SUBTITLETRANSLIT:;
#ARTISTTRANSLIT:;
#GENRE:HAPPY HARDCORE;
#CREDIT:;
#MUSIC:RIZING YOU UP.ogg;
#BANNER:RIZING YOU UP.png;
#BACKGROUND:RIZING YOU UP-bg.png;
#CDTITLE:./CDTitles/bm IIDX 16 EMPRESS.png;
#SAMPLESTART:33.873;
#SAMPLELENGTH:15.000;
#SELECTABLE:YES;
#OFFSET:0.845;
#BPMS:0.000=177.000;
#STOPS:;
#TIMESIGNATURES:0.000=4=4;
#BGCHANGES:0.000=../BGAs/09te.mp4=1.000=0=0=0=StretchNoLoop====,
99999.000=-nosongbg-=1.000=0=0=0=StretchNoLoop====
;
#FGCHANGES:;

//--------------- dance-single - forcednature ----------------
#NOTEDATA:;
#STEPSTYPE:dance-single;
#DESCRIPTION:forcednature;
#DIFFICULTY:Beginner;
#METER:2;
#RADARVALUES:0,0,0,0,0;
#CREDIT:forcednature;
#NOTES:
0000
0000
0000
0000
,
0000
0000
0000
0000
,
0000
0000
0000
0000
,
0000
0000
0000
0000
,
0000
0000
0000
0000
,
0000
0000
0000
0000
,
1000
0000
0000
0000
,
0000
0000
0000
0000
,
0001
0000
0000
0000
,
0100
0000
0000
0000
,
0010
0000
0000
0000
,
0000
0000
0000
0000
,
1000
0000
0000
0000
,
0000
0000
0000
0000
,
0100
0000
0000
0000
,
0000
0000
0000
0000
,
0010
0000
0000
0000
,
0000
0000
0000
0000
,
1001
0000
0000
0000
,
0000
0000
0000
0000
,
0001
0000
0000
0000
,
0001
0000
0000
0000
,
0100
0000
0000
0000
,
0010
0000
0000
0000
,
1000
0000
0000
0000
,
0001
0000
0000
0000
,
1001
0000
0000
0000
,
0000
0000
0000
0000
,
1000
0000
0000
0000
,
0100
0000
0000
0000
,
1000
0000
0000
0000
,
0000
0000
0000
0000
,
0001
0000
0000
0000
,
0100
0000
0000
0000
,
0001
0000
0000
0000
,
0000
0000
0000
0000
,
0010
0000
0000
0000
,
0001
0000
0000
0000
,
0100
0000
0000
0000
,
0000
0000
0000
0000
,
0010
0000
0000
0000
,
1000
0000
0000
0000
,
0001
0000
0000
0000
,
0001
0000
0000
0000
,
0010
0000
0000
0000
,
0010
0000
0000
0000
,
0100
0000
0000
0000
,
0100
0000
0000
0000
,
1000
0000
0000
0000
,
0001
0000
0000
0000
,
1000
0000
0000
0000
,
0000
0000
0000
0000
,
0010
0000
0000
0000
,
0000
0000
0000
0000
,
0100
0000
0000
0000
,
0000
0000
0000
0000
,
0001
0000
0000
0000
,
0000
0000
0000
0000
,
1001
0000
0000
0000
,
0000
0000
1000
0000
,
1000
0000
0000
0000
,
0000
0000
0001
0000
,
0001
0000
0000
0000
,
0100
0000
0000
0000
,
0010
0000
0010
0000
,
0010
0000
0000
0000
,
1001
0000
0000
0000
,
1000
0000
0000
0000
,
0100
0000
0000
0000
,
1000
0000
0000
0000
,
0001
0000
0000
0000
,
1000
0000
0000
0000
,
0010
0000
0000
0000
,
1000
0000
0000
0000
,
0001
0000
0000
0000
,
0010
0000
0000
0000
,
0100
0000
0000
0000
,
1000
0000
0000
0000
,
0001
0000
0000
0000
,
0100
0000
0000
0000
,
0010
0000
0000
0000
,
1000
0000
0000
0000
,
0001
0000
0000
0000
,
1001
0000
0000
0000
;

//--------------- dance-single - forcednature ----------------
#NOTEDATA:;
#STEPSTYPE:dance-single;
#DESCRIPTION:forcednature;
#DIFFICULTY:Easy;
#METER:6;
#RADARVALUES:0,0,0,0,0;
#CREDIT:forcednature;
#NOTES:
0000
0000
0000
0000
,
0000
0000
0000
0000
,
0000
0000
0000
0000
,
0000
0000
0000
0000
,
0000
0000
0000
0000
,
0000
0000
0000
0000
,
1000
0100
1000
0000
,
0001
0100
0001
0000
,
2002
0000
3003
0000
,
0220
0000
0330
0000
,
1001
0000
0000
0000
,
1000
0000
0100
0000
,
1000
0000
0000
0000
,
0001
0000
0000
0000
,
0100
0000
0000
0000
,
0010
0000
1000
0000
,
0010
0000
0000
0000
,
0100
0000
0000
0000
,
1001
0000
0001
0000
,
0001
0000
0010
0000
,
0100
0000
0100
0000
,
0100
0000
1000
0000
,
0010
1000
0010
0000
,
0100
0010
0100
0000
,
0001
0100
0001
0100
,
0010
0000
0000
0000
,
1001
0000
1000
0100
,
0010
0001
0100
0001
,
1000
0000
0010
0100
,
0001
0010
0100
1000
,
0010
0000
1000
0100
,
1000
0001
0100
0001
,
1000
0000
0100
0010
,
0001
0100
0010
0000
,
1001
0000
0001
0100
,
0001
1000
0010
1000
,
0100
0000
0010
0100
,
1000
0001
0100
0010
,
1000
0000
0001
0010
,
0001
1000
0010
0100
,
0001
0000
1000
0000
,
2002
0000
3003
0000
,
0001
0000
0100
0000
,
0001
0000
0100
0000
,
0010
0000
0010
0000
,
1000
0000
0001
0000
,
1000
0000
0100
0000
,
1000
0000
0100
0000
,
0220
0000
0330
0000
,
2002
0000
3003
0000
,
0220
0000
0330
0000
,
0001
0000
1000
0000
,
0010
0000
0100
0000
,
0001
0000
0000
0000
,
1000
0000
0000
0000
,
0100
0000
0010
0000
,
0001
0000
0100
0000
,
0010
0000
0000
0000
,
1000
0000
1000
0000
,
1000
0000
1000
0000
,
0001
0000
0001
0000
,
0001
0000
0001
0000
,
0100
0100
0100
0000
,
0010
0010
0010
0000
,
1000
0001
1000
0001
,
0020
0000
0030
0000
,
2002
0000
3003
0000
,
1000
0100
0010
0100
,
1000
0100
0010
0000
,
0001
0100
0010
0100
,
0001
0100
0010
0000
,
1000
0001
0010
0001
,
1000
0001
0010
0000
,
0001
1000
0010
1000
,
0001
1000
0000
1000
,
0100
0010
0100
1000
,
0100
0010
0100
0000
,
1000
0001
0010
0001
,
1000
0001
0010
0000
,
0001
0100
0010
0100
,
0001
0100
0010
0000
,
1000
1000
0001
0001
,
0020
0000
0030
0000
,
2002
0000
0000
0000
,
0000
0000
0000
0000
,
3003
0000
0000
0000
;

//--------------- dance-single - forcednature ----------------
#NOTEDATA:;
#STEPSTYPE:dance-single;
#DESCRIPTION:forcednature;
#DIFFICULTY:Medium;
#METER:10;
#RADARVALUES:0,0,0,0,0;
#CREDIT:forcednature;
#NOTES:
0000
0000
0000
0000
,
0000
0000
0000
0000
,
0000
0000
0000
0000
,
0000
0000
0000
0000
,
0000
0000
0000
0000
,
1000
0001
0000
0001
0000
0100
0000
0000
,
0010
0000
1000
0000
0010
1000
0010
0000
,
1000
0000
0100
0000
1000
0100
1000
0000
,
0001
0100
0000
0100
,
2002
0000
0000
3003
,
0001
0000
0000
0010
0000
0000
0100
0000
,
2000
0000
3002
0000
,
0203
0000
0310
1000
,
0001
1000
0100
0010
,
0001
0000
0000
1000
0000
0000
0010
0000
,
0200
0000
0302
0000
,
2003
0000
3200
0000
,
0020
0000
0000
0330
,
1001
0001
0100
0100
,
0010
0000
0010
0000
1000
0000
1000
0001
,
1000
1000
0100
0100
,
0010
0000
0010
0000
0001
0000
0001
1000
,
0001
0000
0100
0001
0100
0000
0001
1000
,
0001
0000
1000
0100
1000
0000
0001
1000
,
0002
0100
1000
0013
,
0220
0000
0000
0330
0000
0001
1000
0000
,
1001
0000
0001
0100
0000
0010
0000
1000
,
0000
0001
0010
0001
0010
0000
0100
0000
,
1000
0000
0001
0100
0000
0010
0000
1000
,
0000
0100
0010
0100
0010
0000
0001
0000
,
1000
0000
0010
0100
0000
0001
0000
1000
,
0000
0100
0010
0100
0010
0000
0001
0000
,
1000
0000
0010
0100
0000
0001
0000
1000
,
0000
0100
1000
0100
0000
0010
0001
0000
,
1001
0000
0001
0100
0000
0010
0000
1000
,
0000
0001
0010
0001
0010
0000
0100
0000
,
1000
0000
0001
0100
0000
0010
1000
0010
,
0000
1000
0100
1000
0100
0000
0010
0000
,
1001
0000
0001
0100
0000
0010
0000
1000
,
0000
0001
0010
0001
0010
0000
0100
0000
,
1001
0010
0000
0010
,
0220
0000
0000
0330
,
1000
0100
1000
0000
0100
0010
0100
0000
,
0010
0001
0010
0000
0001
1000
0001
0000
,
0100
0010
1000
0010
,
0100
1000
0100
0001
,
0010
0001
0010
0000
0100
0010
0100
0000
,
1000
0100
1000
0000
0001
1000
0001
0000
,
0100
0010
0000
0010
,
2002
0000
0000
3003
,
1000
0000
0000
0100
0000
0000
0010
0000
,
0002
0000
0103
0010
,
2000
0000
3001
1000
,
0100
0010
0001
1000
,
0010
0000
0000
0100
0000
0000
0001
0000
,
2000
0000
3100
0010
,
0002
0000
1003
0001
,
0100
0010
0000
0010
,
0110
0100
0001
0001
,
1000
1000
0100
0010
,
0110
0100
1000
1000
,
0001
0001
0100
0010
,
1000
0100
1000
0000
1000
0001
1000
0000
,
1000
0010
1000
0000
1000
0001
1000
0000
,
0100
0110
0010
0110
,
2002
0000
0000
3003
,
0220
0000
0000
0330
0000
0001
1000
0000
,
0001
0000
0000
0100
0000
0000
0001
0000
0100
0000
0000
0010
0000
0000
0100
0000
,
0010
0000
0000
1000
0000
0000
0010
0000
1000
0000
0000
1000
0000
0000
0001
0000
,
1000
0000
0000
0100
0000
0000
1000
0000
0100
0000
0000
0010
0000
0000
0100
0000
,
0010
0000
0000
0001
0000
0000
0010
0000
0001
0000
0000
0001
0000
0000
1000
0000
,
0001
0000
0000
0100
0000
0000
0001
0000
1000
0000
0000
0100
0000
0000
1000
0000
,
0010
0000
0000
0100
0000
0000
0010
0000
1000
0000
0000
1000
0000
0000
0001
0000
,
1000
0000
0000
0100
0000
0000
1000
0000
0001
0000
0000
0100
0000
0000
0001
0000
,
0010
0000
0000
0100
0000
0000
0010
0000
0000
0000
0010
0000
0001
0000
0000
0000
,
1000
0000
0000
0100
0000
0000
0010
0000
0001
0000
0000
0010
0000
0000
0100
0000
,
1000
0000
0000
0001
0000
0000
0100
0000
0001
0000
0000
1000
0000
0000
0100
0000
,
0010
0000
0000
0001
0000
0000
1000
0000
0010
0000
0000
1000
0000
0000
0001
0000
,
0010
0000
0000
0100
0000
0000
1000
0000
0010
0000
0000
0100
0000
0000
0001
0000
,
1000
0000
0000
0100
0000
0000
1000
0000
0001
0000
0000
0100
0000
0000
0001
0000
,
1000
0000
0000
0010
0000
0000
1000
0000
0001
0000
0000
0010
0000
0000
0001
0000
,
0100
0010
0000
0010
,
1001
0000
0100
0010
0000
0010
0100
0000
,
2002
0000
0000
0000
,
0000
0000
0000
0000
,
3003
0000
0000
0000
;

//--------------- dance-single - forcednature ----------------
#NOTEDATA:;
#STEPSTYPE:dance-single;
#DESCRIPTION:forcednature;
#DIFFICULTY:Hard;
#METER:13;
#RADARVALUES:0,0,0,0,0;
#CREDIT:forcednature;
#NOTES:
0000
0000
0000
0000
,
0000
0000
0000
0000
,
0000
0000
0000
0000
,
0000
0000
0000
0000
,
0000
0000
0000
0000
,
0100
0100
0000
0010
0000
1001
0000
0000
,
1000
0100
0010
0100
1000
0001
0010
0000
,
0001
0100
0010
0100
0001
1000
0010
0000
,
0102
1000
0000
1003
,
0011
0000
1000
0010
0100
0001
0010
0000
,
0100
1000
0100
0010
0000
0100
1000
0100
,
0010
0000
0000
0001
1000
0000
0000
0001
,
0200
0000
0320
2030
,
3002
0023
0230
2300
,
3001
0100
0010
0100
0000
0001
0100
0010
,
0100
0000
0000
0010
1000
0000
0000
0001
,
0020
0000
0000
0000
0230
0000
1300
0001
,
0000
0200
0000
0020
0000
0000
0330
0000
,
1000
0010
1000
0010
0100
0001
1000
0000
,
0001
0010
0001
0010
0100
1000
0001
0000
,
0100
0010
0100
0010
1000
0001
0010
0000
,
0100
0010
0100
0010
0001
1000
0010
0000
,
0100
0001
0100
0001
1000
0001
0010
0010
,
0100
1000
0100
1000
0001
1000
0010
0010
,
0100
0000
0000
0000
0100
0000
0010
0000
0100
0000
0001
0000
1000
0001
1000
0001
,
0020
0000
0000
0000
0030
0100
1000
0001
,
0100
0000
0000
0000
0010
0000
1000
0000
0001
0000
0010
0001
0010
0000
0100
0000
,
1000
0000
0001
0010
0001
0000
1000
0000
0010
0000
0000
0000
0110
0000
0000
0000
,
1001
0000
0000
0000
1000
0000
0010
0000
0100
0000
0001
0010
0001
0000
1000
0000
,
0000
0000
1000
0000
1000
0000
0001
0000
0010
0001
0010
0000
0100
0000
1000
0000
,
0001
0000
0000
0000
1000
0000
0010
0000
0100
0000
0010
1000
0010
0000
0100
0000
,
0001
0000
1000
0010
1000
0000
0001
0000
0010
0000
0000
0000
1001
0000
0000
0000
,
0001
0010
0100
0010
0000
0001
0100
1000
,
0000
0100
0001
1000
0000
0100
0010
0001
,
0100
0000
0000
0000
0001
0000
0010
0000
0100
0000
1000
0010
1000
0000
0010
0000
,
0100
0000
0001
0010
0001
0000
1000
0000
0010
0000
0000
0000
0110
0000
0000
0000
,
1001
0000
0000
0000
0001
0000
0010
0000
0100
0000
1000
0001
1000
0000
0010
0000
,
0000
0100
0100
0001
0010
0100
1000
1000
,
0010
0000
0000
0000
0100
0000
0001
0000
1000
0000
0100
1000
0100
0000
0010
0000
,
0001
0000
0100
0001
0100
0000
0010
0000
1000
0000
0000
0000
0110
0000
0000
0000
,
1001
0000
1000
0010
0000
0100
0001
1000
,
0100
0100
0010
0002
0000
0000
0003
0000
,
0001
0100
0010
1000
0001
0010
0100
1000
,
0001
0100
0010
1000
0001
0010
0100
1000
,
0010
1100
0010
0101
,
1000
0000
0010
0000
0100
0000
0000
0000
0001
0100
0001
0000
0100
0000
0100
0000
,
0001
0010
0100
1000
0001
0100
0010
1000
,
0001
0010
0100
1000
0001
0100
0010
1000
,
0200
0010
0000
0310
,
2002
0000
0000
3003
,
1000
0100
0010
0002
0000
0000
0000
0000
,
0000
0003
0200
0320
,
2030
0000
3020
0230
,
0302
2003
3200
0000
,
0310
0001
1000
0020
0000
0000
0000
0000
,
0230
0000
0302
0023
,
0230
0000
0000
0000
,
0300
0010
0000
0100
,
1001
0000
1000
0010
1000
0000
1000
0001
,
1000
0000
1000
0100
0010
0001
1000
0000
,
1001
0000
0001
0010
0001
0000
0001
1000
,
0001
0000
0001
0100
0010
1000
0001
0000
,
1000
0100
1000
0100
0010
0001
1000
1000
,
0001
0100
0001
0100
0010
1000
0001
0001
,
2000
0100
0001
3010
,
1001
0000
0100
0010
0100
0000
0010
0000
,
0220
0000
0000
0330
0000
0001
1000
0010
,
0100
0000
0000
0100
0001
0000
0010
0000
0100
0000
0000
0100
1000
0000
0010
0000
,
1000
0000
0000
1000
0001
0000
0010
0000
0001
0000
0000
0001
1000
0000
0010
0000
,
0100
0000
0000
0001
0010
0000
0001
0000
1000
0000
0000
0010
1000
0000
0100
0000
,
0010
0000
0000
0001
0100
0000
0010
0000
1000
0000
0001
0010
0000
0100
0010
0000
,
0100
0000
0000
0100
1000
0000
0001
0000
0100
0000
0000
0100
0001
0000
1000
0000
,
0010
0000
0000
0010
0100
0000
0001
0000
0010
0000
0000
0010
0100
0000
1000
0000
,
0001
0000
0000
0100
0010
0000
1000
0000
0100
0000
0000
0010
0001
0000
1000
0000
,
0010
0000
0000
0100
0001
0000
1000
0000
0000
0000
0100
0000
0010
0000
0001
0000
,
0100
0000
0010
1000
0010
0000
1000
0000
0100
0000
0010
0001
0010
0000
0001
0000
,
1000
0000
0010
0100
0010
0000
0100
0000
0001
0000
0010
0100
0010
0000
0100
0000
,
1000
0000
0001
0100
0001
0000
1000
0000
0001
0000
1000
0100
1000
0000
0001
0000
,
0100
0000
0001
1000
0001
0000
0010
0000
0100
0000
1000
0100
0000
0010
0100
0000
,
0010
0000
0001
0010
0001
0000
1000
0000
0010
0000
1000
0010
1000
0000
0001
0000
,
0100
0000
0001
0100
0001
0000
1000
0000
0100
0000
1000
0100
1000
0000
0001
0000
,
0200
0010
0000
0310
,
1000
0001
1000
0000
0010
0000
0100
0000
0000
0000
0001
0000
0010
0000
0100
0000
,
2002
0000
0000
0000
,
0000
0000
0000
0000
,
3003
0000
0000
0000
;

//--------------- dance-double - forcednature ----------------
#NOTEDATA:;
#STEPSTYPE:dance-double;
#DESCRIPTION:forcednature;
#DIFFICULTY:Easy;
#METER:7;
#RADARVALUES:0,0,0,0,0;
#CREDIT:forcednature;
#NOTES:
00000000
00000000
00000000
00000000
,
00000000
00000000
00000000
00000000
,
00000000
00000000
00000000
00000000
,
00000000
00000000
00000000
00000000
,
00000000
00000000
00000000
00000000
,
00000000
00000000
00000000
00000000
,
00001000
00000000
00010000
00000000
,
00000100
00000000
00010000
00000000
,
00011000
00000000
00000000
00000000
,
01100000
00000000
00000000
00000000
,
10000000
00000000
01000000
00000000
,
00100000
00000000
00010000
00000000
,
01000000
00000000
00000000
00000000
,
00001000
00000000
00000000
00000000
,
00010000
00000000
00000100
00000000
,
00001000
00000000
00000100
00000000
,
00000010
00000000
00000000
00000000
,
00000001
00000000
00000000
00000000
,
00001001
00000000
00001000
00000000
,
00000010
00000000
00010000
00000000
,
00011000
00000000
00001000
00000000
,
00100000
00000000
00010000
00000000
,
10010000
00000000
10000000
00000000
,
00100000
00000000
10000000
00000000
,
01000000
01000000
01000000
00000000
,
02200000
00000000
03300000
00000000
,
00100000
00000000
00001000
00010000
,
00001000
00000000
00010000
00000000
,
00000010
00000000
00001000
00000001
,
00001000
00000000
00000100
00000000
,
00000010
00000000
00000100
00001000
,
00000100
00000000
00010000
00000000
,
00001000
00000000
01000000
00010000
,
01000000
00000000
00100000
00000000
,
10010000
00000000
00010000
01000000
,
00010000
00000000
00100000
00000000
,
00001000
00000000
00010000
00000100
,
00010000
00000000
00001000
00000000
,
00000010
00000000
00000001
00001000
,
00000001
00000000
00000100
00000000
,
00001000
00000000
00010000
00001000
,
00020000
00000000
00030000
00000000
,
00001000
00000000
00001000
00000000
,
01000000
00000000
01000000
00000000
,
00010000
00000000
00000000
00000000
,
10000000
00000000
00000000
00000000
,
01000000
00000000
01000000
00000000
,
00100000
00000000
00100000
00000000
,
00001000
00000000
00000000
00000000
,
00022000
00000000
00033000
00000000
,
00010000
00000000
00000100
00000000
,
00001000
00000000
00000100
00000000
,
00000010
00000000
00000000
00000000
,
00000001
00000000
00000000
00000000
,
00001000
00000000
00000010
00000000
,
00010000
00000000
00001000
00000000
,
01000000
00000000
00000000
00000000
,
00010000
00000000
00000000
00000000
,
10010000
00000000
10000000
00000000
,
01000000
00000000
00100000
00000000
,
01100000
00000000
01000000
00000000
,
00100000
00000000
00001000
00000000
,
00011000
00000000
00010000
00000000
,
00011000
00000000
00001000
00000000
,
00000010
00000010
00000010
00000010
,
00000100
00000000
00000000
00000000
,
00002002
00000000
00003003
00000000
,
00000001
00000100
00000001
00000000
,
00000100
00000010
00000100
00000000
,
00000010
00001000
00000010
00000000
,
00010000
00001000
00010000
00000000
,
00001000
00100000
00001000
00000000
,
00100000
00010000
00100000
00000000
,
01000000
00100000
01000000
00000000
,
02200000
00000000
03300000
00000000
,
10000000
00010000
10000000
00010000
,
01000000
00001000
01000000
00001000
,
00010000
00000100
00010000
00000100
,
00001000
00000001
00001000
00000001
,
00000100
00000010
00000100
00000010
,
00001000
00000100
00001000
00000100
,
00010000
00001000
00010000
00001000
,
00022000
00000000
00033000
00000000
,
02000000
00000000
00000000
00000000
,
00000000
00000000
00000000
00000000
,
03000000
00000000
00000000
00000000
;

//--------------- dance-double - forcednature ----------------
#NOTEDATA:;
#STEPSTYPE:dance-double;
#DESCRIPTION:forcednature;
#DIFFICULTY:Medium;
#METER:10;
#RADARVALUES:0,0,0,0,0;
#CREDIT:forcednature;
#NOTES:
00000000
00000000
00000000
00000000
,
00000000
00000000
00000000
00000000
,
00000000
00000000
00000000
00000000
,
00000000
00000000
00000000
00000000
,
00000000
00000000
00000000
00000000
,
00001000
00001000
00000000
00010000
00000000
00010000
00000000
00000000
,
00001000
00100000
01000000
00100000
,
00001000
00010000
00000010
00000100
,
00000220
00000000
00000000
00000330
,
00002002
00000000
00000000
00003003
,
00001000
00000100
00010000
00001000
,
00100000
00000000
00010000
00000000
,
01000000
00000000
00100000
10000000
,
01000000
00100000
00001000
00010000
,
00000200
00002300
00003002
00000203
,
00000320
00002030
00003020
00020030
,
00030000
00000000
00000000
00000000
,
00000000
00011000
00000000
00022000
00000000
00000000
00033000
00000000
,
00001000
00100000
00010000
00100000
,
01000000
00100000
00010000
00100000
,
00001000
00010000
00000010
00010000
,
00001000
00010000
00000100
00010000
,
00001000
00000000
00000010
00000100
00000010
00000000
00000001
00000000
,
00001000
00000000
00000010
00000100
00000010
00000000
00000001
00000000
,
00000010
00001000
00100000
00010000
,
00022000
00000000
00033000
00000000
,
00001000
00010000
00001000
00000000
01000000
00000000
00010000
00000000
,
00100000
00010000
00100000
00000000
01100000
00000000
11000000
00000000
,
10000000
00100000
10000000
00000000
00010000
00000000
01000000
00000000
,
00001000
00010000
00001000
00000000
00011000
00000000
00010100
00000000
,
00000100
00001000
00000100
00000000
00000010
00000000
00000001
00000000
,
00001000
00000010
00001000
00000000
00001010
00000000
00010010
00000000
,
00010000
00001000
00010000
00000000
00001000
00000000
00100000
00000000
,
02200000
00000000
03300000
00000000
,
01000000
10000000
01000000
00000000
00100000
00000000
00001000
00000000
,
00010000
00000010
00010000
00000000
00010010
00000000
00001010
00000000
,
00000010
00000100
00000010
00000000
00000100
00000000
00000001
00000000
,
00000010
00000100
00000010
00000000
00001100
00000000
00010100
00000000
,
00010000
00001000
00010000
00000000
00001000
00000000
01000000
00000000
,
00010000
00100000
00010000
00000000
00110000
00000000
01100000
00000000
,
01000000
10000000
01000000
00000000
10000000
00000000
00100000
00000000
,
02200000
00000000
00000000
03300000
,
01000000
01001000
00001000
00011000
,
00010000
00010100
00000100
00001100
,
00001000
00000010
00000100
00000010
,
00001000
00000000
00000010
00000000
00000100
00000001
00000100
00000000
,
00000001
00000011
00000010
00000110
,
00000100
00010100
00010000
00011000
,
00001000
01000000
00001000
00000000
01000000
00000000
00010000
00000000
,
20020000
00000000
00000000
30030000
,
10000000
01000000
00010000
00001000
,
00100000
00000000
00001000
00000000
,
00010000
00000000
00000010
00001000
,
00000001
00000010
00000100
00010000
,
00001000
00100000
00001000
00010000
,
00100000
00000000
01000000
00010000
,
10000000
00000000
01000000
00010000
,
00001000
00000010
00000100
00000010
,
00000110
00000100
00010000
00001000
,
01000000
00010000
00100000
01000000
,
01100000
00100000
00001000
00010000
,
00000010
00001000
00000100
00000010
,
00000110
00000100
00010000
00001000
,
00011000
00010000
00100000
01000000
,
00010000
00010000
10000000
10000000
,
20020000
00000000
00000000
30030000
,
02200000
00000000
03300000
00000000
,
10000000
00000000
01000000
00100000
01000000
00000000
00100000
00000000
,
00001000
00000000
00010000
00000100
00010000
00000000
00001000
00000000
,
00000010
00000000
00000001
00000010
00000001
00000000
00000100
00000000
,
00001000
00000000
00010000
00001000
00010000
00000000
00100000
00000000
,
01000000
00000000
00010000
10000000
00010000
00000000
00100000
00000000
,
01000000
00000000
00010000
00001000
00010000
00000000
00000010
00000000
,
00001000
00000000
00000100
00000010
00000100
00000000
00000010
00000000
,
00002002
00000000
00003003
00000000
,
00000001
00000000
00000100
00000010
00001000
00000000
00000100
00000000
,
00010000
00000000
00001000
01000000
00010000
00000000
00100000
00000000
,
01000000
00000000
00010000
00001000
00100000
00000000
00010000
00000000
,
10000000
00000000
00100000
01000000
00001000
00000000
00010000
00000000
,
00000010
00000000
00010000
00001000
00000010
00000000
00000100
00000000
,
00001000
00000000
00000001
00000100
00001000
00000000
00000100
00000000
,
00000001
00000000
00000010
00001000
00010000
00000000
00001000
00000000
,
00022000
00000000
00033000
00000000
,
02200000
00000000
00000000
00000000
,
00000000
00000000
00000000
00000000
,
03300000
00000000
00000000
00000000
;

//--------------- dance-double - forcednature ----------------
#NOTEDATA:;
#STEPSTYPE:dance-double;
#DESCRIPTION:forcednature;
#DIFFICULTY:Hard;
#METER:14;
#RADARVALUES:0,0,0,0,0;
#CREDIT:forcednature;
#NOTES:
00000000
00000000
00000000
00000000
,
00000000
00000000
00000000
00000000
,
00000000
00000000
00000000
00000000
,
00000000
00000000
00000000
00000000
,
00000000
00000000
00000000
00000000
,
00010000
00001000
00000000
00011000
00000000
00001000
00010000
00000000
,
01000000
00100000
00001000
01000000
00100000
10000000
01000000
00000000
,
00010000
00001000
00000010
00000100
00010000
00000010
00000100
00000000
,
00001001
00000000
00000001
00000010
00001000
00000000
00010000
01000000
,
20000000
00000000
00010000
00010000
00000000
00100000
30100000
00000000
,
10000000
01000000
00100000
01000000
00000000
00100000
00001000
00010000
,
00001000
00000000
00010000
00001000
00000010
00000000
00001000
00000010
,
00000001
00000000
00000200
00002300
,
00023000
00230000
02300000
03002000
,
00103000
00010000
00100000
01000000
00000000
10000000
01000000
00010000
,
01000000
00000000
00100000
00001000
00010000
00000000
00000010
00010000
,
00001000
00000000
00000000
00000000
00000010
00000000
00000100
00002000
,
00000000
00003010
00000000
00002002
00000000
00000000
00003003
00000000
,
00000001
00000000
00000001
00000100
00001000
00000000
00001000
00010000
,
00100000
00000000
00100000
10000000
01000000
00000000
01100000
00000000
,
10010000
00000000
10000000
01000000
00010000
00000000
00010000
00001000
,
00000010
00000000
00000010
00000001
00000100
00000000
00000110
00000000
,
00000001
00000100
00000010
00000100
00001000
00010000
01000000
00100000
,
01000000
10000000
00010000
10000000
00100000
01000000
00100000
00010000
,
00002000
00100000
00010000
01003000
,
00022000
00000000
00000000
00033000
00000000
00010000
00000100
00010000
,
00001000
00000010
00000100
00010000
00000010
00001000
00000001
00000010
,
00000100
00010000
00001000
00100000
01100000
00000000
10010000
00000000
,
10000000
00100000
00010000
00100000
01000000
00001000
00010000
01000000
,
00100000
00001000
00010000
00000100
00000110
00000000
00001001
00000000
,
00000001
00000100
00001000
00000100
00000010
00010000
00001000
00000010
,
00000100
00010000
00001000
00100000
01100000
00000000
10010000
00000000
,
10000000
01000000
00010000
00001000
01000000
00010000
00100000
01000000
,
00010000
00001000
00000010
00000200
00000000
00001300
00001000
00000001
,
00000100
00001000
00000100
00000001
00000010
00001000
00010000
01000000
,
00100000
00001000
00010000
00100000
01100000
00000000
10010000
00000000
,
10000000
01000000
00010000
00001000
00100000
01000000
00010000
00000100
,
00001000
00000010
00000100
00000001
00001001
00000000
00000110
00000000
,
00000001
00000010
00001000
00100000
00001000
00010000
00100000
01000000
,
00010000
10000000
01000000
00010000
00011000
00000000
00101000
00000000
,
00100000
01000000
00010000
00001000
00000100
00000010
00010000
00001000
,
00000020
00000000
00000001
00000001
00000000
00000100
00000130
00000000
,
00000110
00001100
00000110
00000011
,
00000001
00000100
00001000
00000000
00000100
00001000
00010000
00100000
,
00000000
01100000
00000000
01100000
00000000
01010000
00000000
01010000
,
00000000
00010000
00100000
00010000
01000000
00100000
01000000
00000000
,
01001000
00011000
00010100
00011000
,
00001000
00000010
00000100
00000000
00000010
00000001
00000100
00001000
,
00000000
00011000
00000000
00011000
00000000
00010100
00000000
00010100
,
00000000
00000200
00000000
00000020
00000000
00000000
00000330
00000000
,
00000010
00000001
00000100
00001000
00000000
00000100
00001000
00010000
,
00200000
00000000
00000000
01300000
02000000
00000000
03020000
00000000
,
20030000
30000000
02000000
03020000
,
00032000
00003020
00000230
00020300
,
00030010
00000100
00000001
00000010
00000000
00000100
00000010
00000100
,
00020000
00000000
00030000
00001000
00200000
00000000
00320000
00000000
,
02030000
03000000
00200000
00320000
,
00032000
00003200
00000310
00000110
,
00001001
00000000
00001000
00000100
00010000
00000000
00010000
00001000
,
01000000
00000000
01000000
00010000
00100000
00000000
01100000
00000000
,
10010000
00000000
00010000
01000000
00001000
00000000
00001000
00010000
,
00000100
00000000
00000100
00001000
00000010
00000000
00000110
00000000
,
00000100
00000001
00000100
00000001
00000010
00000100
00010000
00000000
,
00001000
00100000
00001000
00100000
00010000
01000000
10000000
00000000
,
11000000
01010000
00110000
01100000
,
10020000
01000000
10000000
00130000
,
00022000
00000000
00000000
00033000
00000000
00001000
00010000
00001000
,
00000010
00000000
00000000
00000100
00000010
00000000
00000001
00000000
00000100
00000000
00000000
00000010
00000100
00000000
00001000
00000000
,
00010000
00000000
00000000
00001000
00010000
00000000
00001000
00000000
01000000
00000000
00000000
00100000
01000000
00000000
00010000
00000000
,
10000000
00000000
00000000
01000000
10000000
00000000
01000000
00000000
00100000
00000000
00000000
00010000
00100000
00000000
00001000
00000000
,
00010000
00000000
00000000
00000010
00001000
00000000
00000010
00000000
00000100
00000000
00000000
00000110
00000000
00000000
00001001
00000000
,
00001000
00000000
00000000
00000100
00001000
00000000
00000100
00000000
00010000
00000000
00000000
00001000
00010000
00000000
00001000
00000000
,
01000000
00000000
00000000
00010000
01000000
00000000
00100000
00000000
10000000
00000000
00000000
01000000
00100000
00000000
01000000
00000000
,
10000000
00000000
00000000
00010000
00100000
00000000
00001000
00000000
00010000
00000000
00000000
00000010
00010000
00000000
00001000
00000000
,
00000010
00000000
00000000
00000110
00000000
00000000
00001001
00000000
00000000
00000000
00001000
00000000
00000100
00000000
00010000
00000000
,
00001000
00010000
00000000
00001000
01000000
00000000
00010000
00000000
01000000
00100000
00000000
10000000
00100000
00000000
01000000
00000000
,
00010000
00100000
00000000
01000000
00100000
00000000
00010000
00000000
00100000
00001000
00000000
00010000
00001000
00000000
00010000
00000000
,
00000010
00001000
00000000
00000010
00000100
00000000
00000001
00000000
00000010
00000100
00000000
00000010
00000001
00000000
00000100
00000000
,
00001000
00010000
00000000
00001000
00100000
00000000
00010000
00000000
01010000
00000000
00000000
01100000
00000000
00000000
10100000
00000000
,
10000000
01000000
00000000
00100000
01000000
00000000
00100000
00000000
00001000
00010000
00000000
00000100
00001000
00000000
00000100
00000000
,
00000010
00000001
00000000
00001000
00000001
00000000
00000100
00000000
00000010
00010000
00000000
00001000
00010000
00000000
00001000
00000000
,
01000000
00010000
00000000
10000000
00010000
00000000
00100000
00000000
01000000
10000000
00000000
00010000
10000000
00000000
00100000
00000000
,
01100000
00000000
00000000
01001000
00000000
00000000
00011000
00000000
00000000
00000000
00001000
00000000
00000100
00000000
00000001
00000000
,
00000020
00000000
00000000
00000000
,
00000000
00000000
00000000
00000000
,
00000030
00000000
00000000
00000000
;
