#VERSION:0.83;
#TITLE:Psychedelic Intelligence;
#SUBTITLE:;
#ARTIST:Sota Fujimori;
#TITLETRANSLIT:;
#SUBTITLETRANSLIT:;
#ARTISTTRANSLIT:;
#GENRE:;
#CREDIT:;
#MUSIC:Psychedelic Intelligence.ogg;
#BANNER:Psychedelic Intelligence.png;
#BACKGROUND:Psychedelic Intelligence-bg.png;
#CDTITLE:./CDTitles/bm IIDX ULTIMATE MOBILE.png;
#SAMPLESTART:96.309;
#SAMPLELENGTH:15.000;
#SELECTABLE:YES;
#OFFSET:1.274;
#BPMS:0.000=150.000;
#STOPS:;
#TIMESIGNATURES:0.000=4=4;
#BGCHANGES:0.000=../BGAs/20te.mp4=1.000=0=0=0=StretchNoLoop====,
99999.000=-nosongbg-=1.000=0=0=0=StretchNoLoop====
;
#FGCHANGES:;

//--------------- dance-single - forcednature ----------------
#NOTEDATA:;
#STEPSTYPE:dance-single;
#DESCRIPTION:forcednature;
#CREDIT:forcednature;
#DIFFICULTY:Beginner;
#METER:3;
#RADARVALUES:0,0,0,0,0;
#NOTES:
0000
0000
0000
0000
,
0000
0000
0000
0000
,
0000
0000
0000
0000
,
0000
0000
0000
0000
,
0000
0000
0000
0000
,
0001
0000
0000
0000
,
0100
0000
0000
0000
,
0010
0000
0000
0000
,
1000
0000
0000
0000
,
0100
0000
0100
0000
,
1000
0000
0000
0000
,
0001
0000
0001
0000
,
0100
0000
0000
0000
,
1001
0000
0000
0000
,
1000
0000
0010
0000
,
1000
0000
0000
0000
,
0010
0000
0100
0000
,
0010
0000
0000
0000
,
0100
0000
0001
0000
,
0100
0000
0000
0000
,
0001
0000
0001
0000
,
0010
0000
0000
0000
,
0100
0000
0000
0000
,
1000
0000
0000
0000
,
0010
0000
0000
0000
,
0100
0000
0000
0000
,
0001
0000
0000
0000
,
1000
0000
1000
0000
,
1000
0000
0000
0000
,
0100
0000
0000
0000
,
0110
0000
0000
0000
,
0010
0000
0000
0000
,
0110
0000
0000
0000
,
0001
0000
0001
0000
,
0000
0000
0001
0000
,
0000
0000
1000
0000
,
0000
0000
1000
0000
,
0000
0000
0010
0000
,
0000
0000
0010
0000
,
0000
0000
0100
0000
,
0000
0000
0100
0000
,
0000
0000
0001
0000
,
0000
0000
0001
0000
,
0000
0000
1000
0000
,
0000
0000
1000
0000
,
0000
0000
0100
0000
,
0000
0000
0010
0000
,
0000
0000
0010
0000
,
0000
0000
0000
0000
,
0001
0000
0001
0000
,
0001
0000
0001
0000
,
1000
0000
1000
0000
,
1000
0000
1000
0000
,
0010
0000
0010
0000
,
0010
0000
0010
0000
,
0100
0000
0100
0000
,
0001
0000
0001
0000
,
1001
0000
0000
0000
,
1000
0000
0000
0000
,
0100
0000
0000
0000
,
0010
0000
0000
0000
,
0001
0000
0000
0000
,
0100
0000
0000
0000
,
0001
0000
0000
0000
,
1000
0000
0000
0000
,
0100
0000
0000
0000
,
1000
0000
1000
0000
,
1000
0000
0000
0000
,
0010
0000
0000
0000
,
1001
0000
0000
0000
,
0001
0000
0000
0000
,
0010
0000
0000
0000
,
0100
0000
0000
0000
,
1000
0000
0000
0000
,
0001
0000
0000
0000
,
0100
0000
0000
0000
,
0010
0000
0010
0000
,
0010
0000
0000
0000
,
1001
0000
0000
0000
,
1000
0000
0000
0000
,
0100
0000
0000
0000
,
0010
0000
0001
0000
;

//--------------- dance-single - forcednature ----------------
#NOTEDATA:;
#STEPSTYPE:dance-single;
#DESCRIPTION:forcednature;
#CREDIT:forcednature;
#DIFFICULTY:Easy;
#METER:6;
#RADARVALUES:0,0,0,0,0;
#NOTES:
0000
0000
0000
0000
,
0000
0000
0000
0000
,
0000
0000
0000
0000
,
0000
0000
0000
0000
,
0000
0000
0000
0000
,
1000
0001
0000
0001
,
0100
0001
0000
0001
,
0010
0001
0000
0001
,
0100
0001
0000
0001
,
1000
0000
1000
0100
,
1000
0010
1000
0000
,
0100
0000
0100
0010
,
0001
0010
0100
0000
,
1001
0000
0001
0100
,
0001
1000
0010
0000
,
1000
0100
1000
0000
,
0100
0010
0100
0000
,
0010
0000
0001
1000
,
0001
0000
0100
0000
,
0010
1000
0010
0000
,
1000
0000
1000
0000
,
1001
0000
0001
0000
,
0010
0001
0010
0000
,
0100
0010
0100
0000
,
1000
1000
0010
0000
,
1001
0000
0001
0100
,
0001
0000
0100
0000
,
0010
1000
0010
0000
,
1000
1000
1000
0000
,
1001
0000
0000
0000
,
0110
0000
0000
0000
,
1001
0000
0000
0000
,
0110
0000
0010
0000
,
0100
0000
0001
0100
,
0001
0000
1000
0100
,
1000
0000
0001
0010
,
0001
0000
1000
0010
,
1000
0000
0100
0010
,
0100
0000
1000
0001
,
1000
0000
0001
0100
,
0001
0000
0010
0000
,
1001
0000
1000
0010
,
1000
0000
0010
0100
,
0010
0000
0100
0001
,
0100
0000
0001
1000
,
0001
0000
0010
0100
,
0010
0000
0100
0000
,
1000
1000
0001
0000
,
0100
0000
0001
0000
,
0010
0010
0010
0010
,
0100
1000
0100
0000
,
0010
0010
0010
0010
,
0001
0100
0001
0000
,
1000
1000
1000
1000
,
0100
0010
0100
0000
,
0010
0010
0010
0010
,
0001
0100
0001
0000
,
2002
0000
0000
0000
,
0000
0000
0000
0000
,
0000
0000
0000
0000
,
0000
0000
0000
3003
,
0110
0000
0001
1000
,
0010
0100
0001
0000
,
1000
0100
1000
0100
,
0010
0001
1000
0000
,
0010
0100
0010
0100
,
0001
0010
0001
0000
,
1000
1000
0010
1000
,
0100
0010
0001
0000
,
1001
0000
1000
0010
,
1000
0001
0010
0000
,
0100
1000
0001
0000
,
0100
0010
1000
0000
,
0001
0001
0010
0000
,
0100
1000
0100
0000
,
1000
1000
0010
0000
,
0100
0001
1000
0000
,
2002
0000
0000
3003
,
0110
0000
0001
0010
,
0100
1000
0010
0000
,
0110
0000
1000
0010
,
0100
0001
0020
0030
;

//--------------- dance-single - forcednature ----------------
#NOTEDATA:;
#STEPSTYPE:dance-single;
#DESCRIPTION:forcednature;
#CREDIT:forcednature;
#DIFFICULTY:Medium;
#METER:10;
#RADARVALUES:0,0,0,0,0;
#NOTES:
0000
0000
0000
0000
,
0000
0000
0000
0000
,
0000
0000
0000
0000
,
0000
0000
0000
0000
,
0000
0000
0000
0000
,
1100
0000
0001
0000
0010
0001
0100
0000
,
0010
0000
1000
0000
0001
0010
0100
0000
,
1000
0000
0001
0000
0100
0010
1000
0000
,
0100
0000
0010
0000
0001
1000
0100
0000
,
0110
0000
0000
0001
0000
0000
0000
0000
1000
0000
0000
0000
0010
0000
0000
0000
,
1000
0100
0010
0000
0100
0010
0001
0000
,
0110
0000
0000
1000
0000
0000
0000
0000
0001
0000
0100
0000
0010
0000
0000
0000
,
1000
0000
0100
0000
0010
0000
0001
0000
0000
0100
0000
0100
0000
0000
0000
0000
,
0010
0000
1000
0000
0001
0100
0001
0000
,
1000
0100
1000
0000
0010
0000
0010
0000
,
0100
0000
0100
0000
0001
0010
0001
0000
,
1000
0000
0010
0000
1000
0000
0000
0000
0001
1000
0000
0000
0001
0000
0000
0000
,
1000
0100
0010
0000
0100
0000
0100
0000
,
0001
0100
0010
0000
0100
0000
0100
0000
,
0010
1000
0001
0000
0010
0000
0010
0000
,
0001
0000
0000
1000
0000
0000
0001
0000
0000
1000
0000
0000
0110
0000
0000
0000
,
1001
0000
1001
0000
1000
0100
0010
0000
,
0001
0100
0001
0000
0100
0100
0100
0000
,
0010
0000
1001
0000
1000
0100
1000
0000
,
0000
0010
0000
0000
0100
0000
0000
0000
0001
0000
0010
0000
0001
0000
0000
0000
,
0100
0010
0000
0000
1000
0000
0000
0000
0001
0000
0010
0000
0001
0000
0000
0000
,
1000
0000
0100
0000
1000
0010
1000
0000
,
0002
0000
0103
0000
0001
0010
0001
0000
,
0100
0000
0010
0000
1000
0000
0001
0000
0000
1000
0000
0001
0000
0000
0000
0000
,
1000
0000
0000
0100
0000
0000
0001
0000
0000
0000
0000
0000
0000
0000
0100
0000
,
0010
0000
0000
0001
0000
0000
0100
0000
0000
0000
0000
0000
0000
0000
0010
0000
,
0001
0000
0000
0010
0000
0000
1000
0000
0000
0000
0000
0000
0000
0000
0001
0000
,
0010
0000
0000
0100
0000
0000
1000
0000
0000
0000
1001
0000
0000
0000
0000
0000
,
1000
0000
0100
0000
1000
0000
0000
0000
0010
0000
0000
0100
0000
0000
0100
0000
,
0001
0010
0100
1000
,
0001
0000
0000
0000
0100
0000
0000
0000
0010
0000
0000
1000
0000
0000
1000
0000
,
0001
0000
0010
0000
1000
0010
0100
0000
,
1000
0000
0000
0000
0010
0000
0000
0000
0100
0000
0000
0001
0000
0000
0001
0000
,
1000
0000
0001
0000
0010
0100
1000
0000
,
0010
0000
0000
0000
0100
0000
0000
0000
0001
0000
0000
1000
0000
0000
0001
0000
,
1000
0000
0100
0000
0010
0001
0100
0000
,
1000
0100
0001
0000
1000
0000
0100
0010
,
0001
1000
0010
0000
0100
0000
0001
0000
,
1000
0010
0100
0000
0001
0000
0010
1000
,
0010
0000
0100
0000
1000
0000
0000
0000
0010
0100
0000
0100
0000
0000
0001
0000
,
1000
0000
0010
0000
1000
0001
0010
0000
,
0100
0000
0000
0000
1000
0000
0000
0000
0110
0000
0000
0001
0000
0000
0000
0000
,
1000
0000
0000
0100
0001
0000
0000
0000
0100
0000
0000
0000
1000
0000
0000
0000
,
0010
0000
0000
0000
1000
0000
0000
0000
0001
0100
0000
0000
0001
0000
0000
0000
,
1010
1010
0101
0101
,
1010
1010
0101
0101
,
0011
0011
1100
1100
,
0011
0011
1100
1100
,
0110
1001
0110
1001
,
1001
0110
1001
0110
,
1100
0110
0101
0110
,
0011
0110
1010
0110
,
2002
0000
0000
0000
,
0000
0000
0000
3003
,
0200
0000
0000
0000
,
0020
0000
0000
0330
,
1000
0100
0010
0000
0001
0000
1100
0000
,
0010
1000
0001
0000
0100
0000
1001
0000
,
0010
1000
0100
0000
0010
0000
1001
0000
,
0100
0010
0001
0000
0100
0000
1001
0000
,
0010
1000
0001
0000
0100
0000
1010
0000
,
0100
0000
0011
0000
0001
0010
1000
0000
,
0010
0100
1000
0000
0010
0000
1001
0000
,
0100
0001
0010
0000
0100
1000
0001
0000
,
1000
0010
0100
0000
0001
0000
0110
0000
,
1000
0010
0100
0000
0001
0010
1000
0000
,
0010
0100
1000
0000
0010
0000
0101
0000
,
1000
0000
0100
0000
0001
0000
0000
0000
0100
0000
0000
1000
0000
0000
0000
0000
,
0010
0000
0100
0000
0001
0000
0000
0000
1000
0010
0000
0010
0000
0000
0000
0000
,
0001
0100
0010
0000
0200
0000
1300
0000
,
0100
0000
0001
0000
0010
0000
0000
0000
0100
1000
0000
1000
0000
0000
0000
0000
,
0010
0000
0100
0000
0001
0000
0000
1000
0001
0000
0000
0001
0000
0000
0000
0000
,
0200
0000
1000
1000
1000
0000
1300
0000
,
0100
0000
0000
0000
0000
0001
0000
0000
0000
0000
0010
0000
0000
0100
0000
0000
,
1000
0010
1000
0001
,
0100
0000
0000
0000
0000
0001
0000
0000
0010
0000
0000
0100
0000
0000
0000
0000
,
1000
0000
0000
0001
0000
0000
0100
0000
0020
0000
0000
0000
0031
0000
0000
0000
;

//--------------- dance-single - forcednature ----------------
#NOTEDATA:;
#STEPSTYPE:dance-single;
#DESCRIPTION:forcednature;
#CREDIT:forcednature;
#DIFFICULTY:Hard;
#METER:14;
#RADARVALUES:0,0,0,0,0;
#NOTES:
0000
0000
0000
0000
,
0000
0000
0000
0000
,
0000
0000
0000
0000
,
0000
0000
0000
0000
,
0000
0000
0000
0000
,
1000
0001
0000
1000
0000
0000
0010
0000
1000
0001
0000
0100
0000
0000
0001
0000
,
0010
0001
0000
1000
0000
0000
0010
0000
0100
0001
0000
0100
0000
0000
0010
0000
,
1000
0100
0000
0010
0000
0000
0001
0000
1000
0001
0000
0100
0000
0000
0001
0000
,
1000
0010
0000
1000
0000
0000
0100
0000
1000
0001
0000
0100
0000
0000
0010
0000
,
2020
3030
0000
0202
0303
0000
0000
0000
0001
0010
0000
0001
0000
0000
0100
0000
,
0010
1000
0000
0100
0000
0000
0010
0000
0100
1000
0000
0001
0000
0000
1000
0000
,
2002
3003
0000
0220
0330
0000
0000
0000
0001
0100
0000
0001
0000
0000
1000
0000
,
0100
0000
0010
0000
0100
0000
1000
0010
0000
0100
0000
0101
0000
0000
0000
0000
,
0001
0100
1000
0100
0001
0010
0001
0100
,
1000
0100
0001
0010
0100
1000
0100
0001
,
0100
1000
0010
0001
0010
1000
0100
0001
,
0100
0000
1000
0000
0010
0000
1000
0000
0100
0001
0000
0100
0000
0000
1000
0000
,
0010
0100
0001
0100
1000
0100
0001
0010
,
1000
0010
0100
1000
0010
0100
0001
0100
,
1000
0100
0001
0010
1000
0010
0100
1000
,
0001
0000
0000
0110
0000
0000
1000
0000
0000
0110
0000
0000
0001
1000
0000
0000
,
0201
0300
1200
0300
0001
0100
0010
0000
,
1000
0100
1000
0000
0001
0010
0001
0000
1000
0000
0010
0000
1000
0000
0000
0000
,
0001
0000
0002
0003
0021
0000
0000
0000
1030
0000
0010
0000
0001
0000
0000
0000
,
0000
0100
0010
0000
1001
0000
0000
0000
2200
0000
3300
0000
0101
0000
0000
0000
,
1000
0001
0000
0000
0220
0330
0000
1001
0000
0000
0000
0000
1001
0000
0000
0000
,
1000
0010
1000
0000
0001
0010
0001
0000
0010
0000
0100
0000
1000
0000
0000
0000
,
0201
0000
0002
0003
1300
0000
0000
0000
0001
0000
0010
0000
0001
0000
0000
0000
,
1000
0000
0100
0000
0010
0000
0100
1000
0000
0001
0000
1001
0000
0000
0000
0000
,
1100
0000
0000
1100
0000
0000
1100
0000
0000
0000
0000
0000
0000
0000
0010
0000
,
0011
0000
0000
0011
0000
0000
0011
0000
0000
0000
0000
0000
0000
0000
0001
0000
,
0101
0000
0000
0101
0000
0000
0101
0000
0000
0000
0000
0000
0000
0000
1000
0000
,
1010
0000
0000
1010
0000
0000
1010
0000
0000
0000
0010
0000
1001
0000
0000
0000
,
1000
0000
0100
0000
0010
0000
0100
0000
1000
0001
0000
0100
0000
0000
0001
0000
,
1000
0010
1000
0001
0010
1000
0010
0100
,
1000
0000
0001
0000
0100
0000
0010
0000
0100
0001
0000
0100
0000
0000
0010
0000
,
1000
0001
0010
1000
0010
0100
1000
0001
,
0100
0000
1000
0000
0100
0000
0010
0000
1000
0100
0000
0010
0000
0000
1000
0000
,
0010
0001
1000
0010
0100
0001
1000
0100
,
0001
0000
0100
0000
0010
0000
0001
0000
1000
0010
0000
0100
0000
0000
1000
0000
,
0100
0001
1000
0100
0010
1000
0010
0001
,
1000
0000
0001
0000
0100
0000
0001
0000
1000
0001
0000
0010
0001
0000
1000
0000
,
0010
0000
1000
0000
0001
0000
0100
0000
0010
1000
0000
0100
1000
0000
0001
0000
,
0100
0000
1000
0000
0100
0000
0001
0000
0010
0100
0000
1000
0100
0000
0010
0000
,
0001
0000
1000
0000
0010
0000
1000
0000
0001
0100
0000
0001
0000
0000
0100
0000
,
0001
1000
0010
1000
0001
0010
1000
0010
,
0100
0000
1000
0000
0010
0000
0100
0000
0101
0000
0000
1100
0000
0000
0000
0000
,
1000
0001
1000
0010
1000
0100
0001
0100
,
1000
0000
0000
0001
0000
0000
0100
0000
0010
0000
0000
1000
0001
0000
0000
0000
,
1000
0001
1000
0001
0000
0010
0100
0000
0000
1001
0000
0000
,
0001
0100
0001
1000
0100
1000
0001
0100
0001
1000
0000
1000
,
0010
1000
0010
1000
0000
0001
0100
0000
0000
0110
0000
0000
,
1000
0100
1000
0001
0010
0001
1000
0100
1000
0001
0000
0000
,
0220
0000
0000
0000
0000
0000
0000
0000
0000
0000
0000
0000
0000
0000
0000
0000
0000
0000
0000
0330
0000
0000
0000
0000
0000
0000
0000
0000
0000
0000
0000
0000
0000
0000
0000
0000
0000
0000
0000
0000
0000
0000
0000
0000
0000
0000
0000
0000
1001
0000
0000
0000
0000
0000
0000
0000
0000
0000
0000
0000
0000
0000
0000
0000
0000
0000
0000
0000
0000
0000
0000
0000
0000
0000
0000
0000
0000
0000
0000
0000
0001
0000
0000
0000
0000
0000
0000
0000
0000
0000
0000
0000
0000
0000
0000
0000
0100
0000
0000
0000
0000
0000
0000
0000
0000
0000
0000
0000
0000
0000
0000
0000
0000
0000
0000
0000
0000
0000
0000
0000
0000
0000
0000
0000
0000
0000
0000
0000
0000
0000
0000
0000
0000
0000
0000
0000
0000
0000
0000
0000
0000
0000
0000
0000
1001
0000
0000
0000
0000
0000
0000
0000
0000
0000
0000
0000
0000
0000
0000
0000
0000
0000
0000
0000
0000
0000
0000
0000
0000
0000
0000
0000
0000
0000
0000
0000
0000
0000
0000
0000
0000
0000
0000
0000
0000
0000
0000
0000
0000
0000
0000
0000
,
1000
0100
0010
0001
0100
0010
1000
0100
0010
0001
0000
0001
,
0100
0010
1000
0001
0000
0010
0100
0000
0000
1001
0000
0000
,
1000
0001
1000
0001
0000
0000
1001
0000
0000
0110
0000
0000
,
1001
0000
0000
0000
0000
0000
0000
0000
0000
1000
0000
1000
0000
0000
0000
0000
,
0001
0000
0100
0000
0000
0000
0010
0000
1000
0000
0000
1000
0000
0000
0000
0000
,
0001
0000
0010
0000
0000
0000
0100
0000
1000
0000
0000
1000
0000
0000
0000
0000
,
0001
0000
0100
0000
0010
0000
1000
0000
0100
0010
0100
0010
0100
0000
0000
0000
,
2002
3003
2200
3300
0010
0001
0100
0001
,
0010
0001
1000
0001
0100
1000
0100
0001
,
0010
0100
1000
0010
0001
0010
1000
0100
,
0010
0100
1000
0001
0100
1000
0100
0001
,
0100
0010
0001
0010
1000
0100
0010
0001
,
0100
1000
0100
0001
0020
0100
2030
3000
,
0001
0100
1000
0100
0001
0010
0100
1000
,
0010
0100
1000
0100
0001
0010
1001
0000
,
1100
1000
0010
0100
0010
0001
0010
0100
,
0001
0010
1000
0010
0100
1000
0010
0100
,
1000
0100
0001
1000
0100
0001
0100
0010
,
0001
0000
1000
0000
0010
0000
0100
0000
0001
0000
0000
1000
0001
1000
0001
1000
,
0001
0000
0100
0000
0010
0000
1000
0000
0001
0010
0000
0010
0000
0000
0000
0000
,
0100
1000
0001
0000
2002
3003
0220
0330
,
1000
0000
0010
0000
0100
0000
0001
0000
1000
0001
0000
0001
0010
0000
0010
0000
,
0001
0000
1000
0000
0010
0000
0100
0001
0100
0000
0000
1010
0000
0000
0000
0000
,
1001
0000
0000
0000
1000
0001
1000
0000
0001
0000
0000
0000
1001
0000
0000
0000
,
1000
0000
0001
0000
0010
0000
0100
1000
0000
0010
0000
0100
0000
0000
0000
0000
,
0001
1000
0001
0100
0001
1000
0010
0000
,
1000
0000
0001
0000
0010
0000
0001
1000
0000
0001
0000
0100
0000
0000
0000
0000
,
0010
1000
0100
0010
0001
0100
0010
0000
;

//--------------- dance-single - forcednature ----------------
#NOTEDATA:;
#STEPSTYPE:dance-single;
#DESCRIPTION:forcednature;
#CREDIT:forcednature;
#DIFFICULTY:Challenge;
#METER:16;
#RADARVALUES:0,0,0,0,0;
#NOTES:
0000
0000
0000
0000
,
0000
0000
0000
0000
,
0000
0000
0000
0000
,
0000
0000
0000
0000
,
0000
0000
0000
0000
,
1001
0000
0000
0000
0110
0000
0000
0000
1000
0100
0000
0100
0010
0000
0001
0000
,
1000
0000
0010
0100
0010
0000
1000
0000
0001
0010
0000
0001
1000
0000
0100
0000
,
0010
0000
0100
0001
0100
0000
0010
0000
0001
0010
0000
0010
0100
0000
1000
0000
,
0001
0000
0100
1000
0100
0000
0001
0000
1000
0100
0000
0010
1000
0000
0010
0000
,
0022
0033
0000
2200
3300
0000
0001
0000
0100
0010
0000
0010
1000
0000
0001
0000
,
0010
0000
0100
1000
0100
0000
0001
0000
1000
0010
0000
0010
0001
0000
0100
0000
,
0202
0303
0000
2200
3300
0000
0001
0000
1000
0100
0000
0010
0001
0000
0100
0000
,
0001
1000
0010
1000
0100
0010
1000
0010
0000
0110
0000
1001
0000
0000
0000
0000
,
0001
0100
0000
0001
0010
0000
0001
0000
1000
0010
1000
0000
0100
0000
0001
0000
,
0100
1000
0000
0010
0100
0000
0001
0000
1000
0010
0001
0000
0010
0000
1000
0000
,
0100
0010
0000
0100
1000
0000
0001
0000
0010
0001
1000
0000
0001
0000
0100
0000
,
0010
1000
0000
0001
1000
0000
0100
0000
1000
0001
0000
1000
0001
0000
0100
0000
,
0010
1000
0100
0000
0010
0000
0001
0000
1000
0010
0000
0010
0100
0000
0001
0000
,
0010
0100
1000
0000
0001
0000
0100
0000
0001
1000
0000
0010
1000
0000
0001
0000
,
0010
0001
0100
0000
0010
0000
1000
0000
0001
0100
0000
0001
1000
0000
0001
0000
,
1001
0000
0000
0110
0000
0000
1001
0000
0000
0110
0000
0000
1000
0001
0000
0000
,
0201
0000
0000
0300
1100
0000
0100
0000
0001
0010
0000
0100
1000
0000
0010
0000
,
1000
0001
1000
0100
0010
0001
0100
0020
0030
0000
0100
0000
1001
0000
0000
0000
,
1000
0000
0110
0000
0202
0000
0303
0000
0001
0010
0001
0100
0010
0000
1000
0100
,
0000
0010
0001
0000
1001
0000
0001
0100
0002
0000
0000
0000
0010
0003
0000
0000
,
1000
1000
0000
0000
0101
0000
0000
1001
0000
0000
0001
0000
0010
0001
0000
0000
,
1000
0100
0010
0100
1000
0001
0100
0020
0030
0000
1000
0000
0001
1000
0000
0000
,
0002
0000
0100
0003
0021
0000
0030
0000
1000
0100
0010
0000
0100
0000
1000
0000
,
0001
0100
0001
1000
0010
0100
1000
0100
0000
0101
0000
1001
0000
0000
0000
0000
,
1100
0000
0000
1001
0000
0000
1010
0000
0000
0000
0000
0000
0000
0000
0100
0000
,
0101
0000
0000
1001
0000
0000
0011
0000
0000
0000
0000
0000
0000
0000
0110
0000
,
1001
0000
0000
0110
0000
0000
1001
0000
0000
0000
0000
0000
0000
0000
0100
0010
,
0100
0000
0000
0101
0000
0000
1100
0000
0000
0000
0110
0000
1001
0000
0000
0000
,
0001
0100
0001
0100
0001
0000
1000
0000
0010
1000
0000
0011
0000
0000
1100
0000
,
0001
0010
0000
0001
1000
0000
0001
0000
1000
0010
0000
1000
0001
0000
0100
0000
,
0001
1000
0001
1000
0001
0000
0100
0000
0010
1000
0000
0110
0000
0000
1001
0000
,
0001
0100
0000
0010
1000
0000
0001
0000
1000
0100
0000
0010
0100
0000
1000
0001
,
1000
0010
1000
0010
1000
0000
0001
0000
0100
0010
0000
1001
0000
0000
0101
0000
,
0001
0010
0000
0001
0100
0000
0001
0000
1000
0010
0000
1000
0001
0000
1000
0000
,
0100
0010
0100
0010
0100
0000
1000
0000
0001
0100
0000
1010
0000
0000
0101
0000
,
0011
0000
0000
0000
1001
0000
0000
0000
1000
0010
0000
0010
0100
0000
0001
0000
,
2002
0000
3003
0000
1000
0000
0010
0000
1000
0001
0000
0000
0100
0000
0010
0000
,
1000
0100
0000
0000
0010
0000
0001
0000
0100
0001
0000
0000
1000
0000
0010
0000
,
1000
0001
0000
0000
0010
0000
0100
0000
1000
0001
0000
0000
0100
0000
0001
0000
,
1000
0100
0000
0000
0001
0000
0100
0000
1000
0010
0000
0101
0000
0000
1001
0000
,
0001
0010
0000
0000
0100
0000
1000
0000
0001
1000
0000
0000
0010
0000
0100
0000
,
0001
0010
0000
0000
0100
0000
1000
0000
1001
0000
0000
0110
0000
0000
0000
0000
,
0001
0100
0001
0010
0001
0000
0100
0000
0010
1000
0000
0001
0010
0000
0100
0000
,
1000
0001
0100
0000
0010
0000
1000
0001
1000
0001
1000
0001
0100
0000
0000
0000
,
0001
0100
0001
0100
0000
0010
1000
0000
0000
1001
0000
0000
,
1000
0100
0001
0100
1000
0010
0100
1000
0100
0001
0000
0001
,
0100
0010
1000
0001
0000
0100
0010
0000
0000
1001
0000
0000
,
0001
0010
1000
0010
0100
1000
0001
1000
0010
0001
0000
0000
,
0220
0330
0000
1001
0000
0001
0100
0000
0000
1010
0000
0000
,
0001
0010
1000
0010
0100
1000
0001
1000
0010
0100
0000
0100
,
0001
1000
0100
0001
0000
0100
1000
0000
0000
0110
0000
0000
,
0001
1000
0001
1000
0010
0100
0001
1000
0001
1000
0000
0000
,
1001
0000
0001
0000
0000
0000
1000
0000
0001
0100
0000
0100
0000
0000
0000
0000
,
0010
0000
1000
0000
0100
0000
0010
0000
0001
1000
0000
1000
0000
0000
0000
0000
,
0010
0000
1000
0000
0001
0000
0010
0000
0100
1000
0000
1000
0000
0000
0000
0000
,
0010
0000
0100
0001
1000
0001
0010
0001
1000
0100
0010
0001
0100
0000
0000
0000
,
2020
0000
3030
0000
0202
0000
0303
0000
1000
0100
0010
0000
0100
1000
0100
0010
,
0001
0100
0000
0010
1000
0000
0001
0000
0010
0001
1000
0000
0100
1000
0010
1000
,
0100
0000
0000
0000
1001
0000
0000
0000
0001
0100
0000
0001
0020
0000
0031
0000
,
1000
0100
0000
1000
0001
0000
1000
0000
0010
1000
0000
0001
0010
0100
1000
0010
,
2000
0000
3000
0000
0220
0000
0330
0000
0001
0100
0000
0001
0010
0000
0001
0000
,
1000
0000
0100
0000
0000
0000
0010
0000
0100
0000
0000
0000
1000
0000
0000
0000
2000
0000
0000
0000
0001
0000
0000
0000
0020
0000
0000
3000
0000
0000
0000
0000
,
0031
0010
0000
1000
0100
0000
0001
0000
0100
1000
0000
0010
0200
0300
0001
0000
,
1000
0001
1000
0000
0001
0100
0001
0000
1000
0010
1000
0000
0001
0010
0001
0000
,
0110
0000
0000
0000
1000
0000
0001
0000
1000
0010
1000
0000
0001
0100
0010
1000
,
0001
0010
0000
0001
1000
0000
0010
0000
1000
0100
0010
0000
0100
1000
0010
0100
,
0020
0000
0001
0000
2000
0000
3030
0000
0001
0010
0000
0001
2000
3000
0010
0000
,
1000
0100
0000
0010
0100
0000
1000
0000
0001
0000
1000
0000
0010
0100
0010
0100
,
0010
1000
0010
0000
0110
0000
0001
0000
1000
0100
0000
1001
0000
0000
0000
0000
,
0001
0010
0001
0000
1000
0000
0001
0000
0200
0000
1000
0000
0002
0303
0000
0000
,
1000
0100
1000
0000
0001
0000
0100
0000
0010
1000
0000
0011
0000
0000
0001
0000
,
1000
0000
0000
0100
0000
0000
0010
0000
0000
0001
0000
0000
0100
0000
0000
0010
0000
0000
1000
0000
0001
0000
1000
0000
0001
0000
0000
0000
0000
0000
0000
0000
0000
1010
0000
0000
0000
0000
0000
0000
0000
0000
0000
0000
0000
0000
0000
0000
,
1001
0000
0000
0000
0100
0010
0100
0000
1001
0000
0000
0000
1001
0000
0000
0000
,
0101
0000
1000
0000
0001
0000
0010
0001
0000
1000
0000
0010
0000
1000
0000
0100
,
0010
0000
0100
0000
1000
0000
0001
0100
0000
0001
0000
1000
0010
0000
1000
0000
,
0001
0000
0010
0000
0100
0000
1000
0001
0000
0100
0000
1000
0000
0100
0000
0001
,
1000
0100
0010
0100
0000
1000
0001
0000
0100
0000
0010
0000
1001
0000
0000
0000
;

//--------------- dance-double - forcednature ----------------
#NOTEDATA:;
#STEPSTYPE:dance-double;
#DESCRIPTION:forcednature;
#CREDIT:forcednature;
#DIFFICULTY:Easy;
#METER:6;
#RADARVALUES:0,0,0,0,0;
#NOTES:
00000000
00000000
00000000
00000000
,
00000000
00000000
00000000
00000000
,
00000000
00000000
00000000
00000000
,
00000000
00000000
00000000
00000000
,
00000000
00000000
00000000
00000000
,
00010000
00001000
00000000
00001000
,
01000000
00001000
00000000
00001000
,
00010000
00000100
00000000
00000100
,
00001000
00000100
00000000
00000100
,
00000010
00000000
00000010
00000001
,
00001000
00000001
00000100
00000000
,
00000010
00000000
00000010
00001000
,
00000010
00010000
00001000
00000000
,
00011000
00000000
00010000
00001000
,
00100000
00010000
00100000
00000000
,
01000000
10000000
01000000
00000000
,
00100000
01000000
00100000
00000000
,
00010000
00000000
00010000
00100000
,
00001000
00000000
00001000
00000000
,
00010000
00000010
00010000
00000000
,
00000010
00000000
00000010
00000000
,
00001001
00000000
00000001
00000000
,
00000010
00000100
00000010
00000000
,
00000100
00001000
00000100
00000000
,
00010000
00010000
00001000
00000000
,
00011000
00000000
00001000
01000000
,
00001000
00000000
01000000
00000000
,
00010000
10000000
00010000
00000000
,
01000000
01000000
01000000
00000000
,
10010000
00000000
00000000
00000000
,
01100000
00000000
00000000
00000000
,
10010000
00000000
00000000
00000000
,
00001000
00000000
00010000
00000000
,
00001000
00000000
00010000
00001000
,
00010000
00000000
00000100
00001000
,
00000100
00000000
00000010
00000100
,
00000010
00000000
00000001
00000010
,
00000001
00000000
00000100
00000001
,
00000100
00000000
00000010
00000100
,
00000010
00000000
00001000
00000010
,
00001000
00000000
00000010
00000000
,
00011000
00000000
00010000
00001000
,
00010000
00000000
00001000
00100000
,
00001000
00000000
00100000
00010000
,
00100000
00000000
01000000
00100000
,
01000000
00000000
10000000
01000000
,
10000000
00000000
00010000
00000000
,
01000000
01000000
00001000
00000000
,
00010000
00000000
00000100
00000000
,
00001000
00001000
00001000
00001000
,
00000010
00010000
00000010
00000000
,
00010000
00010000
00010000
00010000
,
00001000
00100000
00001000
00000000
,
01000000
01000000
01000000
01000000
,
00010000
10000000
00010000
00000000
,
00100000
00100000
00100000
00100000
,
01000000
10000000
01000000
00000000
,
20020000
00000000
00000000
00000000
,
00000000
00000000
00000000
00000000
,
00000000
00000000
00000000
00000000
,
00000000
00000000
00000000
30030000
,
10010000
00000000
00010000
01000000
,
00010000
01000000
00001000
00000000
,
00010000
00000100
00010000
00000100
,
00001000
00000001
00001000
00000000
,
00000010
00001000
00000010
00001000
,
00000100
00010000
00001000
00000000
,
01000000
01000000
00010000
01000000
,
00100000
10000000
00010000
00000000
,
10010000
00000000
10000000
01000000
,
00100000
00010000
00100000
00000000
,
00001000
00010000
00000010
00000000
,
00000010
00001000
00000001
00000000
,
00000010
00000010
00000100
00000000
,
00001000
00000001
00001000
00000000
,
00000010
00000010
00010000
00000000
,
00001000
01000000
00010000
00000000
,
20020000
00000000
00000000
30030000
,
10000000
00000000
10000000
01000000
,
00100000
00010000
00100000
00000000
,
10010000
00000000
00010000
01000000
,
00001000
00010000
00002000
00003000
;

//--------------- dance-double - forcednature ----------------
#NOTEDATA:;
#STEPSTYPE:dance-double;
#DESCRIPTION:forcednature;
#CREDIT:forcednature;
#DIFFICULTY:Medium;
#METER:10;
#RADARVALUES:0,0,0,0,0;
#NOTES:
00000000
00000000
00000000
00000000
,
00000000
00000000
00000000
00000000
,
00000000
00000000
00000000
00000000
,
00000000
00000000
00000000
00000000
,
00000000
00000000
00000000
00000000
,
00011000
01000000
00010000
10000000
,
00100000
00000000
10000000
00000000
01000000
00100000
00010000
00000000
,
00001000
00000010
00001000
00000001
,
00000100
00000000
00000001
00000000
00001000
00000100
00001000
00000000
,
00010000
00000000
00000000
00100000
00000000
00000000
00000000
00000000
01000000
00000000
00000000
00000000
10000000
00000000
00000000
00000000
,
00100000
00000000
10000000
00000000
01000000
00100000
00010000
00000000
,
01000000
00000000
00000000
00001000
00000000
00000000
00000000
00000000
00010000
00000000
00000000
00000000
00000100
00000000
00000000
00000000
,
00002000
00000000
00000000
00000000
00003000
00000000
00000110
00000000
00000000
00000001
00000000
00000001
00000000
00000000
00000000
00000000
,
00001001
00000110
00000001
00000100
,
00001000
00010000
00100000
00000000
10000000
01000000
00100000
00000000
,
00010000
01000000
00010000
00001000
,
00000010
00001000
00000100
00000000
00000010
00000001
00000100
00000000
,
00001000
00000100
00000001
00000010
,
00000100
00001000
00010000
00000000
00001000
00010000
00100000
00000000
,
10000000
00100000
01000000
10000000
,
00100000
00000000
00000000
01000000
00000000
00000000
00100000
00000000
00000000
01000000
00000000
00000000
00100000
00000000
00000000
00000000
,
10010000
01100000
01000000
00010000
,
00001000
00000010
00001000
00000000
00000001
00000100
00000001
00000000
,
00000100
00000010
00001000
00000001
,
00000000
00000110
00000001
00001010
,
00010000
00001000
00000000
00000000
01100000
00000000
00000000
10000000
00000000
00000000
00000000
00000000
00010000
00000000
00000000
00000000
,
01000000
00000000
00100000
00000000
10000000
01000000
00100000
00000000
,
00020000
00000000
00031000
00000000
00000010
00001000
00000001
00000000
,
00000100
00000000
00000000
00000000
00000001
00000000
00000100
00000000
00000000
00001000
00000000
00001000
00000000
00000000
00000000
00000000
,
00010000
00000000
00000000
00001000
00000000
00000000
00010000
00000000
00000000
00000000
00000000
00000000
00000000
00000000
01000000
00000000
,
10000000
00000000
00000000
01000000
00000000
00000000
10000000
00000000
00000000
00000000
00000000
00000000
00000000
00000000
00100000
00000000
,
00010000
00000000
00000000
00001000
00000000
00000000
00010000
00000000
00000000
00000000
00000000
00000000
00000000
00000000
00001000
00000000
,
00000010
00000000
00000000
00000001
00000000
00000000
00000100
00000000
00000000
00000000
00000010
00000000
00000010
00000000
00000000
00000000
,
00001000
00000000
00000000
00000000
00000010
00000000
00000000
00000000
00000100
00000000
00000000
00000001
00000000
00000000
00000010
00000000
,
00000100
00010000
00001000
01000000
,
00010000
00000000
00000000
00000000
10000000
00000000
00000000
00000000
00100000
00000000
00000000
10000000
00000000
00000000
01000000
00000000
,
00100000
00010000
01000000
00001000
,
00010000
00000000
00000000
00000000
00000100
00000000
00000000
00000000
00001000
00000000
00000000
00000001
00000000
00000000
00000100
00000000
,
00000010
00001000
00000100
00010000
,
00001000
00000000
00000000
00000000
00100000
00000000
00000000
00000000
00010000
00000000
00000000
10000000
00000000
00000000
00100000
00000000
,
10000000
00000000
00000000
00000000
01000000
00000000
00000000
00000000
00100000
00000000
00000000
00110000
00000000
00000000
00000000
00000000
,
00001000
00010000
00000010
00001000
,
00000001
00000000
00000010
00000000
00000100
00001000
00000100
00001000
,
00000010
00001000
00000100
00010000
,
00001000
00000000
00000000
00000000
01000000
00000000
00000000
00000000
00010000
10000000
00000000
00010000
00000000
00000000
10000000
00000000
,
00010000
00000000
10000000
00000000
00100000
00000000
10000000
10000000
,
01000000
00000000
00000000
00000000
00010000
00000000
00000000
00000000
00001000
00000000
00000000
00011000
00000000
00000000
00000000
00000000
,
00000100
00001000
00000010
00000000
00000100
00000000
00000001
00000000
,
00000010
00000100
00001000
00000000
00000001
00000000
00000000
00000000
,
00000101
00000101
00001100
00001100
,
00011000
00011000
01100000
10010000
,
11000000
11000000
10100000
10100000
,
10010000
01100000
00011000
00011000
,
00000110
00001001
00000101
00001100
,
00000011
00000110
00001100
00011000
,
01010000
01001000
00110000
10010000
,
10100000
00110000
00011000
00001100
,
00002002
00000000
00000000
00000000
,
00000000
00000000
00000000
00000000
00000000
00000000
00000000
00003003
,
00000200
00000000
00000000
00000000
,
00000020
00000000
00000000
00000330
,
00000001
00000000
00000100
00000000
00000001
00000000
00000000
00000000
00001000
00000100
00000000
00000000
00001000
00000000
00000000
00000000
,
00010000
10000000
00010000
00000000
01000000
00100000
10000000
00000000
,
01000000
00000000
00000000
00000000
00100000
00000000
00000000
00000000
00010000
01000000
00000000
00000000
00010000
00000000
00000000
00000000
,
10000000
00100000
10000000
00000000
00010000
00100000
00010000
00000000
,
00001000
00000000
00000000
00000000
00000010
00000000
00000000
00000000
00001000
00000001
00000000
00000000
00000100
00000000
00000000
00000000
,
00000010
00000000
00001000
00000000
00000200
00010000
00010300
00000000
,
01000000
00000000
00010000
00000000
10000000
00100000
10000000
00000000
,
00010000
00000000
00100000
00000000
01000000
10000000
00010000
00000000
,
10010000
00000000
01000000
00000000
00100000
10000000
00010000
00000000
,
01000000
00000000
00001000
00000000
00010000
00000100
00001000
00000000
,
00000001
00000000
00000100
00000000
00000010
00001000
00000100
00000000
,
00000010
00000000
00000001
00000000
00000100
00000001
00000020
00000000
,
00000130
00000000
00001000
00000000
00000010
00000000
00000000
00000000
00000100
00000001
00000000
00000001
00000000
00000000
00000000
00000000
,
00001000
00000100
00010000
00000000
00002000
00100000
00103000
00000000
,
00010000
00000000
10000000
00000000
00100000
00000000
00000000
00000000
10000000
00010000
00000000
10000000
00000000
00000000
00000000
00000000
,
00010000
00000000
00000000
00000000
01000000
00000000
00001000
00000000
00010000
00000000
00000000
00000010
00000000
00000000
00000000
00000000
,
00001001
00000000
00000100
00000010
00000100
00000000
00001001
00000000
,
00000101
00000000
00000000
00000000
00000000
00001000
00000000
00000000
00000000
00000000
00000000
00000000
00000100
00000000
00010000
00000000
,
00001000
01000000
00010000
00000000
,
10000000
00000000
00000000
00000000
00000000
00100000
00000000
00000000
10000000
00000000
00000000
10000000
00000000
00000000
00000000
00000000
,
01000000
00000000
00000000
00100000
00000000
00001000
00000000
00000000
00010000
00000000
00000010
00000000
00000010
00000000
00000000
00000000
;

//--------------- dance-double - forcednature ----------------
#NOTEDATA:;
#STEPSTYPE:dance-double;
#DESCRIPTION:forcednature;
#CREDIT:forcednature;
#DIFFICULTY:Hard;
#METER:14;
#RADARVALUES:0,0,0,0,0;
#NOTES:
00000000
00000000
00000000
00000000
,
00000000
00000000
00000000
00000000
,
00000000
00000000
00000000
00000000
,
00000000
00000000
00000000
00000000
,
00000000
00000000
00000000
00000000
,
00001000
00000000
00000000
00010000
00000000
00000000
01000000
00000000
10000000
00000000
00000000
00100000
00000000
00000000
01000000
00000000
,
00010000
00000000
00000000
00001000
00000000
00000000
00000100
00000000
00000001
00000000
00000000
00001000
00000000
00000000
00000100
00000000
,
00000010
00000000
00000000
00000100
00000000
00000000
00001000
00000000
00000001
00000000
00000000
00000100
00000000
00000000
00000010
00000000
,
00001000
00000000
00000000
00000100
00000000
00000000
00010000
00000000
00100000
00000000
00000000
10000000
00000000
00000000
00010000
00000000
,
20020000
00000000
30030000
20020000
00000000
30030000
10000000
00000000
00100000
00000000
00000000
01000000
00000000
00000000
00010000
00000000
,
00001000
00000000
00000000
00000010
00000000
00000000
00000100
00000000
00000001
00000000
00000000
00000010
00000000
00000000
00000100
00000000
,
00000220
00000000
00000330
00000220
00000000
00000330
00000010
00000000
00001000
00000000
00000000
00000100
00000000
00000000
00001000
00000000
,
00000001
00000000
00000010
00000000
00001000
00000000
00020000
00000000
00000000
00100000
00000000
00130000
00000000
00000000
00000000
00000000
,
10000000
00010000
10000000
00100000
10000000
01000000
00010000
01000000
,
10000000
00100000
00010000
00001000
00000010
00000001
00000100
00001000
,
00000100
00000001
00000010
00000100
00001000
00000001
00000100
00001000
,
00010000
01000000
10000000
00100000
10000000
01000000
00010000
01000000
,
10000000
00100000
00010000
00100000
10000000
01000000
00010000
00001000
,
00000100
00000001
00000010
00001000
00000010
00000001
00000100
00000010
,
00001000
00000100
00000001
00000100
00001000
00010000
00100000
10000000
,
00100000
00000000
00000000
01100000
00000000
00000000
10010000
00000000
00000000
01100000
00000000
00000000
10010000
00000000
00000000
00000000
,
20200000
30300000
22000000
33000000
10000000
00100000
00010000
00100000
,
10000000
01000000
00010000
00001000
00000100
00000010
00001000
00000100
,
00000010
00000001
00000100
00001000
00010000
00100000
10000000
01000000
,
00000000
10000000
00010000
00000000
10020000
00000000
00000000
00000000
10030000
00000000
00100000
00000000
10000000
00000000
00010000
00000000
,
00100000
01000000
10000000
00100000
00010000
00001000
00000100
00000001
,
00000010
00000001
00000100
00001000
00010000
01000000
10000000
00100000
,
00000000
00000000
02200000
03300000
02200000
03300000
00000000
00000000
10000000
00000000
00010000
00000000
01000000
00000000
00001000
00000000
,
00010000
00000000
00000100
00000000
00001000
00000000
00000100
00000000
00000000
00011000
00000000
00011000
00000000
00000000
00000000
00000000
,
01100000
00000000
00000000
01100000
00000000
00000000
01100000
00000000
00000000
00000000
00000000
00000000
00000000
00000000
10000000
00000000
,
10010000
00000000
00000000
01100000
00000000
00000000
10010000
00000000
00000000
00000000
00000000
00000000
00000000
00000000
00010000
00000000
,
00011000
00000000
00000000
00001100
00000000
00000000
00011000
00000000
00000000
00000000
00000000
00000000
00000000
00000000
00000100
00000000
,
00001100
00000000
00000000
00000110
00000000
00000000
00000011
00000000
00000000
00000000
00001000
00000000
00001001
00000000
00000000
00000000
,
00000001
00000000
00000100
00000000
00000001
00000000
00000100
00000000
00000010
00000100
00000000
00000100
00000000
00000000
00000001
00000000
,
00001000
00000100
00010000
01000000
10000000
00010000
01000000
00100000
,
10000000
00000000
01000000
00000000
00100000
00000000
00010000
00000000
01000000
00100000
00000000
00100000
00000000
00000000
10000000
00000000
,
00010000
00100000
00001000
00000010
00000100
00001000
00000001
00000010
,
00001000
00000000
00000010
00000000
00000001
00000000
00000100
00000000
00000010
00001000
00000000
00001000
00000000
00000000
00000001
00000000
,
00000010
00001000
00000010
00000100
00010000
00001000
01000000
00100000
,
00010000
00000000
00100000
00000000
10000000
00000000
01000000
00000000
00100000
01000000
00000000
01000000
00000000
00000000
10000000
00000000
,
00100000
01000000
00010000
01000000
10000000
01000000
00010000
00100000
,
00001000
00000000
00000100
00000000
00000001
00000000
00001000
00000000
00000010
00000100
00000000
00000100
00000000
00000000
00000001
00000000
,
00000010
00001000
00000010
00000100
00010000
00100000
01000000
00010000
,
00100000
00000000
01000000
00000000
10000000
00000000
01000000
00000000
00100000
10000000
00000000
10000000
00000000
00000000
00100000
00000000
,
00010000
00000000
01000000
00000000
00100000
00000000
00010000
00000000
00001000
00000010
00000000
00000010
00000000
00000000
00000001
00000000
,
00001000
00000001
00000100
00001000
00010000
00000000
01100000
00000000
,
10000000
00000000
00100000
00000000
10000000
00000000
01000000
00000000
01100000
00000000
00000000
10010000
00000000
00000000
00000000
00000000
,
10000000
00100000
10000000
01000000
00010000
00001000
00100000
00010000
,
00001000
00000100
00000000
00001000
00000001
00000000
00001000
00000000
00000010
00000000
00000100
00000000
00000001
00000000
00000000
00000000
,
00000100
00000001
00000100
00000001
00000000
00000100
00000010
00000000
00000000
00001001
00000000
00000000
,
00000001
00001000
00000100
00010000
00001000
01000000
00010000
10000000
00010000
01000000
00000000
00001000
,
00010000
00000100
00000010
00000001
00000000
00000010
00000100
00000000
00000000
00001001
00000000
00000000
,
00000001
00000010
00000100
00010000
00001000
00100000
01000000
10000000
00010000
01000000
00000000
00000000
,
00022000
00000000
00000000
00000000
00000000
00000000
00000000
00000000
00000000
00000000
00000000
00000000
00000000
00000000
00000000
00000000
00000000
00000000
00000000
00033000
00000000
00000000
00000000
00000000
00000000
00000000
00000000
00000000
00000000
00000000
00000000
00000000
00000000
00000000
00000000
00000000
00000000
00000000
00000000
00000000
00000000
00000000
00000000
00000000
00000000
00000000
00000000
00000000
01100000
00000000
00000000
00000000
00000000
00000000
00000000
00000000
00000000
00000000
00000000
00000000
00000000
00000000
00000000
00000000
00000000
00000000
00000000
00000000
00000000
00000000
00000000
00000000
00000000
00000000
00000000
00000000
00000000
00000000
00000000
00000000
00001000
00000000
00000000
00000000
00000000
00000000
00000000
00000000
00000000
00000000
00000000
00000000
00000000
00000000
00000000
00000000
00010000
00000000
00000000
00000000
00000000
00000000
00000000
00000000
00000000
00000000
00000000
00000000
00000000
00000000
00000000
00000000
00000000
00000000
00000000
00000000
00000000
00000000
00000000
00000000
00000000
00000000
00000000
00000000
00000000
00000000
00000000
00000000
00000000
00000000
00000000
00000000
00000000
00000000
00000000
00000000
00000000
00000000
00000000
00000000
00000000
00000000
00000000
00000000
01100000
00000000
00000000
00000000
00000000
00000000
00000000
00000000
00000000
00000000
00000000
00000000
00000000
00000000
00000000
00000000
00000000
00000000
00000000
00000000
00000000
00000000
00000000
00000000
00000000
00000000
00000000
00000000
00000000
00000000
00000000
00000000
00000000
00000000
00000000
00000000
00000000
00000000
00000000
00000000
00000000
00000000
00000000
00000000
00000000
00000000
00000000
00000000
,
10000000
00100000
01000000
00001000
00010000
00000010
00000100
00000001
00000010
00000100
00000000
00010000
,
00001000
00100000
01000000
10000000
00000000
01000000
00100000
00000000
00000000
10010000
00000000
00000000
,
10000000
01000000
00010000
00001000
00000100
00000001
00000010
00000100
00000010
00000100
00000000
00000000
,
00011000
00000000
00001000
00000000
00000000
00000000
01000000
00000000
00100000
10000000
00000000
10000000
00000000
00000000
00000000
00000000
,
00010000
00000000
01000000
00000000
00000000
00000000
00100000
00000000
00010000
00001000
00000000
00001000
00000000
00000000
00000000
00000000
,
00000010
00000000
00000001
00000000
00000000
00000000
00000100
00000000
00000010
00001000
00000000
00001000
00000000
00000000
00000000
00000000
,
00000100
00000000
00010000
00000000
00001000
00000000
01000000
00000000
00001000
00010000
00001000
00010000
00001000
00000000
00000000
00000000
,
00022000
00033000
02020000
03030000
10000000
00100000
10000000
01000000
,
00010000
01000000
10000000
00100000
00010000
00100000
10000000
01000000
,
00010000
00000000
00220000
00330000
00001000
00010000
00000010
00000100
,
00000001
00000000
00000010
00000000
00001000
00000000
00000010
00000000
00000100
00000000
00001000
00000000
00000001
00001000
00000001
00001000
,
00000001
00000000
00002200
00003300
00000010
00001000
00000100
00000010
,
00000100
00000000
00001000
00000000
00000001
00000000
00000100
00000000
00002000
00003000
00200000
00300000
20000000
30000000
00000000
00000000
,
00100000
01000000
10000000
00010000
10000000
00100000
01000000
00010000
,
10000000
00010000
00000000
00010000
10000000
00000000
00100000
00000000
01000000
00010000
00000000
00010000
01000000
00000000
00100000
00000000
,
10010000
01000000
00010000
00000000
00011000
00000000
00022000
00033000
,
00000100
00001000
00000010
00000100
00000001
00000010
00001000
00000010
,
00000100
00000000
00001000
00000000
00002002
00000000
00003003
00000000
00000100
00000010
00000000
00000010
00000200
00000000
00000000
00000000
,
00000301
00000000
00001000
00000000
00000001
00000000
00001000
00000000
00000010
00000000
00000010
00000000
00000100
00000001
00000100
00000001
,
00000100
00000000
00000010
00000000
00001000
00000000
00000100
00000000
00010000
00001000
00000000
00011000
00000000
00000000
00000000
00000000
,
01000000
00000000
00010000
00000000
10000000
00000000
00100000
00000000
20000000
30000000
02000000
03000000
00002000
00003000
00000000
00000000
,
00010000
00000000
10000000
00000000
00100000
00000000
01000000
00000000
00010000
01000000
00000000
01100000
00000000
00000000
10000000
00000000
,
01000000
00000000
00010000
00000000
01000000
00000000
10000000
00000000
00100000
00000000
00000000
10010000
00000000
00000000
00000000
00000000
,
00011000
00000000
00000000
00000000
00010000
00001000
00010000
00000000
00011000
00000000
00000000
00000000
00011000
00000000
00000000
00000000
,
00000100
00000000
00001000
00000000
00000010
00000000
00000100
00000001
00000000
00000010
00000000
00000011
00000000
00000000
00000000
00000000
,
00001000
00000000
00000010
00000000
00001000
00000000
00000100
00010000
00000000
00001000
00000000
01000000
00000000
00000000
00000000
00000000
,
00010000
00000000
10000000
00000000
00100000
00000000
10000000
01000000
00000000
00010000
00000000
01100000
00000000
00000000
00000000
00000000
,
10000000
00000000
00000000
00100000
00000000
00000000
00010000
00000000
00001000
00000000
00000001
00000000
00001001
00000000
00000000
00000000
;

//--------------- dance-double - forcednature ----------------
#NOTEDATA:;
#STEPSTYPE:dance-double;
#DESCRIPTION:forcednature;
#CREDIT:forcednature;
#DIFFICULTY:Challenge;
#METER:16;
#RADARVALUES:0,0,0,0,0;
#NOTES:
00000000
00000000
00000000
00000000
,
00000000
00000000
00000000
00000000
,
00000000
00000000
00000000
00000000
,
00000000
00000000
00000000
00000000
,
00000000
00000000
00000000
00000000
,
00011000
00000000
00000000
00000000
00001100
00000000
00000000
00000000
00000001
00000100
00000000
00000100
00000010
00000000
00001000
00000000
,
00010000
00100000
00010000
00100000
00010000
00000000
01000000
00000000
00100000
10000000
00000000
10000000
00010000
00000000
01000000
00000000
,
00001000
00010000
00001000
00010000
00001000
00000000
00000100
00000000
00000001
00000010
00000000
00000010
00000100
00000000
00001000
00000000
,
00000001
00001000
00000001
00001000
00000001
00000000
00000100
00000000
00001000
00010000
00000000
00010000
01000000
00000000
00100000
00000000
,
00220000
00330000
00000000
22000000
33000000
00000000
10000000
00000000
00100000
10000000
00000000
10000000
00010000
00000000
01000000
00000000
,
00001000
00010000
00001000
00010000
00001000
00000000
00100000
00000000
01000000
00010000
00000000
00010000
00001000
00000000
00000100
00000000
,
00000220
00000330
00000000
00002002
00003003
00000000
00000001
00000000
00001000
00000010
00000000
00000010
00010000
00000000
00001000
00000000
,
00100000
00010000
10000000
01000000
10000000
00010000
00100000
00010000
00000000
10010000
00000000
01100000
00000000
00000000
00000000
00000000
,
10000000
00100000
00000000
00100000
01000000
00000000
00001000
00000000
00010000
00000100
00000000
00000100
00001000
00000000
00000010
00000000
,
00000100
00001000
00000000
00001000
00010000
00000000
01000000
00000000
10000000
00010000
00000000
00010000
01000000
00000000
00100000
00000000
,
00010000
00001000
00000000
00001000
00000010
00000000
00000001
00000000
00000100
00000001
00000000
00000001
00000010
00000000
00000100
00000000
,
00001000
00000001
00000000
00000001
00000100
00000000
00001000
00000000
00010000
00001000
00000000
00010000
00001000
00000000
01000000
00000000
,
00010000
10000000
00000000
10000000
00100000
00000000
10000000
00000000
01000000
00100000
00000000
00100000
00010000
00000000
01000000
00000000
,
00001000
00010000
00000000
00010000
00000100
00000000
00001000
00000000
00000001
00000100
00000000
00000100
00001000
00000000
00010000
00000000
,
00100000
10000000
00000000
10000000
01000000
00000000
00010000
00000000
00001000
00100000
00000000
00100000
01000000
00000000
00010000
00000000
,
00011000
00000000
00000000
00001100
00000000
00000000
00011000
00000000
00000000
01010000
00000000
00000000
00001000
00010000
00000000
00000000
,
00002002
00000000
00003003
00000000
00000220
00000000
00000330
00000000
00000001
00000100
00000001
00000100
00000001
00000000
00000000
00000000
,
00001000
00000100
00010000
00001000
00010000
00000010
00001000
00000200
00010300
00000000
01000000
00000000
10010000
00000000
00000000
00000000
,
10000000
00100000
00220000
00330000
01010000
00000000
00011000
00000000
,
00000000
00000100
00000010
00000000
00001001
00000000
00000000
00000000
00000102
00000000
00000100
00000003
00000011
00000000
00000000
00000000
,
00000001
00000001
00000000
00000000
00000110
00000000
00001000
00010000
00000000
00000000
00000000
00000000
01100000
00000000
00000000
00000000
,
10000000
00100000
10000000
01000000
00100000
00010000
01000000
00020000
00130000
00000000
01000000
00000000
00011000
00000000
00000000
00000000
,
00000200
00000000
00000000
00000300
00000120
00000000
00000030
00000000
00001001
00000000
00000000
00000000
00000101
00000000
00000000
00000000
,
00001000
00000100
00000000
00000000
00000010
00000000
00000110
00000000
00000000
00010100
00000000
00011000
00000000
00000000
00000000
00000000
,
01010000
00000000
00000000
10100000
00000000
00000000
01010000
00000000
00000000
00000000
00000000
00000000
00000000
00000000
10000000
00000000
,
11000000
00000000
00000000
00110000
00000000
00000000
00011000
00000000
00000000
00000000
00000000
00000000
00000000
00000000
00000100
00000000
,
00001100
00000000
00000000
00001010
00000000
00000000
00000101
00000000
00000000
00000000
00000000
00000000
00000000
00000000
00000001
00000010
,
00000001
00000000
00000000
00000110
00000000
00000000
00001001
00000000
00000000
00000000
00001000
00000000
00010010
00000000
00000000
00000000
,
00010000
00001000
00000000
00001000
01000000
00000000
00010000
00000000
10000000
00100000
00000000
10100000
00000000
00000000
01010000
00000000
,
10000000
01000000
00000000
00100000
00010000
00000000
01000000
00000000
00100000
10000000
00100000
10000000
00100000
00000000
01000000
00000000
,
00010000
00100000
00000000
00001000
00010000
00000000
00000100
00000000
00001000
00000001
00000000
00000110
00000000
00000000
00001001
00000000
,
00000001
00000010
00000000
00000100
00000010
00000000
00000001
00000000
00010000
00000010
00000000
00010000
00001000
00000000
01000000
00010000
,
01000000
00100000
00000000
10000000
01000000
00000000
00100000
00000000
01000000
10000000
00000000
01010000
00000000
00000000
00110000
00000000
,
00001000
00010000
00000000
00000100
00001000
00000000
00000010
00000000
00000100
00000001
00000000
00000010
00000001
00000000
00001000
00000100
,
00001000
00000010
00000000
00000100
00000001
00000000
00000010
00000000
00000100
00001000
00000000
00001001
00000000
00000000
00000110
00000000
,
00000001
00000100
00000000
00001000
00010000
00000000
01000000
10000000
01000000
00000000
00000000
01100000
00000000
00000000
00000000
00000000
,
10000000
01000000
00000000
10000000
00010000
00000000
01000000
00000000
00100000
10000000
00000000
00010000
00100000
00000000
00001000
00000000
,
00010000
00000100
00000000
00001000
00000001
00000000
00000100
00000000
00000010
00001000
00000000
00000100
00000010
00000000
00000001
00000000
,
00000100
00000010
00000000
00010000
00000100
00000000
00001000
00000000
00010000
00100000
00000000
01000000
10000000
00000000
00100000
00000000
,
01000000
00010000
00000000
01000000
10000000
00000000
01000000
00000000
00010000
00100000
00000000
10010000
00000000
00000000
01100000
00000000
,
10000000
01000000
00000000
10000000
00100000
00000000
00010000
00000000
00001000
00000010
00000000
00000100
00001000
00000000
00000001
00000000
,
00000100
00001000
00000000
00000100
00000001
00000000
00000010
00000000
00000110
00000000
00000000
00011000
00000000
00000000
00000000
00000000
,
10000000
01000000
10000000
00010000
00100000
01000000
10000000
00000000
00010000
00000000
01000000
00000000
00100000
00000000
00000000
00000000
,
10000000
00100000
10000000
00010000
01000000
00000000
00100000
00000000
10000000
00000000
01000000
00000000
00011000
00000000
00000000
00000000
,
10000000
01000000
00010000
00001000
00000000
00000100
00000001
00000000
00000000
00001010
00000000
00000000
,
00000001
00000010
00000001
00001000
00000100
00001000
00000001
00000010
00000001
00000100
00000000
00000100
,
00000001
00000100
00001000
00010000
00000000
01000000
10000000
00000000
00000000
10010000
00000000
00000000
,
10000000
00100000
10000000
00010000
00100000
00010000
10000000
01000000
10000000
00010000
00000000
00000000
,
02200000
00000000
00000000
03300000
00000000
00000000
00011000
00000000
00000000
00000000
00000100
00000000
00000010
00000000
00000000
00000000
00000000
00000000
00001001
00000000
00000000
00000000
00000000
00000000
,
00000001
00000100
00000001
00001000
00000010
00001000
00000001
00000010
00000001
00001000
00000000
00001000
,
00000100
00010000
00000010
00001000
00000000
00010000
10000000
00000000
00000000
01100000
00000000
00000000
,
10000000
00010000
10000000
00010000
00000000
00000000
01010000
00000000
00000000
00011000
00000000
00000000
,
00001100
00000000
00000001
00000000
00000100
00000000
00000000
00000000
00000020
00000100
00000000
00000130
00000000
00000000
00000000
00000000
,
00000001
00000000
00001000
00000000
00000100
00000000
00000000
00000000
00020000
00001000
00000000
00031000
00000000
00000000
00000000
00000000
,
01000000
00000000
00010000
00000000
10000000
00000000
00000000
00000000
00200000
10000000
00000000
10300000
00000000
00000000
00000000
00000000
,
00010000
00000000
00100000
00010000
10000000
01000000
00100000
01000000
10000000
00010000
01000000
00100000
10000000
00000000
00000000
00000000
,
00010000
01000000
00010000
00000000
10000000
00000000
00100000
00000000
00010000
00001000
00010000
00000000
00000100
00000000
00000010
00000000
,
00000001
00001000
00000001
00000000
00000100
00000000
00000001
00000000
00001000
00000010
00001000
00000000
00000100
00000000
00010000
00000000
,
00001000
01000000
00001000
00000000
10000000
00000000
00100000
00000000
10000000
01000000
10000000
00000000
00010000
00000000
00100000
00000000
,
01000000
10000000
01000000
00000000
00100000
00000000
00001000
00000000
00010000
00000010
00010000
00000000
00000001
00000100
00000001
00000100
,
00000001
00001000
00000100
00000000
00000110
00000000
00000000
00000000
00000001
00000100
00000001
00000000
00001000
00000000
00000010
00000000
,
00010000
00001000
00000000
01000000
00010000
00000000
00000000
00000000
02000000
03000000
00002000
00003000
00000200
00000300
00000000
00000000
,
00000001
00001000
00000000
00000001
00000100
00000000
00000010
00000000
00001000
00000100
00000000
00010000
00001000
00000000
01000000
00000000
,
00010000
00100000
00010000
00000000
10000000
00100000
10000000
00000000
00010000
00000000
01000000
00000000
00100000
00000000
10000000
00000000
,
01100000
00000000
00000000
01000000
10000000
00000000
00010000
00000000
00100000
00001000
00000000
01000000
00010000
00000000
00100000
00000000
,
00001000
00010000
00000000
00000100
00001000
00000000
00000001
00000000
00000100
00000001
00000000
00001000
00000100
00000000
00000010
00000000
,
00000100
00001000
00000000
00000001
00000100
00000000
00001000
00000000
00010000
00100000
00000000
10000000
01000000
00000000
00100000
00000000
,
01000000
10000000
00000000
00010000
01000000
00000000
00100000
00000000
10100000
00000000
00000000
00010000
01000000
00010000
00100000
00010000
,
01000000
00000000
00100000
00000000
00010000
00000000
00001000
00000000
00000010
00000100
00000000
00001001
00000000
00000000
00000000
00000000
,
00000001
00000100
00000001
00000000
00001000
00000100
00001000
00000000
00000020
00000030
00020000
00030000
00200000
00300000
00000000
00000000
,
11000000
00000000
10000000
00000000
00100000
00000000
00000000
00000000
01000000
00010000
00000000
10100000
00000000
00000000
00010000
00000000
,
00100000
00000000
00000000
01000000
00000000
00000000
00100000
00000000
00000000
00000000
00000000
00000000
00001000
00000000
00000000
00000000
00000000
00000000
00010000
00000000
00000100
00000000
00010000
00000000
00000100
00000000
00000000
00000000
00000000
00000000
00000000
00000000
00000000
00001001
00000000
00000000
00000000
00000000
00000000
00000000
00000000
00000000
00000000
00000000
00000000
00000000
00000000
00000000
,
00001001
00000000
00000000
00000000
00000100
00000010
00000100
00000000
00001001
00000000
00000000
00000000
00001001
00000000
00000000
00000000
,
00000001
00000100
00000001
00000000
00001000
00000000
00000100
00010000
00000000
00001000
00000000
00100000
00000000
00010000
00000000
01000000
,
00100000
00000000
10000000
01000000
00000000
00100000
01000000
00000000
10010000
00000000
00010000
00000000
01000000
00000000
00000000
00000000
,
00001000
00000000
00010000
00000000
00000100
00000000
00001000
00000001
00000000
00000100
00000000
00000010
00000000
00001000
00000000
00000100
,
00000010
00000000
00000100
00001000
00000000
00000001
00000100
00000000
00002000
00003000
00020000
00030000
20000000
30000000
00000000
00000000
;
