#VERSION:0.83;
#TITLE:Proof of the existence;
#SUBTITLE:;
#ARTIST:猫叉Master+;
#TITLETRANSLIT:;
#SUBTITLETRANSLIT:;
#ARTISTTRANSLIT:Nekomata Master+;
#GENRE:HARD ELECTRONICA;
#CREDIT:;
#MUSIC:Proof of the existence.ogg;
#BANNER:Proof of the existence.png;
#BACKGROUND:Proof of the existence-bg.png;
#CDTITLE:./CDTitles/bm IIDX 20 tricoro.png;
#SAMPLESTART:90.676;
#SAMPLELENGTH:15.000;
#SELECTABLE:YES;
#OFFSET:1.067;
#BPMS:0.000=170.000
,228.000=85.000
,243.500=170.000
;
#STOPS:243.500=0.176;
#TIMESIGNATURES:0.000=4=4;
#DISPLAYBPM:170.000;
#BGCHANGES:0.000=Proof of the existence.mp4=1.000=0=0=0=StretchNoLoop====,
99999.000=-nosongbg-=1.000=0=0=0=StretchNoLoop====
;
#FGCHANGES:;

//--------------- dance-single - forcednature ----------------
#NOTEDATA:;
#STEPSTYPE:dance-single;
#DESCRIPTION:forcednature;
#DIFFICULTY:Beginner;
#METER:3;
#RADARVALUES:0,0,0,0,0;
#CREDIT:forcednature;
#NOTES:
0000
0000
0000
0000
,
0000
0000
0000
0000
,
0000
0000
0000
0000
,
0000
0000
0000
0000
,
0000
0000
0000
0000
,
0000
0000
0000
0000
,
0000
0000
0000
0000
,
0000
0000
0000
0000
,
0000
0000
0000
0000
,
0001
0000
0000
0000
,
0000
0000
0000
0000
,
0100
0000
0000
0000
,
0000
0000
0000
0000
,
0010
0000
0000
0000
,
1000
0000
0000
0000
,
0001
0000
0000
0000
,
0000
0000
0000
0000
,
1000
0000
0000
0000
,
0000
0000
0000
0000
,
0100
0000
0000
0000
,
0010
0000
0000
0000
,
0001
0000
0000
0000
,
0100
0000
0000
0000
,
0010
0000
0000
0000
,
0000
0000
0000
0000
,
1001
0000
0000
0000
,
0000
0000
0000
0000
,
0001
0000
0000
0000
,
0010
0000
0000
0000
,
0100
0000
0000
0000
,
0000
0000
0000
0000
,
1000
0000
0000
0000
,
0001
0000
0001
0000
,
0100
0000
0000
0000
,
0000
0000
0000
0000
,
0010
0000
0000
0000
,
1000
0000
0000
0000
,
0001
0000
0000
0000
,
0000
0000
0000
0000
,
1000
0000
0000
0000
,
0100
0000
0100
0000
,
0010
0000
0000
0000
,
0000
0000
0000
0000
,
0001
0000
0000
0000
,
0000
0000
0000
0000
,
1000
0000
0000
0000
,
0000
0000
0000
0000
,
0010
0000
0000
0000
,
0000
0000
0000
0000
,
0100
0000
0100
0000
,
0100
0000
0000
0000
,
0001
0000
0001
0000
,
0001
0000
0000
0000
,
1000
0000
1000
0000
,
1000
0000
0000
0000
,
0010
0000
0010
0000
,
0010
0000
0000
0000
,
1000
0000
0000
0000
,
0100
0000
0000
0000
,
0010
0000
0000
0000
,
0001
0000
0000
0000
,
1001
0000
0000
0000
,
1000
0000
0010
0000
,
1000
0000
0000
0000
,
0001
0000
0000
0000
,
0100
0000
0000
0000
,
0001
0000
0010
0000
,
0001
0000
0010
0000
,
0100
0000
1000
0000
,
0001
0000
0000
0000
,
0100
0000
0001
0000
,
1000
0000
0000
0000
,
0010
0000
0000
0000
,
1000
0000
0000
0000
,
0100
0000
1000
0000
,
0100
0000
0010
0000
,
0001
0000
0100
0000
,
1001
0000
0000
0000
,
1000
0000
0000
0000
,
0100
0000
0000
0000
,
0010
0000
0000
0000
,
0001
0000
0000
0000
,
0100
0000
0000
0000
,
0010
0000
0000
0000
,
1001
0000
0000
0000
;

//--------------- dance-single - forcednature ----------------
#NOTEDATA:;
#STEPSTYPE:dance-single;
#DESCRIPTION:forcednature;
#DIFFICULTY:Easy;
#METER:9;
#RADARVALUES:0,0,0,0,0;
#CREDIT:forcednature;
#NOTES:
0000
0000
0000
0000
,
0000
0000
0000
0000
,
0000
0000
0000
0000
,
0000
0000
0000
0000
,
0000
0000
0000
0000
,
0000
0000
0000
0000
,
0000
0000
0000
0000
,
0000
0000
0000
0000
,
0000
0000
0000
0000
,
2000
0000
3000
0000
,
0000
0000
0000
0000
,
0200
0000
0300
0000
,
0000
0000
0000
0000
,
0020
0000
0030
0000
,
0002
0000
0003
0000
,
0200
0000
0300
0000
,
0020
0000
0000
0030
,
1000
1000
0001
0100
,
0001
1000
0010
1000
,
0001
0001
1000
0100
,
1000
0001
0010
0001
,
0100
0100
0010
1000
,
0001
0100
0001
1000
,
0100
0100
0010
0001
,
1000
0001
0020
0030
,
0110
0000
0100
1000
,
0010
0000
0100
0001
,
1000
0000
0100
0010
,
0001
0000
1000
0010
,
0100
0000
0001
1000
,
0100
0000
0010
0001
,
1000
0000
0010
0100
,
0001
0010
0100
0000
,
0110
0000
0010
0001
,
2000
3000
0010
0100
,
0002
0003
1000
0100
,
0020
0030
0100
1000
,
0002
0003
0100
0010
,
2000
3000
0001
0010
,
0200
0300
0010
0001
,
1000
0001
0100
0000
,
0010
0000
1000
0000
,
0002
0000
0003
0000
,
0010
0000
0001
0000
,
2000
0000
3000
0000
,
0100
0000
0010
0000
,
0002
0000
0003
0000
,
0100
0000
0010
0000
,
2000
0000
0000
0000
0000
0000
3100
0000
0100
0000
0100
0000
,
1000
0001
0010
0001
,
1000
0010
0100
0001
,
1000
0100
1000
0001
,
0100
0010
1000
0001
,
0010
0100
1000
0001
,
0100
0010
1000
0001
,
0010
0001
1000
0010
,
0100
0000
0001
0001
,
2000
3000
0200
0300
,
0020
0030
0002
0003
,
2000
3000
0002
0003
,
0200
0000
0000
0000
0000
0000
0300
0000
0000
0000
0000
0000
0010
0000
0010
0000
0010
0000
0020
0000
0000
0030
0000
0000
,
1000
0100
1000
0001
,
0010
0000
0100
0000
0010
0001
1000
0000
,
0010
0100
0001
0010
,
0001
0000
1000
0000
0010
0100
0001
0000
,
1000
0100
0010
0001
,
1000
0000
0010
0000
0100
0001
1000
0000
,
0100
0000
0010
0000
0001
1000
0001
0000
,
0100
0000
0010
0000
1000
0001
1000
0000
,
0100
0010
0001
0100
,
0010
0000
0100
0000
0001
1000
0010
0000
,
0100
0001
1000
0100
,
0010
0000
0100
0000
1000
0001
0010
0000
,
0100
1000
0001
0100
,
0010
0000
1000
0000
0001
0010
0100
0000
,
0010
0000
0001
0000
1000
0100
1000
0000
,
0001
0000
0100
0000
0010
1000
0010
0000
,
0200
0000
0300
0000
,
0002
0000
0003
0000
,
2000
0000
3000
0000
,
0020
0000
0030
0000
,
2000
0000
3000
0000
,
0200
0000
0300
0000
,
0020
0000
0030
0000
,
2002
0000
0000
0000
,
0000
0000
0000
0000
,
3003
0000
0000
0000
;

//--------------- dance-single - forcednature ----------------
#NOTEDATA:;
#STEPSTYPE:dance-single;
#DESCRIPTION:forcednature;
#DIFFICULTY:Medium;
#METER:13;
#RADARVALUES:0,0,0,0,0;
#CREDIT:forcednature;
#NOTES:
0000
0000
0000
0000
,
0000
0000
0000
0000
,
0000
0000
0000
0000
,
0000
0000
0000
0000
,
0000
0000
0000
0000
,
0000
0000
0000
0000
,
0000
0000
0000
0000
,
0000
0000
0000
0000
,
0000
0000
0000
0000
,
2000
0000
3000
0000
,
0100
0100
0010
0000
,
0002
0000
0003
0000
,
0100
0100
0010
0000
,
2000
0000
3000
0000
,
0002
0000
0003
0000
,
0020
0000
0030
0000
,
0220
0000
0000
0330
,
1000
0100
1000
0001
0000
0010
0001
1000
,
0000
0010
0100
0001
0010
0100
1000
0010
,
0000
0100
0001
1000
0000
0010
1000
0001
,
0000
0010
0100
1000
0001
0100
0010
1000
,
0000
0001
0010
0100
0000
0010
0001
0100
,
0000
0010
1000
0001
0010
0001
1000
0010
,
0000
0100
0001
0100
0001
1000
0010
1000
,
0010
1000
0100
0010
0001
0200
0000
0300
,
1001
0000
1000
0100
0001
0100
1000
0002
,
0000
0003
0010
1000
0010
0001
1000
0020
,
0000
0030
0100
0001
0100
1000
0100
0002
,
0000
0003
1000
0010
1000
0001
0010
0100
,
2000
0000
3010
0100
0001
1000
0100
0002
,
0000
0003
0100
1000
0001
0010
0001
1000
,
0020
0000
0130
0001
0100
0010
1000
0200
,
0000
0301
0100
2000
0000
3001
0010
0000
,
0110
0000
0100
1000
0010
0100
0001
0020
,
0000
0031
0100
1000
0100
0001
1000
0020
,
0000
1030
0100
0001
0100
1000
0001
0020
,
0000
0130
1000
0010
0100
0001
0010
0100
,
0002
0000
0103
1000
0001
0010
0001
2000
,
0000
3010
0001
0010
1000
0001
0100
1000
,
0200
0000
0310
1000
0100
0010
0001
0020
,
0000
0031
0100
0002
0000
0103
2000
0000
,
3100
0000
0100
0000
0001
0000
1000
0000
0010
0000
1000
0000
,
0002
0000
0000
0000
0000
0000
0013
0000
0100
0000
1000
0000
,
0100
0000
0010
0000
0001
0000
1000
0000
0010
0000
0100
0000
,
0002
0000
0000
0000
0000
0000
0003
0000
0000
0010
0100
0010
,
0100
0000
1000
0000
0001
0000
0010
0000
0001
0000
1000
0000
,
0020
0000
0000
0000
0000
0000
0130
0000
0001
0000
1000
0000
,
0100
0000
1000
0000
0001
0000
0100
0000
0010
0000
1000
0000
,
0002
0000
0000
0000
0000
0000
0013
0000
0110
0000
1001
0000
,
1000
0000
0100
1000
0100
0010
0001
0000
0100
0001
0100
0010
,
1000
0001
0010
0001
0100
0001
0010
0001
,
1000
0000
0010
0100
0001
1000
0010
0000
1000
0100
0010
0001
,
0100
0010
1000
0010
0100
0001
1000
0000
,
0100
0000
0010
0001
1000
0010
0100
0000
0001
0010
0100
1000
,
0100
0010
0001
0100
0010
1000
0100
0000
,
0010
0000
0001
1000
0010
0100
0001
0000
1000
0001
0010
0100
,
1000
0001
0100
0001
1000
0010
0100
0000
,
0002
0003
0020
0030
,
0200
0300
2000
3000
,
0020
0030
0200
0300
,
2002
0000
0000
0000
0000
0000
3003
0000
0000
0000
0000
0000
0110
0000
0110
0000
0110
0000
0110
0000
0000
0002
0003
0000
,
1000
0000
0100
0000
0010
0000
0100
0000
1000
0000
0000
0001
0010
0000
0001
0000
,
1000
0000
0010
0000
0001
0000
0010
0000
1000
0000
0000
0001
0100
0000
0000
0000
,
0001
0000
0010
0000
0100
0000
1000
0000
0001
0000
0000
0100
0010
0000
1000
0000
,
0100
0000
0010
0000
0001
0000
1000
0000
0010
0000
0000
0100
0001
0000
0000
0000
,
1000
0000
0100
0000
0010
0000
0001
0000
1000
0000
0000
0010
0100
0000
0001
0000
,
0010
0000
1000
0000
0010
0000
0001
0000
1000
0000
0000
0100
1000
0000
0000
0000
,
0001
0100
1000
0100
0001
1000
0010
0000
,
1000
0100
0001
1000
0010
0001
1000
0000
,
0010
0000
0100
0000
0001
0000
0010
0000
0100
0000
0000
1000
0001
0000
0100
0000
,
0010
0000
1000
0000
0001
0000
0010
0000
0100
0000
0000
1000
0010
0000
0000
0000
,
0100
0000
0001
0000
0010
0000
0001
0000
1000
0000
0000
0010
0100
0000
0001
0000
,
1000
0000
0100
0000
0001
0000
0100
0000
1000
0000
0000
0001
0010
0000
0000
0000
,
0001
0000
1000
0000
0010
0000
0100
0000
0001
0000
0000
1000
0010
0000
0100
0000
,
1000
0000
0100
0000
0001
0000
1000
0000
0010
0000
0000
1000
0100
0000
0000
0000
,
0011
0000
0000
0000
0011
0000
0000
0000
0101
0000
0000
0000
1000
0000
0000
1000
0000
0000
0010
0000
0000
1000
0000
0000
,
0002
0000
0000
0000
0000
0000
0013
0000
0000
0100
0000
0000
2000
0000
0000
0000
0000
0000
3010
0000
0100
0000
0001
0000
,
0020
0000
0030
0000
,
0200
0000
0300
0000
,
2000
0000
3000
0000
,
0002
0000
0003
0000
,
0200
0000
0300
0000
,
0020
0000
0030
0000
,
2000
0000
3000
0000
,
2002
0000
0000
0000
,
0000
0000
0000
0000
,
3003
0000
0000
0000
;

//--------------- dance-single - forcednature ----------------
#NOTEDATA:;
#STEPSTYPE:dance-single;
#DESCRIPTION:forcednature;
#DIFFICULTY:Hard;
#METER:17;
#RADARVALUES:0,0,0,0,0;
#CREDIT:forcednature;
#NOTES:
0000
0000
0000
0000
,
0000
0000
0000
0000
,
0000
0000
0000
0000
,
0000
0000
0000
0000
,
0000
0000
0000
0000
,
0000
0000
0000
0000
,
0000
0000
0000
0000
,
0000
0000
0000
0000
,
0000
0000
0000
0000
,
0002
0000
0103
0000
,
0001
0001
0010
0000
,
0200
0000
1300
0000
,
0010
0010
1000
0000
,
2001
0000
3001
0000
,
0120
0000
0130
0000
,
1000
0000
0000
0000
0000
0000
0000
0000
1000
0000
0000
0000
0000
0000
0000
0000
1000
0000
0000
0000
0000
0000
0000
0000
0010
0000
0000
0000
0000
0000
0010
0000
0000
0000
0000
0000
0000
0000
0000
0000
0000
0000
0010
0000
0000
0100
0000
0000
,
0002
0000
0000
0003
,
1001
0000
0000
1000
0100
0000
0010
0000
0100
0000
0010
0001
0010
0000
0001
0000
,
1000
0000
0010
1000
0010
0000
0100
0000
0001
0000
0010
0000
0100
0000
1000
0000
,
0001
0000
0100
0001
0100
0000
0010
0000
1000
0000
0100
0010
0100
0000
0010
0000
,
0001
0000
1000
0010
1000
0000
0001
0000
0010
0000
0100
0000
1000
0000
0001
0000
,
0100
0000
0010
1000
0010
0000
0100
0000
0001
0000
0010
0100
0010
0000
0001
0000
,
1000
0000
0100
0010
0100
0000
1000
0000
0001
0000
0100
0000
0010
0000
1000
0000
,
0001
0000
0010
0001
0010
0000
0100
0010
0100
0000
1000
0100
1000
0000
0001
0000
,
0100
0010
0100
0010
0100
0010
0100
0010
0100
0010
2000
0000
0000
0000
0000
0000
,
3001
0000
0010
0000
0100
0000
0010
0000
0001
0000
1000
0000
0100
0010
0001
0000
,
1000
0000
0000
0010
0000
0000
0100
0000
0000
0010
0000
0000
1000
0000
0000
0001
0000
0000
0100
0001
1000
0001
0000
0000
,
0010
0000
0100
0000
1000
0000
0100
0000
0010
0000
0001
0000
1000
0010
0100
0000
,
0001
0000
0000
1000
0000
0000
0100
0000
0000
0001
0000
0000
0100
0000
0000
1000
0000
0000
0001
0010
0001
1000
0000
0000
,
0010
0000
0100
0000
0001
0000
0010
0000
0001
0000
1000
0000
0010
0100
0001
0000
,
1000
0000
0000
0100
0000
0000
0010
0000
0000
0100
1000
0001
1000
0000
0000
0010
0000
0000
0100
0000
0000
0001
0000
0000
,
1000
0000
0100
1000
0100
0000
0010
0000
0001
0000
0100
0001
0100
0000
0020
0000
,
0000
0000
0000
0030
0000
0000
1000
0000
0001
0000
0100
0000
0001
0000
0000
0000
0000
0000
2000
0000
0000
0000
0000
0000
0000
0000
0000
0000
0000
0000
3100
0000
0000
0000
0000
0000
0010
0000
0000
0001
0000
0000
0010
0000
0000
0001
0000
0000
,
1000
0000
0010
0100
0001
0000
1000
0000
0100
0000
0010
0000
0001
1000
0010
0000
,
0100
0000
0000
0000
0000
0000
0001
0000
0000
0010
0000
0000
0001
0000
0000
0000
0000
0000
1000
0000
0000
0000
0000
0000
0010
0000
0000
0000
0000
0000
0100
0000
0000
0000
0000
0000
0001
0000
1000
0000
0100
0000
1000
0000
0000
0000
0000
0000
,
0001
0000
0010
0100
1000
0000
0001
0000
0100
0000
0010
0000
1000
0001
0100
0000
,
0010
0000
0000
0000
0000
0000
1000
0000
0000
0000
0000
0000
0001
0000
0000
0000
0000
0000
0010
0000
0000
0100
0000
0000
1000
0000
0000
0000
0000
0000
0001
0000
0000
0000
0000
0000
0100
0000
0010
0000
1000
0000
0010
0000
0000
0000
0000
0000
,
0100
0000
0001
1000
0100
0000
0010
0000
0001
0000
1000
0000
0010
0100
0001
0000
,
0010
0000
0000
0000
0000
0000
0100
0000
0000
1000
0000
0000
0001
0000
0000
0000
0000
0000
0100
0000
0001
0000
0100
0000
0010
0000
0000
0000
0000
0000
1000
0000
0000
0000
0000
0000
0001
0000
0000
0000
0000
0000
0010
0000
0000
0000
0000
0000
,
0100
1000
0100
1000
0100
0000
0010
0000
0001
1000
0001
1000
0001
0000
0200
0000
,
0000
0000
0000
0300
0000
0000
0010
0000
0000
1000
0000
0000
0001
0000
0000
0000
0000
0000
0020
0000
0000
0000
0000
0000
0000
0000
0000
0000
0000
0000
0130
0000
0000
0000
0000
0000
1000
0000
0001
0000
0100
0000
0001
0000
0000
0000
0000
0000
,
2000
0000
3200
0000
0320
0000
0032
0000
0023
0000
0230
0000
,
2300
0000
0000
0000
0000
0000
3001
0000
1000
0000
0010
0000
,
0200
0000
0302
0000
2003
0000
3002
0000
0203
0000
0320
0000
,
2030
0000
0000
0000
0000
0000
3001
0000
0000
1000
0001
0010
,
0002
0000
0203
0000
0320
0000
2030
0000
3020
0000
0230
0000
,
0302
0000
0010
0000
0010
0000
1003
0000
0001
0000
0100
0000
,
0002
0000
0023
0000
0230
0000
2300
0000
3002
0000
0203
0000
,
0320
0000
1000
0000
1030
0000
0110
0000
0110
0000
1001
0000
,
0001
0000
0100
0010
1000
0000
0001
0000
0010
0100
1000
0000
0100
0000
0010
0001
1000
0000
0010
0000
0100
0001
1000
0000
,
0100
0000
1000
0001
0010
0000
0100
1000
0010
0000
0100
0001
0010
0000
0001
0000
,
1000
0000
0100
0010
0001
0000
1000
0000
0010
0100
0001
0000
0100
0000
0010
1000
0001
0000
0010
0000
0100
1000
0001
0000
,
0100
0000
0000
0000
0000
0000
0001
0000
0000
1000
0000
0000
0010
0000
0000
0000
0000
0000
0100
0000
0000
0001
0000
0000
0010
0000
0000
0000
0000
0000
0100
0000
0000
1000
0000
0000
0010
0000
0000
0000
1000
0000
0000
0000
0100
0000
0000
0000
,
0001
0000
0100
1000
0001
0000
0010
0000
0001
1000
0010
0000
0100
0000
0001
0010
0100
0000
0010
0000
0100
1000
0010
0000
,
0100
0000
0001
1000
0100
0000
0010
0001
0100
0000
0010
1000
0100
0000
0001
0000
,
0100
0000
1000
0001
0010
0000
0100
0000
1000
0001
0100
0000
0010
0000
1000
0100
0010
0000
0001
0000
0100
0010
1000
0000
,
0001
0000
0010
0001
0100
0000
0010
1000
0001
0010
0001
1000
0100
1000
0001
0100
,
0020
0000
0000
0030
2000
0000
0000
3000
,
0002
0000
0000
0003
0200
0000
0000
0300
,
2002
0000
0000
3003
0022
0000
0000
0033
,
2200
0000
0000
0000
0000
0000
0000
0000
0000
3300
0000
0000
0110
0000
0110
0000
0110
0000
1100
0000
0001
0020
0030
0000
,
0001
0100
0010
0100
0001
0000
1000
0000
0100
0010
0001
0010
0100
0000
1000
0000
,
0001
0100
0010
0100
0001
1000
0010
1000
0001
0100
1000
0100
0002
0000
0000
0000
,
1003
0100
0010
0100
1000
0000
0001
0000
0100
0010
1000
0010
0100
0000
0001
0000
,
1000
0100
0010
0001
0100
0010
1000
0001
1000
0100
0001
0100
2000
0000
0000
0000
,
3010
0100
0001
1000
0100
0000
0010
0000
0001
1000
0100
1000
0001
0000
0100
0000
,
0010
1000
0010
0100
0001
1000
0001
0100
0001
0010
1000
0010
0001
0000
0000
0000
,
1000
0100
1000
0100
0010
0100
0010
0100
0010
0001
1000
0010
1000
0001
0100
0000
,
0010
1000
0100
0010
0001
0100
0010
1000
0100
0010
0001
1000
0010
0100
0001
0000
,
1000
0100
0010
0100
1000
0000
0001
0000
0100
0010
1000
0010
0100
0000
0001
0000
,
1000
0100
0010
0100
1000
0001
0010
0001
1000
0100
0001
0100
2000
0000
0000
0000
,
3001
0100
0010
0100
0001
0000
1000
0000
0100
0010
0001
0010
0100
0000
1000
0000
,
0001
0100
0010
1000
0100
0010
0001
1000
0001
0100
1000
0100
0002
0000
0000
0000
,
0013
0100
1000
0001
0100
0000
0010
0000
1000
0001
0100
0001
1000
0000
0100
0000
,
0010
0001
0010
0100
1000
0001
1000
0100
1000
0010
0001
0010
1000
0000
0000
0000
,
0101
0000
0000
0000
1100
0000
1000
0000
1010
0000
0000
0000
1100
0000
0000
0001
1000
0000
0001
0000
0010
0001
0000
0000
,
1000
0000
0000
0100
0000
0000
0001
0000
0000
0100
0000
0000
1000
0000
0000
0000
0000
0000
0001
0000
0000
0000
0000
0000
0010
0000
0000
0001
0000
0000
0100
0000
0000
0001
0000
0000
1000
0000
0000
0000
0010
0000
0100
0000
0001
0000
0000
0000
,
2000
0000
0100
3000
,
0200
0000
0010
0300
,
0020
0000
0001
0030
,
0002
0000
0100
0003
,
2000
0000
0100
3000
,
0020
0000
0100
0030
,
0200
0000
0001
0300
,
2002
0000
0000
0000
,
0000
0000
0000
0000
,
3003
0000
0000
0000
;

//--------------- dance-double - forcednature ----------------
#NOTEDATA:;
#STEPSTYPE:dance-double;
#DESCRIPTION:forcednature;
#DIFFICULTY:Easy;
#METER:9;
#RADARVALUES:0,0,0,0,0;
#CREDIT:forcednature;
#NOTES:
00000000
00000000
00000000
00000000
,
00000000
00000000
00000000
00000000
,
00000000
00000000
00000000
00000000
,
00000000
00000000
00000000
00000000
,
00000000
00000000
00000000
00000000
,
00000000
00000000
00000000
00000000
,
00000000
00000000
00000000
00000000
,
00000000
00000000
00000000
00000000
,
00000000
00000000
00000000
00000000
,
00002000
00000000
00003000
00000000
,
00000000
00000000
00000000
00000000
,
00020000
00000000
00030000
00000000
,
00000000
00000000
00000000
00000000
,
00000200
00000000
00000300
00000000
,
00002000
00000000
00003000
00000000
,
00000002
00000000
00000003
00000000
,
00000020
00000000
00000000
00000030
,
00000001
00000001
00000100
00000001
,
00001000
00000010
00010000
00001000
,
01000000
01000000
00010000
01000000
,
00100000
10000000
00010000
10000000
,
01000000
01000000
00100000
01000000
,
00100000
00001000
00010000
00000100
,
00001000
00001000
00000001
00001000
,
00000010
00000100
00000002
00000003
,
00001001
00000000
00001000
00000100
,
00010000
00000000
00001000
00100000
,
00010000
00000000
01000000
00100000
,
10000000
00000000
01000000
00010000
,
00001000
00000000
00100000
00001000
,
00010000
00000000
00000010
00001000
,
00000001
00000000
00000100
00001000
,
00010000
00100000
10000000
00000000
,
01100000
00000000
00010000
01000000
,
00002000
00003000
00010000
00000100
,
00002000
00003000
00000010
00000100
,
00000002
00000003
00000010
00000100
,
00020000
00030000
00001000
00100000
,
02000000
03000000
10000000
00010000
,
02000000
03000000
00100000
10000000
,
00010000
10000000
01000000
00000000
,
00200000
00000000
00302000
00000000
,
00023000
00000000
00030000
00000000
,
00000020
00000000
00002030
00000000
,
00003002
00000000
00000003
00000000
,
00000020
00000000
00000230
00000000
,
00020300
00000000
00030000
00000000
,
00002000
00000000
00203000
00000000
,
02300000
00000000
00000000
00000000
00000000
00000000
13000000
00000000
10000000
00000000
10000000
00000000
,
00010000
01000000
00010000
00100000
,
00001000
00010000
00000010
00001000
,
00000100
00000010
00000001
00000010
,
00000100
00010000
00001000
00100000
,
00010000
01000000
00100000
01000000
,
00010000
10000000
00100000
01000000
,
00010000
00100000
00001000
00010000
,
00000200
00000000
00000310
00000010
,
00000002
00000003
00000200
00000300
,
00000020
00000030
00020000
00030000
,
00002000
00003000
02000000
03000000
,
00200000
00000000
00000000
00000000
00000000
00000000
00300000
00000000
00000000
00000000
00000000
00000000
10000000
00000000
10000000
00000000
10000000
00000000
20000000
00000000
00000000
30000000
00000000
00000000
,
00000000
01000000
00010000
00001000
,
00100000
00000000
00010000
00000000
00100000
00001000
00010000
00000000
,
00000100
00001000
00000010
00000100
,
00000001
00000000
00000010
00000000
00000100
00001000
00000001
00000000
,
00000100
00001000
00010000
00100000
,
01000000
00000000
00010000
00000000
10000000
00100000
01000000
00000000
,
00010000
00000000
10000000
00000000
01000000
00100000
00010000
00000000
,
00100000
00000000
00001000
00000000
00010000
00000100
00001000
00000000
,
00000010
00000100
00000001
00000010
,
00000100
00000000
00010000
00000000
00001000
00100000
00010000
00000000
,
01000000
00100000
10000000
01000000
,
00010000
00000000
00001000
00000000
00100000
00001000
00010000
00000000
,
00000010
00001000
00000001
00000100
,
00000010
00000000
00001000
00000000
00000001
00000010
00000100
00000000
,
00010000
00000000
00001000
00000000
00100000
00010000
10000000
00000000
,
00100000
00000000
01000000
00000000
00010000
10000000
01000000
00000000
,
00200000
00000000
00300000
00000000
,
00002000
00000000
00003000
00000000
,
00020000
00000000
00030000
00000000
,
00000200
00000000
00000300
00000000
,
00002000
00000000
00003000
00000000
,
00000020
00000000
00000030
00000000
,
00000200
00000000
00000300
00000000
,
00002002
00000000
00000000
00000000
,
00000000
00000000
00000000
00000000
,
00003003
00000000
00000000
00000000
;

//--------------- dance-double - forcednature ----------------
#NOTEDATA:;
#STEPSTYPE:dance-double;
#DESCRIPTION:forcednature;
#DIFFICULTY:Medium;
#METER:13;
#RADARVALUES:0,0,0,0,0;
#CREDIT:forcednature;
#NOTES:
00000000
00000000
00000000
00000000
,
00000000
00000000
00000000
00000000
,
00000000
00000000
00000000
00000000
,
00000000
00000000
00000000
00000000
,
00000000
00000000
00000000
00000000
,
00000000
00000000
00000000
00000000
,
00000000
00000000
00000000
00000000
,
00000000
00000000
00000000
00000000
,
00000000
00000000
00000000
00000000
,
00002000
00000000
00003000
00000000
,
00010000
00010000
00100000
00000000
,
20000000
00000000
30000000
00000000
,
01000000
01000000
00010000
00000000
,
00002000
00000000
00003000
00000000
,
00000020
00000000
00000030
00000000
,
00000002
00000000
00000003
00000000
,
00000220
00000000
00000000
00000330
,
00000001
00000100
00000001
00000010
00000000
00001000
00010000
01000000
,
00000000
00010000
00001000
00100000
00010000
01000000
00010000
10000000
,
00000000
00100000
10000000
01000000
00000000
00100000
00001000
00010000
,
00000000
00000100
00001000
00000010
00000100
00000001
00000010
00001000
,
00000000
00000010
00000001
00000100
00000000
00001000
00000100
00000001
,
00000000
00000100
00001000
00010000
00100000
10000000
00010000
01000000
,
00000000
00100000
10000000
00100000
10000000
01000000
00010000
01000000
,
00010000
00001000
00000010
00000100
00000010
00000002
00000000
00000003
,
00001100
00000000
00000001
00000100
00001000
00010000
00100000
20000000
,
00000000
30000000
00000000
01000000
00010000
00001000
00000010
00000002
,
00000000
00000003
00000000
00000100
00001000
00010000
00100000
20000000
,
00000000
30000000
00000000
01000000
00010000
00001000
00100000
00001000
,
00020000
00000000
00030000
00000100
00001000
00000010
00000100
00000002
,
00000000
00000003
00000000
00000010
00000001
00000100
00001000
00010000
,
02000000
00000000
03000000
10000000
00100000
10000000
01000000
00020000
,
00000000
00031000
00000010
00002000
00000000
00013000
01000000
00000000
,
01100000
00000000
00100000
00001000
00010000
00000100
00001000
00000020
,
00000000
00000130
00001000
00010000
00100000
01000000
00010000
20000000
,
00000000
31000000
00010000
00001000
00100000
00001000
00010000
00000200
,
00000000
00001300
00000010
00000100
00000001
00000010
00001000
00010000
,
00002000
00000000
00013000
01000000
10000000
00010000
00100000
00002000
,
00000000
00013000
00000010
00001000
00000001
00000100
00001000
00010000
,
00200000
00000000
01300000
00010000
10000000
01000000
00010000
00002000
,
00000000
00103000
00001000
00020000
00000000
00030010
00002000
00000000
,
00003001
00000000
00000010
00000000
00000100
00000000
00010000
00000000
00000100
00000000
00000010
00000000
,
00000002
00000000
00000000
00000000
00000000
00000000
00000103
00000000
00001000
00000000
00010000
00000000
,
00100000
00000000
10000000
00000000
00010000
00000000
01000000
00000000
00010000
00000000
10000000
00000000
,
00200000
00000000
00000000
00000000
00000000
00000000
00300000
00000000
00000000
10000000
01000000
10000000
,
01000000
00000000
00100000
00000000
00001000
00000000
00010000
00000000
00001000
00000000
00100000
00000000
,
02000000
00000000
00000000
00000000
00000000
00000000
03010000
00000000
00001000
00000000
00000010
00000000
,
00000100
00000000
00010000
00000000
00001000
00000000
00000010
00000000
00001000
00000000
00010000
00000000
,
00000200
00000000
00000000
00000000
00000000
00000000
00000310
00000000
00000110
00000000
00001001
00000000
,
00000001
00000000
00000001
00000100
00001000
00000000
00010000
00000000
00001000
00010000
00100000
00000000
,
10000000
00010000
00100000
00010000
01000000
00010000
00100000
00000000
,
10000000
00000000
10000000
01000000
00010000
00000000
00001000
00000000
00010000
00001000
00000010
00000000
,
00000001
00000100
00000001
00000010
00000001
00000100
00001000
00000000
,
00010000
00000000
00010000
00100000
10000000
00000000
01000000
00000000
01000000
00010000
00001000
00000000
,
00000010
00000100
00010000
00001000
00010000
00000100
00000010
00000000
,
00000001
00000000
00000100
00001000
00010000
00000000
00100000
00000000
00010000
00001000
00000100
00000000
,
00000001
00001000
00000010
00010000
00001000
01000000
00100000
00000000
,
20020000
30030000
00020000
00030000
,
02000000
03000000
00002000
00003000
,
00020000
00030000
00000200
00000300
,
00002002
00000000
00000000
00000000
00000000
00000000
00003003
00000000
00000000
00000000
00000000
00000000
00000110
00000000
00000110
00000000
00000110
00000000
00000110
00000000
00000000
00002002
00003003
00000000
,
00001000
00000000
00000100
00000000
00000010
00000000
00000100
00000000
00010000
00000000
00000000
00001000
00010000
00000000
00001000
00000000
,
01000000
00000000
00010000
00000000
00100000
00000000
01000000
00000000
10000000
00000000
00000000
00100000
01000000
00000000
00000000
00000000
,
00010000
00000000
00100000
00000000
00001000
00000000
00010000
00000000
00000100
00000000
00000000
00000010
00000100
00000000
00000010
00000000
,
00000001
00000000
00000100
00000000
00000010
00000000
00001000
00000000
00000001
00000000
00000000
00000010
00000100
00000000
00000000
00000000
,
00010000
00000000
00001000
00000000
00100000
00000000
00010000
00000000
01000000
00000000
00000000
00100000
10000000
00000000
00010000
00000000
,
00100000
00000000
01000000
00000000
00010000
00000000
00001000
00000000
00100000
00000000
00000000
00010000
00100000
00000000
00000000
00000000
,
00001000
00010000
00000010
00001000
00000100
00000010
00000001
00000000
,
00000100
00001000
00010000
00100000
10000000
00010000
01000000
00000000
,
00100000
00000000
10000000
00000000
00010000
00000000
00100000
00000000
01000000
00000000
00000000
10000000
00010000
00000000
01000000
00000000
,
00001000
00000000
00010000
00000000
00000010
00000000
00001000
00000000
00000001
00000000
00000000
00000010
00000100
00000000
00000000
00000000
,
00001000
00000000
00000010
00000000
00010000
00000000
00001000
00000000
01000000
00000000
00000000
00010000
00100000
00000000
01000000
00000000
,
10000000
00000000
00100000
00000000
10000000
00000000
01000000
00000000
00010000
00000000
00000000
00001000
00100000
00000000
00000000
00000000
,
00010000
00000000
01000000
00000000
00001000
00000000
00010000
00000000
00000010
00000000
00000000
00001000
00000100
00000000
00000010
00000000
,
00000001
00000000
00000100
00000000
00001000
00000000
00010000
00000000
00100000
00000000
00000000
10000000
00010000
00000000
00000000
00000000
,
00110000
00000000
00000000
00000000
00110000
00000000
00000000
00000000
01010000
00000000
00000000
00000000
10000000
00000000
00000000
10000000
00000000
00000000
00100000
00000000
00000000
10000000
00000000
00000000
,
00020000
00000000
00000000
00000000
00000000
00000000
00130000
00000000
00000000
01000000
00000000
00000000
00020000
00000000
00000000
00000000
00000000
00000000
00031000
00000000
00010000
00000000
00000100
00000000
,
00002000
00000000
00003000
00000000
,
00000002
00000000
00000003
00000000
,
00000200
00000000
00000300
00000000
,
00002000
00000000
00003000
00000000
,
00020000
00000000
00030000
00000000
,
00200000
00000000
00300000
00000000
,
20000000
00000000
30000000
00000000
,
20020000
00000000
00000000
00000000
,
00000000
00000000
00000000
00000000
,
30030000
00000000
00000000
00000000
;

//--------------- dance-double - forcednature ----------------
#NOTEDATA:;
#STEPSTYPE:dance-double;
#DESCRIPTION:forcednature;
#DIFFICULTY:Hard;
#METER:17;
#RADARVALUES:0,0,0,0,0;
#CREDIT:forcednature;
#NOTES:
00000000
00000000
00000000
00000000
,
00000000
00000000
00000000
00000000
,
00000000
00000000
00000000
00000000
,
00000000
00000000
00000000
00000000
,
00000000
00000000
00000000
00000000
,
00000000
00000000
00000000
00000000
,
00000000
00000000
00000000
00000000
,
00000000
00000000
00000000
00000000
,
00000000
00000000
00000000
00000000
,
00002000
00000000
00013000
00000000
,
00000100
00000100
00001000
00000000
,
00000002
00000000
00000013
00000000
,
00000001
00000001
00000100
00000000
,
00002010
00000000
00003100
00000000
,
00021000
00000000
00130000
00000000
,
01000000
00000000
00000000
00000000
00000000
00000000
00000000
00000000
01000000
00000000
00000000
00000000
00000000
00000000
00000000
00000000
01000000
00000000
00000000
00000000
00000000
00000000
00000000
00000000
00010000
00000000
00000000
00000000
00000000
00000000
00010000
00000000
00000000
00000000
00000000
00000000
00000000
00000000
00000000
00000000
00000000
00000000
10000000
00000000
00000000
00100000
00000000
00000000
,
00020000
00000000
00000000
00030000
,
00001000
00000000
00000000
00010000
00001000
00000000
00010000
00000000
00000100
00000000
00001000
00000100
00000010
00000000
00000001
00000000
,
00001000
00000000
00000010
00001000
00000010
00000000
00010000
00000000
00001000
00000000
00100000
00000000
00010000
00000000
00100000
00000000
,
01000000
00000000
10000000
01000000
00100000
00000000
00010000
00000000
00100000
00000000
00010000
00100000
00001000
00000000
00010000
00000000
,
00000010
00000000
00001000
00000010
00000100
00000000
00000001
00000000
00000010
00000000
00000001
00000000
00001000
00000000
00000100
00000000
,
00010000
00000000
00001000
00100000
00010000
00000000
01000000
00000000
00100000
00000000
10000000
00010000
01000000
00000000
00010000
00000000
,
00100000
00000000
00010000
00100000
00001000
00000000
00010000
00000000
00000010
00000000
00001000
00000000
00000100
00000000
00000010
00000000
,
00000001
00000000
00000100
00000001
00001000
00000000
00000010
00001000
00000010
00000000
00010000
00001000
00010000
00000000
00100000
00000000
,
01000000
00010000
01000000
00010000
01000000
00010000
01000000
00010000
01000000
00010000
20000000
00000000
00000000
00000000
00000000
00000000
,
30100000
00000000
10000000
00000000
01000000
00000000
00010000
00000000
00001000
00000000
00100000
00000000
00010000
00100000
00001000
00000000
,
00000010
00000000
00000000
00000100
00000000
00000000
00010000
00000000
00000000
00001000
00000000
00000000
00000010
00000000
00000000
00000001
00000000
00000000
00001000
00000100
00000010
00000100
00000000
00000000
,
00001000
00000000
00000001
00000000
00000100
00000000
00001000
00000000
00010000
00000000
00100000
00000000
01000000
00010000
10000000
00000000
,
00100000
00000000
00000000
10000000
00000000
00000000
01000000
00000000
00000000
00010000
00000000
00000000
00001000
00000000
00000000
00100000
00000000
00000000
00010000
10000000
01000000
10000000
00000000
00000000
,
00100000
00000000
01000000
00000000
00010000
00000000
00100000
00000000
01000000
00000000
00010000
00000000
00001000
00100000
00010000
00000000
,
00001000
00000000
00000000
00000100
00000000
00000000
00010000
00000000
00000000
00000010
00001000
00000010
00000100
00000000
00000000
00000001
00000000
00000000
00000010
00000000
00000000
00000001
00000000
00000000
,
00001000
00000000
00000100
00001000
00000100
00000000
00010000
00000000
00001000
00000000
00100000
00010000
00100000
00000000
02000000
00000000
,
00000000
00000000
00000000
03000000
00000000
00000000
10000000
00000000
00010000
00000000
01000000
00000000
00010000
00000000
00000000
00000000
00000000
00000000
20000000
00000000
00000000
00000000
00000000
00000000
00000000
00000000
00000000
00000000
00000000
00000000
30100000
00000000
00000000
00000000
00000000
00000000
01000000
00000000
00000000
00010000
00000000
00000000
01000000
00000000
00000000
00010000
00000000
00000000
,
10000000
00000000
01000000
00010000
00001000
00000000
00100000
00000000
00010000
00000000
00100000
00000000
00001000
00010000
00000100
00000000
,
00001000
00000000
00000000
00000000
00000000
00000000
00000010
00000000
00000000
00000100
00000000
00000000
00000001
00000000
00000000
00000000
00000000
00000000
00000100
00000000
00000000
00000000
00000000
00000000
00000010
00000000
00000000
00000000
00000000
00000000
00001000
00000000
00000000
00000000
00000000
00000000
00000001
00000000
00000010
00000000
00000100
00000000
00000010
00000000
00000000
00000000
00000000
00000000
,
00000100
00000000
00001000
00000100
00010000
00000000
00001000
00000000
00100000
00000000
00010000
00000000
01000000
00100000
10000000
00000000
,
00010000
00000000
00000000
00000000
00000000
00000000
00100000
00000000
00000000
00000000
00000000
00000000
00001000
00000000
00000000
00000000
00000000
00000000
00010000
00000000
00000000
00000010
00000000
00000000
00001000
00000000
00000000
00000000
00000000
00000000
00000001
00000000
00000000
00000000
00000000
00000000
00000010
00000000
00000100
00000000
00001000
00000000
00000100
00000000
00000000
00000000
00000000
00000000
,
00010000
00000000
00001000
00100000
00010000
00000000
10000000
00000000
00100000
00000000
10000000
00000000
00010000
01000000
00100000
00000000
,
10000000
00000000
00000000
00000000
00000000
00000000
00010000
00000000
00000000
00100000
00000000
00000000
00001000
00000000
00000000
00000000
00000000
00000000
00010000
00000000
00001000
00000000
00010000
00000000
00000100
00000000
00000000
00000000
00000000
00000000
00001000
00000000
00000000
00000000
00000000
00000000
00000100
00000000
00000000
00000000
00000000
00000000
00000010
00000000
00000000
00000000
00000000
00000000
,
00000001
00000100
00000001
00000100
00000001
00000000
00001000
00000000
00000010
00001000
00000010
00001000
00000010
00000000
00020000
00000000
,
00000000
00000000
00000000
00030000
00000000
00000000
00001000
00000000
00000000
00100000
00000000
00000000
00010000
00000000
00000000
00000000
00000000
00000000
02000000
00000000
00000000
00000000
00000000
00000000
00000000
00000000
00000000
00000000
00000000
00000000
03100000
00000000
00000000
00000000
00000000
00000000
10000000
00000000
00010000
00000000
01000000
00000000
00010000
00000000
00000000
00000000
00000000
00000000
,
20000000
00000000
32000000
00000000
03020000
00000000
00032000
00000000
00003200
00000000
00000302
00000000
,
00000023
00000000
00000000
00000000
00000000
00000000
00000130
00000000
00000010
00000000
00000001
00000000
,
00002000
00000000
00003020
00000000
00000230
00000000
00002300
00000000
00023000
00000000
00230000
00000000
,
02300000
00000000
00000000
00000000
00000000
00000000
03010000
00000000
00000000
10000000
00100000
10000000
,
00020000
00000000
00230000
00000000
02300000
00000000
03020000
00000000
00032000
00000000
00003020
00000000
,
00000230
00000000
00001000
00000000
00001000
00000000
00000310
00000000
00000001
00000000
00000100
00000000
,
00002000
00000000
00023000
00000000
00230000
00000000
02300000
00000000
03200000
00000000
00320000
00000000
,
00032000
00000000
01000000
00000000
01003000
00000000
00011000
00000000
00011000
00000000
00010100
00000000
,
00000100
00000000
00001000
00000100
00000010
00000000
00000001
00000000
00000010
00000100
00001000
00000000
00000100
00000000
00010000
00001000
00100000
00000000
00010000
00000000
00100000
00001000
00010000
00000000
,
00100000
00000000
01000000
00010000
10000000
00000000
00100000
10000000
00010000
00000000
00100000
01000000
10000000
00000000
01000000
00000000
,
00010000
00000000
00001000
00100000
00010000
00000000
01000000
00000000
00100000
01000000
00010000
00000000
00100000
00000000
00001000
00010000
00000010
00000000
00001000
00000000
00000010
00010000
00001000
00000000
,
00000010
00000000
00000000
00000000
00000000
00000000
00000100
00000000
00000000
00001000
00000000
00000000
00000001
00000000
00000000
00000000
00000000
00000000
00000100
00000000
00000000
00000001
00000000
00000000
00001000
00000000
00000000
00000000
00000000
00000000
00000010
00000000
00000000
00010000
00000000
00000000
00001000
00000000
00000000
00000000
00100000
00000000
00000000
00000000
00010000
00000000
00000000
00000000
,
01000000
00000000
00100000
10000000
01000000
00000000
00100000
00000000
00001000
00010000
00000100
00000000
00001000
00000000
00000010
00000100
00000001
00000000
00000010
00000000
00000100
00001000
00000010
00000000
,
00010000
00000000
00001000
00100000
00010000
00000000
01000000
00100000
10000000
00000000
01000000
00010000
00001000
00000000
00100000
00000000
,
00001000
00000000
00010000
00000100
00001000
00000000
00000010
00000000
00001000
00000100
00010000
00000000
00001000
00000000
01000000
00010000
00100000
00000000
01000000
00000000
00100000
00010000
01000000
00000000
,
00100000
00000000
10000000
01000000
00010000
00000000
00001000
00010000
00000100
00001000
00000100
00000010
00000001
00000100
00000010
00000100
,
00002000
00000000
00000000
00003000
00020000
00000000
00000000
00030000
,
00200000
00000000
00000000
00300000
20000000
00000000
00000000
30000000
,
20020000
00000000
00000000
30030000
00202000
00000000
00000000
00303000
,
00020020
00000000
00000000
00000000
00000000
00000000
00000000
00000000
00000000
00030030
00000000
00000000
00001001
00000000
00001001
00000000
00001001
00000000
00000011
00000000
00001000
00000200
00000300
00000000
,
00000010
00000001
00001000
00000001
00000010
00000000
00000100
00000000
00010000
00001000
00100000
00001000
00010000
00000000
00100000
00000000
,
01000000
00010000
10000000
00010000
01000000
00100000
10000000
00100000
01000000
00001000
00010000
00000010
00002000
00000000
00000000
00000000
,
00003100
00000010
00000001
00000010
00000100
00000000
00010000
00000000
00001000
00100000
00010000
00100000
00001000
00000000
00010000
00000000
,
00100000
10000000
00010000
01000000
00001000
00010000
00001000
00100000
00010000
00100000
00001000
00010000
00000200
00000000
00000000
00000000
,
00000310
00000001
00000100
00000001
00000010
00000000
00000100
00000000
00010000
00001000
00100000
00001000
00010000
00000000
00100000
00000000
,
01000000
00010000
01000000
00001000
00010000
00000010
00001000
00000010
00010000
00001000
00100000
00010000
01000000
00000000
00000000
00000000
,
00100000
10000000
00100000
10000000
01000000
10000000
01000000
10000000
00010000
00100000
00001000
00010000
00000100
00001000
00000010
00000000
,
00000100
00000001
00000010
00000100
00001000
00000010
00000100
00000001
00001000
00000100
00010000
00001000
00100000
00001000
00010000
00000000
,
00100000
10000000
00010000
10000000
00100000
00000000
01000000
00000000
00010000
00100000
00001000
00010000
00000100
00000000
00001000
00000000
,
00000010
00000100
00000001
00000010
00000100
00001000
00000100
00010000
00001000
01000000
00010000
01000000
00200000
00000000
00000000
00000000
,
10300000
00010000
00100000
00010000
10000000
00000000
01000000
00000000
00100000
00010000
00100000
00001000
00010000
00000000
00000100
00000000
,
00001000
00000010
00000100
00000001
00000010
00001000
00010000
00001000
00000010
00000100
00010000
00001000
00200000
00000000
00000000
00000000
,
00310000
01000000
00010000
10000000
00100000
00000000
10000000
00000000
01000000
00010000
00001000
00100000
00010000
00000000
00100000
00000000
,
00001000
00010000
00000010
00001000
00000001
00000100
00001000
00010000
00000010
00001000
00000010
00010000
00001000
00000000
00000000
00000000
,
00011000
00000000
00000000
00000000
00101000
00000000
00010000
00000000
00110000
00000000
00000000
00000000
11000000
00000000
00000000
10000000
00010000
00000000
10000000
00000000
00100000
10000000
00000000
00000000
,
01000000
00000000
00000000
00010000
00000000
00000000
00001000
00000000
00000000
00010000
00000000
00000000
00001000
00000000
00000000
00000000
00000000
00000000
00000010
00000000
00000000
00000000
00000000
00000000
00000100
00000000
00000000
00001000
00000000
00000000
00000010
00000000
00000000
00001000
00000000
00000000
00000001
00000000
00000000
00000000
00000010
00000000
00000100
00000000
00001000
00000000
00000000
00000000
,
00000200
00000000
00010000
00000300
,
02000000
00000000
00001000
03000000
,
00000020
00000000
00010000
00000030
,
00200000
00000000
00001000
00300000
,
00020000
00000000
10000000
00030000
,
00200000
00000000
00001000
00300000
,
00000200
00000000
00010000
00000300
,
00002002
00000000
00000000
00000000
,
00000000
00000000
00000000
00000000
,
00003003
00000000
00000000
00000000
;
