#VERSION:0.83;
#TITLE:ポチコの幸せな日常;
#SUBTITLE:;
#ARTIST:NU-KO;
#TITLETRANSLIT:Pochiko no shiawasena nichijou;
#SUBTITLETRANSLIT:;
#ARTISTTRANSLIT:;
#GENRE:PUPCORE;
#CREDIT:;
#MUSIC:Pochiko no shiawasena nichijou.ogg;
#BANNER:Pochiko no shiawasena nichijou.png;
#BACKGROUND:Pochiko no shiawasena nichijou-bg.png;
#CDTITLE:./CDTitles/pnm Sunny Park.png;
#SAMPLESTART:42.217;
#SAMPLELENGTH:15.000;
#SELECTABLE:YES;
#OFFSET:0.895;
#BPMS:0.000=192.000;
#STOPS:120.000=0.625;
#BGCHANGES:0.000=../BGAs/19po.mp4=1.000=0=0=0=StretchNoLoop====,
99999.000=-nosongbg-=1.000=0=0=0=StretchNoLoop====
;
#FGCHANGES:;

//--------------- dance-single - forcednature ----------------
#NOTEDATA:;
#STEPSTYPE:dance-single;
#DESCRIPTION:forcednature;
#DIFFICULTY:Beginner;
#METER:2;
#RADARVALUES:0,0,0,0,0;
#CREDIT:forcednature;
#NOTES:
0000
0000
0000
0000
,
0000
0000
0000
0000
,
0000
0000
0000
0000
,
0000
0000
0000
0000
,
0000
0000
0000
0000
,
0000
0000
0000
0000
,
0000
0000
0000
0000
,
0001
0000
0000
0000
,
0000
0000
0000
0000
,
0000
0000
0000
0000
,
0000
0000
0000
0000
,
0100
0000
0000
0000
,
0000
0000
0000
0000
,
0010
0000
0000
0000
,
0000
0000
0000
0000
,
1000
0000
0000
0000
,
0000
0000
0000
0000
,
1000
0000
0000
0000
,
0000
0000
0000
0000
,
0100
0000
0000
0000
,
0000
0000
0000
0000
,
0010
0000
0000
0000
,
0000
0000
0000
0000
,
0000
0000
0000
0000
,
0001
0000
0000
0000
,
0001
0000
0000
0000
,
0001
0000
0000
0000
,
0001
0000
0000
0000
,
1000
0000
0000
0000
,
1000
0000
0000
0000
,
1000
0000
0000
0000
,
0000
0000
0010
0000
,
0000
0000
0100
0000
,
0000
0000
0000
0000
,
0000
0000
0000
1001
,
0000
0000
0000
0000
,
0000
0000
1000
0000
,
0000
0000
0100
0000
,
0000
0000
0000
1001
,
0000
0000
0000
0000
,
0000
0000
0001
0000
,
0000
0000
0100
0000
,
0000
0000
0001
0000
,
0000
0000
0010
0000
,
0000
0000
0100
0000
,
0000
0000
0000
0000
,
0000
0000
1000
0000
,
0000
0000
0001
0000
,
0000
0000
1000
0000
,
0000
0000
0010
0000
,
0000
0000
0100
0000
,
0000
0000
0000
0000
,
0000
0000
0000
0000
,
0000
0000
0000
0000
,
0000
0000
0001
0000
,
0000
0000
0000
0000
,
0000
0000
0001
0000
,
0001
0000
0001
0000
,
0000
0000
0000
1001
,
0000
0000
0000
0000
,
1000
0000
0000
0100
,
0000
0000
0000
0000
,
0000
0000
1000
0000
,
0000
0000
0000
0000
,
0000
0000
0001
0000
,
0000
0000
0100
0000
,
0000
0000
0010
0000
,
0000
0000
1000
0000
,
0000
0000
0000
0000
,
1001
0000
0000
0000
,
0000
0000
0001
0000
,
0000
0000
0000
0000
,
0000
0000
1000
0000
,
0000
0000
0000
0000
,
0000
0000
0100
0000
,
0000
0000
1001
0000
,
0000
0000
0000
0000
,
0000
0000
0001
0000
,
0000
0000
0100
0000
,
0000
0000
0001
0000
,
0000
0000
0000
0000
,
0000
0000
1000
0000
,
0000
0000
0100
0000
,
0000
0000
1000
0000
,
0000
0000
0010
0000
,
0000
0000
0000
0000
,
0000
0000
1001
0000
,
0000
0000
0000
0000
,
0000
0000
1000
0000
,
0000
0000
0100
0000
,
0000
0000
1000
0000
,
0000
0000
0000
0000
,
0001
0000
0000
0001
;

//--------------- dance-single - forcednature ----------------
#NOTEDATA:;
#STEPSTYPE:dance-single;
#DESCRIPTION:forcednature;
#DIFFICULTY:Easy;
#METER:7;
#RADARVALUES:0,0,0,0,0;
#CREDIT:forcednature;
#NOTES:
0000
0000
0000
0000
,
0000
0000
0000
0000
,
0000
0000
0000
0000
,
0000
0000
0000
0000
,
0000
0000
0000
0000
,
1000
0000
1000
0000
,
0001
0001
0000
0000
,
0100
0000
0010
0000
,
0100
0000
0000
0000
,
0001
0000
1000
0000
,
0001
0000
0000
0000
,
0010
0000
0001
0010
,
0100
0000
1000
0100
,
1000
0000
0001
1000
,
0010
0010
0000
0100
,
0100
0000
0001
1000
,
0001
0000
0010
0000
,
0100
0000
1000
0001
,
1000
0000
0010
0000
,
0110
0000
0100
0001
,
1000
0000
1000
0001
,
0010
0000
0100
1000
,
0000
0001
0000
0001
,
0000
0001
0100
0100
,
0020
0030
0020
0030
,
0020
0030
1000
0001
,
0020
0030
0020
0030
,
0020
0030
0001
1000
,
0200
0300
0200
0300
,
0200
0300
1000
0001
,
0200
0300
0000
0000
0000
0000
0000
0000
1001
0000
0000
0000
0000
0000
0000
0000
,
0110
0000
0001
1000
,
0001
0000
0010
0100
,
1000
0100
0010
0010
,
0000
0000
0000
1001
,
0000
1000
0010
1000
,
0001
0000
0010
0001
,
0010
0000
0000
0100
0000
0100
0000
1000
,
0000
1000
0000
0000
0000
0000
1001
0000
,
0000
0001
0100
0001
,
1000
0000
0100
1000
,
0100
0000
0010
0100
,
0110
0000
1001
0000
,
0110
0000
0001
1000
,
1001
0000
1000
0000
,
0001
0000
0100
0010
,
0100
0000
0001
0010
,
0001
0010
0000
0100
,
1000
0000
0001
0001
,
0100
0010
1000
0001
,
0000
0000
2000
0000
,
0000
0000
0100
0000
,
0001
0000
0010
0000
,
0000
0000
0001
0000
,
0100
0000
0010
0000
,
0000
0000
0100
0000
,
0010
0000
0001
0000
,
0001
0000
0001
0001
,
3001
1000
0000
0001
,
0100
0000
0010
1000
,
0010
1000
0000
1000
,
0100
0000
0010
0001
,
0010
0000
0001
0000
,
0100
0000
0010
1000
,
0001
0000
1000
0000
,
0100
0000
0010
0001
,
1000
0000
0010
0100
,
0010
0100
0001
0001
,
0000
0000
0000
0000
,
1001
0000
1000
0000
,
0100
0000
1000
0000
,
0010
0000
1000
0000
,
0001
0001
0001
0000
,
0010
0000
0100
0000
,
0010
0000
0110
0000
,
1001
0000
0001
0000
,
0100
0001
0100
0000
,
0010
0000
1000
0001
,
1000
0000
0000
0100
0000
0100
0000
1000
,
0000
1000
0000
0000
0000
0000
1001
0000
,
0000
0001
0100
0001
,
1000
0000
0000
0100
0000
0000
1000
0000
,
1000
0000
0000
0010
0000
0000
1000
0000
,
1000
0000
0000
0001
0000
0000
1000
0000
,
1000
0000
0200
0000
,
0000
0000
0020
0000
,
0000
0330
0001
1000
,
0001
0000
0100
0001
,
0100
0000
0000
0010
0000
0000
1000
0000
,
0001
0000
0000
0010
0000
0000
0001
0000
,
1000
0000
0000
0100
0000
0000
1000
0000
,
0001
0000
0100
0000
0000
0010
0000
0000
,
0010
0000
0000
0100
0000
0000
1001
0000
;

//--------------- dance-single - forcednature ----------------
#NOTEDATA:;
#STEPSTYPE:dance-single;
#DESCRIPTION:forcednature;
#DIFFICULTY:Medium;
#METER:11;
#RADARVALUES:0,0,0,0,0;
#CREDIT:forcednature;
#NOTES:
0000
0000
0000
0000
,
0000
0000
0000
0000
,
0000
0000
0000
0000
,
0000
0000
0000
0000
,
0000
0000
0000
0000
0001
1000
0001
1000
,
0100
0110
0010
0110
,
1000
0001
1000
0002
0000
0000
0000
0003
,
0100
0100
0001
0100
,
0000
0000
0000
0000
,
0010
0000
1000
0000
0001
0000
0000
2000
,
0000
3100
0010
0010
,
0001
1000
0001
0100
,
0110
0000
1000
0001
1000
0000
0100
0000
,
0010
0001
0000
0010
0001
0000
1000
0000
,
0001
0100
0001
0100
0000
0100
0010
0000
,
1000
0000
1000
0000
0100
1000
0100
0000
,
0010
0001
1000
0001
,
0100
0000
0100
0000
0001
0100
0001
0000
,
0010
0100
0010
0000
0100
1000
0100
0000
,
2002
3003
1010
0010
,
0100
0000
0001
0200
0000
0000
0300
0000
,
0001
0010
0000
0100
0010
0000
0100
1000
,
0000
0001
0100
0000
0000
0001
0100
0000
,
0000
0001
0100
0000
0010
0000
1001
0000
,
1000
1100
1000
1001
,
1000
0000
1010
0000
0100
0010
0100
0000
,
0001
0101
0001
1001
,
0001
0000
0011
0000
0100
0010
0100
0000
,
1000
1010
0001
0011
,
0100
0000
0110
0000
0001
1000
0001
0000
,
0020
0030
0000
0000
0000
0000
0000
0000
1001
0000
0000
0000
0000
0000
1000
0000
,
0100
0000
0000
0100
0010
0000
0001
1000
,
0001
0000
0100
0000
0010
1000
0010
0000
,
0010
1000
0010
0000
0100
0100
0100
0000
,
0001
1000
0001
1000
0000
0000
1001
0000
,
1000
0000
0100
1000
0000
0001
0000
2002
,
0000
3003
0000
0000
0001
0100
0001
0000
,
1000
0000
0100
1000
0000
1001
0000
0010
,
0000
0110
0000
2002
0000
0000
3003
0000
,
0001
0000
0010
0100
0000
1000
0000
0002
,
0000
0000
0103
0001
0100
0000
0010
1000
,
0010
0000
1000
0000
0100
0000
0010
0002
,
0000
0000
0003
0000
1000
1000
0000
0000
,
0001
0001
0000
0000
0100
0000
0010
2000
,
0000
0001
0000
0000
3001
0000
0000
0000
0010
0000
0000
0000
0011
0000
0000
0000
,
0100
1100
0001
1000
,
0010
1000
0010
2000
0000
0000
3001
0000
,
0100
0000
0001
0010
0000
0100
0010
0100
,
0010
0000
0001
1000
0001
0000
1001
0000
,
1000
0001
1000
0000
0010
0100
0010
0200
,
0000
0000
0300
0000
0001
0000
0001
0010
,
0000
0010
0100
0000
0100
1000
0000
1000
,
0001
0000
0001
0100
0010
0000
0010
1000
,
0000
1000
0100
0000
0100
0010
0000
0010
,
0001
0000
0000
0001
0000
0000
0001
0000
1000
0000
0000
0000
1000
0000
0010
0000
,
0000
0010
0100
0000
0100
0001
0000
0001
,
1000
0000
0000
1000
0000
0000
0100
0000
2000
0000
0000
0000
3010
0000
0100
0000
,
0002
0000
0013
0100
2000
0000
3002
0000
,
0103
0010
0100
0010
0000
0000
1001
0000
,
0001
0010
0100
1000
,
0001
0000
0100
0010
0000
0010
1000
0000
,
0001
0010
0001
0100
,
0001
1000
0001
0000
0020
0000
0230
0000
,
2300
3002
0003
0100
,
0001
0100
0001
0000
2000
0000
3200
0000
,
0320
0000
0032
0000
0103
0001
0000
0100
,
0001
1000
0200
0010
,
1000
0000
0310
0000
0001
1000
0001
0000
,
0000
0000
0000
0100
,
1001
0000
1000
0000
,
0011
0000
0001
0000
,
1010
0000
1000
0100
,
0010
0000
0000
0010
0000
0010
0001
0000
0000
0000
0000
0000
,
0101
0000
1000
0000
,
1100
0000
0110
0000
,
0001
1000
0001
1000
0001
0000
0010
0000
,
0100
0000
1000
0010
0000
0100
0000
0220
,
0000
0330
0000
0000
0010
1000
0010
0000
,
1000
0000
0100
0010
0000
0110
0000
1000
,
0000
1001
0000
0220
0000
0000
0330
0000
,
0001
0000
1000
0010
0000
0100
0000
0002
,
0000
0003
0000
1001
0000
1000
0100
0000
,
0110
0000
0000
1001
0000
0001
0100
0000
,
0110
0000
0000
1001
0000
0001
0010
0000
,
0100
1000
0002
0100
,
1000
0000
0100
0000
1003
0001
0000
0001
,
1000
0010
0100
0101
,
0010
0000
1010
0000
1000
0100
1000
0000
,
0001
0000
0010
0200
0000
0000
1300
0000
,
0001
0000
0100
0020
0000
0000
1030
0000
,
0001
1000
0001
2000
0000
0000
3100
0000
,
0010
0001
0010
0001
0000
1000
0001
0000
,
0001
1000
0000
0010
0010
0000
0100
0100
;

//--------------- dance-single - forcednature ----------------
#NOTEDATA:;
#STEPSTYPE:dance-single;
#DESCRIPTION:forcednature;
#DIFFICULTY:Hard;
#METER:15;
#RADARVALUES:0,0,0,0,0;
#CREDIT:forcednature;
#NOTES:
0000
0000
0000
0000
,
0000
0000
0000
0000
,
0000
0000
0000
0000
,
0000
0000
0000
0000
,
0000
1000
1000
1000
0001
0100
0010
1000
,
0001
0000
0011
0000
1000
0100
0001
0000
,
0100
0100
0010
2002
0000
0000
3003
0000
,
0002
0000
0203
0000
1300
0001
0010
0000
,
0200
0000
0000
1000
0000
0000
0302
0000
,
1003
0000
0010
0000
0001
1000
0000
0200
,
0000
0301
0010
0000
0110
0000
0010
0100
,
1000
0100
0010
0100
1000
0010
0100
0010
,
1000
0000
0001
0010
0100
0000
0001
0100
,
1000
0020
0000
0031
0010
0100
0001
1000
,
0100
0100
0010
0010
0000
0100
1001
0000
,
1000
0010
0100
0010
1000
0100
0110
0000
,
0010
0001
0100
0001
1000
0001
0010
0000
,
0001
0100
0010
0100
0001
0010
0100
2000
,
0000
3010
0010
0200
0000
0301
1000
0100
,
0120
0000
0031
0100
0020
0000
1030
0100
,
0001
0000
0100
1000
0010
0100
0001
1000
,
0010
0001
0000
0001
0010
1000
0001
0100
,
0000
0001
0001
0000
0010
1000
1000
0000
,
0010
0001
0001
0000
0110
0000
1001
0000
,
1000
0100
0002
0000
1003
0010
0002
0000
,
1003
0100
0002
0000
1003
0010
0100
0010
,
0001
0100
2000
0000
3001
0010
2000
0000
,
3001
0100
2000
0000
3001
0010
0100
0010
,
1000
0100
0002
0000
1003
0010
0002
0000
,
1003
0100
0002
0000
1003
0010
0100
0010
,
0002
0003
0000
0000
0110
0000
0000
0000
1002
0000
0000
0000
1003
0000
0010
0000
,
0002
0000
1003
0100
0002
0000
0013
0100
,
1000
0001
0100
0010
1000
0100
1000
0100
,
0010
0001
0010
0001
0100
0100
0100
0000
,
0010
0000
1000
0000
0001
0000
0020
0000
0000
0000
0130
1000
0100
0000
0000
0000
,
0010
0000
0100
0000
1000
0000
0001
0100
0000
0000
0100
0010
0000
0000
0010
1000
,
0000
1000
0100
0010
0000
0001
0100
1000
,
0100
0010
1000
1100
0000
0011
0000
0101
,
0000
0000
1010
0000
0000
0000
0120
0000
0000
0000
0130
0001
0100
0000
0000
0000
,
0010
1000
0100
0010
0000
1000
0010
0001
,
0000
0000
0100
0000
0010
0000
1000
0000
0001
0100
0001
0000
1000
0000
0001
0000
,
0010
0100
1000
0000
1001
0000
0100
0110
,
0000
0001
1000
0010
1000
1100
0000
0000
,
0001
0000
0101
0000
0000
0000
0000
0000
1000
0000
0100
1000
0000
0100
0010
0000
,
0001
0010
0000
0001
1000
0000
0001
0100
0001
0000
0000
0100
0010
0000
0000
0100
,
1000
0000
0000
0100
0010
0000
0000
0100
0001
0000
1000
0000
0001
0000
0010
0000
,
0100
1000
0100
0000
0010
0000
0120
0000
0000
0000
0130
0000
1000
0000
0001
0000
,
0100
1000
0100
0010
0000
1000
1000
1000
,
0100
0001
1000
0010
0011
0000
0101
0000
,
0100
0000
0010
0000
1000
0010
1000
0000
0001
0000
0010
0000
0100
0000
2000
0000
,
0000
0000
0000
3000
0001
0100
0010
0100
,
1000
0100
0001
1000
0001
0010
0100
0010
,
1000
0010
0001
1000
0010
0100
1000
0100
,
0001
0010
0100
0010
0001
1000
0010
0001
,
0010
0000
0000
0010
0000
0000
0010
0100
0001
0000
0010
0000
0100
0000
1000
0000
,
0010
0100
1000
0001
0010
1000
0001
1000
,
0100
0000
0001
0000
1000
0000
0010
0000
0001
0000
0000
0000
0001
0000
1000
0010
,
1000
0000
0000
0000
1000
0000
0001
0010
0001
0000
0010
0100
0010
0000
0100
1000
,
0100
0010
0001
2000
0000
0000
3010
0100
,
0001
0010
0100
1000
0010
0000
0110
0000
,
0100
0001
1000
1200
0000
0001
0301
0000
,
0100
1000
0010
1000
0100
0001
0100
0010
,
0001
0000
0000
0001
0100
0000
0010
0100
0010
0000
1000
0000
0100
0000
1000
0000
,
0001
0010
1000
1010
0000
0010
0100
1000
,
0010
0100
1000
0000
0100
0001
0010
0001
,
1000
0100
0001
0101
0000
1100
0000
1000
,
0010
0100
0001
0000
0010
0100
1000
0100
,
0001
0100
1000
0100
0010
0010
0010
0000
,
0000
0000
0000
0101
,
1100
0000
0110
0000
,
1001
0000
1000
0010
,
0001
0010
0110
0000
,
0001
1000
0001
1000
0000
1000
0100
0000
0000
0000
0000
0000
,
0110
0000
0010
0000
,
1001
0000
0110
0000
,
0001
1000
0001
0000
1000
0001
1000
0000
0010
0000
0000
0000
0100
0000
0001
0000
,
0010
0000
0001
0000
1000
0000
0010
0100
0000
0000
0100
0001
0000
0000
0001
1000
,
0000
0100
0010
0001
0000
0100
1000
0100
,
0001
0001
0010
0100
0000
1010
0000
0011
,
0000
0000
0110
0000
0000
0000
1001
0000
0000
0000
0001
0100
0010
0000
0000
0000
,
1000
0001
0010
1000
0000
0010
0001
0100
,
0000
0010
0001
0011
0000
0010
1000
0001
,
1000
0100
0001
0101
0000
0001
0100
1000
,
0001
0100
1000
1100
0000
1000
0100
0001
,
0010
0100
1001
0000
0001
0001
0010
0010
,
0100
0000
0100
0000
1000
0000
0000
0000
0001
0100
0001
0100
0001
0000
1000
0100
,
1000
0100
1000
0000
0020
0000
0000
0000
1030
0000
0000
0100
0010
0000
0000
0100
,
0001
0000
0000
0100
0010
0000
0000
0100
1000
0000
0001
0000
1000
0000
0010
0000
,
0100
0001
0100
0000
0010
0000
0120
0000
0000
0000
0130
0000
1000
0000
0100
0000
,
0001
0010
0000
0120
0000
0130
0001
0100
,
1000
0010
0000
0210
0000
0310
0001
0010
,
1000
0100
0010
1000
0000
0010
0011
0000
,
0001
0101
0000
1000
1100
0000
0010
1001
;

//--------------- dance-single - forcednature ----------------
#NOTEDATA:;
#STEPSTYPE:dance-single;
#DESCRIPTION:forcednature;
#DIFFICULTY:Challenge;
#METER:17;
#RADARVALUES:0,0,0,0,0;
#CREDIT:forcednature;
#NOTES:
0000
0000
0000
0000
,
0000
0000
0000
0000
,
0000
0000
0000
0000
,
0000
0000
0000
0000
,
0000
0000
0001
0000
0001
0000
0001
1000
0100
0000
0010
0000
0001
0000
1000
0000
,
1010
0000
0000
0000
0011
0000
0000
0000
1100
0000
0100
0000
0010
0001
1000
0000
,
0010
0110
0100
2002
0000
0000
3003
0000
,
1000
0100
0010
0100
0001
0100
0010
0000
,
0002
0000
0000
0203
0000
0000
0310
1000
,
0001
0100
0010
0100
1000
0100
0010
2000
,
0000
0000
3001
0000
0010
0000
0100
0000
0010
0000
0010
0001
1000
0000
1000
0010
,
0100
0000
0001
0000
0010
0000
0001
0000
0100
0000
1000
0000
0100
0000
0001
1000
,
0010
0000
0100
0000
1000
0000
0100
0000
0001
0000
0010
0000
0001
1000
0100
0000
,
0110
0000
0010
0000
0001
0000
1000
0001
0100
0000
0010
0000
1000
0000
0001
0000
,
0010
0110
0100
0110
0000
0110
1001
0000
,
1000
0000
0010
0000
0100
0000
0010
0000
0001
0000
0010
0000
1000
0000
0001
1000
,
0100
0000
0010
0001
0010
0100
1000
0100
0010
0000
0002
0000
0000
0000
0103
0010
,
1000
0001
0010
0001
0100
1000
0100
0010
,
0000
0000
0110
0000
1001
0000
0000
0000
1000
0000
0010
0100
0001
0000
0100
0010
,
2000
0000
0000
0000
0100
0000
0000
0000
3001
0000
0001
0000
0100
0000
0010
1000
,
0002
0000
0000
0000
0013
0000
0100
0000
1000
0000
1000
0000
0010
0000
0100
0001
,
1000
0100
0001
0100
1000
0010
0001
0010
,
0000
0100
0110
0000
0010
1000
1100
0000
,
0010
0000
0001
0000
0101
0000
0000
0000
1000
0001
1000
0001
0010
0000
0000
0000
,
0100
0000
1000
0000
0010
1000
0000
0010
0100
0000
0001
0000
0010
0001
0000
0010
,
0100
0000
1000
0000
0010
1000
0000
0010
0100
0000
1001
0000
0010
0000
1001
0000
,
0001
0000
1000
0000
0010
0100
0000
0010
1000
0000
0001
0000
0010
0100
0000
0010
,
0001
0000
1000
0000
0010
0100
0000
0010
1000
0000
1100
0000
0001
0000
0101
0000
,
1000
0000
0100
0000
0001
0100
0000
0010
0001
0000
0100
0000
1000
0100
0000
0010
,
1000
0000
0100
0000
0001
0100
0000
0010
0001
0000
0110
0000
1000
0000
0110
0000
,
0020
0030
0000
0000
0100
0000
0000
0000
1001
0000
0000
0000
1000
0000
0100
0000
,
0110
0000
0001
0100
0110
0000
1000
0001
,
0010
0000
0001
1000
0010
0000
0100
0000
0001
1000
0100
1000
0001
1000
0100
1000
,
0001
1000
0010
1000
0001
1000
0010
1000
0001
0000
0001
0000
0001
0000
0000
0000
,
1100
0000
0110
0000
0011
0000
1001
0000
0000
0000
0001
1000
0100
0000
0010
0000
,
0001
0010
0100
0000
0010
0000
0001
0100
0010
0000
0001
0000
0010
0000
1000
0000
,
0100
1000
0100
0010
0100
0000
2000
0000
0000
0000
3010
0000
0001
0000
1000
0000
,
0100
0001
1000
1010
0000
1100
0000
0101
,
0000
0000
0011
0000
0000
0000
1001
0000
0000
0000
0100
0010
1001
0000
0000
0000
,
1000
0010
0100
0000
0010
0000
1000
0100
0010
0000
0001
0000
0100
0010
1000
0010
,
0100
0001
0010
0210
0000
0301
0100
1000
,
0010
0001
1000
0000
0110
0000
0010
2002
,
0000
3003
1000
0001
0101
1010
0000
0000
,
1100
0000
0011
0000
1000
0000
0000
0000
0001
0000
0100
0001
0000
0010
0001
0000
,
1000
0010
0000
1000
0100
0010
0001
1000
0010
0000
0100
0001
0100
0000
0001
0010
,
0001
0000
0010
0100
0010
0000
0100
1000
0100
0000
0010
0000
0001
0000
0100
0000
,
0010
1000
0001
0000
0010
0000
0210
0000
0000
0000
1300
0001
0100
0000
0010
0000
,
1000
0000
0001
0000
0010
0000
0110
0000
0000
0000
0100
0000
0100
0000
0100
1000
,
0001
0101
1000
1100
1001
0000
0110
0000
,
1001
0000
0001
0000
0100
0010
1000
0000
0001
0000
0011
0000
0110
0000
2200
0000
,
0000
0000
0000
3300
0001
0100
1000
0100
,
0001
0000
0100
0000
0010
1000
0001
0100
0010
0000
0001
0000
0010
0000
1000
0000
,
0010
0000
0001
0010
0100
0000
0010
1000
0001
0000
0010
0000
1000
0000
0010
0000
,
0001
0000
0010
0000
0100
1000
0001
0010
0100
0000
0001
0000
0100
0000
1000
0001
,
0010
0000
0100
0010
0000
0100
1000
0001
1000
0000
0010
0000
0001
0000
0010
1000
,
0001
0000
0010
0000
0100
0010
0001
1000
0100
0000
1000
0000
0010
1000
0001
0100
,
0010
0000
1000
0010
0000
1000
0001
1000
0100
0000
0010
0001
0100
0000
0100
0001
,
1000
0000
0010
1000
0100
0000
0100
1000
0001
0000
0100
0001
1000
0000
0100
1000
,
0001
0100
0010
1000
0001
0000
2001
0000
0000
0000
3100
0000
0010
0000
0100
0000
,
1000
0000
0010
0000
0100
0000
0010
0000
1000
0000
0001
0000
0010
0000
0001
0100
,
0001
0000
0100
0010
0100
0000
0120
0000
0000
0000
1030
0000
1000
0000
0010
0000
,
0100
0010
1000
0001
0010
0100
0010
0001
,
0100
0000
0100
0001
0100
0000
0100
0010
1000
0000
0100
0000
0001
0000
0100
0000
,
1000
0001
0010
0200
0000
1300
0010
0100
,
0010
0000
0001
0000
0010
1000
0001
0000
1000
0000
0100
0000
1000
0000
0010
0000
,
0100
1000
0100
0002
0000
0013
0100
1000
,
0010
0100
0001
0000
1001
0100
0010
0100
,
1000
0100
0001
0100
1001
1001
1001
0000
,
0000
0000
0000
0110
,
1001
0000
0000
1000
0000
0000
0100
0000
0100
0010
0000
0010
,
0001
0000
0100
0010
0000
0001
0010
1000
,
0001
1000
0100
0010
0000
1002
0000
0003
,
1000
0010
0001
0010
0000
1000
0100
0000
0000
0010
0000
0001
,
0101
0000
0000
0010
0000
1000
0100
0000
0100
0010
0000
0010
,
0022
0033
1001
0000
,
1000
0010
0100
0001
1000
0010
0100
0001
1000
0000
0100
0000
0010
0000
0001
0100
,
0010
0000
0100
0000
0001
0010
0100
0000
0001
0000
0100
0000
1000
0000
0100
0010
,
0001
0000
0010
0001
1000
0000
0010
0000
0110
0000
0000
0000
0100
0000
1000
0000
,
0100
0100
0001
0011
0000
1010
0000
1100
,
0000
0000
0101
0000
0000
0000
1001
0000
0000
0000
1000
0100
0001
0000
0100
0000
,
1000
0010
0100
0000
0010
0000
1000
0100
0010
0000
0001
0000
0010
0100
0010
0001
,
0010
0000
0100
1000
0001
0000
0101
0000
0000
0000
0001
0000
0010
0000
1000
0000
,
0001
0100
1000
1100
0000
1000
0010
0001
,
1000
0000
0100
0000
0001
0000
0101
0000
0000
0000
0001
0010
0001
0000
0010
0100
,
0010
0000
0100
1000
0100
0000
0000
0000
1001
0000
0001
0000
0100
0000
0100
0000
,
0010
0000
0010
0000
1000
0000
1000
0000
0100
1000
0001
1000
0010
0000
0100
0001
,
1000
0001
0010
0000
0001
0100
0010
1000
0001
0000
1000
0001
0010
0000
0001
1000
,
0010
0000
0100
0001
1000
0000
0100
1000
0001
0000
0100
0000
0010
0000
1000
0000
,
0001
0010
0001
0010
0100
0000
0210
0000
0000
0000
1300
0001
0100
0000
0010
0000
,
1000
0100
1000
0100
0010
0000
0021
0000
0000
0000
0130
1000
0001
0000
0010
0000
,
0001
0100
0001
0100
0010
0000
1020
0000
0000
0000
0130
0001
1000
0000
0100
0000
,
0010
0001
0010
0001
0100
0000
0110
0000
0000
0000
0101
0000
0011
0000
0000
0000
,
1100
1010
0000
0101
1100
0000
0110
1001
;

//--------------- dance-double - forcednature ----------------
#NOTEDATA:;
#STEPSTYPE:dance-double;
#DESCRIPTION:forcednature;
#DIFFICULTY:Easy;
#METER:7;
#RADARVALUES:0,0,0,0,0;
#CREDIT:forcednature;
#NOTES:
00000000
00000000
00000000
00000000
,
00000000
00000000
00000000
00000000
,
00000000
00000000
00000000
00000000
,
00000000
00000000
00000000
00000000
,
00000000
00000000
00000000
00000000
,
00001000
00001000
00001000
00000000
,
00010000
00020000
00000000
00030000
,
00000100
00000000
00001000
00000000
,
00000100
00000000
00000000
00000000
,
00010000
00000000
00001000
00000000
,
00010000
00000000
00000000
00000000
,
01000000
00000000
10000000
00010000
,
10000000
00000000
00100000
00000000
,
01000000
00000000
00001000
00010000
,
00000000
00001000
00010000
00001000
,
00000000
00000000
00010000
00000100
,
00010000
00000000
00001000
00000000
,
00100000
00000000
00001000
00010000
,
00001000
00000000
00010000
00000000
,
00011000
00000000
00000100
00001000
,
00000100
00000000
00001000
00000001
,
00000010
00000000
00000001
00001000
,
00000000
00000010
00000000
00000010
,
00000000
00000010
00010000
00010000
,
00002000
00003000
00002000
00003000
,
00002000
00003000
01000000
00010000
,
00200000
00300000
00200000
00300000
,
00200000
00300000
01000000
10000000
,
00020000
00030000
00020000
00030000
,
00020000
00030000
01000000
00001000
,
00020000
00030000
00000000
00000000
00000000
00000000
00000000
00000000
00011000
00000000
00000000
00000000
00000000
00000000
00000000
00000000
,
00010000
00000100
00001000
00000100
,
00000010
00000000
00000001
00000001
,
00000001
00000001
00000100
00001000
,
00000000
00000000
00000000
00011000
,
00000000
01000000
00010000
01000000
,
00100000
00000000
10000000
00010000
,
10000000
00000000
00000000
01000000
00000000
01000000
00000000
00100000
,
00000000
00100000
00000000
00000000
00000000
00000000
10010000
00000000
,
00000000
00010000
01000000
00001000
,
00010000
00000000
00000100
00001000
,
00000100
00000000
00010000
00001000
,
00011000
00000000
01000000
00000000
,
10010000
00000000
00100000
01000000
,
01100000
00000000
10000000
00000000
,
00010000
00000000
01000000
00010000
,
01000000
00000000
00001000
00010000
,
00001000
00010000
00000000
00000100
,
00001000
00000000
00000010
00000010
,
00000100
00000010
00001000
00000001
,
00000000
00000000
00000020
00000000
,
00000000
00000000
00000130
00000000
,
00010000
00000000
00002000
00000000
,
00000000
00000000
01003000
00000000
,
00010000
00000000
00200000
00000000
,
00000000
00000000
01300000
00000000
,
10000000
00000000
00010000
00000000
,
00010000
00000000
00010000
00010000
,
00010000
01000000
00000000
00001000
,
00000000
00010000
00000000
00000100
,
00001000
00000100
00000000
00010000
,
00000000
00001000
00000000
01000000
,
00010000
01000000
00010000
00000000
,
10000000
00000000
01000000
00100000
,
00010000
00000000
01000000
00000000
,
00001000
00000000
00010000
00000010
,
00001000
00000000
00000001
00000010
,
00000001
00000010
00000100
00000100
,
00000000
00000000
00000000
00000000
,
00001001
00000000
00001000
00000000
,
00000100
00000000
00010000
00000000
,
00001000
00000000
01000000
00000000
,
00010000
00010000
00010000
00000000
,
00100000
00000000
01000000
00000000
,
00100000
00000000
01100000
00000000
,
10010000
00000000
00010000
00000000
,
01000000
00010000
01000000
00000000
,
00001000
00000000
00010000
00001000
,
00010000
00000000
00000000
00000100
00000000
00000100
00000000
00001000
,
00000000
00001000
00000000
00000000
00000000
00000000
00001001
00000000
,
00000000
00000001
00000100
00000001
,
00000000
00000000
00000000
00001000
00000000
00000000
00001000
00000000
,
00001000
00000000
00000000
00000100
00000000
00000000
00000100
00000000
,
00000100
00000000
00000000
00010000
00000000
00000000
00010000
00000000
,
00010000
00000000
00022000
00000000
,
00000000
00033000
02200000
00000000
,
00000000
03300000
00010000
10000000
,
00010000
00000000
01000000
00010000
,
01000000
00000000
00000000
00001000
00000000
00000000
00001000
00000000
,
00010000
00000000
00000000
00000100
00000000
00000000
00000100
00000000
,
00001000
00000000
00000000
00000001
00000000
00000000
00000001
00000000
,
00000010
00000000
00000100
00000000
00000000
00010000
00000000
00000000
,
00001000
00000000
00000000
00010000
00000000
00000000
00001000
00000000
;

//--------------- dance-double - forcednature ----------------
#NOTEDATA:;
#STEPSTYPE:dance-double;
#DESCRIPTION:forcednature;
#DIFFICULTY:Medium;
#METER:11;
#RADARVALUES:0,0,0,0,0;
#CREDIT:forcednature;
#NOTES:
00000000
00000000
00000000
00000000
,
00000000
00000000
00000000
00000000
,
00000000
00000000
00000000
00000000
,
00000000
00000000
00000000
00000000
,
00000000
00000000
00000000
00000000
00001000
00010000
00001000
00010000
,
00000100
00001100
00000010
00000011
,
00001000
00000001
00001000
00000002
00000000
00000000
00000000
00000003
,
00000100
00000100
00001000
00000200
,
00000000
00000000
00000000
00000300
,
00000010
00000000
00001000
00000000
00000010
00000000
00000000
00020000
,
00000000
00031000
01000000
01000000
,
00010000
00100000
00010000
01000000
,
01100000
00000000
00010000
10000000
00010000
00000000
00100000
00000000
,
01000000
10000000
00000000
01000000
10000000
00000000
01000000
00000000
,
00010000
00001000
00010000
00001000
00000000
00001000
00010000
00000000
,
00000100
00000000
00001000
00000000
00000100
00001000
00000100
00000000
,
00000010
00000001
00001000
00000001
,
00000100
00000000
00000001
00000000
00000100
00000001
00000100
00000000
,
00000010
00000100
00000010
00000000
00001000
00000010
00001000
00000000
,
00000200
00000300
00011000
00001000
,
01000000
00000000
00010000
02000000
00000000
00000000
03000000
00000000
,
00001000
00010000
00000000
00000100
00001000
00000000
00000100
00010000
,
00000000
00001000
01000000
00000000
00000000
01000000
00001000
00000000
,
00000000
00001000
01000000
00000000
00100000
00000000
10010000
00000000
,
20000000
32000000
03020000
00032000
,
00003200
00000000
00000302
00000000
00000013
00000100
00000010
00000000
,
00000002
00000203
00002300
00023000
,
02030000
00000000
23000000
00000000
30100000
01000000
00100000
00000000
,
20000000
32000000
03020000
00032000
,
00003200
00000000
00000302
00000000
00000013
00000100
00000010
00000000
,
00002002
00003003
00000000
00000000
00000000
00000000
00000000
00000000
00000110
00000000
00000000
00000000
00000001
00000000
00000000
00000000
,
00001000
00000010
00011000
00100000
,
00001000
00000000
00010000
00000000
00100000
01000000
00100000
01000000
,
00100000
01000000
00100000
00000000
10000000
10000000
10000000
00000000
,
01000000
00100000
01000000
00100000
00000000
00000000
10010000
00000000
,
00010000
00000000
01000000
00001000
00000000
00010000
00000000
00022000
,
00000000
00033000
00000000
00000000
00001000
00010000
00001000
00000000
,
00010000
00000000
00000100
00001000
00000000
00001001
00000000
00000010
,
00000000
00000110
00000000
00002002
00000000
00000000
00003003
00000000
,
00001000
00000000
00000100
00010000
00000000
00001000
00000000
00022000
,
00000000
00033000
00000000
00000000
00001000
00000000
00010000
00000000
00001000
00000000
00000000
00000000
01000000
00000000
00010000
00000000
,
01000000
00000000
00100000
00000000
10000000
00000000
01000000
00200000
,
00000000
00000000
00300000
00000000
00001000
00001000
00000000
00000000
,
00010000
00010000
00000000
00000000
00000100
00000000
00001000
00000002
,
00000000
00000010
00000000
00000000
00000013
00000000
00000000
00000000
00000001
00000000
00000000
00000000
00000101
00000000
00000000
00000000
,
00001000
00001010
00010000
00011000
,
00001000
00010000
00001000
02000000
00000000
00000000
03010000
00000000
,
10000000
00000000
00010000
00100000
00000000
01000000
00100000
01000000
,
00100000
00000000
01000000
00010000
00001000
00000000
00011000
00000000
,
00010000
00001000
00000010
00000000
00000100
00001000
00000100
00020000
,
00000000
00000000
00030000
00000000
00001000
00000000
00001000
00000010
,
00000000
00000010
00000001
00000000
00000001
00000100
00000000
00000100
,
00001000
00010000
00000000
00001000
00010000
00000000
00010000
00100000
,
00000000
00100000
10000000
00000000
10000000
01000000
00000000
01000000
,
00010000
00000000
00000000
00010000
00000000
00000000
00010000
00000000
00001000
00000000
00000000
00000000
00001000
00000000
00000010
00000000
,
00000000
00000010
00000001
00000000
00000001
00000100
00000000
00000100
,
00001000
00000000
00000000
00010000
00000000
00000000
00001000
00000000
00020000
00000000
00000000
00000000
00130000
00000000
01000000
00000000
,
00200000
00000000
10300000
00010000
20000000
00000000
32000000
00000000
,
03010000
00001000
00010000
00001000
00000000
00000000
00011000
00000000
,
00010000
00000100
00001000
00000100
,
00010000
00000000
00001000
00100000
00000000
00010000
00100000
00000000
,
00001000
00010000
00000010
00001000
,
00000001
00000100
00000001
00000000
00000020
00000000
00000230
00000000
,
00020300
00032000
00003000
01000000
,
00010000
01000000
00010000
00000000
20000000
00000000
32000000
00000000
,
03020000
00000000
00032000
00000000
00013000
00001000
00000000
00001000
,
00010000
00000100
00002000
00000010
,
00000001
00000000
00003100
00000000
00010000
00001000
00010000
00000000
,
00000000
00000000
00000000
00011000
,
01001000
00000000
00100000
00000000
,
10010000
00000000
01000000
00000000
,
00011000
00000000
00010000
00000100
,
00001000
00000000
00000000
00001000
00000000
00001000
00000001
00000000
00000000
00000000
00000000
00000000
,
00000110
00000000
00001000
00000000
,
00000110
00000000
00001001
00000000
,
00010000
00001000
00010000
00001000
00010000
00000000
00100000
00000000
,
01000000
00000000
00010000
10000000
00000000
01000000
00000000
02200000
,
00000000
03300000
00000000
00000000
00100000
00010000
00100000
00000000
,
00001000
00000000
00010000
00000010
00000000
00001010
00000000
00000100
,
00000000
00000011
00000000
00002002
00000000
00000000
00003003
00000000
,
00001000
00000000
00000100
00010000
00000000
00001000
00000000
00022000
,
00000000
00033000
00000000
00011000
00000000
00001000
01000000
00000000
,
01000000
00010000
00000000
10010000
00000000
10000000
01000000
00000000
,
01000000
00100000
00000000
10010000
00000000
00010000
01000000
00000000
,
00001000
00010000
00000020
00000100
,
00001000
00000000
00010030
00000000
00000010
00000100
00000000
00000100
,
00000010
00000110
00001000
00001001
,
00000100
00000000
00000110
00000000
00001000
00000001
00001000
00000000
,
00000100
00000000
00010000
00002000
00000000
00000000
01003000
00000000
,
00001000
00000000
00010000
00000020
00000000
00000000
00010030
00000000
,
00001000
00100000
00010000
00200000
00000000
00000000
01300000
00000000
,
10000000
00010000
10000000
00010000
00000000
01000000
00001000
00000000
,
00001000
00010000
00000000
00000100
00010000
00000000
00010000
00001000
;

//--------------- dance-double - forcednature ----------------
#NOTEDATA:;
#STEPSTYPE:dance-double;
#DESCRIPTION:forcednature;
#DIFFICULTY:Hard;
#METER:15;
#RADARVALUES:0,0,0,0,0;
#CREDIT:forcednature;
#NOTES:
00000000
00000000
00000000
00000000
,
00000000
00000000
00000000
00000000
,
00000000
00000000
00000000
00000000
,
00000000
00000000
00000000
00000000
,
00000000
00001000
00010000
00001000
01000000
00010000
10000000
00100000
,
01000000
00000000
10010000
00000000
10000000
01000000
00010000
00000000
,
00001000
00010000
00001000
00000020
00000000
00000000
00000030
00000000
,
00000200
00000000
00002300
00000000
00003001
00000100
00001000
00000000
,
00020000
00000000
00000000
00000010
00000000
00000000
00032000
00000000
,
01003000
00000000
00010000
00000000
00100000
01000000
00000000
20000000
,
00000000
31000000
00010000
00000000
00011000
00000000
00001000
00000010
,
00000002
00000000
00001003
00000001
00000200
00000000
00001300
00010000
,
00100000
00000000
01000000
00100000
10000000
00010000
10000000
01000000
,
00010000
00002000
00000000
00103000
00010000
00100000
00001000
00010000
,
00000010
00000010
00001000
00001000
00000000
00000100
00000001
00000000
,
00000100
00001000
00000100
00010000
00001000
00010000
00000010
00000000
,
00000100
00001000
00010000
00001000
00100000
00001000
00010000
00000000
,
00100000
01000000
00010000
01000000
00100000
10000000
00010000
00200000
,
00000000
01300000
00010000
00002000
00000000
00103000
00010000
00100000
,
00002000
00000000
00013000
00000010
00002000
00000000
00003010
00010000
,
00001000
00000000
00000010
00000100
00010000
00000010
00001000
00000001
,
00000100
00001000
00000000
00010000
00001000
00010000
00100000
10000000
,
00000000
01000000
01000000
00000000
00010000
00001000
00001000
00000000
,
00010000
01000000
01000000
00000000
01100000
00000000
00011000
00000000
,
00010000
00001000
00000020
00000000
00001030
00010000
00200000
00000000
,
00310000
00001000
00000020
00000000
00000130
00010000
00001000
00100000
,
00001000
00010000
02000000
00000000
03010000
00001000
00000200
00000000
,
00001300
00010000
02000000
00000000
03100000
00001000
00010000
00000010
,
00010000
00001000
00000020
00000000
00001030
00010000
00200000
00000000
,
00310000
00001000
00000020
00000000
00001030
00010000
00000100
00001000
,
00000020
00000030
00000000
00000000
00000110
00000000
00000000
00000000
00002001
00000000
00000000
00000000
00003001
00000000
00000100
00000000
,
00002000
00000000
00013000
00100000
20000000
00000000
30010000
00100000
,
01000000
10000000
01000000
00010000
00001000
00100000
00001000
00100000
,
00010000
00000010
00010000
00000010
00000100
00000100
00000100
00000000
,
00001000
00000000
00000001
00000000
00000100
00000000
00002000
00000000
00000000
00000000
00013000
00001000
00010000
00000000
00000000
00000000
,
00100000
00000000
01000000
00000000
00010000
00000000
10000000
01000000
00000000
00000000
01000000
00100000
00000000
00000000
00100000
00010000
,
00000000
01000000
00001000
00010000
00000000
00100000
00010000
00001000
,
00000010
00001000
00010000
00010100
00000000
00001100
00000000
00001010
,
00000000
00000000
00000101
00000000
00000000
00000000
00000021
00000000
00000000
00000000
00000130
00001000
00000100
00000000
00000000
00000000
,
00010000
00001000
01000000
00010000
00000000
00100000
01000000
00010000
,
00000000
00000000
00001000
00000000
00000010
00000000
00000100
00000000
00001000
00000100
00001000
00000000
00000001
00000000
00000100
00000000
,
00001000
00010000
00100000
00000000
01100000
00000000
01000000
10010000
,
00000000
10000000
01000000
00010000
00001000
00101000
00000000
00000000
,
00010000
00000000
00010010
00000000
00000000
00000000
00000000
00000000
00000010
00000000
00001000
00000010
00000000
00010000
00001000
00000000
,
01000000
00010000
00000000
01000000
00100000
00000000
10000000
00010000
10000000
00000000
00000000
01000000
00100000
00000000
00000000
01000000
,
10000000
00000000
00000000
01000000
00010000
00000000
00000000
00001000
00010000
00000000
00000100
00000000
00001000
00000000
00000100
00000000
,
00010000
00001000
00010000
00000000
00000010
00000000
00002000
00000000
00000000
00000000
00003001
00000000
00000100
00000000
00001000
00000000
,
00010000
01000000
10000000
00100000
00000000
10000000
10000000
10000000
,
01000000
00010000
00001000
00100000
00110000
00000000
01010000
00000000
,
01000000
00000000
00001000
00000000
00010000
00001000
00010000
00000000
00000010
00000000
00001000
00000000
00000001
00000000
00000200
00000000
,
00000000
00000000
00000000
00000300
00001000
00010000
00100000
01000000
,
00100000
00010000
00001000
01000000
00001000
00010000
01000000
00100000
,
01000000
00010000
00001000
00100000
00001000
00010000
00000010
00001000
,
00000100
00001000
00000010
00010000
00001000
00000010
00000100
00000010
,
00000001
00000000
00000000
00000001
00000000
00000000
00000001
00001000
00000001
00000000
00000100
00000000
00000010
00000000
00000100
00000000
,
00001000
00010000
00001000
01000000
00010000
01000000
00100000
10000000
,
01000000
00000000
00010000
00000000
00001000
00000000
00010000
00000000
02000000
00000000
00000000
00000000
13000000
00000000
00010000
00100000
,
02000000
00000000
00000000
00000000
03100000
00000000
00010000
00100000
00010000
00000000
00100000
00001000
00100000
00000000
00001000
00010000
,
00001000
00010000
00000100
00002000
00000000
00000000
00003010
00000100
,
00001000
00000100
00000001
00001000
00000010
00000000
00000110
00000000
,
00000100
00000001
00001000
00000200
00000000
00010000
00010300
00000000
,
00000100
00001000
00000100
00010000
00001000
00100000
00001000
00010000
,
00100000
00000000
00000000
00100000
01000000
00000000
00100000
01000000
00100000
00000000
10000000
00000000
01000000
00000000
00100000
00000000
,
00010000
01000000
10000000
11000000
00000000
01000000
00010000
00100000
,
00001000
00000010
00001000
00010000
00000100
00001000
00000001
00000100
,
00001000
00000100
00000001
00000011
00000000
00001100
00000000
00010000
,
00001000
00010000
00100000
00000000
01000000
10000000
01000000
00010000
,
01000000
10000000
01000000
00010000
00100000
00100000
00100000
00000000
,
00000000
00000000
00000000
00011000
,
00010100
00000000
00001001
00000000
,
00000110
00000000
00000001
00000100
,
00001000
00010000
00011000
00000000
,
10000000
00010000
10000000
00010000
00000000
00010000
00100000
00000000
00000000
00000000
00000000
00000000
,
01100000
00000000
01000000
00000000
,
00011000
00000000
00000110
00000000
,
00000001
00001000
00000001
00001000
00000001
00000000
00001000
00000001
00001000
00000000
00000000
00000000
00000100
00000000
00010000
00000000
,
00001000
00000000
00100000
00000000
00001000
00000000
01000000
00010000
00000000
00000000
00010000
10000000
00000000
00000000
10000000
01000000
,
00000000
01000000
00100000
00001000
00000000
00010000
00000100
00000010
,
00001000
00000010
00000001
00000100
00000000
00000110
00000000
00010010
,
00000000
00000000
01001000
00000000
00000000
00000000
01100000
00000000
00000000
00000000
00100000
10000000
00010000
00000000
00000000
00000000
,
00100000
01000000
00010000
00001000
00000000
00000010
00000100
00010000
,
00000000
00000010
00001000
00001100
00000000
00000100
00010000
00001000
,
00100000
00001000
00010000
00010100
00000000
00010000
00001000
00010000
,
01000000
10000000
00100000
10100000
00000000
10000000
01000000
00010000
,
00001000
00000100
00000002
00000000
00000013
00000010
00000100
00000100
,
00010000
00000000
00010000
00000000
00001000
00000000
00001000
00000000
01000000
00010000
01000000
00010000
01000000
00000000
00100000
10000000
,
00100000
10000000
00100000
00000000
20000000
00000000
00000000
00000000
31000000
00000000
00000000
00100000
01000000
00000000
00000000
00010000
,
01000000
00000000
00000000
10000000
01000000
00000000
00000000
00010000
00001000
00000000
00010000
00000000
00001000
00000000
00000010
00000000
,
00000100
00000010
00000100
00000000
00000010
00000000
00000012
00000000
00000000
00000000
00000103
00000000
00001000
00000000
00010000
00000000
,
00100000
10000000
00000000
20100000
00000000
31000000
00010000
00001000
,
00000010
00000001
00000000
00000102
00000000
00000103
00001000
00010000
,
00100000
10000000
01000000
10000000
00000000
00100000
00010000
00000000
,
00010000
00001000
00000000
00001000
00000100
00000000
00000100
00000110
;

//--------------- dance-double - forcednature ----------------
#NOTEDATA:;
#STEPSTYPE:dance-double;
#DESCRIPTION:forcednature;
#DIFFICULTY:Challenge;
#METER:17;
#RADARVALUES:0,0,0,0,0;
#CREDIT:forcednature;
#NOTES:
00000000
00000000
00000000
00000000
,
00000000
00000000
00000000
00000000
,
00000000
00000000
00000000
00000000
,
00000000
00000000
00000000
00000000
,
00000000
00000000
00001000
00000000
00001000
00000000
00001000
00010000
00001000
00000000
01000000
00000000
00010000
00000000
00100000
00000000
,
01100000
00000000
00000000
00000000
10010000
00000000
00000000
00000000
10000000
00000000
01000000
00000000
00100000
00010000
00100000
00000000
,
00001000
00010000
00000010
00002020
00000000
00000000
00003030
00000000
,
00000001
00000100
00001000
00000100
00000001
00001000
00000010
00000000
,
00020000
00000000
00000000
00230000
00000000
00000000
01300000
00010000
,
10000000
01000000
00010000
01000000
10000000
00010000
00100000
00002000
,
00000000
00000000
00003010
00000000
00000100
00000000
00001000
00000000
00000001
00000000
00000010
00000001
00000010
00000000
00000001
00001000
,
00000100
00000000
00001000
00000000
00000010
00000000
00010000
00000000
00001000
00000000
00100000
00000000
00010000
00000000
00100000
01000000
,
10000000
00000000
00100000
00000000
01000000
00000000
00100000
00000000
10000000
00000000
01000000
00000000
00010000
00001000
00010000
00001000
,
00010000
00000100
00001000
00000010
00000100
00001000
00000100
00000001
,
00000010
00000010
00000100
00000110
00000000
00000010
00001001
00000000
,
00000001
00000000
00000100
00000000
00001000
00000000
00000100
00000000
00000001
00000000
00001000
00000000
00000010
00000000
00010000
00001000
,
00010000
00000000
00001000
00100000
00010000
00100000
00001000
00010000
00001000
00000000
02000000
00000000
00000000
00000000
03100000
10000000
,
00010000
00100000
01000000
00010000
00001000
00000010
00000100
00020000
,
00000000
00000000
00030010
00000000
00000010
00000000
00000100
00000000
00001000
00000000
00000100
00000001
00001000
00000000
00000010
00001000
,
00000002
00000000
00000000
00000000
00000010
00000000
00000000
00000000
00000103
00000000
00001000
00000000
00011000
00000000
00000000
00001000
,
00100000
00000000
00010000
00000000
01000000
00000000
00010000
00000000
00100000
00000000
01000000
00000000
00010000
00000000
01000000
10000000
,
00010000
01000000
00100000
00010000
00001000
00000100
00000020
00000000
,
00000030
00001000
00001001
00000000
00000001
00000010
00001000
00000000
,
00010000
00000000
01000000
00000000
10000000
00000000
00000000
00000000
00010000
00100000
01000000
10000000
00010000
00000000
00000000
00000000
,
10000000
00000000
00100000
00000000
01000000
10000000
00000000
01000000
00010000
00000000
00100000
00000000
01000000
00010000
00000000
01000000
,
10000000
00000000
00100000
00000000
01000000
10000000
00000000
01000000
00010000
00000000
00100000
00000000
00001000
00000000
00000010
00000000
,
00000001
00000000
00000010
00000000
00000100
00000001
00000000
00000100
00001000
00000000
00000010
00000000
00000100
00001000
00000000
00000100
,
00000001
00000000
00000010
00000000
00000100
00000001
00000000
00000100
00001000
00000000
00000010
00000000
00010000
00000000
00100000
00000000
,
10000000
00000000
00100000
00000000
01000000
10000000
00000000
01000000
00010000
00000000
00100000
00000000
01000000
00010000
00000000
01000000
,
10000000
00000000
00100000
00000000
01000000
10000000
00000000
01000000
00010000
00000000
00100000
00000000
00001000
00000000
00000010
00000000
,
00000002
00000003
00000000
00000000
00000100
00000000
00000000
00000000
00001001
00000000
00000000
00000000
00000001
00000000
00000100
00000000
,
00001000
00000000
00010000
01000000
10000000
00000000
00100000
20000000
,
00000000
00000000
31000000
00100000
00010000
00000000
01000000
00000000
00001000
00010000
00001000
00010000
00001000
00010000
00001000
00010000
,
00001000
00010000
00001000
00010000
00001000
00010000
00001000
00010000
00000100
00000000
00000100
00000000
00000100
00000000
00000000
00000000
,
00000010
00000000
00001000
00000000
00010000
00000000
02000000
00000000
00000000
00000000
03100000
00010000
10000000
00000000
00100000
00000000
,
01000000
00010000
01000000
00000000
00001000
00000000
00010000
00000100
00001000
00000000
00000010
00000000
00001000
00000000
00000100
00000000
,
00000010
00000001
00001000
00000001
00000100
00000000
00002000
00000000
00000000
00000000
00013000
00000000
00100000
00000000
10000000
00000000
,
00010000
01000000
10000000
11000000
00000000
01010000
00000000
00110000
,
00000000
00000000
01100000
00000000
00000000
00000000
10010000
00000000
00000000
00000000
10000000
01000000
00010000
00000000
00000000
00000000
,
00001000
00010000
00000100
00000000
00001000
00000000
00000100
00000010
00000001
00000000
00001000
00000000
00000001
00000100
00000010
00001000
,
00000001
00000010
00000100
00020000
00000000
00030010
00001000
00010000
,
01000000
00001000
00100000
00000000
01100000
00000000
01000000
20020000
,
00000000
30030000
10000000
01000000
00010000
00101000
00000000
00000000
,
00001000
00000000
00010010
00000000
00000000
00000000
00000000
00000000
00000001
00000000
00000010
00000001
00000000
00000010
00000100
00000000
,
00001000
00000100
00000000
00010000
00001000
01000000
00010000
01000000
00100000
00000000
10000000
01000000
00100000
00000000
00010000
01000000
,
00001000
00000000
00010000
00000010
00001000
00000000
00000100
00000010
00000001
00000000
00000100
00000000
00001000
00000000
00000100
00000000
,
00000001
00001000
00000010
00000000
00010000
00000000
00012000
00000000
00000000
00000000
00103000
00010000
01000000
00000000
00100000
00000000
,
10000000
00000000
01000000
00000000
00010000
00000000
00011000
00000000
00000000
00000000
00000100
00000000
00000100
00000000
00000100
00001000
,
00000001
00000100
00001000
00010000
00011000
00000000
01001000
00000000
,
01000000
00000000
00010000
00000000
10000000
00010000
00100000
00000000
01000000
00000000
00010000
00000000
00001000
00000000
00022000
00000000
,
00000000
00000000
00000000
00033000
01000000
00100000
00010000
00001000
,
00000100
00000010
00000100
00001000
00010000
00100000
01000000
00100000
,
00010000
00000000
00001000
00000000
00000100
00000000
00000010
00001000
00000100
00000000
00000010
00000000
00001000
00000000
00010000
00000000
,
01000000
00100000
01000000
00010000
00001000
00000010
00000100
00000010
,
00001000
00000000
00010000
00001000
00000000
00001000
00010000
00001000
01000000
00000000
00100000
00000000
00010000
00000000
00001000
00000000
,
00000100
00000010
00000100
00001000
00010000
00100000
01000000
00100000
,
00010000
00000000
00001000
00000000
00000100
00000000
00000010
00001000
00000100
00000000
00000010
00000000
00001000
00000000
00010000
00001000
,
00010000
00000000
00001000
00000000
01000000
00000000
00010000
00100000
00010000
00000000
10000000
00100000
10000000
00000000
01000000
00100000
,
00020000
00032000
00003200
00000320
00000000
00000031
00000100
00001000
,
00000100
00000000
00000001
00000000
00001000
00000000
00000010
00000000
00010000
00000000
00001000
00000000
01000000
00000000
00010000
00100000
,
00010000
00000000
00100000
01000000
10000000
00000000
00200000
00000000
00000000
00000000
10300000
00000000
10000000
00000000
01000000
00000000
,
00010000
01000000
00100000
00001000
00010000
00000100
00010000
00001000
,
00000010
00000000
00000010
00000100
00001000
00000000
00000010
00000100
00000001
00000000
00000010
00000000
00000001
00000000
00000100
00000000
,
00001000
00010000
01000000
00200000
00000000
00310000
10000000
00100000
,
10000000
00000000
01000000
00000000
00100000
00001000
00010000
00000000
00000100
00000000
00001000
00000000
00000010
00000000
00000100
00000000
,
00001000
00000100
00000001
00002000
00000000
00003010
00010000
00100000
,
01000000
00000000
00010000
00000000
00100000
00000000
00000000
00000000
01000000
10000000
01000000
10000000
01000000
00100000
01000000
00100000
,
01000000
10000000
01000000
10000000
01000000
00100000
01000000
00100000
00010000
00000000
00010000
00000000
00010000
00000000
00000000
00000000
,
00000000
00000000
00000000
01100000
,
00011000
00000000
00000000
00000100
00000000
00000000
00010000
00000000
00010000
00001000
00000000
00001000
,
00000010
00000000
00000100
00020000
00000000
00031000
00000010
00000001
,
00000100
00000001
00000010
00001000
00000000
00021000
00000000
00030000
,
00100000
01000000
00010000
01000000
00000000
01000000
00100000
00000000
00000000
10000000
00000000
01000000
,
00010000
00000000
00000000
00001000
00000000
00000100
00000001
00000000
00000001
00000010
00000000
00000010
,
00000200
00000300
00001001
00000000
,
00001000
00000100
00001000
00000100
00010000
00001000
00010000
00001000
01000000
00000000
00010000
00000000
00100000
00000000
01000000
00100000
,
00010000
00000000
01000000
00000000
00010000
00100000
01000000
00000000
00010000
00000000
00001000
00000000
00000010
00000000
00000100
00001000
,
00000001
00000000
00000010
00000001
00001000
00000000
00000010
00000000
00000110
00000000
00000000
00000000
00000100
00000000
00001000
00000000
,
00010000
01000000
00100000
01100000
00000000
11000000
00000000
10100000
,
00000000
00000000
00110000
00000000
00000000
00000000
00011000
00000000
00000000
00000000
00001000
00010000
00000100
00000000
00001000
00000000
,
00000100
00010000
00001000
00000000
00000010
00000000
00000100
00001000
00000001
00000000
00000100
00000000
00000010
00001000
00000010
00010000
,
00001000
00000000
01000000
00010000
10000000
00000000
11000000
00000000
00000000
00000000
01000000
00000000
00010000
00000000
00001000
00000000
,
00000010
00000001
00000100
00000101
00000000
00000100
00001000
00010000
,
00100000
00000000
10000000
00000000
01000000
00000000
11000000
00000000
00000000
00000000
01000000
00100000
00010000
00000000
00100000
00001000
,
00010000
00000000
00001000
00010000
00000100
00000000
00000000
00000000
00000010
00000000
00000010
00000000
00000001
00000000
00000001
00000000
,
00000100
00000000
00000100
00000000
00001000
00000000
00001000
00000000
00010000
00001000
01000000
00010000
01000000
00000000
00001000
00010000
,
00001000
00100000
00010000
00000000
01000000
00100000
10000000
00010000
00100000
00000000
01000000
10000000
00100000
00000000
10000000
01000000
,
00100000
00000000
00010000
01000000
00001000
00000000
00010000
00000010
00001000
00000000
00000100
00000000
00000001
00000000
00000100
00000000
,
00001000
00000001
00000010
00000100
00001000
00000000
00000020
00000000
00000000
00000000
00001030
00000100
00010000
00000000
00001000
00000000
,
01000000
00010000
01000000
00010000
10000000
00000000
00200000
00000000
00000000
00000000
10300000
01000000
00100000
00000000
00001000
00000000
,
00010000
00000100
00010000
00000100
00001000
00000000
00000020
00000000
00000000
00000000
00000130
00000001
00001000
00000000
00000100
00000000
,
00010000
00001000
00010000
00001000
01000000
00000000
01010000
00000000
00000000
00000000
00100000
00000000
00101000
00000000
00000000
00000000
,
00000010
00010010
00000000
01000000
01001000
00000000
00010000
00101000
;
